osu file format v14

[General]
AudioFilename: audio.mp3
AudioLeadIn: 0
PreviewTime: 36209
Countdown: 0
SampleSet: Soft
StackLeniency: 0.7
Mode: 0
LetterboxInBreaks: 0
WidescreenStoryboard: 1

[Editor]
Bookmarks: 5363,15196,17670,25042,34965,44734,49209,54503,64503,74273,84196
DistanceSpacing: 1.5
BeatDivisor: 4
GridSize: 32
TimelineZoom: 2.2

[Metadata]
Title:HiDE the BLUE
TitleUnicode:HiDE the BLUE
Artist:BiSH
ArtistUnicode:BiSH
Creator:Nao Tomori
Version:Mir's Hard
Source:3D彼女 リアルガール
Tags:3d kanojo real girlfriend aina the end Momoko Gumi Company モモコグミカンパニー Cent Chihiro Chicchi セントチヒロ チッチ Hashiyasume Atsuko ハシヤスメ アツコ Rin Rin リンリン Ayuni D アユニ season 1 ending ed hobbes2 loli catgirl cococolaco akitoshi -laura- corinn mir kisses
BeatmapID:1603127
BeatmapSetID:762467

[Difficulty]
HPDrainRate:4
CircleSize:3.5
OverallDifficulty:6
ApproachRate:7.5
SliderMultiplier:1.4
SliderTickRate:1

[Events]
//Background and Video events
0,0,"thumb-1920-87344.jpg",0,0
//Break Periods
2,35101,38845
//Storyboard Layer 0 (Background)
//Storyboard Layer 1 (Fail)
//Storyboard Layer 2 (Pass)
//Storyboard Layer 3 (Foreground)
//Storyboard Sound Samples

[TimingPoints]
440,307.692307692308,4,2,1,70,1,0
5209,-100,4,2,1,70,0,0
14901,-100,4,2,1,5,0,0
15209,-125,4,2,1,50,0,0
20055,-125,4,2,1,5,0,0
20132,-125,4,2,1,48,0,0
25055,-100,4,2,1,70,0,0
25286,-100,4,2,1,70,0,0
25363,-100,4,2,1,70,0,0
26516,-100,4,2,1,70,0,0
26593,-100,4,2,1,70,0,0
31440,-100,4,2,1,70,0,0
31516,-100,4,2,1,70,0,0
34901,-166.666666666667,4,2,1,35,0,0
39670,-90.9090909090909,4,2,1,70,0,0
43516,-66.6666666666667,4,2,1,70,0,0
44747,-74.0740740740741,4,2,1,70,0,1
46209,-74.0740740740741,4,2,1,70,0,1
46286,-74.0740740740741,4,2,1,70,0,1
48670,-74.0740740740741,4,2,1,70,0,1
48747,-74.0740740740741,4,2,1,70,0,1
52363,-74.0740740740741,4,2,1,70,0,1
52440,-74.0740740740741,4,2,1,70,0,1
53593,-74.0740740740741,4,2,1,70,0,1
53670,-74.0740740740741,4,2,1,70,0,1
54593,-83.3333333333333,4,2,1,70,0,1
54824,-83.3333333333333,4,2,1,70,0,1
54901,-83.3333333333333,4,2,1,70,0,1
57286,-83.3333333333333,4,2,1,70,0,1
57363,-83.3333333333333,4,2,1,70,0,1
57901,-83.3333333333333,4,2,1,70,0,1
57978,-83.3333333333333,4,2,1,70,0,1
59747,-83.3333333333333,4,2,1,70,0,1
59824,-83.3333333333333,4,2,1,70,0,1
64440,-74.0740740740741,4,2,1,70,0,1
65901,-74.0740740740741,4,2,1,70,0,1
65978,-74.0740740740741,4,2,1,70,0,1
67132,-74.0740740740741,4,2,1,70,0,1
67209,-74.0740740740741,4,2,1,70,0,1
68363,-74.0740740740741,4,2,1,70,0,1
68440,-74.0740740740741,4,2,1,70,0,1
72055,-74.0740740740741,4,2,1,70,0,1
72132,-74.0740740740741,4,2,1,70,0,1
74286,-83.3333333333333,4,2,1,70,0,1
74516,-83.3333333333333,4,2,1,70,0,1
74593,-83.3333333333333,4,2,1,70,0,1
78363,-83.3333333333333,4,2,1,70,0,1
78440,-83.3333333333333,4,2,1,70,0,1
84055,-83.3333333333333,4,2,1,70,0,1
84132,-83.3333333333333,4,2,1,70,0,1
85363,-83.3333333333333,4,2,1,70,0,0

[Colours]
Combo1 : 222,222,222
Combo2 : 214,94,80
Combo3 : 240,157,232

[HitObjects]
136,141,5209,5,8,0:0:0:0:
136,141,5286,1,8,0:0:0:0:
136,141,5363,6,0,L|284:137,1,140,6|2,0:0|0:0,0:0:0:0:
443,124,5978,2,0,P|461:188|447:272,1,140,2|2,0:0|0:0,0:0:0:0:
398,325,6440,1,8,0:0:0:0:
398,325,6593,2,0,L|301:318,1,70,2|8,0:0|0:0,0:0:0:0:
250,353,6901,2,0,L|180:358,1,70,2|0,0:0|0:0,0:0:0:0:
165,347,7132,1,0,0:0:0:0:
150,337,7209,2,0,P|92:321|20:362,1,140,10|10,0:0|0:0,0:0:0:0:
94,236,7670,1,8,0:0:0:0:
94,236,7747,1,8,0:0:0:0:
94,236,7824,6,0,P|116:167|76:96,1,140,6|2,0:0|0:0,0:0:0:0:
31,46,8286,1,0,0:0:0:0:
112,24,8440,2,0,P|169:25|199:36,1,70,2|0,0:0|0:0,0:0:0:0:
261,4,8747,2,0,P|300:45|314:74,1,70,10|8,0:0|0:0,0:0:0:0:
263,136,9055,5,0,0:0:0:0:
263,136,9209,2,0,P|335:140|358:129,2,70,8|10|0,0:0|0:0|0:0,0:0:0:0:
196,187,9670,2,0,P|161:183|127:192,1,70,10|2,0:0|0:0,0:0:0:0:
0,133,9978,2,0,P|34:136|68:127,1,70,2|8,0:0|0:0,0:0:0:0:
127,192,10286,6,0,B|148:261|148:261|117:351,1,140,6|2,0:0|0:0,0:0:0:0:
201,362,10747,1,0,0:0:0:0:
260,302,10901,2,0,P|341:283|409:313,1,140,2|8,0:0|0:0,0:0:0:0:
455,357,11363,1,8,0:0:0:0:
458,236,11516,6,0,L|447:70,1,140,6|2,0:0|0:0,0:0:0:0:
391,34,11978,1,0,0:0:0:0:
391,34,12132,2,0,P|351:59|304:68,1,70,2|0,0:0|0:0,0:0:0:0:
268,124,12440,2,0,P|235:112|206:92,1,70,8|8,0:0|0:0,0:0:0:0:
150,29,12747,6,0,L|164:184,1,140,6|2,0:0|0:0,0:0:0:0:
102,228,13209,1,0,0:0:0:0:
133,306,13363,2,0,P|185:314|258:254,1,140,10|10,0:0|0:0,0:0:0:0:
369,144,13978,6,0,L|388:227,1,70,10|8,0:0|0:0,0:0:0:0:
468,221,14286,2,0,L|449:304,1,70,10|8,0:0|0:0,0:0:0:0:
395,351,14593,1,10,0:0:0:0:
395,351,14747,1,8,0:0:0:0:
61,83,15209,6,0,L|80:219,1,112,6|2,0:0|0:0,0:0:0:0:
43,324,15824,2,0,P|92:297|160:320,1,112,2|2,0:0|0:0,0:0:0:0:
273,348,16440,2,0,P|326:358|374:331,1,112,2|2,0:0|0:0,0:0:0:0:
444,216,17055,2,0,L|428:105,1,112,2|2,0:0|0:0,0:0:0:0:
382,41,17516,1,0,0:0:0:0:
310,73,17670,6,0,P|219:74|184:50,1,112,2|2,0:0|0:0,0:0:0:0:
124,71,18132,2,0,L|139:181,1,112,0|0,0:0|0:0,0:0:0:0:
166,260,18593,1,2,0:0:0:0:
166,260,18747,1,8,0:3:0:0:
161,336,18901,6,0,P|100:336|44:297,2,112,2|2|2,0:0|0:0|0:0,0:0:0:0:
287,259,19824,1,2,0:0:0:0:
419,329,20132,6,0,L|427:197,1,112,2|2,0:0|0:0,0:0:0:0:
491,173,20593,2,0,L|483:41,1,112,0|0,0:0|0:0,0:0:0:0:
414,23,21055,1,2,0:0:0:0:
277,99,21363,6,0,P|215:74|154:56,1,112,2|2,0:0|0:0,0:0:0:0:
16,83,21978,2,0,L|39:210,1,112,2|2,0:0|0:0,0:0:0:0:
117,327,22593,6,0,P|170:309|222:288,1,112,2|2,0:0|0:0,0:0:0:0:
248,214,23055,2,0,P|301:231|353:252,1,112,0|0,0:0|0:0,0:0:0:0:
379,326,23516,2,0,P|437:326|459:319,1,56,2|0,0:0|0:0,0:0:0:0:
469,255,23824,6,0,L|473:132,1,112,2|2,0:0|0:0,0:0:0:0:
434,74,24286,1,2,0:3:0:0:
434,74,24440,2,0,L|352:65,1,56,2|2,0:0|0:3,0:0:0:0:
318,17,24747,2,0,L|262:23,1,56,2|2,0:0|0:3,0:0:0:0:
164,39,25055,6,0,L|201:194,1,140,6|8,0:0|0:0,0:0:0:0:
173,270,25516,1,0,0:0:0:0:
173,270,25670,2,0,L|79:258,1,70,0|0,0:0|0:0,0:0:0:0:
113,359,25978,2,0,L|207:347,1,70,8|0,0:0|0:0,0:0:0:0:
266,297,26286,6,0,B|349:322|324:258|423:285,1,140,0|8,0:0|0:0,0:0:0:0:
470,348,26747,1,0,0:0:0:0:
494,253,26901,2,0,P|485:188|478:155,1,70,0|2,0:0|0:0,0:0:0:0:
443,96,27209,1,8,0:0:0:0:
295,22,27516,6,0,P|246:49|154:32,1,140,2|8,0:0|0:0,0:0:0:0:
66,46,27978,2,0,P|66:126|76:205,1,140,0|0,0:0|0:0,0:0:0:0:
104,261,28440,1,8,0:0:0:0:
157,333,28593,1,0,0:0:0:0:
157,333,28747,6,0,P|204:310|305:334,1,140,0|8,0:0|0:0,0:0:0:0:
421,177,29363,2,0,P|374:154|273:178,1,140,0|8,0:0|0:0,0:0:0:0:
210,224,29824,1,0,0:0:0:0:
123,178,29978,6,0,P|113:82|121:12,1,140,6|8,0:0|0:0,0:0:0:0:
215,36,30440,2,0,L|369:26,1,140,0|0,0:0|0:0,0:0:0:0:
444,65,30901,1,8,0:0:0:0:
458,260,31209,6,0,L|306:273,1,140,0|8,0:0|0:0,0:0:0:0:
248,202,31670,1,0,0:0:0:0:
155,234,31824,2,0,P|149:276|161:334,2,70,0|0|8,0:0|0:0|0:0,0:0:0:0:
256,65,32440,6,0,L|97:53,1,140,2|8,0:0|0:0,0:0:0:0:
25,92,32901,2,0,L|38:189,1,70,0|0,0:0|0:0,0:0:0:0:
76,250,33209,2,0,L|66:319,2,70,0|8|0,0:0|0:0|0:0,0:0:0:0:
158,355,33670,6,0,B|203:332|203:332|243:341|243:341|312:333,1,140,6|10,0:0|0:0,0:0:0:0:
354,274,34132,1,2,0:0:0:0:
271,196,34286,5,10,0:0:0:0:
271,196,34440,1,10,0:0:0:0:
345,120,34593,5,10,0:0:0:0:
345,120,34747,1,10,0:0:0:0:
255,64,34901,5,6,0:0:0:0:
86,166,39670,6,0,L|98:223,1,38.5000011749268,0|0,0:0|0:0,0:0:0:0:
67,251,39824,6,0,P|137:231|221:281,1,154.000004699707,6|8,0:0|0:0,0:0:0:0:
271,332,40286,2,0,P|341:352|425:302,1,154.000004699707,2|8,0:0|0:0,0:0:0:0:
455,237,40747,1,2,0:0:0:0:
361,77,41055,6,0,L|197:55,1,154.000004699707,6|8,0:0|0:0,0:0:0:0:
116,42,41516,1,2,0:0:0:0:
40,94,41670,2,0,P|26:175|57:257,1,154.000004699707,0|2,0:0|0:0,0:0:0:0:
202,343,42286,5,14,0:0:0:0:
202,343,42593,2,0,L|193:257,1,77.0000023498536,10|8,0:0|0:0,0:0:0:0:
282,237,42901,2,0,L|291:151,1,77.0000023498536,14|8,0:0|0:0,0:0:0:0:
211,110,43209,2,0,L|202:24,1,77.0000023498536,10|8,0:0|0:0,0:0:0:0:
326,6,43516,5,6,0:0:0:0:
60,178,44286,5,0,0:0:0:0:
49,202,44747,6,0,P|131:197|247:232,1,189.000000720978,6|8,0:0|0:0,0:0:0:0:
319,277,45209,1,0,0:0:0:0:
382,213,45363,2,0,B|401:144|401:144|364:13,1,189.000000720978,0|8,0:0|0:0,0:0:0:0:
285,10,45824,1,0,0:0:0:0:
212,71,45978,6,0,L|211:175,1,94.5000003604889,2|0,0:0|0:0,0:0:0:0:
166,252,46286,1,8,0:0:0:0:
166,252,46440,2,0,P|212:260|259:257,1,94.5000003604889,2|0,0:0|0:0,0:0:0:0:
352,226,46747,2,0,L|358:334,2,94.5000003604889,2|8|0,0:0|0:0|0:0,0:0:0:0:
340,126,47209,6,0,P|416:111|509:202,1,189.000000720978,2|8,0:0|0:0,0:0:0:0:
491,263,47670,1,0,0:0:0:0:
416,321,47824,2,0,B|320:274|321:367|209:309,1,189.000000720978,0|8,0:0|0:0,0:0:0:0:
146,280,48286,1,0,0:0:0:0:
188,197,48440,6,0,P|203:125|197:66,1,94.5000003604889,2|0,0:0|0:0,0:0:0:0:
139,34,48747,1,8,0:0:0:0:
59,85,48901,2,0,P|61:132|73:177,1,94.5000003604889,2|0,0:0|0:0,0:0:0:0:
146,280,49209,2,0,P|205:227|342:258,1,189.000000720978,2|0,0:0|0:0,0:0:0:0:
407,273,49670,6,0,B|420:213|420:213|377:65,1,189.000000720978,6|8,0:0|0:0,0:0:0:0:
309,31,50132,1,0,0:0:0:0:
220,63,50286,2,0,L|105:71,1,94.5000003604889,0|2,0:0|0:0,0:0:0:0:
58,163,50593,2,0,L|173:171,1,94.5000003604889,8|0,0:0|0:0,0:0:0:0:
188,255,50901,6,0,P|248:229|361:300,1,189.000000720978,2|8,0:0|0:0,0:0:0:0:
424,342,51363,1,0,0:0:0:0:
503,298,51516,2,0,L|495:184,1,94.5000003604889,0|2,0:0|0:0,0:0:0:0:
407,169,51824,2,0,L|415:55,1,94.5000003604889,8|0,0:0|0:0,0:0:0:0:
490,9,52132,6,0,B|431:38|431:38|273:14,1,189.000000720978,6|8,0:0|0:0,0:0:0:0:
233,75,52593,1,0,0:0:0:0:
168,5,52747,2,0,P|136:67|140:101,1,94.5000003604889,0|2,0:0|0:0,0:0:0:0:
191,168,53055,2,0,P|187:214|160:252,1,94.5000003604889,8|0,0:0|0:0,0:0:0:0:
78,301,53363,6,0,L|286:285,1,189.000000720978,6|8,0:0|0:0,0:0:0:0:
327,214,53824,1,0,0:0:0:0:
327,214,53978,2,0,B|387:168|446:194|446:194|445:158|457:115,1,189.000000720978,0|8,0:0|0:0,0:0:0:0:
430,41,54440,1,8,0:0:0:0:
351,103,54593,6,0,P|273:83|169:97,1,167.999994873047,6|8,0:0|0:0,0:0:0:0:
122,145,55055,1,0,0:0:0:0:
49,102,55209,2,0,L|65:12,2,83.9999974365235,0|2|8,0:0|0:0|0:0,0:0:0:0:
122,145,55670,6,0,P|139:221|141:247,1,83.9999974365235,0|2,0:0|0:0,0:0:0:0:
208,346,55978,2,0,P|214:304|225:264,1,83.9999974365235,0|8,0:0|0:0,0:0:0:0:
283,189,56286,2,0,P|369:178|444:242,1,167.999994873047,2|2,0:0|0:0,0:0:0:0:
459,302,56747,1,8,0:0:0:0:
385,343,56901,1,0,0:0:0:0:
303,318,57055,6,0,L|199:321,1,83.9999974365235,2|0,0:0|0:0,0:0:0:0:
118,231,57363,2,0,L|222:234,1,83.9999974365235,8|0,0:0|0:0,0:0:0:0:
162,134,57670,2,0,B|82:163|77:91|-1:126,1,167.999994873047,0|8,0:0|0:0,0:0:0:0:
305,62,58286,5,2,0:0:0:0:
305,62,58440,2,0,P|284:105|271:172,1,83.9999974365235,0|8,0:0|0:0,0:0:0:0:
331,201,58747,2,0,P|394:223|399:344,1,167.999994873047,2|2,0:0|0:0,0:0:0:0:
349,364,59209,1,8,0:0:0:0:
349,364,59363,1,8,0:0:0:0:
274,325,59516,5,6,0:0:0:0:
118,260,59824,2,0,P|202:248|227:233,1,83.9999974365235,10|0,0:0|0:0,0:0:0:0:
205,164,60132,1,10,0:0:0:0:
218,81,60286,2,0,P|302:93|327:108,1,83.9999974365235,0|10,0:0|0:0,0:0:0:0:
371,136,60593,6,0,L|454:126,2,83.9999974365235,0|10|0,0:0|0:0|0:0,0:0:0:0:
308,193,61055,2,0,P|306:255|314:295,1,83.9999974365235,10|0,0:0|0:0,0:0:0:0:
391,296,61363,2,0,P|393:358|385:398,1,83.9999974365235,10|0,0:0|0:0,0:0:0:0:
306,364,61670,2,0,L|222:354,1,83.9999974365235,10|0,0:0|0:0,0:0:0:0:
139,339,61978,6,0,P|114:268|152:169,1,167.999994873047,14|8,0:0|0:0,0:0:0:0:
185,110,62440,1,2,0:0:0:0:
118,46,62593,2,0,L|15:53,1,83.9999974365235,8|0,0:0|0:0,0:0:0:0:
185,110,62901,2,0,L|268:104,1,83.9999974365235,10|0,0:0|0:0,0:0:0:0:
333,49,63209,6,0,P|445:48|482:102,1,167.999994873047,6|10,0:0|0:0,0:0:0:0:
486,168,63670,1,0,0:0:0:0:
405,204,63824,2,0,B|390:249|390:249|432:378,1,167.999994873047,8|8,0:0|0:0,0:0:0:0:
306,309,64286,1,8,0:0:0:0:
306,309,64363,1,8,0:0:0:0:
306,309,64440,6,0,L|92:292,1,189.000000720978,6|8,0:0|0:0,0:0:0:0:
52,225,64901,1,0,0:0:0:0:
66,131,65055,2,0,B|140:148|140:148|170:136|170:136|268:156,1,189.000000720978,0|8,0:0|0:0,0:0:0:0:
434,190,65670,6,0,P|465:138|462:69,1,94.5000003604889,2|0,0:0|0:0,0:0:0:0:
421,22,65978,1,8,0:0:0:0:
327,22,66132,2,0,L|208:12,1,94.5000003604889,0|0,0:0|0:0,0:0:0:0:
137,17,66440,2,0,L|42:24,2,94.5000003604889,2|8|0,0:0|0:0|0:0,0:0:0:0:
190,95,66901,6,0,P|214:145|127:259,1,189.000000720978,2|8,0:0|0:0,0:0:0:0:
63,280,67363,1,0,0:0:0:0:
129,346,67516,2,0,B|232:369|208:292|328:326,1,189.000000720978,0|8,0:0|0:0,0:0:0:0:
488,255,68132,6,0,P|480:167|475:130,1,94.5000003604889,2|0,0:0|0:0,0:0:0:0:
396,93,68440,1,8,0:0:0:0:
396,93,68593,2,0,P|390:139|387:187,1,94.5000003604889,0|0,0:0|0:0,0:0:0:0:
294,210,68901,1,2,0:0:0:0:
294,210,69055,2,0,L|174:196,1,94.5000003604889,8|0,0:0|0:0,0:0:0:0:
128,136,69363,6,0,B|82:101|82:101|102:254,1,189.000000720978,6|8,0:0|0:0,0:0:0:0:
107,325,69824,1,0,0:0:0:0:
200,310,69978,2,0,P|277:307|314:314,1,94.5000003604889,0|2,0:0|0:0,0:0:0:0:
376,356,70286,6,0,L|402:143,1,189.000000720978,8|2,0:0|0:0,0:0:0:0:
387,74,70747,1,0,0:0:0:0:
284,103,70901,2,0,P|228:94|183:71,1,94.5000003604889,8|0,0:0|0:0,0:0:0:0:
30,54,71209,2,0,P|86:45|131:22,1,94.5000003604889,0|2,0:0|0:0,0:0:0:0:
115,137,71516,2,0,P|105:205|110:258,1,94.5000003604889,8|8,0:0|0:0,0:0:0:0:
110,325,71824,6,0,P|175:306|311:348,1,189.000000720978,6|8,0:0|0:0,0:0:0:0:
325,253,72286,1,0,0:0:0:0:
325,253,72440,2,0,P|325:168|317:139,1,94.5000003604889,0|2,0:0|0:0,0:0:0:0:
232,80,72747,2,0,P|232:165|240:194,1,94.5000003604889,8|0,0:0|0:0,0:0:0:0:
332,69,73055,6,0,B|412:34|473:90|473:90|416:135,1,189.000000720978,6|8,0:0|0:0,0:0:0:0:
415,203,73516,1,0,0:0:0:0:
438,294,73670,2,0,L|318:316,1,94.5000003604889,0|2,0:0|0:0,0:0:0:0:
250,300,73978,2,0,L|111:285,1,94.5000003604889,8|8,0:0|0:0,0:0:0:0:
87,362,74286,6,0,P|60:312|102:197,1,167.999994873047,6|8,0:0|0:0,0:0:0:0:
174,172,74747,1,0,0:0:0:0:
152,85,74901,2,0,L|45:74,2,83.9999974365235,0|2|8,0:0|0:0|0:0,0:0:0:0:
252,44,75363,6,0,P|258:84|251:125,1,83.9999974365235,0|2,0:0|0:0,0:0:0:0:
346,9,75670,2,0,P|382:28|423:36,1,83.9999974365235,0|8,0:0|0:0,0:0:0:0:
361,136,75978,2,0,P|351:193|375:317,1,167.999994873047,2|2,0:0|0:0,0:0:0:0:
304,356,76440,2,0,P|267:336|226:328,1,83.9999974365235,8|0,0:0|0:0,0:0:0:0:
137,364,76747,6,0,L|151:251,1,83.9999974365235,2|0,0:0|0:0,0:0:0:0:
121,189,77055,2,0,L|110:105,1,83.9999974365235,8|0,0:0|0:0,0:0:0:0:
204,102,77363,2,0,L|218:-11,1,83.9999974365235,0|0,0:0|0:0,0:0:0:0:
288,133,77670,2,0,L|298:216,1,83.9999974365235,8|0,0:0|0:0,0:0:0:0:
352,66,77978,5,2,0:0:0:0:
352,66,78132,2,0,P|417:67|455:79,1,83.9999974365235,2|8,0:0|0:0,0:0:0:0:
477,144,78440,2,0,B|493:199|493:199|463:322,1,167.999994873047,2|2,0:0|0:0,0:0:0:0:
407,366,78901,1,8,0:0:0:0:
149,315,79209,6,0,B|195:323|225:295|225:295|264:277|313:329,1,167.999994873047,14|10,0:0|0:0,0:0:0:0:
343,245,79670,1,0,0:0:0:0:
310,162,79824,2,0,P|313:97|323:46,1,83.9999974365235,10|0,0:0|0:0,0:0:0:0:
205,0,80132,2,0,P|210:41|210:83,1,83.9999974365235,10|2,0:0|0:0,0:0:0:0:
195,98,80363,1,2,0:0:0:0:
181,113,80440,6,0,L|66:94,1,83.9999974365235,10|0,0:0|0:0,0:0:0:0:
12,206,80747,2,0,L|127:187,1,83.9999974365235,10|0,0:0|0:0,0:0:0:0:
204,295,81055,2,0,L|89:276,1,83.9999974365235,10|0,0:0|0:0,0:0:0:0:
225,204,81363,2,0,L|340:185,1,83.9999974365235,10|0,0:0|0:0,0:0:0:0:
359,103,81670,5,14,0:0:0:0:
359,103,81824,2,0,B|419:57|484:89|484:89|441:142,1,167.999994873047,0|2,0:0|0:0,0:0:0:0:
451,134,82209,1,2,0:0:0:0:
443,153,82286,2,0,L|460:253,1,83.9999974365235,10|10,0:0|0:0,0:0:0:0:
378,265,82593,2,0,L|361:365,1,83.9999974365235,8|2,0:0|0:0,0:0:0:0:
278,303,82901,6,0,P|182:278|101:287,1,167.999994873047,14|2,0:0|0:0,0:0:0:0:
43,329,83363,1,10,0:0:0:0:
34,245,83516,1,14,0:0:0:0:
104,199,83670,2,0,P|136:120|20:112,1,209.999993591309,2|0,0:0|0:0,0:0:0:0:
39,89,84132,5,6,0:0:0:0:
256,192,84286,12,2,85363,0:0:0:0:
