osu file format v14

[General]
AudioFilename: audio.mp3
AudioLeadIn: 0
PreviewTime: 36209
Countdown: 0
SampleSet: Soft
StackLeniency: 0.4
Mode: 0
LetterboxInBreaks: 0
WidescreenStoryboard: 1

[Editor]
DistanceSpacing: 1.5
BeatDivisor: 4
GridSize: 8
TimelineZoom: 2.2

[Metadata]
Title:HiDE the BLUE
TitleUnicode:HiDE the BLUE
Artist:BiSH
ArtistUnicode:BiSH
Creator:Nao Tomori
Version:Collab Extra
Source:3D彼女 リアルガール
Tags:3d kanojo real girlfriend aina the end Momoko Gumi Company モモコグミカンパニー Cent Chihiro Chicchi セントチヒロ チッチ Hashiyasume Atsuko ハシヤスメ アツコ Rin Rin リンリン Ayuni D アユニ season 1 ending ed hobbes2 loli catgirl cococolaco akitoshi -laura- corinn mir kisses
BeatmapID:1614421
BeatmapSetID:762467

[Difficulty]
HPDrainRate:6
CircleSize:2.1
OverallDifficulty:8.6
ApproachRate:8.7
SliderMultiplier:2.06
SliderTickRate:1

[Events]
//Background and Video events
0,0,"poyl2r87bys01.jpg",0,0
//Break Periods
//Storyboard Layer 0 (Background)
//Storyboard Layer 1 (Fail)
//Storyboard Layer 2 (Pass)
//Storyboard Layer 3 (Foreground)
//Storyboard Sound Samples

[TimingPoints]
440,307.692307692308,4,2,1,70,1,0
440,-133.333333333333,4,2,1,70,0,0
5363,-100,4,2,1,70,0,0
14901,-100,4,2,1,5,0,0
15209,-111.111111111111,4,2,1,50,0,0
20055,-111.111111111111,4,2,1,5,0,0
20132,-111.111111111111,4,2,1,50,0,0
25055,-100,4,2,1,70,0,0
25363,-100,4,2,1,70,0,0
26593,-100,4,2,1,70,0,0
31516,-100,4,2,1,70,0,0
34901,-133.333333333333,4,2,1,35,0,0
39670,-133.333333333333,4,2,1,70,0,0
39824,-83.3333333333333,4,2,1,70,0,0
44747,-74.0740740740741,4,2,1,70,0,0
46286,-74.0740740740741,4,2,1,70,0,0
48747,-74.0740740740741,4,2,1,70,0,0
52440,-74.0740740740741,4,2,1,70,0,0
53670,-74.0740740740741,4,2,1,70,0,0
54901,-74.0740740740741,4,2,1,70,0,0
57363,-74.0740740740741,4,2,1,70,0,0
57978,-74.0740740740741,4,2,1,70,0,0
59824,-74.0740740740741,4,2,1,70,0,0
65978,-74.0740740740741,4,2,1,70,0,0
67209,-74.0740740740741,4,2,1,70,0,0
68440,-74.0740740740741,4,2,1,70,0,0
72132,-74.0740740740741,4,2,1,70,0,0
74593,-74.0740740740741,4,2,1,70,0,0
78440,-74.0740740740741,4,2,1,70,0,0
83670,-117.647058823529,4,2,1,70,0,0

[Colours]
Combo1 : 49,49,255
Combo2 : 247,0,247
Combo3 : 202,202,0
Combo4 : 0,128,128
Combo5 : 0,159,0

[HitObjects]
55,124,5209,5,8,0:0:0:0:
80,104,5286,1,8,0:0:0:0:
108,93,5363,6,0,P|160:96|210:108,1,103,6|0,0:0|0:0,0:0:0:0:
433,42,5670,2,0,P|382:46|332:58,1,103,2|0,0:0|0:0,0:0:0:0:
324,281,5978,2,0,P|320:230|309:180,1,103,2|0,0:0|0:0,0:0:0:0:
237,0,6286,1,2,0:0:0:0:
177,233,6440,1,8,0:0:0:0:
419,153,6593,5,2,0:0:0:0:
202,121,6747,1,8,0:0:0:0:
443,284,6901,1,2,0:0:0:0:
443,284,7132,5,0,0:0:0:0:
443,284,7209,1,10,0:0:0:0:
12,70,7440,1,0,0:0:0:0:
12,70,7517,1,10,0:0:0:0:
107,227,7670,1,8,0:0:0:0:
137,233,7747,1,8,0:0:0:0:
167,237,7824,6,0,P|169:103|151:70,1,154.5,6|0,0:0|0:0,0:0:0:0:
124,51,8132,2,0,L|226:38,1,103,2|0,0:0|0:0,0:0:0:0:
497,149,8440,2,0,L|394:136,1,103,2|0,0:0|0:0,0:0:0:0:
167,237,8747,1,10,0:0:0:0:
351,23,8901,1,8,0:0:0:0:
374,295,9055,5,0,0:0:0:0:
365,324,9132,1,0,0:0:0:0:
341,343,9209,1,8,0:0:0:0:
167,237,9363,2,0,P|164:171|183:113,1,103,10|0,0:0|0:0,0:0:0:0:
436,79,9670,2,0,P|398:45|352:24,1,103,10|2,0:0|0:0,0:0:0:0:
352,334,9978,2,0,P|401:317|444:289,1,103,2|8,0:0|0:0,0:0:0:0:
266,276,10209,1,0,0:0:0:0:
266,276,10286,6,0,L|163:267,1,103,6|0,0:0|0:0,0:0:0:0:
248,31,10593,2,0,L|350:22,1,103,2|0,0:0|0:0,0:0:0:0:
163,267,10901,2,0,P|138:205|156:153,1,103,2|0,0:0|0:0,0:0:0:0:
350,22,11209,2,0,P|375:84|357:136,1,103,8|8,0:0|0:0,0:0:0:0:
71,48,11516,6,0,P|147:41|220:63,1,154.5,6|0,0:0|0:0,0:0:0:0:
256,101,11824,1,2,0:0:0:0:
179,314,11978,1,0,0:0:0:0:
374,205,12132,1,2,0:0:0:0:
381,234,12209,1,2,0:0:0:0:
384,264,12286,1,2,0:0:0:0:
383,294,12363,1,2,0:0:0:0:
378,324,12440,1,8,0:0:0:0:
405,311,12516,1,8,0:0:0:0:
433,297,12593,1,8,0:0:0:0:
461,284,12670,1,8,0:0:0:0:
490,270,12747,6,0,P|495:174|466:109,1,154.5,6|0,0:0|0:0,0:0:0:0:
437,84,13055,2,0,P|370:83|321:89,1,103,2|0,0:0|0:0,0:0:0:0:
158,225,13363,2,0,P|209:223|260:227,1,103,10|8,0:0|0:0,0:0:0:0:
184,350,13670,1,10,0:0:0:0:
49,152,13824,1,8,0:0:0:0:
435,192,13978,5,10,0:0:0:0:
54,312,14132,1,8,0:0:0:0:
370,301,14286,5,10,0:0:0:0:
175,90,14440,2,0,L|251:91,1,51.5,8|8,0:0|0:0,0:0:0:0:
512,88,14593,5,10,0:0:0:0:
49,152,14747,1,8,0:0:0:0:
399,53,15209,6,0,P|395:128|394:168,1,92.6999971710206,6|0,0:0|0:0,0:0:0:0:
301,206,15516,2,0,P|303:252|305:298,1,92.6999971710206,2|0,0:0|0:0,0:0:0:0:
210,357,15824,2,0,P|144:371|101:352,1,92.6999971710206,2|0,0:0|0:0,0:0:0:0:
93,255,16132,2,0,P|159:241|202:260,1,92.6999971710206,2|8,0:0|0:3,0:0:0:0:
305,298,16440,6,0,L|301:195,1,92.6999971710206,2|0,0:0|0:0,0:0:0:0:
187,154,16747,2,0,L|181:247,1,92.6999971710206,2|8,0:0|0:3,0:0:0:0:
63,135,17055,2,0,L|56:42,1,92.6999971710206,2|0,0:0|0:0,0:0:0:0:
279,78,17363,2,0,P|325:78|367:61,1,92.6999971710206,2|0,0:0|0:0,0:0:0:0:
458,325,17670,6,0,P|437:232|411:192,1,139.049995756531,2|0,0:0|0:0,0:0:0:0:
374,171,17978,1,2,0:0:0:0:
295,250,18132,2,0,P|216:266|195:254,1,92.6999971710206,0|2,0:0|0:0,0:0:0:0:
56,158,18440,2,0,P|101:150|143:171,1,92.6999971710206,0|2,0:0|0:0,0:0:0:0:
101,274,18747,1,8,0:3:0:0:
228,90,18901,6,0,B|346:75|346:75|386:82|409:108,1,185.399994342041,2|2,0:0|0:0,0:0:0:0:
430,216,19363,1,8,0:3:0:0:
286,262,19516,2,0,B|168:277|168:277|127:269|105:244,1,185.399994342041,2|2,0:0|0:0,0:0:0:0:
56,158,19978,1,0,0:0:0:0:
286,262,20132,6,0,P|300:199|275:120,1,139.049995756531,2|0,0:0|0:0,0:0:0:0:
246,95,20440,1,2,0:0:0:0:
394,190,20593,2,0,P|440:188|483:173,1,92.6999971710206,0|2,0:0|0:0,0:0:0:0:
286,262,20901,2,0,P|242:247|196:245,1,92.6999971710206,0|2,0:0|0:0,0:0:0:0:
108,313,21209,1,8,0:3:0:0:
103,116,21363,6,0,P|102:162|105:209,1,92.6999971710206,2|0,0:0|0:0,0:0:0:0:
212,32,21670,2,0,P|212:78|210:124,1,92.6999971710206,2|8,0:0|0:3,0:0:0:0:
1,58,21978,2,0,P|0:104|2:150,1,92.6999971710206,2|0,0:0|0:0,0:0:0:0:
211,217,22286,2,0,P|210:170|208:124,1,92.6999971710206,2|0,0:0|0:0,0:0:0:0:
159,320,22593,6,0,P|185:257|248:230,1,139.049995756531,2|0,0:0|0:0,0:0:0:0:
294,238,22901,1,2,0:0:0:0:
359,347,23055,2,0,L|248:336,1,92.6999971710206,0|2,0:0|0:0,0:0:0:0:
498,240,23363,2,0,L|406:249,1,92.6999971710206,0|2,0:0|0:0,0:0:0:0:
512,130,23670,1,0,0:0:0:0:
253,122,23824,5,2,0:0:0:0:
402,74,23978,1,2,0:3:0:0:
190,223,24132,5,2,0:0:0:0:
41,175,24286,1,2,0:3:0:0:
253,324,24439,5,2,0:0:0:0:
402,276,24593,1,2,0:3:0:0:
265,46,24747,5,2,0:0:0:0:
238,37,24824,1,2,0:3:0:0:
210,36,24901,1,2,0:3:0:0:
183,43,24978,1,2,0:3:0:0:
156,52,25055,6,0,B|135:101|135:101|161:226,1,154.5,6|0,0:0|0:0,0:0:0:0:
166,251,25363,1,8,0:0:0:0:
267,201,25516,1,0,0:0:0:0:
158,363,25670,1,0,0:0:0:0:
65,300,25824,1,0,0:0:0:0:
259,313,25978,1,8,0:0:0:0:
166,251,26132,1,0,0:0:0:0:
291,55,26286,6,0,P|260:124|266:200,1,154.5,0|0,0:0|0:0,0:0:0:0:
313,220,26593,1,8,0:0:0:0:
298,337,26747,1,0,0:0:0:0:
165,250,26901,2,0,P|176:301|167:351,1,103,0|2,0:0|0:0,0:0:0:0:
69,172,27209,2,0,P|63:85|70:66,1,103,8|0,0:0|0:0,0:0:0:0:
383,33,27516,6,0,L|230:21,1,154.5,2|0,0:0|0:0,0:0:0:0:
177,15,27824,1,8,0:0:0:0:
370,156,27978,2,0,P|422:150|469:130,1,103,0|0,0:0|0:0,0:0:0:0:
286,246,28286,2,0,P|238:226|187:221,1,103,0|8,0:0|0:0,0:0:0:0:
92,299,28593,1,0,0:0:0:0:
293,51,28747,6,0,P|316:120|305:219,1,154.5,0|0,0:0|0:0,0:0:0:0:
286,246,29055,1,8,0:0:0:0:
147,189,29209,1,0,0:0:0:0:
481,253,29363,2,0,P|412:276|313:265,1,154.5,0|0,0:0|0:0,0:0:0:0:
286,246,29671,1,8,0:0:0:0:
293,51,29824,1,0,0:0:0:0:
58,135,29978,6,0,P|106:155|146:188,1,103,6|0,0:0|0:0,0:0:0:0:
182,307,30286,1,8,0:0:0:0:
293,50,30440,2,0,P|285:101|284:153,1,103,0|0,0:0|0:0,0:0:0:0:
394,318,30747,2,0,P|393:266|386:216,1,103,0|8,0:0|0:0,0:0:0:0:
453,111,31055,1,0,0:0:0:0:
106,160,31209,6,0,P|183:167|247:209,1,154.5,0|0,0:0|0:0,0:0:0:0:
268,256,31516,1,8,0:0:0:0:
194,355,31670,1,0,0:0:0:0:
364,95,31824,2,0,P|356:171|314:235,1,154.5,0|0,0:0|0:0,0:0:0:0:
268,256,32131,1,8,0:0:0:0:
467,366,32285,1,0,0:0:0:0:
467,366,32363,1,0,0:0:0:0:
467,366,32440,6,0,L|459:211,1,154.5,2|0,0:0|0:0,0:0:0:0:
459,160,32747,1,8,0:0:0:0:
276,40,32901,1,0,0:0:0:0:
398,56,33055,1,0,0:0:0:0:
106,160,33209,2,0,P|152:139|203:139,1,103,0|8,0:0|0:0,0:0:0:0:
287,230,33516,1,0,0:0:0:0:
48,45,33670,5,6,0:0:0:0:
195,321,33824,1,8,0:0:0:0:
191,290,33901,1,8,0:0:0:0:
177,262,33978,1,10,0:0:0:0:
8,237,34132,1,2,0:0:0:0:
277,136,34286,5,10,0:0:0:0:
192,351,34440,1,10,0:0:0:0:
8,237,34593,1,10,0:0:0:0:
81,116,34747,1,10,0:0:0:0:
183,126,34901,6,0,P|211:237|191:350,1,231.750008840561,6|2,0:0|0:3,0:0:0:0:
191,350,35670,1,2,0:3:0:0:
314,303,35824,1,2,0:3:0:0:
434,351,35978,5,2,0:3:0:0:
53,133,37363,6,0,P|167:103|253:173,1,231.750008840561,2|2,0:3|0:3,0:0:0:0:
250,167,38132,1,2,0:3:0:0:
250,167,38440,2,0,B|300:181|361:135|361:135|391:138|406:166|406:166|401:207|355:184,1,231.750008840561
220,52,39209,2,0,L|124:47,2,77.2500029468538
473,236,39670,5,0,0:0:0:0:
372,145,39824,2,0,P|265:138|168:208,1,185.399994342041,6|0,0:0|0:0,0:0:0:0:
153,215,40132,1,8,0:0:0:0:
279,314,40286,1,2,0:0:0:0:
150,14,40440,1,0,0:0:0:0:
40,218,40593,1,8,0:0:0:0:
301,97,40747,2,0,P|361:83|422:92,1,123.599996228027,2|0,0:0|0:0,0:0:0:0:
279,314,41055,5,6,0:0:0:0:
160,24,41209,1,8,0:0:0:0:
160,24,41286,1,8,0:0:0:0:
160,24,41363,1,8,0:0:0:0:
398,167,41516,2,0,B|332:146|332:146|215:176,1,185.399994342041,2|0,0:0|0:0,0:0:0:0:
160,196,41824,1,8,0:0:0:0:
331,274,41978,1,2,0:0:0:0:
324,29,42132,1,0,0:0:0:0:
188,323,42286,5,14,0:0:0:0:
398,167,42440,1,8,0:0:0:0:
105,125,42593,1,10,0:0:0:0:
334,348,42747,2,0,P|342:289|344:269,1,61.7999981140137,8|8,0:0|0:0,0:0:0:0:
324,29,42901,5,14,0:0:0:0:
100,253,43055,1,8,0:0:0:0:
461,297,43209,1,10,0:0:0:0:
256,192,43363,1,8,0:0:0:0:
16,368,43516,5,6,0:0:0:0:
256,192,43593,12,0,44286,0:0:0:0:
327,336,44747,6,0,P|299:220|355:102,1,208.575000795651,6|0,0:0|0:0,0:0:0:0:
404,77,45055,1,8,0:0:0:0:
481,255,45209,1,0,0:0:0:0:
172,297,45363,2,0,P|105:304|48:266,1,139.050000530434,0|2,0:0|0:0,0:0:0:0:
63,54,45670,1,8,0:0:0:0:
213,158,45824,1,0,0:0:0:0:
485,15,45978,6,0,L|339:26,1,139.050000530434,2|0,0:0|0:0,0:0:0:0:
75,73,46286,1,8,0:0:0:0:
318,195,46440,2,2,L|458:183,1,139.050000530434,2|0,0:0|0:0,0:0:0:0:
142,230,46747,1,2,0:0:0:0:
346,25,46901,1,8,0:0:0:0:
295,311,47055,1,0,0:0:0:0:
37,292,47209,6,0,P|103:214|94:113,1,208.575000795651,2|0,0:0|0:0,0:0:0:0:
11,49,47516,1,8,0:0:0:0:
217,16,47670,1,0,0:0:0:0:
294,353,47824,2,0,P|228:275|237:174,1,208.575000795651,0|0,0:0|0:0,0:0:0:0:
320,110,48131,1,8,0:0:0:0:
37,292,48286,1,0,0:0:0:0:
395,290,48440,5,2,0:0:0:0:
236,174,48593,1,0,0:0:0:0:
440,44,48747,1,8,0:0:0:0:
233,66,48901,2,0,B|187:74|160:99|160:99|113:97|136:59,1,139.050000530434,2|0,0:0|0:0,0:0:0:0:
456,192,49209,1,2,0:0:0:0:
261,315,49363,2,0,L|120:305,1,139.050000530434,8|0,0:0|0:0,0:0:0:0:
442,56,49670,6,0,P|458:178|448:232,1,139.050000530434,6|0,0:0|0:0,0:0:0:0:
64,34,49978,2,0,P|48:156|58:210,1,139.050000530434,8|0,0:0|0:0,0:0:0:0:
470,329,50286,2,0,P|471:259|455:192,1,139.050000530434,0|2,0:0|0:0,0:0:0:0:
35,307,50594,2,0,P|33:237|49:170,1,139.050000530434,8|0,0:0|0:0,0:0:0:0:
461,63,50901,6,0,L|322:52,1,139.050000530434,2|0,0:0|0:0,0:0:0:0:
35,307,51209,2,0,L|173:296,1,139.050000530434,8|0,0:0|0:0,0:0:0:0:
186,54,51516,2,0,L|48:65,1,139.050000530434,0|2,0:0|0:0,0:0:0:0:
335,298,51824,2,0,L|474:309,1,139.050000530434,8|0,0:0|0:0,0:0:0:0:
115,375,52132,6,0,P|174:285|114:191,1,208.575000795651,6|0,0:0|0:0,0:0:0:0:
30,180,52440,1,8,0:0:0:0:
231,69,52593,1,0,0:0:0:0:
433,222,52747,2,0,P|460:285|454:353,1,139.050000530434,0|2,0:0|0:0,0:0:0:0:
209,200,53055,2,0,P|203:132|231:69,1,139.050000530434,8|0,0:0|0:0,0:0:0:0:
13,301,53363,6,0,P|112:312|214:372,1,208.575000795651,6|0,0:0|0:0,0:0:0:0:
306,335,53670,1,8,0:0:0:0:
78,184,53824,1,0,0:0:0:0:
241,27,53978,2,0,P|254:94|246:163,1,139.050000530434,0|2,0:0|0:0,0:0:0:0:
460,340,54286,2,0,P|452:271|465:203,1,139.050000530434,8|8,0:0|0:0,0:0:0:0:
32,301,54593,6,0,P|154:251|228:294,1,208.575000795651,6|0,0:0|0:0,0:0:0:0:
291,355,54901,1,8,0:0:0:0:
364,248,55055,1,0,0:0:0:0:
149,162,55209,5,0,0:0:0:0:
313,29,55363,1,2,0:0:0:0:
188,285,55516,1,8,0:0:0:0:
41,52,55670,6,0,L|179:41,1,139.050000530434,0|2,0:0|0:0,0:0:0:0:
509,148,55978,2,0,L|370:137,1,139.050000530434,0|8,0:0|0:0,0:0:0:0:
169,275,56286,2,0,P|213:177|261:168,1,139.050000530434,2|0,0:0|0:0,0:0:0:0:
336,249,56593,5,2,0:0:0:0:
69,156,56747,1,8,0:0:0:0:
313,29,56901,1,0,0:0:0:0:
388,356,57055,6,0,P|381:248|409:141,1,208.575000795651,2|0,0:0|0:0,0:0:0:0:
479,76,57363,1,8,0:0:0:0:
280,236,57516,1,0,0:0:0:0:
313,29,57670,2,0,P|265:23|135:55,1,139.050000530434,0|2,0:0|0:0,0:0:0:0:
142,228,57978,2,0,P|190:222|320:254,1,139.050000530434,8|0,0:0|0:0,0:0:0:0:
10,357,58286,5,2,0:0:0:0:
159,119,58440,1,0,0:0:0:0:
205,335,58593,1,8,0:0:0:0:
59,79,58747,2,0,P|162:87|253:136,1,208.575000795651,2|0,0:0|0:0,0:0:0:0:
321,217,59055,1,2,0:0:0:0:
96,225,59209,1,8,0:0:0:0:
353,113,59363,1,8,0:0:0:0:
210,316,59516,5,6,0:0:0:0:
177,118,59670,1,0,0:0:0:0:
416,310,59824,5,10,0:0:0:0:
286,220,59978,1,0,0:0:0:0:
93,334,60132,5,10,0:0:0:0:
415,209,60286,1,0,0:0:0:0:
119,187,60440,5,10,0:0:0:0:
213,327,60593,1,0,0:0:0:0:
248,336,60670,1,2,0:0:0:0:
282,337,60747,6,0,P|304:271|295:203,1,139.050000530434,10|0,0:0|0:0,0:0:0:0:
106,53,61055,2,0,P|97:121|119:187,1,139.050000530434,10|0,0:0|0:0,0:0:0:0:
410,129,61363,5,10,0:0:0:0:
269,110,61516,1,0,0:0:0:0:
157,345,61670,5,10,0:0:0:0:
372,266,61824,1,0,0:0:0:0:
149,26,61978,5,14,0:0:0:0:
271,351,62132,1,0,0:0:0:0:
364,36,62286,1,8,0:0:0:0:
42,202,62440,6,0,P|127:217|182:272,1,139.050000530434,2|8,0:0|0:0,0:0:0:0:
55,348,62747,1,0,0:0:0:0:
248,85,62901,1,10,0:0:0:0:
353,338,63055,1,0,0:0:0:0:
39,80,63209,5,6,0:0:0:0:
166,249,63363,1,0,0:0:0:0:
359,16,63516,5,10,0:0:0:0:
311,220,63670,1,0,0:0:0:0:
25,345,63824,5,8,0:0:0:0:
57,333,63900,1,2,0:0:0:0:
91,326,63977,1,2,0:0:0:0:
126,327,64054,1,2,0:0:0:0:
159,337,64131,1,8,0:0:0:0:
192,347,64208,1,8,0:0:0:0:
227,349,64285,1,8,0:0:0:0:
261,343,64362,1,8,0:0:0:0:
289,327,64439,6,0,P|317:211|261:93,1,208.575000795651,6|0,0:0|0:0,0:0:0:0:
212,68,64747,1,8,0:0:0:0:
66,158,64901,1,0,0:0:0:0:
342,26,65055,2,0,P|434:76|462:195,1,208.575000795651,0|2,0:0|0:0,0:0:0:0:
419,272,65362,1,8,0:0:0:0:
289,129,65516,1,0,0:0:0:0:
150,337,65670,6,0,L|289:327,1,139.050000530434,2|0,0:0|0:0,0:0:0:0:
409,82,65978,1,8,0:0:0:0:
164,134,66132,1,0,0:0:0:0:
287,19,66285,1,0,0:0:0:0:
419,272,66439,1,2,0:0:0:0:
227,250,66593,1,8,0:0:0:0:
409,82,66747,1,0,0:0:0:0:
310,355,66901,6,0,P|232:289|131:298,1,208.575000795651,2|0,0:0|0:0,0:0:0:0:
67,381,67208,1,8,0:0:0:0:
34,175,67362,1,0,0:0:0:0:
371,98,67516,2,0,P|293:164|192:155,1,208.575000795651
128,72,67823,1,8,0:0:0:0:
172,288,67978,1,0,0:0:0:0:
258,45,68132,5,2,0:0:0:0:
336,304,68285,1,0,0:0:0:0:
192,155,68440,1,8,0:0:0:0:
449,257,68593,1,0,0:0:0:0:
172,288,68747,1,0,0:0:0:0:
336,304,68901,1,2,0:0:0:0:
24,313,69055,2,0,L|34:172,1,139.050000530434,8|0,0:0|0:0,0:0:0:0:
438,327,69362,6,0,P|454:205|444:151,1,139.050000530434,6|0,0:0|0:0,0:0:0:0:
60,349,69670,2,0,P|44:227|54:173,1,139.050000530434,8|0,0:0|0:0,0:0:0:0:
466,54,69978,2,0,P|467:124|451:191,1,139.050000530434,0|2,0:0|0:0,0:0:0:0:
31,76,70286,2,0,P|29:146|45:213,1,139.050000530434,8|0,0:0|0:0,0:0:0:0:
457,320,70593,6,0,L|318:331,1,139.050000530434,2|0,0:0|0:0,0:0:0:0:
31,76,70901,2,0,L|169:87,1,139.050000530434,8|0,0:0|0:0,0:0:0:0:
182,329,71209,2,0,L|44:318,1,139.050000530434,0|2,0:0|0:0,0:0:0:0:
331,85,71516,2,0,L|470:74,1,139.050000530434,8|8,0:0|0:0,0:0:0:0:
91,31,71824,6,0,P|129:130|118:201,1,139.050000530434,6|0,0:0|0:0,0:0:0:0:
55,335,72132,1,8,0:0:0:0:
238,177,72286,1,0,0:0:0:0:
264,315,72440,1,0,0:0:0:0:
32,220,72593,1,2,0:0:0:0:
366,227,72747,1,8,0:0:0:0:
36,355,72901,1,0,0:0:0:0:
128,36,73055,5,6,0:0:0:0:
151,129,73209,1,0,0:0:0:0:
284,32,73363,5,8,0:0:0:0:
269,193,73516,1,0,0:0:0:0:
21,144,73670,5,0,0:0:0:0:
269,193,73824,1,2,0:0:0:0:
14,35,73978,5,8,0:0:0:0:
0,296,74132,1,8,0:0:0:0:
0,308,74209,1,8,0:0:0:0:
0,320,74286,6,0,P|97:294|181:351,1,208.575000795651,6|0,0:0|0:0,0:0:0:0:
284,334,74593,2,0,P|272:266|303:206,1,139.050000530434,8|0,0:0|0:0,0:0:0:0:
469,106,74901,5,0,0:0:0:0:
486,285,75055,1,2,0:0:0:0:
117,163,75209,1,8,0:0:0:0:
312,21,75363,2,0,P|300:89|303:158,1,139.050000530434,0|2,0:0|0:0,0:0:0:0:
126,300,75670,2,0,P|129:231|117:163,1,139.050000530434,0|8,0:0|0:0,0:0:0:0:
272,349,75978,1,2,0:0:0:0:
41,76,76286,5,2,0:0:0:0:
168,57,76440,1,8,0:0:0:0:
218,178,76593,1,0,0:0:0:0:
381,53,76747,6,0,P|335:151|413:226,1,208.575000795651,2|0,0:0|0:0,0:0:0:0:
493,191,77055,1,8,0:0:0:0:
218,178,77209,1,0,0:0:0:0:
373,323,77363,2,0,L|512:326,1,139.050000530434
381,53,77670,1,8,0:0:0:0:
97,250,77978,5,2,0:0:0:0:
218,178,78132,1,2,0:0:0:0:
90,124,78286,1,8,0:0:0:0:
223,335,78440,6,0,L|232:173,1,139.050000530434,2|2,0:0|0:0,0:0:0:0:
376,46,78747,1,2,0:0:0:0:
73,139,78901,1,8,0:0:0:0:
55,168,78978,1,8,0:0:0:0:
43,200,79055,1,8,0:0:0:0:
39,234,79132,1,8,0:0:0:0:
48,267,79209,5,14,0:0:0:0:
325,166,79363,1,0,0:0:0:0:
224,72,79516,5,10,0:0:0:0:
251,309,79670,1,0,0:0:0:0:
419,75,79824,5,10,0:0:0:0:
220,178,79978,1,0,0:0:0:0:
395,265,80132,5,10,0:0:0:0:
290,12,80286,2,0,P|300:69|291:92,1,69.5250002652168,2|2,0:0|0:0,0:0:0:0:
107,194,80440,5,10,0:0:0:0:
360,171,80593,1,0,0:0:0:0:
220,178,80747,5,10,0:0:0:0:
395,265,80901,1,0,0:0:0:0:
52,306,81055,6,0,P|84:193|77:157,1,139.050000530434,10|0,0:0|0:0,0:0:0:0:
395,265,81363,2,0,P|363:152|370:116,1,139.050000530434,10|0,0:0|0:0,0:0:0:0:
78,46,81670,5,14,0:0:0:0:
253,22,81824,1,0,0:0:0:0:
111,183,81978,5,10,0:0:0:0:
331,109,82132,2,0,P|295:159|276:190,1,69.5250002652168,2|2,0:0|0:0,0:0:0:0:
320,325,82286,5,10,0:0:0:0:
186,105,82440,1,10,0:0:0:0:
161,298,82593,1,8,0:0:0:0:
414,214,82747,1,2,0:0:0:0:
14,340,82901,6,0,P|86:331|92:204,1,208.575000795651,14|0,0:0|0:0,0:0:0:0:
5,170,83209,1,2,0:0:0:0:
281,40,83363,1,10,0:0:0:0:
0,0,83516,5,14,0:0:0:0:
376,176,83670,1,2,0:0:0:0:
14,340,84132,5,6,0:0:0:0:
256,192,84209,12,2,85363,0:0:0:0:
