osu file format v14

[General]
AudioFilename: audio.mp3
AudioLeadIn: 0
PreviewTime: 48401
Countdown: 0
SampleSet: Soft
StackLeniency: 0.4
Mode: 0
LetterboxInBreaks: 0
WidescreenStoryboard: 1

[Editor]
DistanceSpacing: 1
BeatDivisor: 4
GridSize: 8
TimelineZoom: 1.6

[Metadata]
Title:Futari Nara (TV Size)
TitleUnicode:二人なら (TV Size)
Artist:BiSH
ArtistUnicode:BiSH
Creator:Aakki
Version:Xandit's Extreme
Source:3D彼女 リアルガール 第2シーズン
Tags:real kanojo girlfriend season 2 anime japanese opening door weapon onlybiscuit brotarks reform kujinn xandit xiced rock jrock j-rock female vocal
BeatmapID:2461849
BeatmapSetID:1180654

[Difficulty]
HPDrainRate:5.8
CircleSize:3.7
OverallDifficulty:9.1
ApproachRate:9.4
SliderMultiplier:1.7
SliderTickRate:1

[Events]
//Background and Video events
Video,0,"video.mp4"
0,0,"bg.jpg",0,0
//Break Periods
//Storyboard Layer 0 (Background)
//Storyboard Layer 1 (Fail)
//Storyboard Layer 2 (Pass)
//Storyboard Layer 3 (Foreground)
//Storyboard Layer 4 (Overlay)
//Storyboard Sound Samples

[TimingPoints]
4833,303.030303030303,4,2,1,65,1,0
5136,-125,4,2,1,65,0,0
5440,303.030303030303,4,2,1,70,1,0
5440,-83.3333333333333,4,2,1,70,0,0
15136,-111.111111111111,4,2,1,60,0,0
24833,-100,4,2,1,65,0,0
34530,-125,4,2,1,50,0,0
41803,-100,4,2,1,60,0,0
46652,-100,4,2,1,70,0,0
48470,-250,4,2,1,30,0,0
49076,-83.3333333333333,4,2,1,80,0,1
58167,-83.3333333333333,4,2,1,80,0,1
58773,-83.3333333333333,4,2,1,80,0,1
67864,-100,4,2,1,80,0,0
68470,-83.3333333333333,4,2,1,80,0,1
78167,-83.3333333333333,4,2,1,70,0,0

[Colours]
Combo1 : 45,79,168
Combo2 : 255,241,64
Combo3 : 251,159,251
Combo4 : 255,43,43

[HitObjects]
156,323,4833,5,8,0:0:0:0:
81,99,4984,1,8,0:0:0:0:
257,230,5136,2,0,P|246:280|254:332,1,102
378,360,5440,6,0,B|336:339|336:339|299:256|367:187,1,203.999993774414,6|8,1:2|0:0,0:0:0:0:
432,261,5894,1,2,0:0:0:0:
237,355,6046,2,0,P|148:345|121:325,1,101.999996887207,0|2,1:0|1:2,0:0:0:0:
332,96,6349,2,0,P|421:106|448:126,1,101.999996887207,10|0,0:0|0:0,0:0:0:0:
205,257,6652,6,0,B|219:184|219:184|199:132|199:132|214:45,1,203.999993774414,2|8,1:2|0:0,0:0:0:0:
311,222,7106,1,2,0:0:0:0:
108,304,7258,2,0,B|57:318|57:318|6:297,1,101.999996887207,0|2,1:0|1:2,0:0:0:0:
108,90,7561,2,0,L|117:198,1,101.999996887207,10|2,0:0|0:0,0:0:0:0:
318,17,7864,6,0,L|309:125,1,101.999996887207,2|0,1:2|0:0,0:0:0:0:
468,257,8167,2,0,L|459:149,1,101.999996887207,8|2,0:0|0:0,0:0:0:0:
226,175,8470,1,0,1:0:0:0:
380,300,8621,1,2,1:2:0:0:
512,72,8773,2,0,P|442:59|392:81,1,101.999996887207,10|2,0:0|0:0,0:0:0:0:
146,240,9076,6,0,P|202:274|326:223,1,203.999993774414,2|8,1:2|0:0,0:0:0:0:
215,73,9530,2,0,L|225:174,1,101.999996887207,2|0,0:0|1:0,0:0:0:0:
242,381,9833,1,2,1:2:0:0:
44,250,9985,2,0,L|155:239,1,101.999996887207,10|2,0:0|0:0,0:0:0:0:
375,212,10288,5,6,1:2:0:0:
117,150,10440,1,2,0:0:0:0:
321,126,10591,1,10,0:0:0:0:
246,302,10743,1,2,0:0:0:0:
77,64,10894,2,0,P|140:58|183:81,1,101.999996887207,2|2,1:2|1:2,0:0:0:0:
169,350,11197,2,0,P|105:357|65:336,1,101.999996887207,10|0,0:0|0:0,0:0:0:0:
230,173,11500,6,0,B|261:149|309:164|309:164|335:196|384:199,1,152.999995330811,2|0,1:2|0:0,0:0:0:0:
456,153,11803,1,8,0:0:0:0:
368,334,11955,2,0,P|340:274|377:189,1,152.999995330811,2|0,0:0|0:0,0:0:0:0:
439,265,12258,1,2,1:2:0:0:
274,336,12409,2,0,P|180:321|103:311,1,152.999995330811,10|0,0:0|0:0,0:0:0:0:
32,345,12712,5,6,1:2:0:0:
207,196,12864,1,2,0:0:0:0:
40,179,13015,1,10,0:0:0:0:
165,331,13167,2,0,L|155:395,2,50.9999984436036,2|2|2,0:0|0:0|1:2,0:0:0:0:
269,111,13470,1,2,1:2:0:0:
376,290,13621,1,10,0:0:0:0:
448,166,13773,1,2,0:0:0:0:
258,295,13924,5,2,1:2:0:0:
494,330,14076,1,2,1:2:0:0:
258,167,14227,1,14,0:0:0:0:
507,103,14379,1,8,0:0:0:0:
507,103,14455,1,8,0:0:0:0:
507,103,14530,1,2,1:2:0:0:
362,319,14682,1,10,0:0:0:0:
323,74,14833,1,10,3:0:0:0:
398,218,14985,1,6,3:0:0:0:
218,333,15136,6,0,P|155:307|62:318,1,152.999995330811,4|10,1:2|0:0,0:0:0:0:
9,211,15591,1,0,0:0:0:0:
111,144,15743,2,0,L|119:234,1,76.4999976654053,2|0,1:2|1:0,0:0:0:0:
237,266,16046,2,0,L|245:176,1,76.4999976654053,8|0,0:0|0:0,0:0:0:0:
383,109,16349,6,0,B|354:136|354:136|351:219,1,114.749996498108,2|0,1:2|0:0,0:0:0:0:
413,286,16652,1,10,0:0:0:0:
413,286,16803,2,0,L|489:278,1,76.4999976654053,2|0,0:0|1:0,0:0:0:0:
341,366,17106,2,0,L|264:358,1,76.4999976654053,2|8,1:2|0:0,0:0:0:0:
290,257,17409,1,2,0:0:0:0:
250,112,17561,6,0,P|224:161|220:198,1,76.4999976654053,2|0,1:2|0:0,0:0:0:0:
350,81,17864,2,0,P|320:33|290:12,1,76.4999976654053,10|0,0:0|0:0,0:0:0:0:
326,183,18167,2,0,P|381:181|415:165,1,76.4999976654053,2|0,1:2|1:0,0:0:0:0:
501,286,18470,2,0,P|445:284|411:268,1,76.4999976654053,10|0,0:0|0:0,0:0:0:0:
271,346,18773,6,0,L|359:340,1,76.4999976654053,0|0,1:0|0:0,0:0:0:0:
227,251,19076,1,10,0:0:0:0:
176,338,19227,1,0,0:0:0:0:
76,162,19379,2,0,P|64:208|68:243,1,76.4999976654053,2|0,1:2|1:0,0:0:0:0:
227,251,19682,2,0,P|239:205|235:170,1,76.4999976654053,10|0,0:0|0:0,0:0:0:0:
52,81,19985,6,0,B|95:77|95:77|127:88|127:88|178:84,1,114.749996498108,2|0,1:2|0:0,0:0:0:0:
210,39,20288,2,0,L|133:47,1,76.4999976654053,10|0,0:0|0:0,0:0:0:0:
281,114,20591,2,0,L|363:105,1,76.4999976654053,2|0,1:2|1:0,0:0:0:0:
307,268,20894,2,0,P|296:225|311:177,1,76.4999976654053,10|0,0:0|0:0,0:0:0:0:
412,342,21197,6,0,B|363:331|363:331|335:354|289:349,1,114.749996498108,2|0,1:2|0:0,0:0:0:0:
161,280,21500,2,0,P|222:288|242:304,1,76.4999976654053,10|0,0:0|0:0,0:0:0:0:
65,320,21803,1,2,1:2:0:0:
184,360,21955,1,0,1:0:0:0:
55,244,22106,2,0,L|65:325,1,76.4999976654053,10|0,0:0|0:0,0:0:0:0:
140,108,22409,6,0,L|130:189,1,76.4999976654053,2|0,1:2|0:0,0:0:0:0:
66,52,22712,1,8,0:0:0:0:
152,16,22864,1,0,0:0:0:0:
300,128,23015,2,0,P|232:140|192:130,1,76.4999976654053,0|0,1:0|1:0,0:0:0:0:
383,23,23318,2,0,P|421:23|457:34,1,76.4999976654053,10|0,0:0|0:0,0:0:0:0:
408,210,23621,6,0,B|386:240|386:240|405:123,1,152.999995330811,2|8,1:2|0:0,0:0:0:0:
484,290,24076,1,2,0:0:0:0:
289,183,24227,1,2,1:2:0:0:
187,358,24379,1,8,0:0:0:0:
187,358,24455,1,8,0:0:0:0:
187,358,24530,1,0,1:0:0:0:
393,306,24682,5,8,0:0:0:0:
393,306,24758,1,8,0:0:0:0:
393,306,24833,2,0,P|335:285|280:284,1,85,4|0,1:2|0:0,0:0:0:0:
106,334,25136,2,0,P|164:355|219:356,1,85,10|0,0:0|0:0,0:0:0:0:
305,190,25440,2,0,L|296:105,1,85,2|0,1:2|1:0,0:0:0:0:
219,249,25743,1,8,0:0:0:0:
391,234,25894,1,0,0:0:0:0:
229,47,26046,6,0,P|208:95|215:137,1,85,2|0,1:2|0:0,0:0:0:0:
308,293,26349,1,10,0:0:0:0:
488,144,26500,2,0,L|398:135,1,85,2|0,0:0|1:0,0:0:0:0:
299,312,26803,2,0,L|389:303,1,85,2|8,1:2|0:0,0:0:0:0:
223,184,27106,1,2,0:0:0:0:
169,367,27258,5,2,1:2:0:0:
104,193,27409,1,0,0:0:0:0:
0,337,27561,2,0,P|41:345|92:335,1,85,10|0,0:0|0:0,0:0:0:0:
187,194,27864,2,0,P|146:186|95:196,1,85,2|0,1:2|1:0,0:0:0:0:
221,371,28167,2,0,L|227:285,1,85,10|0,0:0|0:0,0:0:0:0:
295,122,28470,6,0,P|275:179|277:226,1,85,0|0,1:0|0:0,0:0:0:0:
311,299,28773,1,10,0:0:0:0:
311,299,29076,2,0,L|219:285,1,85,2|0,1:2|1:0,0:0:0:0:
332,101,29379,2,0,L|240:115,1,85,10|0,0:0|0:0,0:0:0:0:
403,379,29682,6,0,B|428:328|428:328|410:242,1,127.5,2|0,1:2|0:0,0:0:0:0:
468,183,29985,2,0,P|428:168|386:168,1,85,10|0,0:0|0:0,0:0:0:0:
250,316,30288,2,0,P|290:331|332:331,1,85,2|0,1:2|1:0,0:0:0:0:
361,57,30591,2,0,P|323:78|294:114,1,85,10|0,0:0|0:0,0:0:0:0:
210,207,30894,6,0,P|245:242|247:324,1,127.5,2|0,1:2|0:0,0:0:0:0:
81,297,31197,2,0,L|174:284,1,85,10|0,0:0|0:0,0:0:0:0:
273,123,31500,2,0,L|188:111,1,85,2|0,1:2|1:0,0:0:0:0:
339,350,31803,2,0,L|350:265,1,85,10|0,0:0|0:0,0:0:0:0:
282,42,32106,6,0,P|266:87|281:137,1,85,6|0,1:2|0:0,0:0:0:0:
424,200,32409,1,8,0:0:0:0:
253,284,32561,2,0,L|159:265,1,85,2|0,0:0|1:0,0:0:0:0:
353,93,32864,1,0,1:0:0:0:
453,283,33015,2,0,P|454:325|437:369,1,85,10|0,0:0|0:0,0:0:0:0:
227,178,33318,5,2,1:2:0:0:
455,141,33470,1,8,0:0:0:0:
309,326,33621,1,0,1:2:0:0:
343,83,33773,1,8,0:0:0:0:
343,83,33849,1,8,0:0:0:0:
343,83,33924,1,8,1:2:0:0:
472,272,34076,1,8,3:0:0:0:
296,157,34227,1,4,3:0:0:0:
445,252,34379,1,0,0:0:0:0:
210,361,34530,6,0,L|203:278,1,68,6|2,1:2|0:0,0:0:0:0:
52,176,34833,2,0,L|46:243,1,68,2|0,0:0|1:0,0:0:0:0:
165,201,35136,1,10,0:0:0:0:
207,119,35288,1,2,1:2:0:0:
141,36,35440,1,2,0:0:0:0:
292,138,35591,6,0,B|392:108|386:207|501:167,1,204,10|2,0:0|1:2,0:0:0:0:
337,286,36349,2,0,P|323:237|326:211,1,68,10|0,0:0|0:0,0:0:0:0:
451,349,36652,2,0,P|465:300|462:274,1,68,2|0,1:2|1:0,0:0:0:0:
255,348,36955,6,0,B|205:339|205:339|174:351|174:351|109:341,1,136,6|0,1:2|0:0,0:0:0:0:
48,272,37409,1,0,1:0:0:0:
139,184,37561,2,0,L|142:256,1,68,10|0,0:0|1:0,0:0:0:0:
59,129,37864,1,0,0:0:0:0:
166,39,38015,6,0,P|238:43|282:86,1,136,2|2,1:2|0:0,0:0:0:0:
411,166,38470,2,0,P|339:170|295:213,1,136,2|8,1:2|0:0,0:0:0:0:
321,294,38924,2,0,L|316:365,2,68,0|0|8,0:0|1:0|0:0,0:0:0:0:
221,141,39379,6,0,B|179:118|136:132|136:132|113:112|103:81,1,136,6|0,1:2|0:0,0:0:0:0:
266,1,39833,2,0,P|272:48|264:74,1,68,2|8,1:2|0:0,0:0:0:0:
169,279,40136,2,0,P|163:232|171:206,1,68,2|0,1:2|0:0,0:0:0:0:
326,238,40440,1,10,0:0:0:0:
326,238,40591,6,0,L|251:244,1,68,2|0,1:2|0:0,0:0:0:0:
396,129,40894,2,0,L|321:123,1,68,2|0,1:2|0:0,0:0:0:0:
428,330,41197,2,0,L|353:336,1,68,10|0,0:0|1:0,0:0:0:0:
498,221,41500,2,0,L|423:215,1,68,2|8,0:0|0:0,0:0:0:0:
272,363,41803,5,6,1:2:0:0:
366,128,41955,1,0,1:0:0:0:
440,346,42106,1,8,0:0:0:0:
261,185,42258,2,0,P|182:151|82:178,1,170,4|0,1:2|1:0,0:0:0:0:
342,290,42712,1,2,0:0:0:0:
200,0,42864,6,0,B|172:76|172:76|184:151,1,127.5,6|0,1:2|0:0,0:0:0:0:
208,255,43167,1,0,1:0:0:0:
292,69,43318,1,8,0:0:0:0:
74,159,43470,1,8,0:0:0:0:
74,159,43546,1,8,0:0:0:0:
74,159,43621,1,0,1:0:0:0:
333,261,43773,1,10,0:0:0:0:
102,243,43924,1,10,3:0:0:0:
305,154,44076,1,6,3:0:0:0:
246,367,44227,6,0,L|237:268,1,85,6|0,1:2|0:0,0:0:0:0:
363,352,44530,1,10,0:0:0:0:
180,92,44682,2,0,L|172:176,1,85,2|0,0:0|1:0,0:0:0:0:
84,370,44985,1,2,1:2:0:0:
302,248,45136,1,8,0:0:0:0:
86,145,45288,2,0,P|22:138|-24:150,1,85,2|0,0:0|1:0,0:0:0:0:
165,296,45591,5,2,0:0:0:0:
278,78,45743,1,10,0:0:0:0:
343,300,45894,1,2,0:0:0:0:
206,155,46046,1,2,1:2:0:0:
394,132,46197,1,2,1:2:0:0:
238,270,46349,1,10,0:0:0:0:
425,135,46500,1,2,1:2:0:0:
278,89,46652,5,14,0:0:0:0:
411,368,46803,1,8,0:0:0:0:
512,149,46955,1,2,1:2:0:0:
204,368,47106,5,10,0:0:0:0:
491,251,47258,1,0,0:0:0:0:
222,191,47409,1,2,1:2:0:0:
479,358,47561,1,8,3:0:0:0:
245,70,47712,6,0,B|247:124|247:124|259:147|259:147|261:208,1,127.5,6|0,1:2|0:0,0:0:0:0:
186,293,48015,1,10,0:0:0:0:
389,193,48167,1,4,3:0:0:0:
111,103,48318,1,4,3:0:0:0:
472,209,48470,6,0,P|463:139|417:112,1,119,2|0,0:0|0:0,0:0:0:0:
332,32,49076,6,0,L|320:153,1,101.999996887207,6|0,1:2|0:0,0:0:0:0:
41,346,49379,2,0,L|29:225,1,101.999996887207,8|0,0:0|0:0,0:0:0:0:
277,255,49682,1,0,1:0:0:0:
99,120,49833,1,0,1:0:0:0:
392,193,49985,2,0,P|405:265|387:315,1,101.999996887207,10|0,0:0|0:0,0:0:0:0:
167,187,50288,6,0,P|222:139|275:130,1,101.999996887207,2|0,1:2|0:0,0:0:0:0:
274,384,50591,2,0,P|205:359|170:318,1,101.999996887207,10|0,0:0|0:0,0:0:0:0:
139,86,50894,1,0,1:0:0:0:
277,255,51046,1,0,1:0:0:0:
303,42,51197,1,10,0:0:0:0:
194,214,51349,1,0,0:0:0:0:
384,281,51500,6,0,L|494:273,1,101.999996887207,2|0,1:2|1:0,0:0:0:0:
234,116,51803,2,0,L|344:124,1,101.999996887207,10|0,0:0|0:0,0:0:0:0:
131,354,52106,2,0,L|241:346,1,101.999996887207,2|0,1:2|1:0,0:0:0:0:
195,16,52409,2,0,P|144:66|130:113,1,101.999996887207,10|0,0:0|0:0,0:0:0:0:
322,358,52712,2,0,P|373:308|387:261,1,101.999996887207,0|0,1:0|0:0,0:0:0:0:
234,116,53015,5,10,0:0:0:0:
131,354,53167,1,0,0:0:0:0:
15,141,53318,2,0,L|129:134,1,101.999996887207,2|0,1:2|1:0,0:0:0:0:
322,358,53621,2,0,L|220:351,1,101.999996887207,10|0,0:0|0:0,0:0:0:0:
319,59,53924,6,0,P|332:127|318:171,1,101.999996887207,4|0,1:2|0:0,0:0:0:0:
141,253,54227,1,10,0:0:0:0:
251,108,54379,1,2,1:2:0:0:
420,262,54530,2,0,L|408:370,1,101.999996887207,2|0,1:2|1:0,0:0:0:0:
161,62,54833,2,0,L|173:170,1,101.999996887207,10|0,0:0|0:0,0:0:0:0:
485,190,55136,6,0,L|497:82,1,101.999996887207,0|0,1:0|0:0,0:0:0:0:
303,304,55439,1,10,0:0:0:0:
488,287,55591,1,0,0:0:0:0:
260,129,55743,2,0,P|240:191|254:238,1,101.999996887207,2|0,1:2|1:0,0:0:0:0:
476,384,56046,2,0,P|496:322|482:275,1,101.999996887207,10|0,0:0|0:0,0:0:0:0:
212,358,56349,5,6,1:2:0:0:
408,323,56500,1,0,0:0:0:0:
206,251,56652,1,10,0:0:0:0:
386,138,56803,2,0,L|376:249,1,101.999996887207,2|0,0:0|1:0,0:0:0:0:
144,52,57106,2,0,L|154:163,1,101.999996887207,2|8,1:2|0:0,0:0:0:0:
446,55,57409,6,0,P|379:38|330:49,1,101.999996887207,2|0,0:0|1:0,0:0:0:0:
92,238,57712,2,0,P|159:255|208:244,1,101.999996887207,2|8,1:2|0:0,0:0:0:0:
364,115,58015,5,8,0:0:0:0:
364,115,58091,1,8,0:0:0:0:
364,115,58167,1,2,1:2:0:0:
291,367,58318,6,0,L|282:299,1,50.9999984436036,8|8,1:2|1:2,0:0:0:0:
259,142,58470,1,0,1:0:0:0:
431,312,58621,2,0,L|380:305,1,50.9999984436036,8|8,1:2|1:2,0:0:0:0:
197,56,58773,6,0,P|258:37|313:50,1,101.999996887207,6|0,1:2|0:0,0:0:0:0:
320,263,59076,2,0,P|259:282|204:269,1,101.999996887207,8|0,0:0|0:0,0:0:0:0:
105,84,59379,1,0,1:0:0:0:
264,187,59530,1,0,1:0:0:0:
102,350,59682,6,0,L|88:248,1,101.999996887207,10|0,0:0|0:0,0:0:0:0:
277,85,59985,2,0,L|263:187,1,101.999996887207,2|0,1:2|0:0,0:0:0:0:
16,315,60288,2,0,L|2:213,1,101.999996887207,10|0,0:0|0:0,0:0:0:0:
156,50,60591,1,0,1:0:0:0:
32,89,60743,1,0,1:0:0:0:
263,245,60894,2,0,P|193:221|144:223,1,101.999996887207,10|0,0:0|0:0,0:0:0:0:
340,370,61197,6,0,L|353:254,1,101.999996887207,2|0,1:2|0:0,0:0:0:0:
479,105,61500,2,0,L|490:206,1,101.999996887207,10|0,0:0|0:0,0:0:0:0:
249,123,61803,2,0,L|260:21,1,101.999996887207,2|0,1:2|1:0,0:0:0:0:
328,217,62106,1,10,0:0:0:0:
138,146,62258,1,0,0:0:0:0:
292,332,62409,6,0,L|406:323,1,101.999996887207,0|0,1:0|1:0,0:0:0:0:
249,123,62712,2,0,L|363:132,1,101.999996887207,10|0,0:0|0:0,0:0:0:0:
130,239,63015,1,2,1:2:0:0:
251,43,63167,1,0,1:0:0:0:
306,263,63318,1,10,0:0:0:0:
116,117,63470,1,0,0:0:0:0:
68,332,63621,6,0,P|118:340|168:332,1,101.999996887207,4|0,1:2|0:0,0:0:0:0:
326,138,63924,1,10,0:0:0:0:
130,239,64076,1,2,0:0:0:0:
326,379,64227,2,0,L|334:265,1,101.999996887207,2|0,1:2|1:0,0:0:0:0:
186,41,64530,2,0,L|194:155,1,101.999996887207,10|0,0:0|0:0,0:0:0:0:
475,201,64833,6,0,P|413:170|355:167,1,101.999996887207,2|0,1:2|0:0,0:0:0:0:
104,222,65136,2,0,P|166:253|224:256,1,101.999996887207,10|0,0:0|0:0,0:0:0:0:
409,86,65439,1,2,1:2:0:0:
178,158,65591,1,0,1:0:0:0:
414,261,65743,1,10,0:0:0:0:
262,104,65894,1,0,0:0:0:0:
163,338,66046,6,0,L|279:352,1,101.999996887207,6|0,1:2|0:0,0:0:0:0:
414,261,66349,1,10,0:0:0:0:
82,175,66500,2,0,L|198:161,1,101.999996887207,2|0,0:0|1:0,0:0:0:0:
401,37,66803,2,0,L|285:23,1,101.999996887207,2|8,1:2|0:0,0:0:0:0:
414,261,67106,1,2,0:0:0:0:
507,83,67258,5,4,1:2:0:0:
264,215,67409,1,0,1:0:0:0:
492,329,67561,1,8,0:0:0:0:
334,131,67712,1,8,0:0:0:0:
334,131,67788,1,8,0:0:0:0:
334,131,67864,1,2,1:2:0:0:
202,345,68015,5,8,0:0:0:0:
202,345,68091,1,8,0:0:0:0:
202,345,68167,2,0,L|135:337,1,42.5,8|0,0:0|0:0,0:0:0:0:
23,135,68318,2,0,L|65:129,1,42.5,8|8,0:0|0:0,0:0:0:0:
240,147,68470,5,14,0:0:0:0:
72,268,68621,1,0,1:0:0:0:
186,66,68773,1,0,1:0:0:0:
265,233,68924,5,12,0:0:0:0:
98,59,69076,1,0,1:0:0:0:
181,285,69227,1,0,1:0:0:0:
361,160,69379,5,8,0:0:0:0:
64,146,69530,1,0,1:0:0:0:
381,185,69682,5,14,0:0:0:0:
87,262,69833,1,0,1:0:0:0:
328,335,69985,1,0,1:0:0:0:
180,84,70136,5,12,0:0:0:0:
255,329,70288,1,0,1:0:0:0:
355,86,70440,1,0,1:0:0:0:
251,342,70591,5,8,0:0:0:0:
163,60,70743,1,0,1:0:0:0:
258,321,70894,5,14,0:0:0:0:
14,254,71046,1,0,1:0:0:0:
243,156,71197,1,0,1:0:0:0:
33,110,71349,5,12,0:0:0:0:
271,167,71500,1,0,1:0:0:0:
111,291,71652,1,0,1:0:0:0:
363,105,71803,5,8,0:0:0:0:
309,361,71955,1,0,1:0:0:0:
263,62,72106,5,8,0:0:0:0:
388,335,72258,1,0,1:0:0:0:
465,87,72409,1,0,1:0:0:0:
188,262,72561,5,8,0:0:0:0:
188,262,72636,1,8,0:0:0:0:
188,262,72712,1,2,1:2:0:0:
489,196,72864,1,0,0:0:0:0:
277,44,73015,1,0,1:0:0:0:
400,328,73167,1,0,1:0:0:0:
334,178,73318,6,0,P|248:121|150:147,1,203.999993774414,6|8,1:2|0:0,0:0:0:0:
309,293,73773,1,0,0:0:0:0:
442,161,73924,2,0,B|446:108|446:108|436:59,1,101.999996887207,0|0,1:0|1:0,0:0:0:0:
208,243,74227,2,0,B|204:296|204:296|214:345,1,101.999996887207,8|0,0:0|0:0,0:0:0:0:
428,267,74530,5,2,1:2:0:0:
211,118,74682,1,0,0:0:0:0:
387,353,74833,2,0,P|475:351|494:337,1,101.999996887207,8|0,0:0|0:0,0:0:0:0:
370,105,75136,1,2,1:2:0:0:
247,346,75288,1,0,1:0:0:0:
464,175,75440,1,8,0:0:0:0:
158,43,75591,5,0,1:0:0:0:
158,43,75667,1,0,1:0:0:0:
158,43,75743,2,0,B|134:100|134:100|150:208,1,152.999995330811,14|0,0:0|0:0,0:0:0:0:
165,292,76046,1,8,0:0:0:0:
255,103,76197,1,8,0:0:0:0:
321,333,76349,1,8,0:0:0:0:
426,146,76500,1,0,1:0:0:0:
483,352,76652,1,0,1:0:0:0:
286,201,76803,1,2,1:2:0:0:
505,124,76955,5,0,1:0:0:0:
390,253,77106,1,10,3:0:0:0:
390,253,77182,1,8,3:0:0:0:
390,253,77258,2,0,L|466:242,1,50.9999984436036,10|0,3:0|0:0,0:0:0:0:
185,64,77409,1,10,3:0:0:0:
185,64,77485,1,8,3:0:0:0:
185,64,77561,6,0,P|168:89|157:115,1,50.9999984436036,10|0,3:0|0:0,0:0:0:0:
313,360,77712,2,0,P|331:336|342:310,1,50.9999984436036,10|8,3:0|3:0,0:0:0:0:
289,127,77864,2,0,P|259:129|232:137,1,50.9999984436036,6|0,3:0|0:0,0:0:0:0:
122,345,78015,1,6,3:0:0:0:
122,345,78091,1,4,3:0:0:0:
122,345,78167,6,0,B|161:353|192:338|192:338|240:370|240:370|286:356|335:362,1,203.999993774414,6|14,1:2|0:0,0:0:0:0:
467,277,78621,1,2,0:0:0:0:
283,101,78773,2,0,L|275:212,1,101.999996887207,0|2,1:0|1:2,0:0:0:0:
467,277,79076,2,0,L|459:166,1,101.999996887207,8|0,0:0|0:0,0:0:0:0:
188,42,79379,6,0,P|322:61|360:4,1,203.999993774414,2|8,1:2|0:0,0:0:0:0:
127,122,79833,1,2,0:0:0:0:
265,304,79985,2,0,L|276:194,1,101.999996887207,0|2,1:0|1:2,0:0:0:0:
29,83,80288,2,0,L|40:193,1,101.999996887207,10|0,0:0|0:0,0:0:0:0:
153,320,80591,6,0,P|81:284|47:284,1,101.999996887207,2|0,1:2|0:0,0:0:0:0:
296,121,80894,2,0,P|224:157|190:157,1,101.999996887207,8|2,0:0|0:0,0:0:0:0:
91,25,81197,1,0,1:0:0:0:
296,121,81349,1,0,1:0:0:0:
60,282,81500,2,0,L|51:161,1,101.999996887207,10|0,0:0|0:0,0:0:0:0:
256,301,81803,6,0,P|327:255|461:275,1,203.999993774414,2|8,1:2|0:0,0:0:0:0:
334,108,82258,2,0,P|317:160|325:215,1,101.999996887207,2|0,0:0|1:0,0:0:0:0:
478,105,82561,1,2,1:2:0:0:
278,15,82712,2,0,L|160:23,1,101.999996887207,10|0,0:0|0:0,0:0:0:0:
73,252,83015,5,6,1:2:0:0:
233,137,83167,1,2,1:2:0:0:
27,108,83318,1,10,0:0:0:0:
220,219,83470,1,2,1:2:0:0:
78,353,83621,2,0,L|72:240,1,101.999996887207,2|2,1:2|1:2,0:0:0:0:
340,146,83924,2,0,L|334:247,1,101.999996887207,10|0,0:0|0:0,0:0:0:0:
92,55,84227,6,0,B|148:51|148:51|182:74|182:74|244:70,1,152.999995330811,6|0,1:2|0:0,0:0:0:0:
321,17,84530,1,8,0:0:0:0:
482,169,84682,2,0,P|414:136|333:149,1,152.999995330811,2|0,0:0|0:0,0:0:0:0:
277,226,84985,1,0,1:0:0:0:
416,340,85136,2,0,L|406:230,1,101.999996887207,10|0,0:0|0:0,0:0:0:0:
169,138,85440,5,6,1:2:0:0:
324,323,85591,1,2,0:0:0:0:
365,124,85743,1,10,0:0:0:0:
200,287,85894,2,0,L|127:275,2,50.9999984436036,2|2|2,1:2|1:2|1:2,0:0:0:0:
457,265,86197,1,2,1:2:0:0:
263,132,86349,1,10,0:0:0:0:
371,368,86500,1,2,0:0:0:0:
417,114,86652,5,6,1:2:0:0:
200,287,86803,1,10,0:0:0:0:
450,333,86955,1,0,1:0:0:0:
187,70,87106,1,8,0:0:0:0:
179,94,87182,1,8,0:0:0:0:
175,119,87258,1,10,0:0:0:0:
302,317,87409,1,10,0:0:0:0:
421,68,87561,1,10,0:0:0:0:
240,180,87712,1,10,0:0:0:0:
