osu file format v14

[General]
AudioFilename: audio.mp3
AudioLeadIn: 0
PreviewTime: 48401
Countdown: 0
SampleSet: Soft
StackLeniency: 0.4
Mode: 0
LetterboxInBreaks: 0
WidescreenStoryboard: 1

[Editor]
Bookmarks: 49083
DistanceSpacing: 0.9
BeatDivisor: 4
GridSize: 8
TimelineZoom: 2.4

[Metadata]
Title:Futari Nara (TV Size)
TitleUnicode:二人なら (TV Size)
Artist:BiSH
ArtistUnicode:BiSH
Creator:Aakki
Version:Aakki & Onlybiscuit's Expert
Source:3D彼女 リアルガール 第2シーズン
Tags:real kanojo girlfriend season 2 anime japanese opening door weapon onlybiscuit brotarks reform kujinn xandit xiced rock jrock j-rock female vocal
BeatmapID:2467122
BeatmapSetID:1180654

[Difficulty]
HPDrainRate:5.2
CircleSize:3.8
OverallDifficulty:8.7
ApproachRate:9.2
SliderMultiplier:1.7
SliderTickRate:1

[Events]
//Background and Video events
0,0,"bg.jpg",0,0
Video,0,"video.mp4"
//Break Periods
//Storyboard Layer 0 (Background)
//Storyboard Layer 1 (Fail)
//Storyboard Layer 2 (Pass)
//Storyboard Layer 3 (Foreground)
//Storyboard Layer 4 (Overlay)
//Storyboard Sound Samples

[TimingPoints]
4833,303.030303030303,4,2,1,65,1,0
5136,-133.333333333333,4,2,1,65,0,0
5440,303.030303030303,4,2,1,70,1,0
5440,-100,4,2,1,70,0,0
15136,-111.111111111111,4,2,1,60,0,0
24833,-111.111111111111,4,2,1,65,0,0
34530,-133.333333333333,4,2,1,50,0,0
41803,-105.263157894737,4,2,1,60,0,0
46652,-105.263157894737,4,2,1,70,0,0
48470,-200,4,2,1,30,0,0
49076,-90.9090909090909,4,2,1,80,0,1
78167,-90.9090909090909,4,2,1,70,0,0

[Colours]
Combo1 : 45,79,168
Combo2 : 255,241,64
Combo3 : 251,159,251
Combo4 : 255,43,43

[HitObjects]
103,95,4833,5,8,0:0:0:0:
132,322,4984,1,8,0:0:0:0:
243,123,5136,2,0,P|232:169|216:240,1,95.6250036478044,2|0,0:0|0:0,0:0:0:0:
240,254,5440,6,0,B|328:270|277:315|389:346,1,170,6|8,1:2|0:0,0:0:0:0:
501,297,5894,1,2,0:0:0:0:
373,166,6046,2,0,L|384:258,1,85,0|2,1:0|1:2,0:0:0:0:
496,139,6349,2,0,L|485:54,1,85,10|0,0:0|0:0,0:0:0:0:
329,2,6652,6,0,B|263:7|263:7|242:31|242:31|140:40,1,170,2|8,1:2|0:0,0:0:0:0:
55,149,7106,2,0,L|60:233,1,85,2|0,0:0|1:0,0:0:0:0:
191,140,7409,1,2,1:2:0:0:
0,0,7561,2,0,L|5:84,1,85,10|2,0:0|0:0,0:0:0:0:
153,210,7864,6,0,P|201:220|267:116,1,170,2|8,1:2|0:0,0:0:0:0:
71,177,8318,2,0,P|67:225|85:261,1,85,2|0,0:0|1:0,0:0:0:0:
189,303,8621,1,2,1:2:0:0:
122,114,8773,2,0,P|83:97|41:102,1,85,10|2,0:0|0:0,0:0:0:0:
217,214,9076,6,0,B|303:205|264:151|376:141,1,170,2|8,1:2|0:0,0:0:0:0:
502,212,9530,1,2,0:0:0:0:
391,278,9682,1,0,1:0:0:0:
454,140,9833,1,2,1:2:0:0:
417,350,9985,2,0,P|354:345|327:322,1,85,10|2,0:0|0:0,0:0:0:0:
191,167,10288,5,6,1:2:0:0:
391,278,10440,1,2,0:0:0:0:
248,339,10591,1,10,0:0:0:0:
370,193,10743,1,2,0:0:0:0:
175,287,10894,2,0,P|126:311|77:302,1,85,2|2,1:2|1:2,0:0:0:0:
169,90,11197,2,0,P|211:90|247:112,1,85,10|0,0:0|0:0,0:0:0:0:
47,369,11500,6,0,B|72:270|11:322|41:178,1,170,2|8,1:2|0:0,0:0:0:0:
140,14,11955,2,0,P|168:60|167:96,1,85,2|0,0:0|1:0,0:0:0:0:
120,243,12258,1,2,1:2:0:0:
2,70,12409,2,0,L|99:76,1,85,10|0,0:0|0:0,0:0:0:0:
243,240,12712,5,6,1:2:0:0:
113,160,12864,1,2,0:0:0:0:
277,92,13015,1,10,0:0:0:0:
120,243,13167,1,2,0:0:0:0:
120,243,13243,1,2,0:0:0:0:
120,243,13318,2,0,L|124:337,1,85,2|2,1:2|1:2,0:0:0:0:
359,171,13621,2,0,L|362:86,1,85,10|2,0:0|0:0,0:0:0:0:
243,240,13924,5,2,1:2:0:0:
438,218,14076,1,2,1:2:0:0:
246,111,14227,1,14,0:0:0:0:
340,285,14379,1,8,0:0:0:0:
340,285,14455,1,8,0:0:0:0:
340,285,14530,1,2,1:2:0:0:
373,84,14682,1,10,0:0:0:0:
220,267,14833,1,10,3:0:0:0:
253,57,14985,1,6,3:0:0:0:
100,207,15136,6,0,B|134:225|178:203|162:192|211:164|256:190,1,152.999995330811,4|10,1:2|0:0,0:0:0:0:
340,285,15591,1,0,0:0:0:0:
210,342,15743,2,0,L|223:238,1,76.4999976654053,2|0,1:2|1:0,0:0:0:0:
349,209,16046,2,0,L|339:284,1,76.4999976654053,8|0,0:0|0:0,0:0:0:0:
269,176,16349,6,0,P|303:137|406:148,1,152.999995330811,2|10,1:2|0:0,0:0:0:0:
508,236,16803,2,0,L|429:223,1,76.4999976654053,2|0,0:0|1:0,0:0:0:0:
264,297,17106,2,0,L|343:284,1,76.4999976654053,2|8,1:2|0:0,0:0:0:0:
397,141,17409,1,2,0:0:0:0:
200,238,17561,6,0,P|177:282|231:372,2,152.999995330811,2|10|2,1:2|0:0|1:2,0:0:0:0:
309,170,18318,1,0,1:0:0:0:
414,296,18470,2,0,L|335:283,1,76.4999976654053,10|0,0:0|0:0,0:0:0:0:
233,157,18773,6,0,L|308:169,1,76.4999976654053,0|0,1:0|0:0,0:0:0:0:
140,288,19076,2,0,P|134:241|126:208,1,76.4999976654053,10|0,0:0|0:0,0:0:0:0:
245,81,19379,2,0,P|236:118|232:156,1,76.4999976654053,2|0,1:2|1:0,0:0:0:0:
128,302,19682,2,0,P|122:255|114:222,1,76.4999976654053,10|0,0:0|0:0,0:0:0:0:
258,55,19985,6,0,B|352:63|300:120|415:127,2,152.999995330811,2|10|2,1:2|0:0|1:2,0:0:0:0:
136,136,20743,1,0,1:0:0:0:
242,218,20894,2,0,P|250:176|258:131,1,76.4999976654053,10|0,0:0|0:0,0:0:0:0:
115,209,21197,6,0,P|121:246|128:284,1,76.4999976654053,2|0,1:2|0:0,0:0:0:0:
252,345,21500,2,0,B|149:333|195:379|92:363,1,152.999995330811,10|2,0:0|1:2,0:0:0:0:
242,218,21955,1,0,1:0:0:0:
335,310,22106,2,0,P|325:351|317:397,1,76.4999976654053,10|0,0:0|0:0,0:0:0:0:
435,277,22409,6,0,P|427:239|418:202,1,76.4999976654053,2|0,1:2|0:0,0:0:0:0:
363,36,22712,2,0,P|320:52|285:169,1,152.999995330811,8|0,0:0|1:0,0:0:0:0:
421,112,23167,1,0,1:0:0:0:
233,27,23318,2,0,P|193:9|156:12,1,76.4999976654053,10|0,0:0|0:0,0:0:0:0:
36,116,23621,6,0,B|124:129|98:81|189:86,1,152.999995330811,2|8,1:2|0:0,0:0:0:0:
319,169,24076,1,2,0:0:0:0:
195,281,24227,1,2,1:2:0:0:
253,134,24379,1,8,0:0:0:0:
253,134,24455,1,8,0:0:0:0:
253,134,24530,1,0,1:0:0:0:
326,303,24682,2,0,P|292:293|281:282,1,38.2499988327027,8|8,0:0|0:0,0:0:0:0:
410,197,24833,6,0,P|454:230|462:348,1,152.999995330811,4|10,1:2|0:0,0:0:0:0:
352,384,25288,1,0,0:0:0:0:
263,253,25440,2,0,P|301:224|346:223,1,76.4999976654053,2|0,1:2|1:0,0:0:0:0:
227,372,25743,2,0,P|189:364|161:339,1,76.4999976654053,8|0,0:0|0:0,0:0:0:0:
112,120,26046,6,0,P|148:161|171:269,1,152.999995330811,2|10,1:2|0:0,0:0:0:0:
33,362,26500,2,0,L|27:251,1,76.4999976654053,2|0,0:0|1:0,0:0:0:0:
177,179,26803,2,0,L|172:255,1,76.4999976654053,2|8,1:2|0:0,0:0:0:0:
18,167,27106,1,2,0:0:0:0:
178,97,27258,6,0,B|271:117|217:156|310:175,2,152.999995330811,2|10|2,1:2|0:0|1:2,0:0:0:0:
90,217,28015,1,0,1:0:0:0:
216,316,28167,2,0,P|231:279|239:213,1,76.4999976654053,10|0,0:0|0:0,0:0:0:0:
114,312,28470,6,0,P|121:349|136:384,1,76.4999976654053,0|0,1:0|0:0,0:0:0:0:
384,283,28773,2,0,P|339:262|216:243,1,152.999995330811,10|2,0:0|1:2,0:0:0:0:
301,371,29227,1,0,1:0:0:0:
438,346,29379,2,0,P|462:300|459:263,1,76.4999976654053,10|0,0:0|0:0,0:0:0:0:
426,148,29682,6,0,L|351:137,1,76.4999976654053,2|0,1:2|0:0,0:0:0:0:
237,270,29985,2,0,L|312:258,1,76.4999976654053,10|0,0:0|0:0,0:0:0:0:
136,102,30288,2,0,L|147:177,1,76.4999976654053,2|0,1:2|1:0,0:0:0:0:
300,333,30591,2,0,L|311:257,1,76.4999976654053,10|0,0:0|0:0,0:0:0:0:
65,334,30894,6,0,P|119:361|204:305,2,152.999995330811,2|10|2,1:2|0:0|1:2,0:0:0:0:
7,196,31652,1,0,1:0:0:0:
125,275,31803,1,10,0:0:0:0:
0,383,31955,1,0,0:0:0:0:
102,200,32106,6,0,B|139:176|198:214|178:219|214:249|273:219,1,152.999995330811,6|8,1:2|0:0,0:0:0:0:
313,69,32561,2,0,P|271:93|256:142,1,76.4999976654053,2|0,0:0|1:0,0:0:0:0:
264,307,32864,1,0,1:0:0:0:
426,237,33015,2,0,P|405:205|371:189,1,76.4999976654053,10|0,0:0|0:0,0:0:0:0:
433,353,33318,5,2,1:2:0:0:
261,218,33470,1,8,0:0:0:0:
490,299,33621,1,0,1:2:0:0:
345,366,33773,1,8,0:0:0:0:
345,366,33849,1,8,0:0:0:0:
345,366,33924,1,8,1:2:0:0:
426,237,34076,1,8,3:0:0:0:
286,293,34227,2,0,B|215:301|242:333|173:334,1,114.749996498108,4|0,3:0|0:0,0:0:0:0:
132,364,34530,6,0,B|104:249|192:312|156:160,1,191.250007295609,6|0,1:2|1:0,0:0:0:0:
48,101,35136,1,10,0:0:0:0:
82,229,35288,1,2,1:2:0:0:
133,104,35440,1,2,0:0:0:0:
13,180,35591,1,10,0:0:0:0:
160,183,35743,6,0,B|222:198|212:147|289:161,1,127.500004863739,0|2,1:0|1:2,0:0:0:0:
401,304,36349,2,0,P|409:261|418:233,1,63.7500024318696,10|0,0:0|0:0,0:0:0:0:
316,345,36652,2,0,P|308:302|299:274,1,63.7500024318696,2|0,1:2|1:0,0:0:0:0:
235,192,36955,6,0,P|192:183|117:232,1,127.500004863739,6|0,1:2|0:0,0:0:0:0:
65,318,37409,1,0,1:0:0:0:
203,383,37561,2,0,B|221:326|182:337|197:254,1,127.500004863739,10|0,0:0|0:0,0:0:0:0:
353,200,38015,6,0,B|310:219|310:219|218:185,1,127.500004863739,2|2,1:2|0:0,0:0:0:0:
370,138,38470,2,0,L|350:208,1,63.7500024318696,2|0,1:2|0:0,0:0:0:0:
163,117,38773,2,0,B|206:98|206:98|298:132,1,127.500004863739,8|0,0:0|1:0,0:0:0:0:
179,209,39227,1,8,0:0:0:0:
34,27,39379,6,0,B|109:54|109:54|152:35,1,127.500004863739,6|0,1:2|0:0,0:0:0:0:
12,188,39833,2,0,L|4:105,1,63.7500024318696,2|8,1:2|0:0,0:0:0:0:
98,230,40136,2,0,L|106:147,1,63.7500024318696,2|0,1:2|0:0,0:0:0:0:
184,127,40440,1,10,0:0:0:0:
275,268,40591,6,0,L|211:261,1,63.7500024318696,2|0,1:2|0:0,0:0:0:0:
332,342,40894,2,0,L|268:348,1,63.7500024318696,2|0,1:2|0:0,0:0:0:0:
316,202,41197,1,10,0:0:0:0:
458,329,41349,2,0,L|320:342,1,127.500004863739,0|8,1:0|0:0,0:0:0:0:
379,101,41803,5,6,1:2:0:0:
481,247,41955,1,0,1:0:0:0:
286,118,42106,1,8,0:0:0:0:
500,0,42258,2,0,P|483:45|457:169,1,161.499995687485,4|0,1:2|1:0,0:0:0:0:
441,330,42712,1,2,0:0:0:0:
193,200,42864,6,0,B|276:182|261:259|364:235,1,161.499995687485,6|0,1:2|1:0,0:0:0:0:
155,319,43318,1,8,0:0:0:0:
109,98,43470,1,8,0:0:0:0:
109,98,43546,1,8,0:0:0:0:
109,98,43621,1,0,1:0:0:0:
193,200,43773,1,10,0:0:0:0:
201,28,43924,1,10,3:0:0:0:
20,171,44076,1,6,3:0:0:0:
270,91,44227,6,0,P|317:94|414:172,1,161.499995687485,6|10,1:2|0:0,0:0:0:0:
361,347,44682,2,0,P|344:295|341:253,1,80.7499978437424,2|0,0:0|1:0,0:0:0:0:
497,200,44985,2,0,P|491:239|477:277,1,80.7499978437424,2|8,1:2|0:0,0:0:0:0:
360,111,45288,1,2,0:0:0:0:
413,227,45440,1,0,1:0:0:0:
451,80,45591,5,2,0:0:0:0:
275,140,45743,2,0,L|266:238,1,80.7499978437424,10|2,0:0|0:0,0:0:0:0:
256,357,46046,1,2,1:2:0:0:
188,245,46197,1,2,1:2:0:0:
347,332,46349,1,10,0:0:0:0:
170,368,46500,1,2,1:2:0:0:
345,217,46652,5,14,0:0:0:0:
106,317,46803,1,8,0:0:0:0:
275,140,46955,1,2,1:2:0:0:
170,368,47106,2,0,P|186:316|120:228,1,161.499995687485,10|2,0:0|1:2,0:0:0:0:
3,185,47561,1,8,3:0:0:0:
288,343,47712,6,0,B|377:337|316:275|424:257,1,161.499995687485,6|10,1:2|0:0,0:0:0:0:
498,368,48167,1,4,3:0:0:0:
387,119,48318,1,4,3:0:0:0:
280,257,48470,6,0,B|237:262|216:284|216:284|195:249|154:235,1,148.75,2|0,0:0|0:0,0:0:0:0:
127,163,49076,6,0,L|233:144,1,93.5000028533936,6|0,1:2|0:0,0:0:0:0:
450,54,49379,2,0,P|362:35|300:100,1,187.000005706787,8|0,0:0|1:0,0:0:0:0:
280,257,49833,1,0,1:0:0:0:
479,135,49985,2,0,L|372:116,1,93.5000028533936,10|0,0:0|0:0,0:0:0:0:
363,317,50288,6,0,P|379:273|377:227,1,93.5000028533936,2|0,1:2|0:0,0:0:0:0:
147,294,50591,2,0,P|144:340|160:383,1,93.5000028533936,10|0,0:0|0:0,0:0:0:0:
149,172,50894,1,0,1:0:0:0:
246,326,51046,1,0,1:0:0:0:
136,151,51197,2,0,P|92:135|46:137,1,93.5000028533936,10|0,0:0|0:0,0:0:0:0:
283,32,51500,6,0,L|266:124,1,93.5000028533936,2|0,1:2|1:0,0:0:0:0:
62,229,51803,2,0,L|45:136,1,93.5000028533936,10|0,0:0|0:0,0:0:0:0:
232,310,52106,1,2,1:2:0:0:
57,380,52258,1,0,1:0:0:0:
169,149,52409,2,0,L|152:241,1,93.5000028533936,10|0,0:0|0:0,0:0:0:0:
314,363,52712,6,0,P|369:356|401:324,1,93.5000028533936,0|0,1:0|0:0,0:0:0:0:
323,86,53015,2,0,B|294:188|351:164|326:269,1,187.000005706787,10|2,0:0|1:2,0:0:0:0:
413,134,53470,1,0,1:0:0:0:
234,272,53621,2,0,P|179:265|147:233,1,93.5000028533936,10|0,0:0|0:0,0:0:0:0:
419,163,53924,6,0,P|440:214|428:257,1,93.5000028533936,4|0,1:2|0:0,0:0:0:0:
238,69,54227,1,10,0:0:0:0:
325,269,54379,1,2,1:2:0:0:
413,134,54530,2,0,P|464:113|507:125,1,93.5000028533936,2|0,1:2|1:0,0:0:0:0:
320,285,54833,2,0,P|274:292|233:271,1,93.5000028533936,10|0,0:0|0:0,0:0:0:0:
65,152,55136,6,0,L|48:244,1,93.5000028533936,0|0,1:0|0:0,0:0:0:0:
233,91,55439,2,0,L|216:-1,1,93.5000028533936,10|0,0:0|0:0,0:0:0:0:
140,256,55743,1,2,1:2:0:0:
294,172,55894,1,0,1:0:0:0:
81,60,56046,2,0,L|64:152,1,93.5000028533936,10|0,0:0|0:0,0:0:0:0:
108,347,56349,6,0,P|153:354|194:333,1,93.5000028533936,6|0,1:2|0:0,0:0:0:0:
169,156,56652,1,10,0:0:0:0:
287,366,56803,2,0,P|315:330|319:284,1,93.5000028533936,2|0,0:0|1:0,0:0:0:0:
172,174,57106,2,0,P|143:209|139:255,1,93.5000028533936,2|8,1:2|0:0,0:0:0:0:
285,100,57409,1,2,0:0:0:0:
194,333,57561,5,0,1:0:0:0:
164,137,57712,1,2,1:2:0:0:
394,261,57864,2,0,L|486:244,1,93.5000028533936,8|0,0:0|0:0,0:0:0:0:
390,115,58167,1,2,1:2:0:0:
344,107,58242,1,0,1:0:0:0:
300,123,58318,1,8,1:2:0:0:
268,156,58394,1,8,1:2:0:0:
256,201,58470,2,0,L|273:293,1,93.5000028533936,0|8,1:0|1:2,0:0:0:0:
283,328,58697,1,8,1:2:0:0:
283,328,58773,6,0,P|328:335|369:314,1,93.5000028533936,6|0,1:2|0:0,0:0:0:0:
187,156,59076,2,0,B|66:158|143:212|15:218,1,187.000005706787,8|0,0:0|1:0,0:0:0:0:
178,246,59530,1,0,1:0:0:0:
37,136,59682,2,0,P|15:95|22:49,1,93.5000028533936,10|0,0:0|0:0,0:0:0:0:
105,293,59985,6,0,L|13:310,1,93.5000028533936,2|0,1:2|0:0,0:0:0:0:
268,156,60288,2,0,L|360:173,1,93.5000028533936,10|0,0:0|0:0,0:0:0:0:
178,246,60591,1,0,1:0:0:0:
236,77,60743,1,0,1:0:0:0:
415,238,60894,2,0,L|507:221,1,93.5000028533936,10|0,0:0|0:0,0:0:0:0:
282,69,61197,6,0,P|260:109|267:155,1,93.5000028533936,2|0,1:2|0:0,0:0:0:0:
429,324,61500,2,0,P|435:278|414:237,1,93.5000028533936,10|0,0:0|0:0,0:0:0:0:
289,286,61803,1,2,1:2:0:0:
433,131,61955,1,0,1:0:0:0:
276,307,62106,2,0,P|231:314|190:293,1,93.5000028533936,10|0,0:0|0:0,0:0:0:0:
282,69,62409,6,0,L|299:161,1,93.5000028533936,0|0,1:0|1:0,0:0:0:0:
364,366,62712,2,0,P|401:285|489:279,1,187.000005706787,10|2,0:0|1:2,0:0:0:0:
403,149,63167,1,0,1:0:0:0:
276,307,63318,2,0,L|184:290,1,93.5000028533936,10|0,0:0|0:0,0:0:0:0:
60,113,63621,6,0,P|105:106|146:127,1,93.5000028533936,4|0,1:2|0:0,0:0:0:0:
82,360,63924,1,10,0:0:0:0:
0,193,64076,1,2,0:0:0:0:
189,321,64227,2,0,P|234:327|275:306,1,93.5000028533936,2|0,1:2|1:0,0:0:0:0:
146,127,64530,2,0,P|100:120|59:141,1,93.5000028533936,10|0,0:0|0:0,0:0:0:0:
311,167,64833,6,0,L|328:75,1,93.5000028533936,2|0,1:2|0:0,0:0:0:0:
128,227,65136,2,0,L|145:319,1,93.5000028533936,10|0,0:0|0:0,0:0:0:0:
210,123,65439,1,2,1:2:0:0:
34,249,65591,1,0,1:0:0:0:
282,358,65743,2,0,L|299:266,1,93.5000028533936,10|0,0:0|0:0,0:0:0:0:
222,35,66046,6,0,B|98:36|173:83|54:99,1,187.000005706787,6|10,1:2|0:0,0:0:0:0:
235,135,66500,2,0,P|280:141|321:120,1,93.5000028533936,2|0,0:0|1:0,0:0:0:0:
129,225,66803,1,2,1:2:0:0:
261,49,66955,1,8,0:0:0:0:
384,217,67106,1,2,0:0:0:0:
145,140,67258,6,0,L|162:232,1,93.5000028533936,4|0,1:2|1:0,0:0:0:0:
353,26,67561,2,0,L|336:118,1,93.5000028533936,8|0,0:0|0:0,0:0:0:0:
269,355,67864,2,0,L|252:263,1,93.5000028533936,2|8,1:2|0:0,0:0:0:0:
246,236,68091,1,8,0:0:0:0:
246,236,68167,2,0,L|263:144,1,93.5000028533936,8|8,0:0|0:0,0:0:0:0:
19,253,68470,5,14,0:0:0:0:
174,106,68621,1,0,1:0:0:0:
168,324,68773,1,0,1:0:0:0:
31,101,68924,5,12,0:0:0:0:
262,144,69076,1,0,1:0:0:0:
39,266,69227,1,0,1:0:0:0:
157,14,69379,6,0,L|174:106,1,93.5000028533936,8|0,0:0|1:0,0:0:0:0:
331,290,69682,2,0,L|348:198,1,93.5000028533936,14|0,0:0|1:0,0:0:0:0:
268,59,69985,1,0,1:0:0:0:
130,249,70136,2,0,L|38:266,1,93.5000028533936,12|0,0:0|1:0,0:0:0:0:
190,101,70440,1,0,1:0:0:0:
331,290,70591,2,0,L|423:307,1,93.5000028533936,8|0,0:0|1:0,0:0:0:0:
352,86,70894,5,14,0:0:0:0:
227,288,71046,1,0,1:0:0:0:
445,187,71197,1,0,1:0:0:0:
179,137,71349,5,12,0:0:0:0:
277,355,71500,1,0,1:0:0:0:
362,169,71652,1,0,1:0:0:0:
135,305,71803,6,0,L|227:288,1,93.5000028533936,8|0,0:0|1:0,0:0:0:0:
452,212,72106,2,0,L|360:195,1,93.5000028533936,8|0,0:0|1:0,0:0:0:0:
185,163,72409,1,0,1:0:0:0:
341,72,72561,1,8,0:0:0:0:
341,72,72636,1,8,0:0:0:0:
341,72,72712,1,2,1:2:0:0:
365,300,72864,1,0,0:0:0:0:
256,108,73015,1,0,1:0:0:0:
452,212,73167,1,0,1:0:0:0:
277,355,73318,6,0,P|262:310|267:264,1,93.5000028533936,6|0,1:2|0:0,0:0:0:0:
438,102,73621,2,0,P|368:160|279:146,1,187.000005706787,8|0,0:0|1:0,0:0:0:0:
201,41,74076,1,0,1:0:0:0:
114,208,74227,2,0,P|160:212|204:197,1,93.5000028533936,8|0,0:0|0:0,0:0:0:0:
12,28,74530,6,0,L|29:120,1,93.5000028533936,2|0,1:2|0:0,0:0:0:0:
187,289,74833,2,0,L|204:197,1,93.5000028533936,8|0,0:0|0:0,0:0:0:0:
101,41,75136,1,2,1:2:0:0:
280,117,75288,1,0,1:0:0:0:
45,211,75440,2,0,L|28:119,1,93.5000028533936,8|0,0:0|1:0,0:0:0:0:
191,316,75743,5,14,0:0:0:0:
191,316,76046,1,8,0:0:0:0:
323,243,76197,1,8,0:0:0:0:
169,226,76349,1,8,0:0:0:0:
334,352,76500,1,0,1:0:0:0:
265,164,76652,1,0,1:0:0:0:
111,351,76803,1,2,1:2:0:0:
351,235,76955,5,0,1:0:0:0:
129,122,77106,1,10,3:0:0:0:
236,375,77258,1,10,3:0:0:0:
356,140,77409,1,10,3:0:0:0:
356,140,77485,1,8,3:0:0:0:
356,140,77561,1,10,3:0:0:0:
151,252,77712,1,10,3:0:0:0:
366,334,77864,2,0,P|411:321|440:286,1,93.5000028533936,6|6,3:0|3:0,0:0:0:0:
238,167,78167,6,0,B|219:275|272:242|243:351,1,187.000005706787,6|14,1:2|0:0,0:0:0:0:
147,128,78621,2,0,P|215:69|302:93,1,187.000005706787,2|2,0:0|1:2,0:0:0:0:
471,210,79076,2,0,P|493:168|489:123,1,93.5000028533936,8|0,0:0|0:0,0:0:0:0:
238,167,79379,6,0,L|255:259,1,93.5000028533936,2|0,1:2|0:0,0:0:0:0:
407,49,79682,2,0,L|390:141,1,93.5000028533936,8|2,0:0|0:0,0:0:0:0:
358,294,79985,1,0,1:0:0:0:
304,112,80136,1,2,1:2:0:0:
454,301,80288,2,0,L|471:209,1,93.5000028533936,10|0,0:0|0:0,0:0:0:0:
238,167,80591,6,0,L|146:184,1,93.5000028533936,2|0,1:2|0:0,0:0:0:0:
341,304,80894,1,8,0:0:0:0:
138,347,81046,2,0,L|230:330,1,93.5000028533936,2|0,0:0|1:0,0:0:0:0:
317,180,81349,1,0,1:0:0:0:
94,269,81500,2,0,L|2:252,1,93.5000028533936,10|0,0:0|0:0,0:0:0:0:
138,21,81803,6,0,L|121:113,1,93.5000028533936,2|0,1:2|0:0,0:0:0:0:
231,302,82106,1,8,0:0:0:0:
221,75,82258,2,0,L|238:167,1,93.5000028533936,2|0,0:0|1:0,0:0:0:0:
125,278,82561,1,2,1:2:0:0:
342,188,82712,2,0,L|325:280,1,93.5000028533936,10|0,0:0|0:0,0:0:0:0:
343,54,83015,5,6,1:2:0:0:
244,200,83167,1,2,1:2:0:0:
444,59,83318,1,10,0:0:0:0:
248,86,83470,1,2,1:2:0:0:
427,243,83621,2,0,L|444:151,1,93.5000028533936,2|2,1:2|1:2,0:0:0:0:
230,228,83924,2,0,L|247:320,1,93.5000028533936,10|0,0:0|0:0,0:0:0:0:
172,59,84227,6,0,B|46:58|130:108|1:117,1,187.000005706787,6|8,1:2|0:0,0:0:0:0:
0,308,84682,2,0,P|33:252|163:246,1,187.000005706787,2|0,0:0|1:0,0:0:0:0:
313,346,85136,2,0,P|261:348|221:334,1,93.5000028533936,10|0,0:0|0:0,0:0:0:0:
380,201,85440,5,6,1:2:0:0:
410,360,85591,1,2,0:0:0:0:
286,171,85743,1,10,0:0:0:0:
222,334,85894,1,2,1:2:0:0:
222,334,85970,1,2,1:2:0:0:
222,334,86046,2,0,L|205:242,1,93.5000028533936,2|2,1:2|1:2,0:0:0:0:
396,109,86349,2,0,L|379:201,1,93.5000028533936,10|2,0:0|0:0,0:0:0:0:
294,26,86652,5,6,1:2:0:0:
476,127,86803,1,10,0:0:0:0:
271,204,86955,1,0,1:0:0:0:
457,38,87106,1,8,0:0:0:0:
457,38,87182,1,8,0:0:0:0:
457,38,87258,1,10,0:0:0:0:
452,263,87409,1,10,0:0:0:0:
299,43,87561,1,10,0:0:0:0:
265,247,87712,1,10,0:0:0:0:
