osu file format v14

[General]
AudioFilename: audio.mp3
AudioLeadIn: 0
PreviewTime: 132736
Countdown: 0
SampleSet: Soft
StackLeniency: 0.5
Mode: 0
LetterboxInBreaks: 0
WidescreenStoryboard: 0

[Editor]
Bookmarks: 166962,205069,244587
DistanceSpacing: 0.7
BeatDivisor: 4
GridSize: 32
TimelineZoom: 1

[Metadata]
Title:Serebro
TitleUnicode:Серебро
Artist:Bi-2
ArtistUnicode:Би-2
Creator:Myah
Version:Toska
Source:
Tags:myahkey russian alternative rock brat брат 2 bidva bdva bi2 би2 лева шура лёва русский рок
BeatmapID:3698172
BeatmapSetID:1803474

[Difficulty]
HPDrainRate:4
CircleSize:4
OverallDifficulty:6
ApproachRate:5
SliderMultiplier:2.8
SliderTickRate:1

[Events]
//Background and Video events
0,0,"122526230_396349654.jpg",0,0
//Break Periods
2,182486,202625
//Storyboard Layer 0 (Background)
//Storyboard Layer 1 (Fail)
//Storyboard Layer 2 (Pass)
//Storyboard Layer 3 (Foreground)
//Storyboard Layer 4 (Overlay)
//Storyboard Sound Samples

[TimingPoints]
-990,705.683101242002,4,2,1,100,1,0
421,-181.818181818181,4,2,1,30,0,0
41350,-153.846153846154,4,2,1,50,0,0
58287,-100,4,2,1,80,0,0
80868,-125,4,2,1,60,0,0
99216,705.683101242002,4,2,1,100,1,0
99216,-125,4,2,1,60,0,0
116152,-142.857142857143,4,2,1,50,0,0
122503,-117.647058823529,4,2,1,70,0,0
133088,-95.2380952380952,4,2,1,70,0,0
155670,-95.2380952380952,4,2,1,80,0,0
166961,-95.2380952380952,4,2,1,40,0,0
178252,-95.2380952380952,4,2,1,25,0,0
179663,-95.2380952380952,4,2,1,10,0,0
181075,-95.2380952380952,4,2,1,5,0,0
182486,705.683101242002,4,2,1,100,1,0
204185,-117.647058823529,4,2,1,70,0,0
222004,-100,4,2,1,80,0,0

[Colours]
Combo1 : 128,128,128
Combo2 : 160,166,173

[HitObjects]
42,318,5007,5,2,0:2:0:0:
35,295,5360,1,0,0:0:0:0:
28,272,5713,1,0,0:0:0:0:
21,249,6066,1,2,0:2:0:0:
220,31,9242,5,2,0:0:0:0:
202,46,9594,1,0,0:0:0:0:
183,59,9947,1,0,0:0:0:0:
163,55,10300,2,0,P|194:109|214:210,1,154.000004699707,2|0,0:0|0:0,0:0:0:0:
211,220,11359,2,0,B|295:230|253:288|341:300,1,154.000004699707,2|2,0:0|0:0,0:0:0:0:
357,290,12417,1,0,0:0:0:0:
346,310,12770,1,0,0:0:0:0:
340,332,13123,1,2,0:0:0:0:
433,25,14887,5,2,0:0:0:0:
444,45,15240,1,0,0:0:0:0:
450,67,15593,1,0,0:0:0:0:
451,90,15946,2,0,P|384:138|343:202,1,154.000004699707,2|0,0:0|0:0,0:0:0:0:
336,175,17004,1,2,0:0:0:0:
228,349,17710,5,2,0:0:0:0:
245,333,18063,2,0,P|231:297|222:247,1,77.0000023498536
229,237,18768,2,0,P|237:188|242:125,1,102.666669799805,2|2,0:0|0:0,0:0:0:0:
51,243,20180,2,0,P|59:292|64:355,1,102.666669799805,2|2,0:0|0:0,0:0:0:0:
326,27,23355,5,2,0:0:0:0:
318,47,23708,2,0,P|280:35|234:33,1,77.0000023498536
220,36,24414,1,2,0:0:0:0:
458,304,27589,5,2,0:0:0:0:
439,288,27942,2,0,P|453:256|485:211,1,77.0000023498536
498,213,28648,2,0,P|484:181|452:136,1,77.0000023498536,2|0,0:0|0:0,0:0:0:0:
439,136,29354,1,0,0:0:0:0:
415,136,29706,2,0,P|428:100|452:68,1,77.0000023498536
379,4,30412,5,2,0:0:0:0:
396,19,30765,2,0,P|358:34|312:34,1,77.0000023498536
309,54,31471,1,2,0:0:0:0:
308,77,31823,2,0,B|212:83|251:30|149:41,1,154.000004699707
47,165,33235,6,0,P|83:172|134:149,1,77.0000023498536,2|0,0:0|0:0,0:0:0:0:
131,139,33940,1,0,0:0:0:0:
141,118,34293,2,0,P|148:156|155:207,1,77.0000023498536,2|0,0:0|0:0,0:0:0:0:
158,216,34999,2,0,P|151:254|144:305,1,77.0000023498536,0|2,0:0|0:0,0:0:0:0:
144,315,35705,1,0,0:0:0:0:
149,337,36057,1,0,0:0:0:0:
164,354,36410,6,0,L|216:345,1,38.5000011749268,2|0,0:0|0:0,0:0:0:0:
375,310,37116,2,0,P|439:279|516:309,1,154.000004699707,2|2,0:0|0:0,0:0:0:0:
492,174,38527,2,0,B|315:145|358:253|185:237,2,308.000009399414,2|2|2,0:0|0:0|0:0,0:0:0:0:
290,21,42056,6,0,P|281:70|274:127,1,90.9999958343508,2|0,0:0|0:0,0:0:0:0:
251,98,42761,1,2,0:0:0:0:
223,96,43114,2,0,P|247:184|270:279,1,181.999991668702,2|0,0:0|0:0,0:0:0:0:
347,310,44173,1,2,0:0:0:0:
359,285,44526,2,0,P|265:303|174:335,1,181.999991668702,2|0,0:0|0:0,0:0:0:0:
102,300,45584,1,2,0:0:0:0:
85,319,45937,2,0,B|75:215|131:245|111:130,1,181.999991668702,2|0,0:0|0:0,0:0:0:0:
56,76,46996,5,2,0:0:0:0:
182,202,47701,1,2,0:0:0:0:
203,184,48054,2,0,P|195:137|192:92,1,90.9999958343508,2|0,0:0|0:0,0:0:0:0:
275,245,49113,1,2,0:0:0:0:
254,263,49466,2,0,P|262:310|265:355,1,90.9999958343508,2|0,0:0|0:0,0:0:0:0:
449,282,50877,2,0,P|403:276|358:273,1,90.9999958343508,2|2,0:0|0:0,0:0:0:0:
157,343,51935,6,0,P|111:348|66:351,1,90.9999958343508,2|0,0:0|0:0,0:0:0:0:
6,292,52641,2,0,L|31:92,1,181.999991668702,2|0,0:0|0:0,0:0:0:0:
21,85,53700,1,2,0:0:0:0:
10,59,54052,2,0,B|119:28|186:90|177:119|167:144|251:210|342:181,1,363.999983337403,2|2,0:0|0:0,0:0:0:0:
50,328,57228,6,0,L|44:227,2,90.9999958343508,2|2|2,0:0|0:0|0:0,0:0:0:0:
150,371,58287,6,0,P|194:317|252:274,1,140,4|0,3:1|0:0,0:0:0:0:
398,354,58992,1,2,1:2:0:0:
341,273,59345,1,2,3:2:0:0:
429,230,59698,1,2,3:2:0:0:
360,159,60050,1,0,0:0:0:0:
502,68,60404,2,0,B|436:77|448:11|344:25,1,140,0|0,1:0|0:0,0:0:0:0:
275,14,61109,5,0,3:0:0:0:
232,102,61461,1,2,0:0:0:0:
90,10,61815,2,0,B|87:75|139:81|128:166,2,140,2|2|2,1:2|3:2|3:2,0:0:0:0:
0,45,62873,1,2,0:2:0:0:
0,45,63050,1,2,0:0:0:0:
0,45,63226,1,2,1:2:0:0:
45,131,63579,1,2,0:2:0:0:
3,219,63932,6,0,L|152:200,1,140,2|2,3:2|0:3,0:0:0:0:
316,180,64638,1,2,1:2:0:0:
364,264,64990,1,2,3:2:0:0:
277,310,65343,1,2,3:2:0:0:
230,223,65696,1,0,0:0:0:0:
89,314,66049,2,0,P|151:333|225:381,2,140,0|0|0,1:0|0:0|3:0,0:0:0:0:
4,265,67107,5,2,0:0:0:0:
87,212,67460,1,2,1:2:0:0:
5,157,67813,1,2,3:2:0:0:
80,94,68166,1,2,3:2:0:0:
10,25,68519,1,2,0:2:0:0:
176,0,68872,2,0,P|164:66|153:145,2,140,2|2|2,1:2|0:2|3:2,0:0:0:0:
197,204,70283,5,2,1:2:0:0:
289,170,70636,1,2,3:2:0:0:
251,79,70989,1,2,3:2:0:0:
341,34,71342,1,0,0:0:0:0:
341,34,71694,2,0,P|321:106|314:183,1,140,0|0,1:0|0:0,0:0:0:0:
404,210,72400,5,0,3:0:0:0:
442,120,72752,1,0,0:0:0:0:
511,273,73106,2,0,P|451:309|396:352,1,140,2|2,1:2|3:2,0:0:0:0:
309,306,73812,2,0,P|238:316|164:335,1,140,2|2,3:2|0:2,0:0:0:0:
25,248,74517,1,2,1:2:0:0:
78,166,74870,1,2,0:2:0:0:
159,221,75223,6,0,B|161:164|118:157|127:65,1,140,2|2,3:2|0:3,0:0:0:0:
275,7,75929,2,0,P|259:74|249:146,2,140,2|2|2,1:2|3:2|3:2,0:0:0:0:
335,83,76986,1,0,0:0:0:0:
496,141,77340,2,0,P|486:71|470:3,2,140,2|0|0,1:2|0:2|3:2,0:0:0:0:
399,155,78398,1,2,0:0:0:0:
270,263,78751,2,0,P|314:236|390:280,1,140,2|2,1:2|3:2,0:0:0:0:
481,302,79457,1,2,3:2:0:0:
398,249,79810,1,0,0:2:0:0:
503,118,80163,1,0,1:2:0:0:
432,66,80516,1,0,0:2:0:0:
432,66,80692,1,0,0:0:0:0:
432,66,80868,6,0,P|441:120|449:188,1,112,0|0,3:0|0:0,0:0:0:0:
325,232,81574,1,0,1:0:0:0:
275,171,81926,1,0,3:0:0:0:
332,117,82280,2,0,L|310:354,1,224,0|0,3:0|1:0,0:0:0:0:
232,355,83338,1,0,0:0:0:0:
218,277,83691,5,0,3:0:0:0:
295,262,84044,1,0,0:0:0:0:
387,359,84397,2,0,P|377:300|368:240,1,112,0|0,1:0|3:0,0:0:0:0:
417,186,85102,2,0,P|359:171|297:209,1,112,0|0,3:0|0:0,0:0:0:0:
226,293,85808,1,0,1:0:0:0:
239,215,86161,1,0,0:0:0:0:
160,209,86514,6,0,L|146:323,1,112,0|2,3:0|0:3,0:0:0:0:
11,320,87220,1,0,1:0:0:0:
79,283,87572,1,0,3:0:0:0:
41,213,87925,2,0,P|25:164|12:104,1,112,0|0,3:0|0:0,0:0:0:0:
118,28,88631,2,0,P|61:16|-1:4,2,112,0|0|0,1:0|0:0|3:0,0:0:0:0:
194,43,89689,5,0,0:0:0:0:
238,169,90042,2,0,P|227:226|217:290,1,112,0|0,1:0|3:0,0:0:0:0:
209,357,90748,1,0,3:0:0:0:
259,96,91454,1,0,1:0:0:0:
259,96,91806,1,0,0:0:0:0:
259,96,92159,5,0,3:0:0:0:
326,55,92512,1,0,0:0:0:0:
327,189,92865,2,0,P|379:215|444:188,1,112,0|0,1:0|3:0,0:0:0:0:
471,135,93571,2,0,P|466:79|459:22,1,112,0|0,3:0|0:0,0:0:0:0:
385,137,94276,1,0,1:0:0:0:
467,269,94982,6,0,P|455:316|442:381,1,112,0|0,3:0|0:0,0:0:0:0:
368,260,95688,1,0,1:0:0:0:
327,189,96041,1,0,3:0:0:0:
261,232,96393,2,0,L|487:185,1,224,0|0,3:0|1:0,0:0:0:0:
436,121,97452,1,0,3:0:0:0:
500,76,97805,5,0,3:0:0:0:
456,10,98158,1,2,0:3:0:0:
339,75,98510,2,0,P|331:23|383:18,2,112,0|0|0,1:0|0:0|3:0,0:0:0:0:
225,317,99921,6,0,P|225:259|222:188,1,112,0|0,1:0|3:0,0:0:0:0:
198,130,100627,2,0,P|245:132|302:186,1,112,0|0,3:0|0:0,0:0:0:0:
153,237,101333,1,0,1:0:0:0:
153,237,101685,1,0,0:0:0:0:
118,166,102038,5,0,3:0:0:0:
48,202,102391,1,0,0:0:0:0:
100,326,102744,2,0,P|152:319|229:317,1,112,0|0,1:0|3:0,0:0:0:0:
270,264,103450,2,0,P|325:266|381:273,1,112,0|0,3:0|0:0,0:0:0:0:
444,155,104155,2,0,B|439:211|486:211|483:277,2,112,0|0|0,1:0|0:0|3:0,0:0:0:0:
500,100,105214,5,2,0:3:0:0:
397,14,105567,2,0,B|402:70|355:70|358:136,1,112,0|0,1:0|3:0,0:0:0:0:
302,171,106272,2,0,P|311:224|320:290,1,112,0|0,3:0|0:0,0:0:0:0:
215,367,106978,1,0,1:0:0:0:
215,367,107331,1,0,0:0:0:0:
156,315,107684,5,0,3:0:0:0:
207,255,108037,1,0,0:0:0:0:
128,146,108389,2,0,P|68:155|85:199,1,112,0|0,1:0|3:0,0:0:0:0:
95,266,109095,2,0,L|80:380,1,112,0|0,3:0|0:0,0:0:0:0:
0,269,109801,1,0,1:0:0:0:
49,208,110154,1,0,0:0:0:0:
35,130,110506,6,0,B|99:123|80:160|161:149,1,112,0|0,3:0|0:0,0:0:0:0:
246,63,111212,1,0,1:0:0:0:
170,81,111565,1,0,3:0:0:0:
222,138,111918,2,0,P|240:187|198:229,1,112,0|0,3:0|0:0,0:0:0:0:
72,248,112623,2,0,B|123:250|116:309|186:312,1,112,0|0,1:0|0:0,0:0:0:0:
209,371,113329,6,0,L|450:351,1,224,0|0,3:0|1:0,0:0:0:0:
480,290,114388,1,0,3:0:0:0:
420,239,114741,1,0,3:0:0:0:
290,271,115093,1,0,1:0:0:0:
224,230,115446,1,4,0:3:0:0:
88,256,115799,1,0,1:0:0:0:
58,118,116152,6,0,P|60:217|59:319,1,195.999994018555,4|2,3:1|0:0,0:0:0:0:
141,315,117210,1,0,3:0:0:0:
141,315,117563,2,0,P|140:217|142:119,1,195.999994018555,0|2,3:0|0:0,0:0:0:0:
201,367,118975,6,0,B|328:379|280:332|392:339,1,195.999994018555,2|2,3:2|0:0,0:0:0:0:
392,264,120033,1,0,3:0:0:0:
392,264,120386,2,0,B|280:271|328:224|200:236,1,195.999994018555,0|2,3:0|0:0,0:0:0:0:
201,235,121797,1,4,3:2:0:0:
438,59,122503,5,0,1:2:0:0:
372,9,122856,1,0,3:2:0:0:
315,66,123209,2,0,L|330:198,1,119.000002269745,0|0,3:2|0:0,0:0:0:0:
199,128,123914,1,0,1:0:0:0:
133,178,124267,1,0,0:0:0:0:
76,121,124620,6,0,L|91:-11,1,119.000002269745,0|0,3:2|0:0,0:0:0:0:
196,115,125326,2,0,L|186:52,1,59.5000011348725,0|0,1:2|0:0,0:0:0:0:
183,39,125679,1,0,3:2:0:0:
257,0,126031,2,0,B|333:1|333:63|436:58,1,178.500003404617,0|0,3:2|0:0,0:0:0:0:
442,58,126737,2,0,L|434:191,1,119.000002269745,0|0,1:0|0:0,0:0:0:0:
356,146,127443,6,0,P|368:228|384:337,1,178.500003404617,2|0,3:2|0:0,0:0:0:0:
385,336,128149,1,0,1:2:0:0:
331,272,128501,1,0,3:2:0:0:
257,308,128854,2,0,B|121:293|186:379|13:371,2,238.00000453949,2|2|2,3:2|1:2|3:2,0:0:0:0:
58,136,130971,5,0,1:2:0:0:
151,227,131324,1,0,3:2:0:0:
151,227,131501,1,4,0:3:0:0:
151,227,131677,2,0,L|222:208,1,59.5000011348725,0|0,1:0|0:0,0:0:0:0:
352,189,132206,1,0,1:0:0:0:
352,189,132383,1,0,3:0:0:0:
468,312,132735,5,6,0:2:0:0:
468,312,132912,1,2,0:2:0:0:
468,312,133088,2,0,L|453:222,1,73.4999977569581,4|0,3:1|0:0,0:0:0:0:
452,218,133441,1,2,0:2:0:0:
355,367,133794,1,2,1:2:0:0:
355,367,133970,1,2,0:2:0:0:
355,367,134147,1,2,3:2:0:0:
279,298,134500,2,0,P|288:213|302:122,1,146.999995513916,2|0,3:2|0:0,0:0:0:0:
160,264,135205,1,0,1:0:0:0:
133,174,135558,1,2,0:2:0:0:
133,174,135735,1,2,0:2:0:0:
133,174,135911,6,0,L|147:83,1,73.4999977569581,2|0,3:2|0:0,0:0:0:0:
149,80,136264,1,2,0:2:0:0:
16,195,136617,2,0,L|0:107,2,73.4999977569581,2|2|2,1:2|0:2|3:2,0:0:0:0:
0,297,137322,2,0,B|129:296|68:384|223:378,1,220.499993270874,2|0,3:2|0:0,0:0:0:0:
219,377,138028,2,0,P|213:305|204:216,1,146.999995513916,0|0,1:0|0:0,0:0:0:0:
292,113,138734,5,2,3:1:0:0:
292,113,139087,1,2,0:3:0:0:
184,250,139439,1,0,1:2:0:0:
96,194,139792,1,2,3:1:0:0:
154,95,140145,2,0,P|145:204|137:331,1,220.499993270874,0|0,3:2|0:0,0:0:0:0:
126,333,140851,2,0,L|293:323,1,146.999995513916,0|0,1:0|0:0,0:0:0:0:
376,318,141556,5,2,3:1:0:0:
318,233,141909,1,2,0:1:0:0:
148,251,142262,1,2,1:1:0:0:
148,251,142439,1,2,0:2:0:0:
148,251,142615,1,2,3:2:0:0:
62,161,142968,2,0,B|177:164|152:70|277:72,1,220.499993270874,2|0,3:2|0:0,0:0:0:0:
279,70,143674,1,0,1:0:0:0:
358,139,144026,2,0,L|354:56,1,73.4999977569581,2|0,0:2|0:0,0:0:0:0:
355,43,144379,5,6,3:1:0:0:
447,100,144732,1,2,0:0:0:0:
447,100,144908,1,2,0:1:0:0:
422,203,145261,1,2,0:0:0:0:
422,203,145438,1,2,3:1:0:0:
440,301,145791,2,0,P|392:330|354:260,1,146.999995513916,0|2,3:2|0:2,0:0:0:0:
219,384,146496,1,0,1:0:0:0:
140,318,146849,2,0,L|144:235,1,73.4999977569581,2|0,0:0|0:0,0:0:0:0:
145,223,147202,5,2,3:1:0:0:
94,140,147555,1,2,0:2:0:0:
94,140,147731,1,2,0:1:0:0:
143,46,148084,1,2,0:2:0:0:
143,46,148260,1,2,3:1:0:0:
46,0,148613,2,0,P|52:93|60:241,1,220.499993270874,0|0,3:2|0:0,0:0:0:0:
61,242,149319,1,0,1:0:0:0:
7,331,149672,1,2,0:1:0:0:
7,331,149848,1,2,0:1:0:0:
7,331,150025,6,0,P|114:321|241:311,1,220.499993270874,2|0,3:2|0:0,0:0:0:0:
249,311,150730,1,0,1:2:0:0:
323,247,151083,1,0,3:2:0:0:
262,163,151436,2,0,B|236:253|337:279|299:385,1,220.499993270874,0|0,3:2|0:0,0:0:0:0:
324,365,152142,1,0,1:0:0:0:
64,234,152847,5,2,3:1:0:0:
138,163,153200,1,2,0:1:0:0:
14,53,153553,1,2,1:1:0:0:
14,53,153730,1,2,0:0:0:0:
14,53,153906,2,0,L|101:45,1,73.4999977569581,2|0,3:2|0:0,0:0:0:0:
109,44,154259,1,2,3:2:0:0:
211,35,154612,1,2,0:1:0:0:
225,210,154964,1,2,1:1:0:0:
50,225,155317,1,2,1:1:0:0:
173,143,155670,6,0,P|185:213|193:291,1,146.999995513916,6|2,3:1|0:1,0:0:0:0:
370,283,156376,1,2,1:1:0:0:
370,283,156729,2,2,P|377:209|389:137,1,146.999995513916,0|0,3:1|3:2,0:1:0:0:
319,62,157434,2,0,P|357:53|406:45,1,73.4999977569581,2|0,0:0|0:0,0:0:0:0:
413,44,157787,1,2,1:2:0:0:
461,152,158140,2,0,P|423:143|374:135,1,73.4999977569581,2|0,0:0|0:0,0:0:0:0:
368,131,158493,5,2,3:1:0:0:
266,148,158846,1,2,0:1:0:0:
94,108,159199,1,0,1:1:0:0:
176,44,159551,1,2,3:2:0:0:
176,44,159904,2,0,P|181:175|186:296,1,220.499993270874,0|0,3:2|0:0,0:0:0:0:
186,286,160610,1,0,1:0:0:0:
100,341,160963,2,0,P|134:345|174:378,1,73.4999977569581,2|0,0:0|0:0,0:0:0:0:
179,384,161316,5,2,3:1:0:0:
264,329,161668,1,2,0:2:0:0:
277,311,161845,1,2,0:1:0:0:
268,290,162021,1,2,1:2:0:0:
275,269,162198,1,2,0:2:0:0:
269,247,162374,1,2,3:1:0:0:
290,146,162727,2,0,P|341:185|392:252,1,146.999995513916,0|2,3:2|0:0,0:0:0:0:
508,118,163433,1,0,1:0:0:0:
431,49,163786,2,0,P|422:89|414:136,1,73.4999977569581,2|0,0:1|0:0,0:0:0:0:
416,143,164138,5,2,3:1:0:0:
335,79,164491,1,2,0:2:0:0:
326,99,164668,1,2,0:1:0:0:
307,111,164844,1,2,1:2:0:0:
299,131,165020,1,2,0:2:0:0:
301,152,165197,1,2,3:1:0:0:
209,105,165550,2,0,P|225:214|239:337,1,220.499993270874,0|0,3:2|0:0,0:0:0:0:
242,346,166255,2,0,L|409:329,1,146.999995513916,0|0,1:0|0:0,0:0:0:0:
497,232,166961,5,4,0:1:0:0:
403,48,167667,1,0,0:0:0:0:
403,48,169078,1,0,0:0:0:0:
404,48,170489,1,0,0:0:0:0:
404,48,171901,1,0,0:0:0:0:
404,48,173312,1,0,0:0:0:0:
404,48,174724,1,0,0:0:0:0:
404,48,176135,1,0,0:0:0:0:
256,192,176841,12,0,181075,0:0:0:0:
218,288,204185,5,0,3:0:0:0:
218,288,204362,1,0,1:0:0:0:
150,191,204715,1,4,0:3:0:0:
256,141,205067,5,4,3:1:0:0:
205,73,205420,1,0,0:0:0:0:
336,15,205773,2,0,P|338:71|339:154,1,119.000002269745,0|0,1:2|3:2,0:0:0:0:
423,145,206479,2,0,P|423:85|425:26,1,119.000002269745,0|0,3:2|0:0,0:0:0:0:
510,142,207184,1,0,1:0:0:0:
474,216,207537,1,0,0:0:0:0:
509,292,207890,6,0,P|447:319|457:377,1,119.000002269745,0|0,3:0|0:2,0:0:0:0:
341,268,208596,1,0,1:2:0:0:
364,187,208949,1,0,3:2:0:0:
284,164,209301,1,0,3:2:0:0:
263,244,209654,1,0,0:0:0:0:
212,110,210007,1,0,1:0:0:0:
234,29,210360,2,0,P|172:46|102:78,1,119.000002269745,0|0,0:2|3:0,0:0:0:0:
59,11,211066,5,2,0:3:0:0:
9,144,211419,2,0,L|60:190,1,59.5000011348725,0|0,1:2|0:0,0:0:0:0:
73,203,211771,1,0,3:2:0:0:
134,147,212124,2,0,P|163:231|200:323,1,178.500003404617,0|0,3:2|0:0,0:0:0:0:
205,330,212830,2,0,P|260:340|328:356,1,119.000002269745,0|0,1:2|0:2,0:0:0:0:
393,309,213536,5,0,3:0:0:0:
393,309,213888,1,0,0:2:0:0:
292,195,214241,2,0,P|282:244|345:240,1,119.000002269745,0|0,1:2|3:2,0:0:0:0:
402,197,214947,2,0,L|387:77,1,119.000002269745,0|0,3:2|0:2,0:0:0:0:
486,183,215653,1,0,1:2:0:0:
458,261,216005,1,0,0:2:0:0:
508,369,216358,6,0,P|424:351|323:335,1,178.500003404617,4|0,3:1|0:0,0:0:0:0:
315,333,217064,1,0,1:2:0:0:
225,372,217417,1,0,3:2:0:0:
144,321,217770,2,0,B|150:262|109:265|115:186,1,119.000002269745,0|0,3:2|0:2,0:0:0:0:
217,83,218475,2,0,B|211:142|252:139|246:218,1,119.000002269745,0|0,1:2|0:2,0:0:0:0:
286,271,219181,6,0,P|231:236|167:271,1,119.000002269745,0|0,3:0|0:2,0:0:0:0:
68,338,219887,1,0,1:2:0:0:
0,253,220240,1,0,3:2:0:0:
0,253,220416,1,4,0:3:0:0:
0,253,220592,1,0,3:2:0:0:
75,162,220945,1,2,0:2:0:0:
75,162,221122,1,0,1:0:0:0:
75,162,221298,1,2,1:2:0:0:
0,70,221651,1,0,0:3:0:0:
125,33,222004,6,0,L|97:199,1,140,4|0,3:1|0:0,0:0:0:0:
244,262,222709,1,2,1:2:0:0:
199,175,223062,1,2,3:2:0:0:
290,139,223415,2,0,L|268:307,1,140,2|0,3:2|0:0,0:0:0:0:
447,269,224121,1,0,1:0:0:0:
447,269,224297,1,0,0:0:0:0:
447,269,224474,1,0,0:0:0:0:
377,198,224826,5,0,3:0:0:0:
449,131,225179,1,2,0:0:0:0:
326,17,225532,2,0,B|316:77|365:91|355:160,2,140,2|2|2,1:2|3:2|3:2,0:0:0:0:
242,84,226591,1,2,0:2:0:0:
93,7,226944,1,2,1:2:0:0:
27,80,227296,2,0,L|121:92,1,70,2|0,0:2|0:0,0:0:0:0:
119,91,227649,6,0,B|130:160|84:160|99:251,1,140,2|2,3:2|0:3,0:0:0:0:
241,333,228355,1,2,1:2:0:0:
241,333,228531,1,0,0:0:0:0:
241,333,228708,1,2,3:2:0:0:
191,250,229061,2,0,P|257:234|311:275,1,140,2|0,3:2|0:0,0:0:0:0:
170,375,229766,1,0,1:0:0:0:
170,375,229943,1,0,0:0:0:0:
170,375,230119,1,0,0:0:0:0:
106,300,230472,5,0,3:0:0:0:
8,291,230825,1,2,0:0:0:0:
76,138,231178,2,0,P|77:176|-5:161,1,140,2|2,1:2|3:2,0:0:0:0:
38,71,231883,1,2,3:2:0:0:
38,71,232236,1,2,0:2:0:0:
171,174,232589,1,2,1:2:0:0:
286,52,232942,1,2,1:2:0:0:
400,134,233295,6,0,P|317:198|224:282,1,210,4|0,3:1|0:0,0:0:0:0:
225,284,234000,1,2,1:2:0:0:
321,311,234353,2,0,P|354:319|404:338,1,70,2|0,3:2|0:0,0:0:0:0:
408,337,234706,1,2,3:2:0:0:
458,253,235059,1,0,0:0:0:0:
325,147,235412,2,0,B|387:148|386:97|480:85,2,140,0|0|0,1:0|0:0|3:0,0:0:0:0:
243,92,236470,5,2,0:2:0:0:
121,214,236823,1,2,1:2:0:0:
28,181,237176,1,2,3:2:0:0:
65,90,237529,1,2,3:2:0:0:
156,126,237882,1,2,0:2:0:0:
117,304,238234,2,0,P|184:297|264:294,1,140,2|2,1:2|0:2,0:0:0:0:
335,235,238940,6,0,P|404:237|474:244,1,140,2|2,3:2|0:3,0:0:0:0:
337,147,239646,1,2,1:2:0:0:
249,191,239999,1,2,3:2:0:0:
174,131,240352,1,2,3:2:0:0:
92,179,240704,1,0,0:0:0:0:
92,179,240881,1,0,0:0:0:0:
92,179,241057,2,0,P|104:247|114:329,2,140,0|0|0,1:0|0:0|3:0,0:0:0:0:
41,94,242116,5,2,0:0:0:0:
194,27,242469,2,0,P|260:38|346:54,2,140,2|2|2,1:2|3:2|3:2,0:0:0:0:
235,114,243527,1,2,0:2:0:0:
207,280,243880,1,2,1:2:0:0:
370,319,244233,1,2,1:2:0:0:
299,184,244586,6,0,P|391:237|488:298,1,210,4|0,3:1|0:0,0:0:0:0:
495,303,245291,1,2,1:2:0:0:
477,206,245644,1,2,3:2:0:0:
381,220,245997,1,2,3:2:0:0:
399,317,246350,1,0,0:0:0:0:
238,363,246703,2,0,P|269:348|325:347,2,70,0|0|0,1:0|0:0|0:0,0:0:0:0:
161,302,247408,5,0,3:0:0:0:
223,228,247761,1,2,0:2:0:0:
223,228,247938,1,0,0:0:0:0:
223,228,248114,1,2,1:2:0:0:
159,169,248467,1,2,3:2:0:0:
159,169,248643,1,0,0:0:0:0:
159,169,248820,1,2,3:2:0:0:
193,77,249173,1,0,0:0:0:0:
349,137,249525,2,0,B|327:200|269:172|249:256,1,140,2|2,1:2|0:2,0:0:0:0:
228,330,250231,5,2,3:2:0:0:
36,55,250937,1,2,1:2:0:0:
118,23,251290,1,2,3:2:0:0:
161,112,251642,2,0,P|151:165|69:134,1,140,2|0,3:2|0:0,0:0:0:0:
244,131,252348,1,0,1:0:0:0:
214,37,252701,1,0,0:0:0:0:
309,12,253054,5,0,3:0:0:0:
338,105,253407,1,2,0:0:0:0:
441,236,253759,2,0,P|454:167|473:99,2,140,2|2|2,1:2|3:2|3:2,0:0:0:0:
382,314,254818,1,2,0:2:0:0:
259,199,255171,1,2,1:2:0:0:
378,80,255524,1,2,1:2:0:0:
346,202,255877,1,4,3:1:0:0:
