osu file format v14

[General]
AudioFilename: audio.mp3
AudioLeadIn: 0
PreviewTime: 21522
Countdown: 0
SampleSet: Soft
StackLeniency: 0.7
Mode: 2
LetterboxInBreaks: 0
WidescreenStoryboard: 0

[Editor]
Bookmarks: 23313,45136,66960,77872,88784,110608,132432,143344,154256,176080,197901,208813,219725,230637,241550,263374,285200
DistanceSpacing: 1
BeatDivisor: 2
GridSize: 32
TimelineZoom: 1.2

[Metadata]
Title:Polkovniku nikto ne pishet
TitleUnicode:Полковнику никто не пишет
Artist:Bi-2
ArtistUnicode:Би-2
Creator:Nelly
Version:Solitude
Source:
Tags:russian alternative rock belarus brother brat брат 2 полковник polcovnik polkovnik bidva bdva bi2 би2 лева шура лёва русский рок leva shura egor bortnik егор бортник alexsander uman александр уман
BeatmapID:3357945
BeatmapSetID:1645072

[Difficulty]
HPDrainRate:5
CircleSize:3.6
OverallDifficulty:7.5
ApproachRate:7.5
SliderMultiplier:1.7
SliderTickRate:1

[Events]
//Background and Video events
0,0,"bi 2 cover.jpg",0,0
//Break Periods
//Storyboard Layer 0 (Background)
//Storyboard Layer 1 (Fail)
//Storyboard Layer 2 (Pass)
//Storyboard Layer 3 (Foreground)
//Storyboard Layer 4 (Overlay)
//Storyboard Sound Samples

[TimingPoints]
22631,681.996430885345,4,2,1,70,1,0
22631,-50,4,2,1,70,0,0
23313,681.996430885345,4,2,1,70,1,0
23313,-50,4,2,1,70,0,0
83328,-62.5,4,2,1,70,0,0
87420,-50,4,2,1,70,0,0
148800,-62.5,4,2,1,70,0,0
154256,-50,4,2,1,70,0,0
176081,682.011935208866,4,2,1,70,1,0
176081,-50,4,2,1,70,0,0
214273,-62.5,4,2,1,70,0,0
217001,-50,4,2,1,70,0,0
236098,-62.5,4,2,1,70,0,0
238826,-50,4,2,1,70,0,0
263380,682.011935208866,4,2,1,70,1,0
263380,-50,4,2,1,70,0,0

[Colours]
Combo1 : 79,182,152
Combo2 : 55,115,183
Combo3 : 152,158,200

[HitObjects]
192,153,22631,6,0,L|23:149,1,170
430,339,23313,6,0,L|435:169,1,170,6|0,0:0|0:0,0:0:0:0:
145,256,23994,2,0,L|140:86,1,170,8|0,0:0|0:0,0:0:0:0:
311,225,24676,2,0,L|316:55,1,170
26,349,25358,2,0,L|195:345,1,170,8|0,0:0|0:0,0:0:0:0:
365,261,26040,5,0,0:0:0:0:
195,256,26381,1,0,0:0:0:0:
485,21,26722,2,0,L|490:191,1,170,8|0,0:0|0:0,0:0:0:0:
320,124,27404,2,0,L|315:294,1,170
25,341,28086,2,0,L|20:171,1,170,8|0,0:0|0:0,0:0:0:0:
190,89,28768,5,0,0:0:0:0:
20,83,29109,1,0,0:0:0:0:
309,204,29450,2,0,P|347:187|359:72,1,170,8|0,0:0|0:0,0:0:0:0:
189,353,30132,2,0,L|184:183,1,170
475,55,30814,2,0,L|305:50,1,170,8|0,0:0|0:0,0:0:0:0:
219,157,31326,2,0,L|262:153,1,42.5,2|2,0:0|0:0,0:0:0:0:
321,146,31496,6,0,L|408:150,2,85,2|2|2,0:0|0:0|0:0,0:0:0:0:
31,360,32178,2,0,L|26:190,1,170,8|0,0:0|0:0,0:0:0:0:
197,299,32860,2,0,L|202:129,1,170
492,251,33542,2,0,L|497:81,1,170,8|0,0:0|0:0,0:0:0:0:
207,42,34224,6,0,L|37:37,2,170,0|0|8,0:0|0:0|0:0,0:0:0:0:
377,50,35247,1,0,0:0:0:0:
207,331,35588,2,0,L|202:161,1,170
492,266,36270,2,0,L|497:96,1,170,8|0,0:0|0:0,0:0:0:0:
327,21,36952,5,0,0:0:0:0:
497,16,37293,1,0,0:0:0:0:
207,149,37634,2,0,L|37:144,1,170,8|0,0:0|0:0,0:0:0:0:
207,341,38316,2,0,L|212:171,1,170
126,157,38828,1,0,0:0:0:0:
304,90,38998,2,0,L|474:85,1,170,8|0,0:0|0:0,0:0:0:0:
304,360,39680,6,0,L|299:190,1,170
9,308,40362,2,0,L|4:138,1,170,8|0,0:0|0:0,0:0:0:0:
174,59,41044,1,0,0:0:0:0:
4,54,41385,1,0,0:0:0:0:
294,162,41726,2,0,L|464:157,2,170,8|0|0,0:0|0:0|0:0,0:0:0:0:
124,168,42749,5,0,0:0:0:0:
413,361,43090,2,0,L|418:191,1,170,8|0,0:0|0:0,0:0:0:0:
248,366,43772,1,2,0:0:0:0:
203,206,44113,1,2,0:0:0:0:
282,60,44454,1,10,0:0:0:0:
440,11,44795,1,2,0:0:0:0:
31,41,45136,6,0,L|26:211,1,170,4|0,0:0|0:0,0:0:0:0:
315,316,45818,1,8,0:0:0:0:
145,311,46159,1,0,0:0:0:0:
315,217,46500,2,0,L|485:212,1,170
195,217,47182,2,0,L|190:47,1,170,8|0,0:0|0:0,0:0:0:0:
360,186,47864,6,0,L|365:16,1,170
75,314,48546,2,0,L|70:144,1,170,8|0,0:0|0:0,0:0:0:0:
240,58,49228,1,0,0:0:0:0:
70,53,49569,1,0,0:0:0:0:
359,141,49910,2,0,L|364:311,1,170,8|0,0:0|0:0,0:0:0:0:
194,361,50592,5,0,0:0:0:0:
24,351,50933,1,0,0:0:0:0:
313,246,51274,2,0,P|350:226|362:105,1,170,8|0,0:0|0:0,0:0:0:0:
194,15,51956,2,0,L|24:10,1,170
314,136,52638,2,0,L|144:141,1,170,8|0,0:0|0:0,0:0:0:0:
229,241,53150,6,0,L|271:242,2,42.5,2|2|2,0:0|0:0|0:0,0:0:0:0:
144,280,53491,2,0,L|101:281,2,42.5,2|2|2,0:0|0:0|0:0,0:0:0:0:
433,355,54002,2,0,L|438:185,1,170,8|0,0:0|0:0,0:0:0:0:
267,97,54684,1,0,0:0:0:0:
437,92,55025,1,0,0:0:0:0:
148,188,55366,2,0,L|318:183,1,170,8|0,0:0|0:0,0:0:0:0:
147,377,56048,6,0,L|142:207,1,170
432,307,56730,2,0,L|437:137,1,170,8|0,0:0|0:0,0:0:0:0:
266,59,57412,1,0,0:0:0:0:
436,54,57753,1,0,0:0:0:0:
146,192,58094,1,8,0:0:0:0:
316,187,58435,1,0,0:0:0:0:
486,298,58776,5,0,0:0:0:0:
316,293,59117,1,0,0:0:0:0:
26,281,59458,2,0,L|21:111,1,170,8|0,0:0|0:0,0:0:0:0:
191,225,60140,2,0,L|196:55,1,170
485,26,60822,2,0,L|315:21,1,170,8|0,0:0|0:0,0:0:0:0:
145,136,61504,5,0,0:0:0:0:
315,131,61845,1,0,0:0:0:0:
26,356,62186,2,0,L|21:186,1,170,8|0,0:0|0:0,0:0:0:0:
191,108,62868,1,0,0:0:0:0:
21,103,63209,1,0,0:0:0:0:
311,19,63550,2,0,L|481:14,1,170,8|0,0:0|0:0,0:0:0:0:
71,232,64232,1,4,0:0:0:0:
393,198,65085,6,2,L|400:157,2,42.5
223,191,65596,1,2,0:0:0:0:
53,186,65937,1,2,0:0:0:0:
223,78,66278,1,2,0:0:0:0:
138,75,66449,1,2,0:0:0:0:
53,73,66619,1,2,0:0:0:0:
462,318,66960,6,0,L|467:148,1,170,4|0,0:0|0:0,0:0:0:0:
177,84,67642,2,0,L|7:79,2,170,8|0|0,0:0|0:0|0:0,0:0:0:0:
347,94,68665,1,0,0:0:0:0:
58,369,69006,2,0,L|53:199,1,170,8|0,0:0|0:0,0:0:0:0:
223,120,69688,5,0,0:0:0:0:
53,115,70029,1,0,0:0:0:0:
343,343,70370,2,0,L|348:173,1,170,8|0,0:0|0:0,0:0:0:0:
178,293,71052,2,0,L|173:123,1,170
463,218,71734,2,0,L|468:48,1,170,8|0,0:0|0:0,0:0:0:0:
179,15,72416,6,0,P|69:121|178:228,1,340,2|8,0:0|0:0,0:0:0:0:
348,228,73439,1,0,0:0:0:0:
178,122,73780,2,0,L|173:292,1,170,2|0,0:0|0:0,0:0:0:0:
463,365,74462,2,0,L|293:360,1,170,8|0,0:0|0:0,0:0:0:0:
122,350,75144,6,0,P|117:308|311:127,1,340,2|8,0:0|0:0,0:0:0:0:
480,126,76167,1,0,0:0:0:0:
191,41,76508,1,2,0:0:0:0:
21,36,76849,1,0,0:0:0:0:
191,41,77190,1,8,0:0:0:0:
21,36,77531,1,0,0:0:0:0:
430,138,77872,6,0,L|435:308,1,170,4|0,0:0|0:0,0:0:0:0:
145,339,78554,2,0,L|140:169,1,170,8|0,0:0|0:0,0:0:0:0:
311,275,79236,2,0,L|316:105,1,170
27,27,79918,2,0,L|197:22,1,170,8|0,0:0|0:0,0:0:0:0:
366,124,80600,5,0,0:0:0:0:
196,119,80941,1,0,0:0:0:0:
486,359,81282,2,0,L|491:189,1,170,8|0,0:0|0:0,0:0:0:0:
321,307,81964,2,0,L|316:137,1,170
26,270,82646,2,0,L|21:100,1,170,8|0,0:0|0:0,0:0:0:0:
309,60,83328,6,0,P|274:59|214:333,1,408,6|2,0:0|0:0,0:0:0:0:
475,350,84692,2,0,L|485:-57,1,408,2|2,0:0|0:0,0:0:0:0:
226,339,86056,6,0,P|311:332|375:68,1,408,2|2,0:0|0:0,0:0:0:0:
85,40,87420,1,2,0:0:0:0:
225,159,87761,1,2,0:0:0:0:
186,318,88102,1,10,0:0:0:0:
33,376,88443,1,2,0:0:0:0:
471,360,88784,6,0,L|476:190,1,170,4|0,0:0|0:0,0:0:0:0:
186,144,89466,2,0,L|16:139,1,170,8|0,0:0|0:0,0:0:0:0:
186,248,90148,1,0,0:0:0:0:
16,243,90489,1,0,0:0:0:0:
305,363,90830,2,0,L|310:193,1,170,8|0,0:0|0:0,0:0:0:0:
139,106,91512,5,0,0:0:0:0:
309,101,91853,1,0,0:0:0:0:
19,203,92194,2,0,L|189:198,1,170,8|0,0:0|0:0,0:0:0:0:
358,312,92876,1,0,0:0:0:0:
188,307,93217,1,0,0:0:0:0:
478,357,93558,2,0,L|483:187,1,170,8|0,0:0|0:0,0:0:0:0:
312,306,94240,6,0,L|307:136,1,170
18,271,94922,2,0,L|13:101,1,170,8|0,0:0|0:0,0:0:0:0:
184,14,95604,1,0,0:0:0:0:
14,9,95945,1,0,0:0:0:0:
304,121,96286,2,0,L|134:116,1,170,8|0,0:0|0:0,0:0:0:0:
49,111,96798,6,0,L|7:111,2,42.5,2|2|2,0:0|0:0|0:0,0:0:0:0:
135,204,97139,1,2,0:0:0:0:
49,201,97309,1,2,0:0:0:0:
338,327,97650,2,0,L|508:322,2,170,8|0|0,0:0|0:0|0:0,0:0:0:0:
168,319,98673,1,0,0:0:0:0:
457,233,99014,2,0,L|462:63,1,170,8|0,0:0|0:0,0:0:0:0:
172,34,99696,6,0,L|2:29,2,170,0|0|8,0:0|0:0|0:0,0:0:0:0:
342,26,100719,1,0,0:0:0:0:
172,341,101060,2,0,P|63:233|173:127,1,340,0|8,0:0|0:0,0:0:0:0:
343,127,102083,1,0,0:0:0:0:
309,212,102254,1,0,0:0:0:0:
224,224,102424,6,0,L|54:229,1,170
344,360,103106,2,0,L|349:190,1,170,8|0,0:0|0:0,0:0:0:0:
178,320,103788,2,0,L|173:150,1,170
463,253,104470,2,0,L|468:83,1,170,8|0,0:0|0:0,0:0:0:0:
298,54,105152,6,0,L|293:224,1,170
463,225,105834,1,8,0:0:0:0:
174,341,106175,2,0,P|65:233|175:127,1,340
463,127,107198,2,0,L|468:297,1,170,8|0,0:0|0:0,0:0:0:0:
297,366,107880,5,0,0:0:0:0:
467,361,108221,1,0,0:0:0:0:
177,258,108562,2,0,L|7:253,1,170,8|0,0:0|0:0,0:0:0:0:
297,116,109244,2,0,L|467:111,1,170,8|0,0:0|0:0,0:0:0:0:
297,224,109926,1,8,0:0:0:0:
467,219,110267,1,8,0:0:0:0:
57,353,110608,6,0,L|52:183,1,170,4|0,0:0|0:0,0:0:0:0:
342,259,111290,1,8,0:0:0:0:
172,244,111631,2,0,P|167:202|361:21,1,340
71,25,112654,2,0,L|66:195,1,170,8|0,0:0|0:0,0:0:0:0:
236,282,113336,6,0,L|406:277,1,170
116,316,114018,1,8,0:0:0:0:
286,291,114359,2,0,P|291:249|97:68,1,340
387,29,115382,2,0,L|392:199,1,170,8|0,0:0|0:0,0:0:0:0:
221,311,116064,5,0,0:0:0:0:
391,306,116405,1,0,0:0:0:0:
101,221,116746,1,8,0:0:0:0:
270,258,117087,2,0,P|181:248|101:38,1,340
391,21,118110,2,0,L|221:16,1,170,8|0,0:0|0:0,0:0:0:0:
119,127,118622,2,0,L|162:123,1,42.5,2|2,0:0|0:0,0:0:0:0:
204,117,118792,5,2,0:0:0:0:
119,114,118962,1,2,0:0:0:0:
34,112,119133,1,2,0:0:0:0:
324,221,119474,2,0,L|494:216,1,170,8|0,0:0|0:0,0:0:0:0:
324,354,120156,2,0,L|319:184,1,170
30,296,120838,2,0,L|25:126,1,170,8|0,0:0|0:0,0:0:0:0:
195,238,121520,6,0,L|200:68,1,170
490,29,122202,2,0,L|320:24,1,170,8|0,0:0|0:0,0:0:0:0:
150,353,122884,2,0,P|145:311|339:130,1,340,0|8,0:0|0:0,0:0:0:0:
424,129,123736,2,0,L|431:170,2,42.5
339,125,124077,1,0,0:0:0:0:
254,39,124248,5,0,0:0:0:0:
424,34,124589,1,0,0:0:0:0:
134,309,124930,2,0,L|129:139,1,170,8|0,0:0|0:0,0:0:0:0:
299,66,125612,1,0,0:0:0:0:
129,61,125953,1,0,0:0:0:0:
419,299,126294,2,0,L|424:129,1,170,8|0,0:0|0:0,0:0:0:0:
134,91,126976,5,8,0:0:0:0:
132,176,127146,1,8,0:0:0:0:
378,91,127999,5,8,0:0:0:0:
380,176,128169,1,8,0:0:0:0:
47,354,129022,6,0,L|42:184,1,170,8|0,0:0|0:0,0:0:0:0:
451,125,129704,1,4,0:0:0:0:
119,198,130556,6,0,L|112:157,2,42.5,2|2|2,0:0|0:0|0:0,0:0:0:0:
289,191,131068,1,2,0:0:0:0:
459,186,131409,1,2,0:0:0:0:
289,78,131750,1,2,0:0:0:0:
374,75,131920,1,2,0:0:0:0:
459,73,132091,1,2,0:0:0:0:
50,318,132432,6,0,L|45:148,1,170,4|0,0:0|0:0,0:0:0:0:
335,84,133114,2,0,L|505:79,2,170,8|0|0,0:0|0:0|0:0,0:0:0:0:
165,94,134137,1,0,0:0:0:0:
454,369,134478,2,0,L|459:199,1,170,8|0,0:0|0:0,0:0:0:0:
289,120,135160,5,0,0:0:0:0:
459,115,135501,1,0,0:0:0:0:
169,343,135842,2,0,L|164:173,1,170,8|0,0:0|0:0,0:0:0:0:
334,293,136524,2,0,L|339:123,1,170
49,218,137206,2,0,L|44:48,1,170,8|0,0:0|0:0,0:0:0:0:
333,15,137888,6,0,P|443:121|334:228,1,340,2|8,0:0|0:0,0:0:0:0:
164,228,138911,1,0,0:0:0:0:
334,122,139252,2,0,L|339:292,1,170
49,365,139934,2,0,L|219:360,1,170,8|0,0:0|0:0,0:0:0:0:
390,350,140616,6,0,P|395:308|201:127,1,340,2|8,0:0|0:0,0:0:0:0:
32,126,141639,1,0,0:0:0:0:
321,41,141980,1,0,0:0:0:0:
491,36,142321,1,0,0:0:0:0:
321,41,142662,1,8,0:0:0:0:
491,36,143003,1,0,0:0:0:0:
82,138,143344,6,0,L|77:308,1,170,4|0,0:0|0:0,0:0:0:0:
367,339,144026,2,0,L|372:169,1,170,8|0,0:0|0:0,0:0:0:0:
201,275,144708,2,0,L|196:105,1,170
485,27,145390,2,0,L|315:22,1,170,8|0,0:0|0:0,0:0:0:0:
146,124,146072,5,0,0:0:0:0:
316,119,146413,1,0,0:0:0:0:
26,359,146754,2,0,L|21:189,1,170,8|0,0:0|0:0,0:0:0:0:
191,307,147436,2,0,L|196:137,1,170
486,270,148118,2,0,L|491:100,1,170,8|0,0:0|0:0,0:0:0:0:
202,61,148800,6,0,P|237:60|297:334,1,408,6|2,0:0|0:0,0:0:0:0:
37,350,150164,2,0,L|27:-57,1,408,2|2,0:0|0:0,0:0:0:0:
286,339,151528,6,0,P|201:332|137:68,1,408,2|2,0:0|0:0,0:0:0:0:
219,58,152721,1,2,0:0:0:0:
301,49,152892,1,2,0:0:0:0:
320,211,153233,1,2,0:0:0:0:
226,348,153574,1,2,0:0:0:0:
63,376,153915,1,2,0:0:0:0:
486,360,154256,6,0,L|491:190,1,170,6|2,0:0|0:0,0:0:0:0:
321,171,154938,1,10,0:0:0:0:
32,286,155279,2,0,L|27:116,1,170,2|0,0:0|0:0,0:0:0:0:
197,97,155961,1,2,0:0:0:0:
487,27,156302,2,0,L|317:22,1,170,10|2,0:0|0:0,0:0:0:0:
147,132,156984,5,0,0:0:0:0:
317,127,157325,1,0,0:0:0:0:
27,363,157666,2,0,L|22:193,1,170,10|0,0:0|0:0,0:0:0:0:
312,296,158348,2,0,L|317:126,1,170,2|0,0:0|0:0,0:0:0:0:
28,63,159030,2,0,L|198:58,1,170,10|0,0:0|0:0,0:0:0:0:
367,161,159712,5,2,0:0:0:0:
197,156,160053,1,2,0:0:0:0:
487,352,160394,2,0,L|492:182,1,170,10|2,0:0|0:0,0:0:0:0:
202,273,161076,2,0,L|197:103,1,170,0|2,0:0|0:0,0:0:0:0:
367,84,161758,1,10,0:0:0:0:
77,15,162099,6,0,L|72:185,1,170,2|0,0:0|0:0,0:0:0:0:
243,204,162781,1,0,0:0:0:0:
413,222,163122,2,0,L|418:52,1,170,10|0,0:0|0:0,0:0:0:0:
128,348,163804,2,0,L|123:178,1,170,10|0,0:0|0:0,0:0:0:0:
413,222,164486,2,0,L|418:52,1,170,10|0,0:0|0:0,0:0:0:0:
9,50,165168,6,0,L|4:219,1,170,2|2,0:0|0:0,0:0:0:0:
174,239,165850,1,10,0:0:0:0:
463,330,166191,2,0,L|293:335,2,170,2|0|2,0:0|0:0|0:0,0:0:0:0:
173,258,167214,2,0,L|178:88,1,170,10|2,0:0|0:0,0:0:0:0:
349,197,167896,6,0,L|354:27,1,170
64,26,168578,2,0,L|234:21,1,170,10|0,0:0|0:0,0:0:0:0:
404,28,169260,2,0,L|409:198,1,170,2|0,0:0|0:0,0:0:0:0:
239,309,169942,1,10,0:0:0:0:
409,304,170283,1,2,0:0:0:0:
0,232,170624,5,6,0:0:0:0:
256,192,170965,12,0,175398,0:0:0:0:
140,303,176081,6,0,L|135:133,1,170,2|0,0:0|0:0,0:0:0:0:
425,256,176763,1,10,0:0:0:0:
255,244,177104,2,0,L|250:74,1,170,2|0,0:0|0:0,0:0:0:0:
421,37,177786,1,0,0:0:0:0:
132,313,178127,2,0,L|137:143,1,170,8|0,0:0|0:0,0:0:0:0:
307,99,178809,6,0,L|477:94,1,170,2|0,0:0|0:0,0:0:0:0:
188,324,179491,1,10,0:0:0:0:
358,311,179832,2,0,L|353:141,1,170,2|0,0:0|0:0,0:0:0:0:
183,125,180514,1,2,0:0:0:0:
472,239,180855,2,0,L|477:69,1,170,14|0,0:0|0:0,0:0:0:0:
187,295,181537,6,0,L|192:125,1,170,6|0,0:0|0:0,0:0:0:0:
482,65,182219,2,0,L|312:60,1,170,8|0,0:0|0:0,0:0:0:0:
142,165,182901,1,0,0:0:0:0:
312,160,183242,1,2,0:0:0:0:
23,364,183583,2,0,L|18:194,1,170,10|2,0:0|0:0,0:0:0:0:
188,144,184265,6,0,L|358:149,2,170,0|0|8,0:0|0:0|0:0,0:0:0:0:
17,152,185288,1,0,0:0:0:0:
187,365,185629,2,0,L|192:195,1,170
482,311,186311,2,0,L|487:141,1,170,12|0,0:0|0:0,0:0:0:0:
317,251,186993,6,0,L|312:81,1,170,6|0,0:0|0:0,0:0:0:0:
22,83,187675,1,10,0:0:0:0:
192,95,188016,2,0,L|197:265,1,170,2|0,0:0|0:0,0:0:0:0:
26,302,188698,1,0,0:0:0:0:
315,222,189039,6,0,L|485:227,2,170,8|0|2,0:0|0:0|0:0,0:0:0:0:
144,230,190062,1,0,0:0:0:0:
433,364,190403,2,0,L|438:193,1,170,10|2,0:0|0:0,0:0:0:0:
268,115,191085,1,0,0:0:0:0:
438,110,191426,1,0,0:0:0:0:
148,80,191767,2,0,L|142:250,1,170,14|0,0:0|0:0,0:0:0:0:
433,141,192449,6,0,L|438:311,1,170,4|0,0:0|0:0,0:0:0:0:
148,346,193131,1,8,0:0:0:0:
317,341,193472,1,0,0:0:0:0:
487,337,193813,1,0,0:0:0:0:
316,333,194154,1,0,0:0:0:0:
27,227,194495,2,0,L|197:222,1,170,10|0,0:0|0:0,0:0:0:0:
366,130,195177,5,2,0:0:0:0:
196,125,195518,1,0,0:0:0:0:
486,350,195859,2,0,L|491:179,1,170,10|0,0:0|0:0,0:0:0:0:
321,94,196541,2,0,L|491:99,2,170,0|0|8,0:0|0:0|0:0,0:0:0:0:
31,107,197564,1,8,0:0:0:0:
439,365,197905,6,0,L|444:194,1,170,4|0,0:0|0:0,0:0:0:0:
155,343,198587,2,0,L|150:173,1,170,8|0,0:0|0:0,0:0:0:0:
321,86,199269,1,0,0:0:0:0:
151,81,199610,1,0,0:0:0:0:
441,195,199951,2,0,L|271:190,1,170,8|0,0:0|0:0,0:0:0:0:
101,363,200633,6,0,L|96:193,1,170
386,321,201315,2,0,L|391:151,1,170,8|0,0:0|0:0,0:0:0:0:
221,144,201997,1,0,0:0:0:0:
51,137,202338,1,0,0:0:0:0:
340,46,202679,2,0,L|510:41,1,170,8|0,0:0|0:0,0:0:0:0:
219,28,203361,6,0,P|110:133|218:241,1,340,2|8,0:0|0:0,0:0:0:0:
389,241,204384,1,0,0:0:0:0:
219,329,204725,2,0,L|49:324,1,170,2|0,0:0|0:0,0:0:0:0:
339,198,205407,2,0,L|169:203,1,170,8|0,0:0|0:0,0:0:0:0:
339,316,206089,6,0,P|352:275|181:81,1,340,2|8,0:0|0:0,0:0:0:0:
10,80,207112,1,0,0:0:0:0:
299,63,207453,1,2,0:0:0:0:
469,66,207794,1,0,0:0:0:0:
299,63,208135,1,8,0:0:0:0:
469,66,208476,1,0,0:0:0:0:
61,361,208817,6,0,L|56:191,1,170,4|0,0:0|0:0,0:0:0:0:
345,321,209499,2,0,L|350:151,1,170,8|0,0:0|0:0,0:0:0:0:
180,137,210181,1,0,0:0:0:0:
10,123,210522,1,0,0:0:0:0:
299,37,210863,2,0,L|469:32,1,170,8|0,0:0|0:0,0:0:0:0:
299,118,211545,6,0,L|294:288,1,170
4,326,212227,2,0,L|174:321,1,170,8|0,0:0|0:0,0:0:0:0:
343,217,212909,1,0,0:0:0:0:
173,212,213250,1,0,0:0:0:0:
462,14,213591,2,0,L|467:184,1,170,8|0,0:0|0:0,0:0:0:0:
181,336,214273,6,0,P|49:208|180:81,1,408,6|2,0:0|0:0,0:0:0:0:
438,316,215637,6,0,P|442:287|205:48,1,408,2|2,0:0|0:0,0:0:0:0:
496,233,217001,6,0,L|501:63,1,170,2|0,0:0|0:0,0:0:0:0:
211,33,217683,1,8,0:0:0:0:
381,43,218024,1,2,0:0:0:0:
402,125,218195,1,2,0:0:0:0:
381,43,218365,1,2,0:0:0:0:
211,33,218706,1,2,0:0:0:0:
381,43,219047,1,10,0:0:0:0:
466,60,219218,1,10,0:0:0:0:
468,145,219388,1,10,0:0:0:0:
59,371,219729,6,0,L|64:200,1,170,4|0,0:0|0:0,0:0:0:0:
353,343,220411,2,0,L|358:173,1,170,8|0,0:0|0:0,0:0:0:0:
187,86,221093,1,0,0:0:0:0:
357,81,221434,1,0,0:0:0:0:
67,142,221775,2,0,L|72:312,1,170,8|0,0:0|0:0,0:0:0:0:
243,347,222457,6,0,L|413:352,2,170,0|0|8,0:0|0:0|0:0,0:0:0:0:
73,244,223480,2,0,L|243:239,2,170
362,288,224503,2,0,L|367:118,1,170,8|0,0:0|0:0,0:0:0:0:
77,27,225185,6,0,P|72:66|262:257,1,340,2|8,0:0|0:0,0:0:0:0:
432,256,226208,1,0,0:0:0:0:
262,352,226549,2,0,L|432:347,1,170,2|0,0:0|0:0,0:0:0:0:
142,209,227231,2,0,L|312:214,1,170,8|0,0:0|0:0,0:0:0:0:
482,93,227913,6,0,L|142:102,1,340,2|8,0:0|0:0,0:0:0:0:
312,193,228936,1,0,0:0:0:0:
23,351,229277,1,2,0:0:0:0:
193,232,229618,1,0,0:0:0:0:
176,74,229959,1,8,0:0:0:0:
23,16,230300,1,0,0:0:0:0:
432,361,230641,6,0,L|437:191,1,170,4|0,0:0|0:0,0:0:0:0:
148,321,231323,2,0,L|143:151,1,170,8|0,0:0|0:0,0:0:0:0:
313,137,232005,1,0,0:0:0:0:
483,123,232346,1,0,0:0:0:0:
194,37,232687,2,0,L|24:32,1,170,8|0,0:0|0:0,0:0:0:0:
194,118,233370,6,0,L|199:288,1,170
489,326,234052,2,0,L|319:321,1,170,8|0,0:0|0:0,0:0:0:0:
150,217,234734,1,0,0:0:0:0:
320,212,235075,1,0,0:0:0:0:
31,14,235416,2,0,L|26:184,1,170,8|0,0:0|0:0,0:0:0:0:
312,340,236098,6,0,P|472:243|407:67,1,408,6|2,0:0|0:0,0:0:0:0:
148,323,237462,6,0,P|133:149|313:36,1,408,2|2,0:0|0:0,0:0:0:0:
23,42,238826,6,0,L|18:212,1,170,2|0,0:0|0:0,0:0:0:0:
307,293,239508,1,8,0:0:0:0:
137,205,239849,1,2,0:0:0:0:
53,201,240019,1,2,0:0:0:0:
137,205,240190,1,2,0:0:0:0:
307,107,240531,1,2,0:0:0:0:
222,109,240701,1,2,0:0:0:0:
137,111,240872,1,10,0:0:0:0:
427,205,241213,1,8,0:0:0:0:
19,365,241554,6,0,P|12:334|194:134,1,340,6|8,0:0|0:0,0:0:0:0:
364,134,242577,1,2,0:0:0:0:
194,139,242918,1,2,0:0:0:0:
364,134,243259,1,2,0:0:0:0:
75,171,243600,2,0,L|70:341,1,170,10|2,0:0|0:0,0:0:0:0:
360,375,244282,6,0,P|469:268|360:162,1,340,6|8,0:0|0:0,0:0:0:0:
189,162,245305,2,0,L|19:167,2,170,2|2|2,0:0|0:0|0:0,0:0:0:0:
479,250,246328,2,0,L|484:80,1,170,10|2,0:0|0:0,0:0:0:0:
195,24,247010,6,0,P|193:56|396:245,1,340,6|8,0:0|0:0,0:0:0:0:
224,375,248033,2,0,L|229:205,1,170,2|2,0:0|0:0,0:0:0:0:
399,194,248715,1,2,0:0:0:0:
110,273,249056,2,0,L|105:103,1,170,10|2,0:0|0:0,0:0:0:0:
395,20,249738,6,0,L|53:13,1,340,6|8,0:0|0:0,0:0:0:0:
225,112,250761,2,0,L|220:281,1,170,2|2,0:0|0:0,0:0:0:0:
50,293,251443,1,2,0:0:0:0:
339,368,251784,2,0,L|344:198,1,170,10|2,0:0|0:0,0:0:0:0:
54,277,252466,6,0,P|52:245|255:56,1,340,6|8,0:0|0:0,0:0:0:0:
424,55,253489,1,2,0:0:0:0:
254,60,253830,1,2,0:0:0:0:
424,55,254171,1,2,0:0:0:0:
135,350,254512,2,0,L|130:180,1,170,10|2,0:0|0:0,0:0:0:0:
420,291,255194,6,0,P|422:259|219:70,1,340,6|8,0:0|0:0,0:0:0:0:
49,69,256217,2,0,L|44:238,1,170,2|2,0:0|0:0,0:0:0:0:
214,250,256899,1,2,0:0:0:0:
503,137,257240,2,0,L|334:132,1,170,10|2,0:0|0:0,0:0:0:0:
44,272,257922,6,0,L|386:265,1,340,6|8,0:0|0:0,0:0:0:0:
214,185,258945,1,2,0:0:0:0:
384,175,259286,2,0,L|389:6,1,170,2|2,0:0|0:0,0:0:0:0:
99,295,259968,2,0,L|94:126,1,170,10|2,0:0|0:0,0:0:0:0:
384,82,260650,6,0,P|386:114|183:303,1,340,6|8,0:0|0:0,0:0:0:0:
13,303,261673,1,10,0:0:0:0:
183,298,262014,1,2,0:0:0:0:
13,303,262355,1,2,0:0:0:0:
302,128,262696,2,0,L|471:133,1,170,8|2,0:0|0:0,0:0:0:0:
386,180,263208,1,2,0:0:0:0:
208,228,263380,6,0,P|99:121|208:15,1,340,6|8,0:0|0:0,0:0:0:0:
379,14,264403,1,2,0:0:0:0:
209,39,264744,2,0,L|204:208,1,170,2|2,0:0|0:0,0:0:0:0:
494,316,265426,2,0,L|325:311,1,170,10|2,0:0|0:0,0:0:0:0:
35,205,266108,6,0,L|377:198,1,340,6|8,0:0|0:0,0:0:0:0:
205,100,267131,1,10,0:0:0:0:
374,124,267472,2,0,L|379:293,1,170,2|2,0:0|0:0,0:0:0:0:
89,205,268154,2,0,L|83:374,1,170,10|2,0:0|0:0,0:0:0:0:
374,336,268836,6,0,P|380:305|193:108,1,340,6|8,0:0|0:0,0:0:0:0:
23,107,269859,1,2,0:0:0:0:
193,101,270200,1,2,0:0:0:0:
363,95,270541,1,2,0:0:0:0:
277,94,270711,1,2,0:0:0:0:
99,96,270882,2,0,L|93:265,1,170,10|2,0:0|0:0,0:0:0:0:
384,351,271564,6,0,P|493:244|384:138,1,340,6|8,0:0|0:0,0:0:0:0:
213,49,272587,1,2,0:0:0:0:
383,74,272928,2,0,L|388:243,1,170,2|2,0:0|0:0,0:0:0:0:
218,261,273610,1,10,0:0:0:0:
48,279,273951,1,10,0:0:0:0:
456,349,274292,6,0,P|463:318|281:118,1,340,6|8,0:0|0:0,0:0:0:0:
110,118,275315,1,2,0:0:0:0:
280,116,275656,1,2,0:0:0:0:
450,114,275997,1,2,0:0:0:0:
161,220,276338,2,0,L|330:225,1,170,10|2,0:0|0:0,0:0:0:0:
42,352,277020,6,0,P|35:321|217:121,1,340,6|8,0:0|0:0,0:0:0:0:
303,38,277872,1,8,0:0:0:0:
218,35,278043,1,0,0:0:0:0:
133,32,278213,1,0,0:0:0:0:
312,129,278384,2,0,L|481:124,1,170,2|2,0:0|0:0,0:0:0:0:
192,253,279066,2,0,L|361:248,1,170,10|10,0:0|0:0,0:0:0:0:
72,346,279748,6,0,P|41:313|166:115,1,340,6|8,0:0|0:0,0:0:0:0:
336,115,280771,2,0,L|505:120,2,170,2|2|2,0:0|0:0|0:0,0:0:0:0:
46,135,281794,2,0,L|41:304,1,170,10|2,0:0|0:0,0:0:0:0:
331,352,282476,6,0,P|440:245|331:139,1,340,6|8,0:0|0:0,0:0:0:0:
160,52,283499,1,2,0:0:0:0:
330,47,283840,1,2,0:0:0:0:
160,52,284181,1,2,0:0:0:0:
449,339,284522,2,0,L|454:170,1,170,10|10,0:0|0:0,0:0:0:0:
45,139,285204,5,6,0:0:0:0:
256,192,285545,12,0,288614,0:0:0:0:
