osu file format v14

[General]
AudioFilename: audio.mp3
AudioLeadIn: 0
PreviewTime: 96406
Countdown: 0
SampleSet: Normal
StackLeniency: 0.3
Mode: 0
LetterboxInBreaks: 0
WidescreenStoryboard: 1

[Editor]
Bookmarks: 20843,20937,21031,26937,103156,105406,108031
DistanceSpacing: 2
BeatDivisor: 4
GridSize: 4
TimelineZoom: 2.300001

[Metadata]
Title:Delfin (Gothic Rap Remix)
TitleUnicode:Delfin (Gothic Rap Remix)
Artist:Bezimienny
ArtistUnicode:Bezimienny
Creator:Methosu
Version:edit
Source:Gothtic
Tags:delfin, gothic, rap, snafadron, remix, bezimienny, bedoes, Kubi Producent, Koldi, Young Multi, Beteo, meme, polish,
BeatmapID:2148809
BeatmapSetID:935527

[Difficulty]
HPDrainRate:6
CircleSize:4
OverallDifficulty:7
ApproachRate:9
SliderMultiplier:1.4
SliderTickRate:1

[Events]
//Background and Video events
0,0,"Screenshot_3.png",0,0
//Break Periods
//Storyboard Layer 0 (Background)
//Storyboard Layer 1 (Fail)
//Storyboard Layer 2 (Pass)
//Storyboard Layer 3 (Foreground)
//Storyboard Layer 4 (Overlay)
//Storyboard Sound Samples

[TimingPoints]
37,375,4,1,0,75,1,0
39218,-100,4,1,0,75,0,0
69037,-100,4,1,0,75,0,1
72031,-133.333333333333,4,1,0,75,0,1
72874,-100,4,1,0,75,0,1
95662,-100,4,1,0,75,0,0
117307,375,4,1,0,100,1,0

[Colours]
Combo1 : 255,128,0
Combo2 : 255,0,0
Combo3 : 128,255,0
Combo4 : 0,128,192
Combo5 : 128,0,64

[HitObjects]
256,192,6037,12,0,11287,0:0:0:0:
52,72,12037,6,0,L|127:46,1,70,4|0,0:0|0:0,0:0:0:0:
256,32,12412,1,0,0:0:0:0:
256,32,12599,1,0,0:0:0:0:
400,100,12787,1,8,0:0:0:0:
400,100,12974,1,0,0:0:0:0:
264,176,13162,1,4,0:0:0:0:
264,176,13349,1,0,0:0:0:0:
416,244,13537,2,0,L|418:286,2,35
266,322,13912,2,0,L|186:305,1,70
231,193,14287,2,0,L|137:172,1,70
315,89,14662,1,0,0:0:0:0:
188,29,14849,1,0,0:0:0:0:
77,156,15037,6,0,L|43:246,1,70,4|0,0:0|0:0,0:0:0:0:
59,272,15318,1,0,0:0:0:0:
59,272,15412,1,0,0:0:0:0:
216,295,15599,1,0,0:0:0:0:
305,195,15787,2,8,L|341:267,1,70,8|0,0:0|0:0,0:0:0:0:
449,116,16162,2,0,L|411:180,1,70,4|0,0:0|0:0,0:0:0:0:
313,44,16537,2,0,L|357:136,1,70
211,82,16912,5,4,0:0:0:0:
247,258,17099,1,0,0:0:0:0:
121,94,17287,5,8,0:0:0:0:
167,282,17474,1,0,0:0:0:0:
45,113,17662,5,0,0:0:0:0:
93,313,17849,1,0,0:0:0:0:
219,313,18037,6,0,L|306:304,1,70,4|0,0:0|0:0,0:0:0:0:
392,216,18412,1,0,0:0:0:0:
308,116,18599,1,0,0:0:0:0:
448,60,18787,1,8,0:0:0:0:
241,33,19162,5,4,0:0:0:0:
150,103,19349,1,0,0:0:0:0:
201,177,19537,2,0,P|221:213|265:213,1,70
362,178,19912,1,4,0:0:0:0:
461,202,20099,1,0,0:0:0:0:
381,285,20287,1,8,0:0:0:0:
461,202,20474,1,0,0:0:0:0:
362,178,20662,1,4,0:0:0:0:
268,96,20849,1,0,0:0:0:0:
116,136,21037,6,0,L|143:209,1,70
234,279,21412,5,0,0:0:0:0:
234,279,21599,1,0,0:0:0:0:
234,177,21787,2,0,L|204:105,1,70,8|0,0:0|0:0,0:0:0:0:
291,40,22162,1,4,0:0:0:0:
291,40,22349,1,0,0:0:0:0:
400,32,22537,6,0,L|440:31,2,35,4|0|0,0:0|0:0|0:0,0:0:0:0:
380,125,22912,1,4,0:0:0:0:
458,185,23099,1,0,0:0:0:0:
473,274,23287,1,8,0:0:0:0:
364,300,23474,1,0,0:0:0:0:
473,274,23662,1,0,0:0:0:0:
458,185,23849,1,0,0:0:0:0:
352,171,24037,6,0,L|374:95,1,70,4|0,0:0|0:0,0:0:0:0:
255,38,24412,1,0,0:0:0:0:
255,38,24599,1,0,0:0:0:0:
116,84,24787,1,8,0:0:0:0:
116,84,24974,1,0,0:0:0:0:
243,126,25162,1,4,0:0:0:0:
243,126,25349,1,0,0:0:0:0:
347,203,25537,6,0,L|338:244,2,35
243,126,25912,1,4,0:0:0:0:
116,84,26099,1,0,0:0:0:0:
177,225,26287,1,8,0:0:0:0:
201,347,26474,1,0,0:0:0:0:
268,268,26662,1,0,0:0:0:0:
100,272,26849,2,0,L|104:224,2,35,0|0|4,0:0|0:0|0:0,0:0:0:0:
102,126,27224,5,0,0:0:0:0:
102,126,27412,1,0,0:0:0:0:
183,39,27599,1,0,0:0:0:0:
314,51,27787,1,8,0:0:0:0:
233,152,27974,1,0,0:0:0:0:
356,166,28162,1,4,0:0:0:0:
436,64,28349,1,0,0:0:0:0:
467,190,28537,2,0,L|444:279,1,70
349,312,28912,5,4,0:0:0:0:
185,231,29099,1,0,0:0:0:0:
362,234,29287,5,8,0:0:0:0:
218,151,29474,1,0,0:0:0:0:
385,151,29662,5,0,0:0:0:0:
269,242,29849,1,0,0:0:0:0:
336,312,30037,6,0,P|396:324|423:303,1,70,4|0,0:0|0:0,0:0:0:0:
500,232,30412,1,0,0:0:0:0:
336,128,30599,1,0,0:0:0:0:
504,52,30787,1,8,0:0:0:0:
441,213,31162,6,0,L|382:284,1,70
200,308,31537,2,0,P|168:304|132:284,1,70
100,172,31912,1,4,0:0:0:0:
100,172,32099,1,0,0:0:0:0:
200,52,32287,1,8,0:0:0:0:
200,52,32474,1,0,0:0:0:0:
248,176,32662,1,4,0:0:0:0:
248,176,32849,1,0,0:0:0:0:
165,159,33037,6,0,B|101:173|101:173|64:266,1,140,4|0,0:0|0:0,0:0:0:0:
102,317,33599,1,0,0:0:0:0:
278,306,33787,1,8,0:0:0:0:
278,306,33974,1,0,0:0:0:0:
393,223,34162,1,4,0:0:0:0:
393,223,34349,1,0,0:0:0:0:
352,88,34537,2,0,L|384:64,2,35,4|0|0,0:0|0:0|0:0,0:0:0:0:
235,70,34912,1,4,0:0:0:0:
138,63,35099,1,0,0:0:0:0:
153,149,35287,1,8,0:0:0:0:
218,198,35474,1,0,0:0:0:0:
160,259,35662,1,0,0:0:0:0:
227,312,35849,1,0,0:0:0:0:
256,192,36224,12,0,37537,0:0:0:0:
61,69,37912,6,0,L|18:5,2,70
86,229,38662,1,0,0:0:0:0:
86,229,38849,1,0,0:0:0:0:
171,310,39037,2,0,B|209:334|209:334|270:341|270:341|327:287,1,140,4|0,0:0|0:0,0:0:0:0:
440,296,39599,1,0,0:0:0:0:
440,296,39693,1,0,0:0:0:0:
440,296,39787,1,8,0:0:0:0:
456,164,39974,6,0,L|464:88,1,70,0|4,0:0|0:0,0:0:0:0:
344,64,40349,2,0,L|336:140,1,70
220,32,40724,2,0,L|208:119,1,70,0|4,0:0|0:0,0:0:0:0:
84,0,41099,2,0,L|75:75,1,70,0|8,0:0|0:0,0:0:0:0:
64,160,41474,1,0,0:0:0:0:
68,256,41662,2,0,L|95:329,1,70
208,336,42037,6,0,L|424:334,1,210,4|0,0:0|0:0,0:0:0:0:
443,248,42787,1,8,0:0:0:0:
463,141,42974,1,0,0:0:0:0:
427,36,43162,1,4,0:0:0:0:
295,45,43349,1,0,0:0:0:0:
230,128,43537,1,0,0:0:0:0:
378,166,43724,1,0,0:0:0:0:
352,304,43912,5,4,0:0:0:0:
200,336,44099,1,0,0:0:0:0:
139,200,44287,1,8,0:0:0:0:
139,200,44474,1,0,0:0:0:0:
101,118,44662,2,0,L|102:42,1,70,4|0,0:0|0:0,0:0:0:0:
194,50,45037,5,4,0:0:0:0:
304,22,45224,1,0,0:0:0:0:
410,30,45412,1,0,0:0:0:0:
456,112,45599,1,0,0:0:0:0:
428,248,45787,2,0,L|427:319,2,70,8|0|4,0:0|0:0|0:0,0:0:0:0:
483,159,46349,1,0,0:0:0:0:
341,179,46537,1,4,0:0:0:0:
341,179,46724,1,0,0:0:0:0:
333,348,46912,5,0,0:0:0:0:
216,292,47099,2,0,L|154:248,1,70,0|8,0:0|0:0,0:0:0:0:
158,251,47474,1,0,0:0:0:0:
106,143,47662,1,0,0:0:0:0:
106,143,47849,1,0,0:0:0:0:
106,143,48037,1,4,0:0:0:0:
124,44,48412,5,0,0:0:0:0:
244,40,48599,1,0,0:0:0:0:
352,60,48787,1,8,0:0:0:0:
424,136,48974,1,0,0:0:0:0:
408,240,49162,1,4,0:0:0:0:
328,304,49349,1,0,0:0:0:0:
172,280,49537,6,0,L|128:132,1,140,0|4,0:0|0:0,0:0:0:0:
188,44,50099,1,0,0:0:0:0:
348,40,50287,1,8,0:0:0:0:
304,176,50474,1,0,0:0:0:0:
328,312,50662,5,0,0:0:0:0:
484,256,50849,2,0,L|492:200,2,35,0|0|4,0:0|0:0|0:0,0:0:0:0:
328,312,51224,1,0,0:0:0:0:
206,317,51412,1,0,0:0:0:0:
87,280,51599,1,0,0:0:0:0:
87,280,51787,1,8,0:0:0:0:
64,155,51974,1,0,0:0:0:0:
224,56,52162,5,4,0:0:0:0:
360,56,52349,2,0,B|402:42|402:42|430:85,1,70
464,168,52724,1,0,0:0:0:0:
320,184,52912,1,4,0:0:0:0:
272,320,53099,5,0,0:0:0:0:
124,184,53287,1,8,0:0:0:0:
264,76,53474,1,0,0:0:0:0:
444,155,53662,6,0,L|446:252,1,70
385,345,54037,1,4,0:0:0:0:
385,345,54224,1,0,0:0:0:0:
217,336,54412,2,0,B|191:307|191:307|157:299|157:299|120:239,1,140,0|8,0:0|0:0,0:0:0:0:
277,185,54974,1,0,0:0:0:0:
124,135,55162,1,4,0:0:0:0:
61,32,55349,1,0,0:0:0:0:
221,84,55537,5,0,0:0:0:0:
475,184,55724,1,0,0:0:0:0:
475,184,55912,1,4,0:0:0:0:
459,331,56099,5,0,0:0:0:0:
335,332,56287,1,8,0:0:0:0:
216,332,56474,1,0,0:0:0:0:
92,194,56662,5,4,0:0:0:0:
92,194,57037,2,0,B|136:127|136:127|219:120,1,140,4|0,0:0|0:0,0:0:0:0:
418,173,57787,5,8,0:0:0:0:
418,173,57974,1,0,0:0:0:0:
384,322,58162,1,4,0:0:0:0:
306,101,58349,1,0,0:0:0:0:
432,74,58537,1,4,0:0:0:0:
432,74,58724,1,0,0:0:0:0:
431,250,58912,1,4,0:0:0:0:
349,201,59099,2,0,L|265:181,1,70,0|8,0:0|0:0,0:0:0:0:
280,184,59474,1,0,0:0:0:0:
55,115,60037,6,0,L|56:30,1,70
458,275,60787,2,0,L|460:352,1,70
38,297,61537,2,0,L|45:203,1,70
390,119,62287,2,0,L|388:192,1,70
382,216,62568,1,0,0:0:0:0:
365,239,62662,2,0,L|283:287,1,70
164,304,63037,5,0,0:0:0:0:
164,304,63224,1,0,0:0:0:0:
105,75,63787,5,0,0:0:0:0:
105,75,63974,1,0,0:0:0:0:
407,78,64537,5,0,0:0:0:0:
407,78,64724,1,0,0:0:0:0:
401,317,65287,5,0,0:0:0:0:
401,317,65474,1,0,0:0:0:0:
100,87,66412,6,0,L|97:161,3,70
106,301,67537,1,0,0:0:0:0:
106,301,67724,1,0,0:0:0:0:
273,286,67912,1,0,0:0:0:0:
355,182,68099,1,0,0:0:0:0:
342,47,68287,1,0,0:0:0:0:
485,145,68474,1,0,0:0:0:0:
485,145,68662,1,0,0:0:0:0:
144,84,69037,6,0,L|142:122,2,35
358,109,69787,2,0,L|362:156,2,35
300,245,70162,2,0,L|301:276,3,23.3333333333333
153,145,70537,2,0,L|153:181,2,23.3333333333333
210,213,70724,2,0,L|210:249,2,23.3333333333333
205,114,70912,2,0,L|205:150,2,23.3333333333333
124,228,71099,2,0,L|124:264,2,23.3333333333333
183,301,71287,2,0,L|180:336,6,23.3333333333333
384,284,72037,6,0,L|444:332,4,52.5000020027161
412,140,73162,5,4,0:0:0:0:
316,64,73537,2,0,P|285:78|217:103,1,105
98,140,73912,2,0,L|130:216,1,70,4|0,0:0|0:0,0:0:0:0:
160,300,74287,1,8,0:0:0:0:
208,177,74474,1,0,0:0:0:0:
348,299,74662,1,0,0:0:0:0:
401,323,75037,6,0,L|385:230,1,70,4|0,0:0|0:0,0:0:0:0:
224,58,75787,5,8,0:0:0:0:
68,97,75974,1,0,0:0:0:0:
223,136,76162,1,4,0:0:0:0:
74,206,76349,1,0,0:0:0:0:
211,251,76537,1,0,0:0:0:0:
57,316,76724,1,0,0:0:0:0:
220,351,76912,5,4,0:0:0:0:
250,151,77099,1,0,0:0:0:0:
341,328,77287,1,8,0:0:0:0:
419,113,77662,1,0,0:0:0:0:
190,31,78037,5,4,0:0:0:0:
50,25,78412,2,0,B|51:55|51:55|78:80,1,35
88,125,78787,2,0,P|103:161|104:201,1,70,8|0,0:0|0:0,0:0:0:0:
80,272,79162,1,4,0:0:0:0:
180,120,79349,1,0,0:0:0:0:
284,252,79537,1,0,0:0:0:0:
368,116,79724,1,0,0:0:0:0:
496,248,79912,5,4,0:0:0:0:
368,116,80099,1,0,0:0:0:0:
284,252,80287,1,8,0:0:0:0:
180,120,80474,1,0,0:0:0:0:
415,82,81037,6,0,B|453:146|453:146|459:226,1,140,4|0,0:0|0:0,0:0:0:0:
404,312,81599,1,0,0:0:0:0:
167,294,81787,1,8,0:0:0:0:
341,211,81974,1,0,0:0:0:0:
102,193,82162,5,4,0:0:0:0:
221,63,82349,1,0,0:0:0:0:
102,193,82537,5,4,0:0:0:0:
221,63,82724,1,0,0:0:0:0:
403,50,82912,5,4,0:0:0:0:
456,160,83099,2,0,L|412:239,1,70,0|8,0:0|0:0,0:0:0:0:
356,300,83474,1,0,0:0:0:0:
100,68,83849,5,0,0:0:0:0:
100,68,84037,2,0,P|133:81|189:90,1,70,4|0,0:0|0:0,0:0:0:0:
293,87,84412,1,0,0:0:0:0:
232,249,84599,1,0,0:0:0:0:
436,190,84787,1,8,0:0:0:0:
329,345,84974,1,0,0:0:0:0:
250,126,85162,5,4,0:0:0:0:
120,66,85537,1,0,0:0:0:0:
120,66,85724,1,0,0:0:0:0:
141,238,85912,1,4,0:0:0:0:
327,125,86099,1,0,0:0:0:0:
269,308,86287,1,8,0:0:0:0:
428,230,86474,1,0,0:0:0:0:
95,250,87037,1,4,0:0:0:0:
152,88,87412,5,0,0:0:0:0:
332,88,87599,1,0,0:0:0:0:
332,272,87787,1,8,0:0:0:0:
152,272,87974,1,0,0:0:0:0:
120,64,88162,5,4,0:0:0:0:
300,64,88349,1,0,0:0:0:0:
300,248,88537,1,0,0:0:0:0:
120,248,88724,1,0,0:0:0:0:
104,68,88912,5,4,0:0:0:0:
260,160,89099,1,0,0:0:0:0:
436,112,89287,2,0,P|494:170|512:232,1,140,8|0,0:0|0:0,0:0:0:0:
449,234,90037,5,4,0:0:0:0:
385,318,90412,2,0,L|229:313,1,140,0|8,0:0|0:0,0:0:0:0:
95,231,91162,1,4,0:0:0:0:
73,62,91537,5,0,0:0:0:0:
99,137,91724,1,0,0:0:0:0:
185,73,91912,1,4,0:0:0:0:
216,149,92099,1,0,0:0:0:0:
299,80,92287,2,0,P|372:118|406:171,2,140,8|4|4,0:0|0:0|0:0,0:0:0:0:
385,341,93412,5,0,0:0:0:0:
214,321,93599,1,0,0:0:0:0:
368,268,93787,1,8,0:0:0:0:
207,225,93974,1,0,0:0:0:0:
375,210,94162,5,4,0:0:0:0:
217,143,94349,1,0,0:0:0:0:
271,259,94537,1,0,0:0:0:0:
344,120,94724,1,0,0:0:0:0:
388,258,94912,1,0,0:0:0:0:
460,103,95099,1,0,0:0:0:0:
345,35,95287,1,8,0:0:0:0:
345,35,95474,1,0,0:0:0:0:
50,70,96412,6,0,L|125:44,1,70
328,72,96787,2,0,L|252:44,1,70,8|0,0:0|0:0,0:0:0:0:
104,140,97162,1,4,0:0:0:0:
272,180,97349,1,0,0:0:0:0:
120,280,97537,1,0,0:0:0:0:
136,304,97630,1,0,0:0:0:0:
164,320,97724,1,0,0:0:0:0:
372,300,97912,1,4,0:0:0:0:
448,248,98099,1,0,0:0:0:0:
432,156,98287,1,8,0:0:0:0:
227,278,98474,1,0,0:0:0:0:
158,139,98662,1,0,0:0:0:0:
155,276,98849,1,0,0:0:0:0:
196,144,99037,1,4,0:0:0:0:
368,256,99224,6,0,L|372:212,2,35
356,120,99599,1,0,0:0:0:0:
224,68,99787,1,8,0:0:0:0:
96,60,99974,1,0,0:0:0:0:
152,168,100162,2,0,L|193:228,1,70,4|0,0:0|0:0,0:0:0:0:
284,332,100537,2,0,L|220:260,1,70
307,233,100912,2,0,P|345:219|387:177,1,70,4|0,0:0|0:0,0:0:0:0:
404,131,101287,5,8,0:0:0:0:
393,308,101474,1,0,0:0:0:0:
466,212,101662,1,0,0:0:0:0:
449,79,101849,1,0,0:0:0:0:
325,33,102037,6,0,B|272:77|272:77|283:150,1,140,4|0,0:0|0:0,0:0:0:0:
296,277,102787,2,0,B|265:331|265:331|180:321,1,140,8|4,0:0|0:0,0:0:0:0:
88,184,103349,1,0,0:0:0:0:
292,176,103537,1,0,0:0:0:0:
416,44,103724,1,0,0:0:0:0:
344,212,103912,1,4,0:0:0:0:
348,32,104099,1,0,0:0:0:0:
412,204,104287,1,8,0:0:0:0:
292,68,104474,1,0,0:0:0:0:
456,148,104662,1,4,0:0:0:0:
276,132,104849,1,0,0:0:0:0:
276,132,105037,1,4,0:0:0:0:
220,292,105412,5,0,0:0:0:0:
96,160,105599,1,0,0:0:0:0:
168,328,105787,1,8,0:0:0:0:
164,148,105974,1,0,0:0:0:0:
100,320,106162,1,4,0:0:0:0:
220,184,106349,1,0,0:0:0:0:
219,50,106537,6,0,L|259:49,2,35,4|0|0,0:0|0:0|0:0,0:0:0:0:
346,45,106912,1,4,0:0:0:0:
448,104,107099,1,0,0:0:0:0:
487,216,107287,1,8,0:0:0:0:
418,312,107474,1,0,0:0:0:0:
299,321,107662,1,0,0:0:0:0:
182,299,107849,1,0,0:0:0:0:
50,70,108037,6,0,L|125:44,1,70,4|0,0:0|0:0,0:0:0:0:
203,35,108318,1,0,0:0:0:0:
203,35,108412,1,0,0:0:0:0:
416,32,108599,1,0,0:0:0:0:
416,144,108787,2,0,L|340:192,1,70,8|0,0:0|0:0,0:0:0:0:
264,232,109162,1,4,0:0:0:0:
264,232,109349,1,0,0:0:0:0:
88,232,109537,2,0,L|60:184,2,35
264,232,109912,1,4,0:0:0:0:
156,348,110099,1,0,0:0:0:0:
112,176,110287,1,8,0:0:0:0:
172,48,110474,1,0,0:0:0:0:
348,44,110662,1,0,0:0:0:0:
348,44,110849,1,0,0:0:0:0:
23,265,111037,5,4,0:0:0:0:
68,104,111224,2,0,L|112:140,2,35
185,31,111599,1,0,0:0:0:0:
312,72,111787,1,8,0:0:0:0:
312,72,111974,1,0,0:0:0:0:
188,96,112162,1,4,0:0:0:0:
296,172,112349,1,0,0:0:0:0:
276,256,112537,2,0,P|244:296|264:336,1,70
404,344,112912,5,4,0:0:0:0:
488,196,113099,1,0,0:0:0:0:
352,268,113287,5,8,0:0:0:0:
400,128,113474,1,0,0:0:0:0:
304,184,113662,5,0,0:0:0:0:
332,44,113849,1,0,0:0:0:0:
140,72,114037,6,0,L|84:144,1,70,4|0,0:0|0:0,0:0:0:0:
68,240,114412,1,0,0:0:0:0:
188,308,114599,1,0,0:0:0:0:
192,176,114787,1,8,0:0:0:0:
385,35,115162,5,4,0:0:0:0:
213,32,115349,1,0,0:0:0:0:
290,142,115537,2,0,L|347:197,1,70
453,209,115912,1,4,0:0:0:0:
453,209,116099,1,0,0:0:0:0:
331,304,116287,1,8,0:0:0:0:
331,304,116474,1,0,0:0:0:0:
231,205,116662,1,4,0:0:0:0:
231,205,116849,1,0,0:0:0:0:
157,322,117307,5,0,0:0:0:0:
157,322,117495,1,0,0:0:0:0:
64,226,117682,1,8,0:0:0:0:
64,226,117870,1,0,0:0:0:0:
131,100,118058,1,0,0:0:0:0:
131,100,118245,1,0,0:0:0:0:
254,50,118433,5,0,0:0:0:0:
254,50,118525,1,0,0:0:0:0:
254,50,118620,1,0,0:0:0:0:
352,72,118808,1,0,0:0:0:0:
412,152,118995,1,0,0:0:0:0:
396,248,119183,1,8,0:0:0:0:
308,312,119370,1,0,0:0:0:0:
196,288,119558,1,0,0:0:0:0:
196,288,119745,1,0,0:0:0:0:
