osu file format v14

[General]
AudioFilename: audio.mp3
AudioLeadIn: 0
PreviewTime: 96406
Countdown: 0
SampleSet: None
StackLeniency: 0.3
Mode: 0
LetterboxInBreaks: 0
WidescreenStoryboard: 1

[Editor]
Bookmarks: 20843,20937,21031,26937,103156,105406,108031
DistanceSpacing: 2
BeatDivisor: 8
GridSize: 4
TimelineZoom: 5.499998

[Metadata]
Title:Delfin (Gothic Rap Remix)
TitleUnicode:Delfin (Gothic Rap Remix)
Artist:Bezimienny
ArtistUnicode:Bezimienny
Creator:Methosu
Version:A jak rudy nie mam to zdobede
Source:Gothtic
Tags:delfin, gothic, rap, snafadron, remix, bezimienny, bedoes, Kubi Producent, Koldi, Young Multi, Beteo, meme, polish,
BeatmapID:1970988
BeatmapSetID:935527

[Difficulty]
HPDrainRate:6
CircleSize:4
OverallDifficulty:7
ApproachRate:9
SliderMultiplier:1.4
SliderTickRate:1

[Events]
//Background and Video events
0,0,"Screenshot_3.png",0,0
//Break Periods
//Storyboard Layer 0 (Background)
//Storyboard Layer 1 (Fail)
//Storyboard Layer 2 (Pass)
//Storyboard Layer 3 (Foreground)
//Storyboard Sound Samples

[TimingPoints]
31,375,4,1,0,75,1,0
39218,-100,4,1,0,75,0,0
69031,-100,4,1,0,75,0,1
72031,-133.333333333333,4,1,0,75,0,1
72874,-100,4,1,0,75,0,1
95656,-100,4,1,0,75,0,0

[Colours]
Combo1 : 255,128,0
Combo2 : 255,0,0
Combo3 : 128,255,0
Combo4 : 0,128,192
Combo5 : 128,0,64

[HitObjects]
100,86,12406,6,0,B|173:63|226:96|226:97,1,70
281,91,12781,1,0,0:0:0:0:
382,76,12968,2,0,P|422:122|416:173,2,70
278,39,13531,1,0,0:0:0:0:
240,143,13718,2,0,B|180:103|114:133|114:132,1,70
81,87,14093,1,0,0:0:0:0:
140,159,14281,1,0,0:0:0:0:
188,90,14468,1,0,0:0:0:0:
273,57,14656,2,0,L|358:74,2,70
224,152,15406,6,0,P|220:189|247:220,1,70
315,207,15781,2,0,P|319:170|292:139,2,70
287,270,16343,2,0,B|266:311|223:302,2,70
331,195,16906,1,0,0:0:0:0:
422,193,17093,1,0,0:0:0:0:
389,114,17281,1,0,0:0:0:0:
313,80,17468,2,0,L|235:79,2,70
74,125,19156,6,0,L|61:57,2,70
89,206,19718,2,0,L|103:275,1,70
142,150,20093,1,0,0:0:0:0:
182,84,20281,1,0,0:0:0:0:
259,124,20468,1,0,0:0:0:0:
282,200,20656,2,0,P|302:250|338:264,2,70
432,328,21406,5,0,0:0:0:0:
418,246,21593,2,0,L|407:166,2,70
433,328,22156,2,0,P|386:348|334:322,1,70
298,314,22531,1,0,0:0:0:0:
375,266,22718,1,0,0:0:0:0:
290,232,22906,1,0,0:0:0:0:
375,181,23093,1,0,0:0:0:0:
298,147,23281,1,0,0:0:0:0:
369,103,23468,1,0,0:0:0:0:
452,122,23656,2,0,P|471:96|469:52,2,70
440,255,24406,6,0,B|363:247|327:196|328:195,1,70
271,193,24781,1,0,0:0:0:0:
201,134,24968,2,0,P|156:102|135:53,2,70
292,186,25531,1,0,0:0:0:0:
358,236,25718,2,0,B|398:267|398:267|331:291,1,70
292,316,26093,1,0,0:0:0:0:
208,272,26281,1,0,0:0:0:0:
152,335,26468,1,0,0:0:0:0:
73,338,26656,2,0,L|-12:321,2,70
41,202,27407,6,0,B|25:176|25:176|39:136,1,70
175,138,27781,2,0,B|178:107|178:107|153:76,2,70
107,168,28343,2,0,B|122:200|122:200|173:218,2,70
120,84,28906,1,0,0:0:0:0:
210,50,29093,1,0,0:0:0:0:
305,73,29281,1,0,0:0:0:0:
307,180,29468,2,0,B|264:174|264:174|237:145,2,70
187,235,31156,5,0,0:0:0:0:
269,295,31343,2,0,L|333:343,2,70
190,228,31906,2,0,P|228:194|277:175,1,70
301,112,32281,1,0,0:0:0:0:
368,151,32468,1,0,0:0:0:0:
367,239,32656,2,0,L|439:262,2,70
85,221,33406,5,0,0:0:0:0:
63,124,33593,1,0,0:0:0:0:
163,119,33781,1,0,0:0:0:0:
181,214,33968,1,0,0:0:0:0:
248,270,34156,1,0,0:0:0:0:
338,203,34343,1,0,0:0:0:0:
416,281,34531,2,0,P|443:329|476:362,2,70
280,98,35093,5,0,0:0:0:0:
188,176,35281,1,0,0:0:0:0:
306,205,35468,1,0,0:0:0:0:
218,258,35656,1,0,0:0:0:0:
79,258,35843,1,0,0:0:0:0:
56,227,39406,6,0,P|53:190|67:136,2,70
108,70,39968,1,0,0:0:0:0:
152,150,40156,1,0,0:0:0:0:
208,75,40343,1,0,0:0:0:0:
245,166,40531,2,0,L|287:247,2,70
219,84,41093,6,0,P|223:46|253:4,1,70
350,27,41468,1,0,0:0:0:0:
410,105,41656,2,0,P|406:139|390:170,2,70
332,234,42406,5,0,0:0:0:0:
251,188,42593,2,0,P|214:163|185:114,2,70
422,255,43156,2,0,P|464:248|485:211,1,70
441,169,43531,1,0,0:0:0:0:
347,209,43718,1,0,0:0:0:0:
287,270,43906,2,0,P|252:255|226:225,1,70
183,176,44281,2,0,P|161:146|153:111,2,70
337,294,45031,6,0,L|389:348,2,70
306,192,45593,2,0,P|275:176|226:163,1,70
154,138,45968,2,0,P|101:133|84:107,1,70
181,51,46343,1,0,0:0:0:0:
250,125,46531,2,0,P|243:157|198:188,1,70
205,261,46906,1,0,0:0:0:0:
235,348,47093,1,0,0:0:0:0:
309,283,47281,1,0,0:0:0:0:
370,251,47468,2,0,L|447:224,2,70
