osu file format v14

[General]
AudioFilename: audio.mp3
AudioLeadIn: 0
PreviewTime: 215356
Countdown: 0
SampleSet: Drum
StackLeniency: 0.6
Mode: 0
LetterboxInBreaks: 1
WidescreenStoryboard: 1

[Editor]
Bookmarks: 3424,24283,52197,83609,97624,101210,268636
DistanceSpacing: 0.3
BeatDivisor: 6
GridSize: 4
TimelineZoom: 3.599999

[Metadata]
Title:Omnipresent Perception
TitleUnicode:Omnipresent Perception
Artist:Beyond Creation
ArtistUnicode:Beyond Creation
Creator:Platnuu
Version:Assimilation
Source:
Tags:progressive technical death metal the aura deathstream english SinHay Mazzerin cyb3rv1rus
BeatmapID:2596164
BeatmapSetID:1249121

[Difficulty]
HPDrainRate:6
CircleSize:4.2
OverallDifficulty:9
ApproachRate:9.8
SliderMultiplier:2.4
SliderTickRate:1

[Events]
//Background and Video events
0,0,"image.jpg",0,0
//Break Periods
2,171602,174081
//Storyboard Layer 0 (Background)
//Storyboard Layer 1 (Fail)
//Storyboard Layer 2 (Pass)
//Storyboard Layer 3 (Foreground)
//Storyboard Layer 4 (Overlay)
//Storyboard Sound Samples

[TimingPoints]
61,425.531914893617,4,3,1,50,1,0
61,-133.333333333333,4,3,1,50,0,0
1763,-66.6666666666667,4,3,1,60,0,0
2756,-66.6666666666667,4,2,2,60,0,0
3039,-66.6666666666667,4,2,3,60,0,0
3323,-66.6666666666667,4,2,4,60,0,0
3465,-66.6666666666667,4,3,1,70,0,0
6089,-66.6666666666667,4,3,1,70,0,0
7720,-66.6666666666667,4,3,1,70,0,0
10273,-50,4,3,1,70,0,0
10699,-62.5,4,3,1,70,0,0
11124,-83.3333333333333,4,3,1,70,0,0
11550,-133.333333333333,4,3,1,70,0,0
11975,-66.6666666666667,4,3,1,70,0,0
15805,-62.5,4,3,1,70,0,0
16231,-58.8235294117647,4,3,1,70,0,0
16656,-55.5555555555556,4,3,1,70,0,0
17507,-62.5,4,3,1,70,0,0
17933,-66.6666666666667,4,3,1,70,0,0
23607,-66.6666666666667,4,2,2,70,0,0
23748,-1000,4,2,3,70,0,0
24174,-1000,4,2,4,30,0,0
24324,437.956204379562,4,3,1,60,1,0
24324,-80,4,3,1,60,0,0
25199,-303.030303030303,4,3,1,60,0,0
26075,-80,4,3,1,60,0,0
27827,-80,4,3,1,60,0,0
28703,-303.030303030303,4,3,1,60,0,0
29579,-80,4,3,1,60,0,0
36586,-80,4,3,1,60,0,0
38338,425.531914893617,4,3,1,60,1,0
38338,-66.6666666666667,4,3,1,60,0,0
62025,-500,4,3,1,60,0,0
62588,437.956204379562,4,3,1,60,1,0
62588,-80,4,3,1,70,0,0
63463,-303.030303030303,4,3,1,60,0,0
64339,-80,4,3,1,60,0,0
65215,-303.030303030303,4,3,1,60,0,0
66091,-80,4,3,1,70,0,0
66967,-303.030303030303,4,3,1,70,0,0
67843,-80,4,3,1,70,0,0
70471,-80,4,3,1,70,0,0
72660,-80,4,3,1,70,0,0
73974,-303.030303030303,4,3,1,70,0,0
74850,-80,4,3,1,70,0,0
75726,-303.030303030303,4,3,1,70,0,0
76602,-80,4,3,1,60,0,0
77478,-303.030303030303,4,3,1,60,0,0
78354,-80,4,3,1,60,0,0
79230,-200,4,3,1,60,0,0
81858,-80,4,3,1,60,0,0
83609,-100,4,3,1,60,0,0
89777,-100,4,3,1,20,0,0
89887,-100,4,3,1,60,0,0
90069,-100,4,3,1,20,0,0
90179,-100,4,3,1,60,0,0
90325,-100,4,3,1,60,0,0
90361,-100,4,3,1,20,0,0
90471,-100,4,3,1,60,0,0
90507,-100,4,3,1,20,0,0
90617,-100,4,3,1,60,0,0
96748,-80,4,3,1,60,0,0
96967,-80,4,3,1,20,0,0
97040,-80,4,3,1,60,0,0
97332,-80,4,3,1,20,0,0
97370,437.956204379562,4,3,1,60,1,0
97370,-100,4,3,1,60,0,0
97665,458.015267175573,4,3,1,60,1,0
97665,-200,4,3,1,60,0,0
99497,400,4,3,1,60,1,0
99797,428.571428571429,4,3,1,60,1,0
100131,375,4,3,1,60,1,0
100412,461.538461538462,4,3,1,60,1,0
100527,400,4,3,1,60,1,0
100718,400,4,3,1,60,1,0
101717,266.666666666667,4,3,1,60,1,0
101784,400,4,3,1,60,1,0
102252,521.739130434783,4,3,1,60,1,0
102382,333.333333333333,4,3,1,60,1,0
102715,600,4,3,1,60,1,0
102988,500,4,3,1,60,1,0
103078,400,4,3,1,60,1,0
103349,500,4,3,1,60,1,0
103757,500,4,3,1,60,1,0
103887,500,4,3,1,60,1,0
104083,500,4,3,1,60,1,0
104389,300,4,3,1,60,1,0
104996,458.015267175573,4,3,1,60,1,0
108660,-111.111111111111,4,3,1,60,0,0
110492,-200,4,3,1,60,0,0
112333,476.190476190476,4,3,1,60,1,0
112333,-303.030303030303,4,3,1,60,0,0
113285,-200,4,3,1,60,0,0
113761,-333.333333333333,4,3,1,60,0,0
114555,-100,4,3,1,60,0,0
114872,-200,4,3,1,60,0,0
115190,-303.030303030303,4,3,1,60,0,0
115507,-100,4,3,1,60,0,0
115825,-200,4,3,1,60,0,0
116142,-303.030303030303,4,3,1,60,0,0
117094,-200,4,3,1,60,0,0
118047,-133.333333333333,4,3,1,60,0,0
121856,-117.647058823529,4,3,1,60,0,0
122491,-133.333333333333,4,3,1,60,0,0
122809,-117.647058823529,4,3,1,60,0,0
123444,-133.333333333333,4,3,1,60,0,0
127571,314.13612565445,4,3,1,60,1,0
169297,263.157894736842,4,3,1,60,1,0
169297,-133.333333333333,4,3,1,60,0,0
171402,-100,4,3,1,60,0,0
174560,-200,4,3,1,60,0,0
174823,-200,4,3,2,60,0,0
176599,-200,4,3,1,10,0,0
176665,-200,4,3,1,60,0,0
176797,-625,4,3,1,60,0,0
177060,-625,4,3,2,60,0,0
177323,-625,4,3,1,10,0,0
178770,-200,4,3,1,60,0,0
179033,-200,4,3,2,60,0,0
181797,-200,4,3,1,60,0,0
182191,-200,4,3,2,60,0,0
184033,-200,4,3,1,60,0,0
186139,-100,4,3,1,75,0,1
206139,-133.333333333333,4,3,1,75,0,1
207191,-100,4,3,1,75,0,1
215086,810.810810810811,4,3,1,60,1,0
215537,437.956204379562,4,3,1,60,1,0
215537,-66.6666666666667,4,3,1,60,0,0
226047,300,3,3,1,60,1,0
226047,-200,3,3,1,60,0,0
229647,437.956204379562,4,3,1,60,1,0
240157,300,3,3,1,60,1,0
240157,-200,3,3,1,60,0,0
243757,437.956204379562,4,3,1,60,1,0
250764,-133.333333333333,4,3,1,60,0,0
252516,-100,4,3,1,60,0,0
254267,300,3,3,1,60,1,0
254267,-200,3,3,1,60,0,0
257867,437.956204379562,4,3,1,60,1,0
268377,300,3,3,1,80,1,0
268377,-200,3,3,1,80,0,0
271970,437.956204379562,4,3,1,80,1,0
271970,-80,4,3,1,80,0,0
282480,300,3,3,1,80,1,0
282480,-200,3,3,1,80,0,0
286080,437.956204379562,4,3,1,60,1,0
296590,300,3,3,1,60,1,0
296590,-200,3,3,1,60,0,0
300190,437.956204379562,4,3,1,60,1,0
305488,437.956204379562,4,3,1,60,1,0
306039,437.956204379562,4,3,1,60,1,0
306367,-200,4,3,1,60,0,0
306914,-80,4,3,1,60,0,0
307197,437.956204379562,4,3,1,60,1,0
307197,-80,4,3,1,60,0,0
310700,300,3,3,1,60,1,0
310700,-200,3,3,1,60,0,0
314300,437.956204379562,4,3,1,60,1,0
324810,300,3,3,1,60,1,0
324810,-200,3,3,1,60,0,0
328410,437.956204379562,4,3,1,60,1,0
338920,300,3,3,1,60,1,0
338920,-200,3,3,1,60,0,0
342520,437.956204379562,4,3,1,60,1,0
347775,-100,4,3,1,55,0,0
349527,-125,4,3,1,55,0,0
353030,300,3,3,1,55,1,0
353030,-200,4,3,1,50,0,0
356630,437.956204379562,4,3,1,45,1,0
356630,-166.666666666667,4,3,1,45,0,0
360133,-200,4,3,1,40,0,0
362761,-333.333333333333,4,3,1,35,0,0
367140,300,3,3,1,60,1,0
367140,-200,3,3,1,60,0,0
370440,-100,4,3,5,60,0,0

[Colours]
Combo1 : 61,145,32
Combo2 : 188,221,142
Combo3 : 98,190,92

[HitObjects]
498,276,61,6,0,B|494:306|494:306|500:335,2,60.0000022888184,4|0|0,3:0|0:0|0:0,0:0:0:0:
450,173,486,2,0,B|456:144|456:144|452:114,2,60.0000022888184
480,279,912,2,0,B|478:309|478:309|487:337,2,60.0000022888184
462,173,1337,2,0,B|465:143|465:143|458:114,2,60.0000022888184
331,352,1763,6,0,B|292:367|292:367|202:360,1,120.000004577637,4|0,3:3|0:0,0:0:0:0:
121,331,2046,1,0,0:0:0:0:
137,235,2188,2,0,B|152:196|152:196|145:106,1,120.000004577637,0|0,3:0|0:0,0:0:0:0:
110,32,2472,1,0,0:0:0:0:
276,90,2614,6,0,L|321:86,1,30.0000011444092,12|8,3:3|3:0,0:0:0:0:
135,213,2756,1,8,0:3:0:0:
136,224,2826,1,8,0:3:0:0:
137,235,2897,1,8,0:3:0:0:
270,324,3039,2,8,B|308:342|308:342|395:329,1,120.000004577637,8|8,3:3|0:3,0:3:0:0:
509,263,3323,1,8,0:3:0:0:
276,384,3465,6,0,L|269:312,1,60.0000022888184,12|0,0:3|3:0,0:0:0:0:
402,201,3607,2,0,L|395:272,1,60.0000022888184,8|0,0:0|3:0,0:0:0:0:
268,152,3748,2,0,L|273:92,1,60.0000022888184,8|0,0:0|3:0,0:0:0:0:
427,50,3890,1,10,0:3:0:0:
427,50,3961,1,0,3:0:0:0:
427,50,4032,2,0,L|486:44,3,60.0000022888184,8|0|8|0,0:0|3:0|0:0|3:0,0:0:0:0:
402,201,4316,6,0,L|407:268,1,60.0000022888184,10|0,0:3|3:0,0:0:0:0:
280,368,4458,2,0,L|285:300,1,60.0000022888184,8|0,0:0|3:0,0:0:0:0:
188,193,4600,2,0,L|182:260,1,60.0000022888184,8|0,0:0|3:0,0:0:0:0:
59,352,4741,1,10,0:3:0:0:
59,352,4812,1,0,3:0:0:0:
59,352,4883,2,0,L|0:357,3,60.0000022888184,8|0|8|0,0:0|3:0|0:0|3:0,0:0:0:0:
130,136,5167,5,10,0:3:0:0:
103,176,5238,1,0,3:0:0:0:
108,223,5309,1,8,0:0:0:0:
148,247,5380,1,0,3:0:0:0:
196,239,5451,1,8,0:0:0:0:
221,198,5521,1,0,3:0:0:0:
210,151,5592,2,0,L|278:157,1,60.0000022888184,10|0,0:3|3:0,0:0:0:0:
416,21,5734,2,0,L|349:26,1,60.0000022888184,8|0,0:0|3:0,0:0:0:0:
453,162,5876,2,0,L|519:156,1,60.0000022888184,8|0,0:0|3:0,0:0:0:0:
435,309,6018,6,0,L|441:384,1,60.0000022888184,10|0,3:3|3:0,0:0:0:0:
294,343,6160,1,8,0:0:0:0:
294,343,6231,1,0,3:0:0:0:
294,343,6302,2,0,L|222:349,1,60.0000022888184,0|0,3:0|3:0,0:0:0:0:
39,269,6443,2,0,L|110:262,1,60.0000022888184,10|0,0:3|3:0,0:0:0:0:
46,281,6585,2,0,L|117:274,1,60.0000022888184,0|0,3:0|3:0,0:0:0:0:
234,164,6727,2,0,L|162:157,1,60.0000022888184,8|0,0:0|3:0,0:0:0:0:
56,11,6869,5,4,0:3:0:0:
71,29,6940,1,0,3:0:0:0:
91,40,7011,1,0,3:0:0:0:
114,45,7082,1,0,3:0:0:0:
138,44,7153,1,0,3:0:0:0:
160,36,7224,1,0,3:0:0:0:
180,22,7295,2,0,B|221:30|221:30|248:23,5,60.0000022888184,10|2|2|2|2|2,3:2|3:2|3:2|3:2|3:2|3:2,3:2:0:0:
429,0,7720,5,2,3:2:0:0:
414,19,7791,1,0,3:0:0:0:
411,42,7862,1,2,3:2:0:0:
415,65,7933,1,0,3:0:0:0:
426,86,8004,1,2,3:2:0:0:
443,101,8075,1,0,3:0:0:0:
464,111,8146,2,0,B|468:128|468:128|460:169,5,60.0000022888184,8|0|2|0|2|0,3:3|3:0|3:2|3:0|3:2|3:0,3:0:0:0:
443,320,8571,5,2,3:2:0:0:
418,321,8642,1,2,3:2:0:0:
393,322,8713,1,2,3:2:0:0:
368,323,8784,1,2,3:2:0:0:
343,324,8855,1,2,3:2:0:0:
319,327,8926,1,2,3:2:0:0:
294,329,8997,5,8,3:3:0:0:
307,309,9068,1,2,3:2:0:0:
310,285,9139,1,2,3:2:0:0:
308,261,9209,1,2,3:2:0:0:
299,238,9280,1,2,3:2:0:0:
283,219,9351,1,2,3:2:0:0:
260,210,9422,2,0,B|252:169|252:169|259:142,5,60.0000022888184,2|2|2|2|2|2,3:2|3:2|3:2|3:2|3:2|3:2,3:2:0:0:
27,282,9848,2,0,B|35:323|35:323|28:350,5,60.0000022888184,10|0|2|0|2|0,3:2|3:2|3:2|3:2|3:2|3:2,3:2:0:0:
88,24,10273,6,0,L|96:117,1,80,4|0,3:3|3:0,3:0:0:0:
167,137,10415,2,0,L|81:97,1,80,0|0,3:0|3:0,3:0:0:0:
28,149,10557,2,0,L|105:95,1,80,0|0,3:0|3:0,3:0:0:0:
339,104,10699,6,0,L|332:187,1,64,12|0,3:3|3:0,3:0:0:0:
386,204,10841,2,0,L|317:156,1,64,0|0,3:3|3:0,3:0:0:0:
275,194,10982,2,0,L|350:158,1,64,0|0,3:3|3:0,3:0:0:0:
157,248,11124,6,0,L|162:325,1,47.9999985351563,4|0,3:3|3:0,3:0:0:0:
203,316,11266,2,0,L|133:283,1,47.9999985351563,0|0,3:0|3:0,3:0:0:0:
120,323,11408,2,0,L|177:283,1,47.9999985351563,0|0,3:0|3:0,3:0:0:0:
429,360,11550,6,0,L|380:366,5,30.0000011444092,12|0|0|0|0|0,3:3|3:0|3:0|3:0|3:0|3:0,3:0:0:0:
504,217,11975,5,6,3:2:0:0:
486,200,12046,1,0,3:0:0:0:
475,178,12117,1,2,3:2:0:0:
470,154,12188,1,0,3:0:0:0:
475,130,12259,2,0,L|468:61,1,60.0000022888184,2|2,3:2|3:0,3:0:0:0:
335,231,12401,2,0,B|352:214|352:214|367:175,1,60.0000022888184,10|2,3:2|3:2,3:2:0:0:
300,118,12543,2,0,B|323:114|323:114|358:91,1,60.0000022888184,2|2,3:2|3:2,3:2:0:0:
336,6,12685,2,0,B|357:17|357:17|398:17,1,60.0000022888184,2|2,3:2|3:2,3:2:0:0:
214,133,12826,5,2,3:2:0:0:
189,133,12897,1,0,3:0:0:0:
165,127,12968,1,2,3:2:0:0:
144,114,13039,1,0,3:0:0:0:
131,93,13110,2,0,L|62:99,1,60.0000022888184,2|0,3:2|3:0,3:0:0:0:
277,240,13252,2,0,B|260:222|260:222|221:207,1,60.0000022888184,10|0,3:2|3:0,3:0:0:0:
164,275,13394,2,0,B|160:251|160:251|137:216,1,60.0000022888184,2|0,3:2|3:0,3:0:0:0:
52,239,13536,2,0,B|63:217|63:217|63:176,1,60.0000022888184,2|0,3:2|3:0,3:0:0:0:
248,129,13678,5,2,3:2:0:0:
258,150,13748,1,2,3:2:0:0:
258,174,13819,1,2,3:2:0:0:
246,195,13890,1,2,3:2:0:0:
227,209,13961,2,0,L|233:277,1,60.0000022888184,2|2,0:2|0:2,0:2:0:0:
333,32,14103,2,0,B|318:51|318:51|311:92,1,60.0000022888184,10|2,0:2|0:2,0:2:0:0:
388,136,14245,2,0,B|365:143|365:143|335:173,1,60.0000022888184,2|2,0:2|0:2,0:2:0:0:
374,253,14387,2,0,B|350:246|350:246|309:253,1,60.0000022888184,2|2,0:2|0:2,0:2:0:0:
151,349,14529,5,2,3:2:0:0:
168,332,14600,1,2,3:2:0:0:
177,310,14670,1,2,3:2:0:0:
175,286,14741,1,2,3:2:0:0:
166,263,14812,1,2,3:2:0:0:
146,248,14883,1,2,3:2:0:0:
122,244,14954,5,10,3:2:0:0:
133,271,15025,1,0,3:2:0:0:
161,280,15096,1,2,3:2:0:0:
189,271,15167,1,0,3:2:0:0:
212,251,15238,2,0,L|287:244,1,60.0000022888184,2|0,3:2|3:2,3:2:0:0:
407,38,15380,6,0,B|414:59|414:59|410:96,1,60.0000022888184,4|0,3:3|3:0,3:0:0:0:
462,123,15521,2,0,B|440:118|440:118|410:96,1,60.0000022888184,0|0,3:0|3:0,3:0:0:0:
360,128,15663,2,0,B|374:111|374:111|408:96,1,60.0000022888184,0|0,3:0|3:0,3:0:0:0:
425,22,15805,6,0,B|430:45|430:45|418:90,1,64,12|0,3:3|3:0,3:0:0:0:
467,152,15947,2,0,B|442:144|442:144|409:111,1,64,0|0,3:0|3:0,3:0:0:0:
338,133,16089,2,0,B|356:116|356:116|401:104,1,64,0|0,3:0|3:0,3:0:0:0:
426,14,16231,6,0,B|428:41|428:41|410:99,1,68.0000012969971,4|0,3:3|3:0,3:0:0:0:
481,179,16373,2,0,B|455:167|455:167|414:122,1,68.0000012969971,0|0,3:0|3:0,3:0:0:0:
317,147,16514,2,0,B|340:130|340:130|399:117,1,68.0000012969971,0|0,3:0|3:0,3:0:0:0:
444,14,16656,6,0,B|442:42|442:42|417:100,1,71.9999978027344,12|0,3:3|3:0,3:0:0:0:
471,210,16798,2,0,B|446:194|446:194|408:142,1,71.9999978027344,0|0,3:0|3:0,3:0:0:0:
293,133,16940,2,0,B|318:118|318:118|381:112,1,71.9999978027344,0|0,3:0|3:0,3:0:0:0:
112,40,17082,6,0,L|195:47,1,71.9999978027344,4|0,3:3|3:0,3:0:0:0:
58,133,17224,2,0,L|141:140,1,71.9999978027344,0|0,3:0|3:0,3:0:0:0:
5,232,17365,2,0,L|88:239,1,71.9999978027344,0|0,3:0|3:0,3:0:0:0:
100,47,17507,6,0,L|179:54,1,64,12|0,3:3|3:0,3:0:0:0:
48,141,17649,2,0,L|127:148,1,64,0|0,3:0|3:0,3:0:0:0:
0,238,17791,2,0,L|79:245,1,64,0|0,3:0|3:0,3:0:0:0:
193,287,17933,6,0,B|191:311|191:311|174:361,1,60.0000022888184,4|0,3:3|3:0,3:0:0:0:
290,304,18075,2,0,B|311:292|311:292|363:283,1,60.0000022888184,8|0,3:0|3:0,3:0:0:0:
252,211,18217,2,0,B|231:197|231:197|197:157,1,60.0000022888184,0|0,3:0|3:0,3:0:0:0:
214,284,18358,6,0,B|214:303|214:303|203:345,1,60.0000022888184,12|0,3:3|3:0,3:0:0:0:
293,291,18500,2,0,B|309:280|309:280|351:269,1,60.0000022888184,0|0,3:0|3:0,3:0:0:0:
257,218,18642,2,0,B|239:208|239:208|209:178,1,60.0000022888184,8|0,3:0|3:0,3:0:0:0:
4,334,18784,5,6,3:2:0:0:
28,316,18855,1,0,3:0:0:0:
57,309,18926,1,2,3:2:0:0:
87,308,18997,1,0,3:0:0:0:
114,319,19068,2,0,L|179:324,1,60.0000022888184,2|0,3:2|3:0,3:0:0:0:
296,243,19209,2,0,B|320:247|320:247|354:275,1,60.0000022888184,10|0,3:2|3:0,3:0:0:0:
255,158,19351,2,0,B|277:147|277:147|321:150,1,60.0000022888184,2|2,3:2|3:2,3:2:0:0:
176,119,19493,2,0,B|188:96|188:96|226:74,1,60.0000022888184,2|2,3:2|3:2,3:2:0:0:
16,52,19635,5,2,3:2:0:0:
35,75,19706,1,0,3:0:0:0:
42,103,19777,1,0,3:0:0:0:
36,132,19848,1,0,3:0:0:0:
18,156,19919,2,0,L|24:228,1,60.0000022888184,0|0,3:0|3:0,3:0:0:0:
104,314,20061,2,0,B|116:335|116:335|116:379,1,60.0000022888184,10|0,3:2|3:0,3:0:0:0:
142,227,20203,2,0,B|165:237|165:237|190:273,1,60.0000022888184,2|0,3:2|3:0,3:0:0:0:
121,142,20344,2,0,B|145:137|145:137|187:152,1,60.0000022888184,2|0,3:2|3:0,3:0:0:0:
75,17,20486,5,2,3:2:0:0:
97,37,20557,1,0,3:0:0:0:
126,44,20628,1,2,3:2:0:0:
156,43,20699,1,0,3:0:0:0:
182,28,20770,2,0,L|260:39,1,60.0000022888184,2|0,0:2|3:0,3:0:0:0:
393,19,20912,1,10,3:2:0:0:
388,48,20982,1,0,3:0:0:0:
384,77,21053,1,2,3:2:0:0:
380,106,21124,1,0,3:0:0:0:
376,135,21195,2,0,L|365:217,1,60.0000022888184,2|0,3:2|3:0,3:0:0:0:
492,299,21337,5,8,0:0:0:0:
454,337,21408,1,8,0:0:0:0:
403,355,21479,1,8,0:0:0:0:
348,353,21550,1,8,0:0:0:0:
297,332,21621,1,8,0:0:0:0:
263,289,21692,1,8,0:0:0:0:
251,236,21763,5,0,3:0:0:0:
233,267,21834,1,0,3:0:0:0:
239,301,21904,1,0,3:0:0:0:
272,313,21975,1,0,3:0:0:0:
301,292,22046,2,0,L|374:299,1,60.0000022888184,0|0,3:0|3:0,3:0:0:0:
512,115,22188,5,2,3:3:0:0:
493,116,22259,1,0,3:0:0:0:
474,116,22330,1,0,3:0:0:0:
456,114,22401,1,0,3:0:0:0:
437,111,22472,1,0,3:0:0:0:
419,107,22543,1,0,3:0:0:0:
397,68,22614,5,10,3:3:0:0:
380,60,22685,1,0,3:0:0:0:
362,57,22756,1,0,3:0:0:0:
344,56,22826,1,0,3:0:0:0:
326,57,22897,1,0,3:0:0:0:
308,60,22968,1,0,3:0:0:0:
278,90,23039,5,2,3:3:0:0:
283,100,23110,1,0,3:0:0:0:
285,111,23181,1,0,3:0:0:0:
285,123,23252,1,0,3:0:0:0:
283,134,23323,2,0,L|273:197,1,60.0000022888184,0|0,3:0|3:0,0:0:0:0:
174,287,23465,1,8,0:0:0:0:
411,216,23607,1,8,0:3:0:0:
86,251,23748,2,8,L|61:254,1,24,8|8,0:3|0:3,0:3:0:0:
4,57,24324,5,6,3:3:0:0:
8,96,24396,1,0,3:0:0:0:
12,135,24469,1,0,3:0:0:0:
107,310,24615,1,0,3:0:0:0:
121,150,24761,2,0,B|165:162|165:162|219:148,1,100,2|0,3:0|3:0,0:0:0:0:
360,101,25053,1,0,3:0:0:0:
354,343,25199,6,0,L|327:340,2,26.3999999194336,10|0|0,3:0|3:0|3:0,3:0:0:0:
465,383,25637,2,0,L|499:380,2,26.3999999194336,2|0|0,3:0|3:0|3:0,3:0:0:0:
482,177,26075,5,2,3:0:0:0:
486,137,26148,1,0,3:0:0:0:
490,97,26221,1,0,3:0:0:0:
345,14,26367,1,0,3:0:0:0:
476,187,26513,1,2,3:0:0:0:
439,203,26586,1,0,3:0:0:0:
402,220,26659,1,0,3:0:0:0:
365,382,26805,1,0,3:0:0:0:
131,360,26951,6,0,P|180:355|230:356,1,100,10|0,0:0|0:0,0:0:0:0:
46,312,27243,1,0,0:0:0:0:
205,262,27389,2,0,P|210:205|207:160,2,100,2|0|0,0:0|0:0|0:0,0:0:0:0:
13,204,27827,5,6,3:3:0:0:
6,165,27900,1,0,3:0:0:0:
0,126,27973,1,0,3:0:0:0:
94,0,28119,1,0,3:0:0:0:
152,101,28265,2,0,B|167:136|167:136|151:217,1,100,2|0,3:0|3:0,3:0:0:0:
102,319,28557,1,0,3:0:0:0:
372,311,28703,6,0,L|409:307,2,26.3999999194336,10|0|0,3:0|3:0|3:0,3:0:0:0:
276,275,29141,2,0,L|249:277,2,26.3999999194336,2|0|0,3:0|3:0|3:0,3:0:0:0:
287,86,29579,5,2,3:0:0:0:
290,47,29652,1,0,3:0:0:0:
292,8,29725,1,0,3:0:0:0:
126,23,29871,1,0,3:0:0:0:
299,103,30017,1,2,3:0:0:0:
331,125,30090,1,0,3:0:0:0:
364,146,30163,1,0,3:0:0:0:
440,13,30309,1,0,3:0:0:0:
487,214,30455,6,0,P|475:277|484:326,1,100,10|0,3:0|3:0,3:0:0:0:
493,331,30674,1,0,3:0:0:0:
493,329,30747,1,0,3:0:0:0:
364,146,30893,1,2,3:0:0:0:
281,341,31039,2,0,L|166:350,1,100,0|0,3:0|3:0,3:0:0:0:
16,212,31331,5,6,3:3:0:0:
55,219,31404,1,0,3:0:0:0:
94,225,31477,1,0,3:0:0:0:
206,96,31623,1,0,3:0:0:0:
291,245,31769,2,0,B|301:281|301:281|277:351,1,100,2|0,3:0|3:0,3:0:0:0:
164,374,32061,1,0,3:0:0:0:
375,334,32207,6,0,L|490:323,1,100,10|0,3:0|3:0,3:0:0:0:
488,313,32426,1,0,3:0:0:0:
488,312,32499,1,0,3:0:0:0:
412,184,32645,2,0,B|392:148|396:83,1,100,2|0,3:0|3:0,3:0:0:0:
304,0,32937,1,0,3:0:0:0:
489,170,33083,5,2,3:0:0:0:
451,177,33156,1,0,3:0:0:0:
412,184,33229,1,0,3:0:0:0:
488,312,33375,1,0,3:0:0:0:
498,162,33521,1,0,3:0:0:0:
505,123,33594,1,0,3:0:0:0:
512,85,33667,1,2,3:0:0:0:
364,248,33813,1,0,3:0:0:0:
320,46,33959,6,0,B|275:61|215:52,1,100,10|0,3:0|3:0,3:0:0:0:
103,0,34251,1,0,3:0:0:0:
8,88,34396,2,0,L|-1:201,1,100,2|0,3:0|3:0,3:0:0:0:
41,352,34688,1,0,3:0:0:0:
121,167,34834,5,2,3:0:0:0:
124,206,34907,1,0,3:0:0:0:
129,245,34980,1,0,3:0:0:0:
41,352,35126,1,0,3:0:0:0:
228,298,35272,2,0,B|263:286|263:286|329:298,1,100,2|0,3:0|3:0,3:0:0:0:
448,262,35564,1,0,3:0:0:0:
483,32,35710,6,0,P|476:82|479:139,1,100,10|0,0:0|0:0,0:0:0:0:
487,146,35929,1,0,0:0:0:0:
487,146,36002,1,0,0:0:0:0:
337,179,36148,2,0,L|228:187,1,100,2|0,0:0|0:0,0:0:0:0:
95,161,36440,1,0,0:0:0:0:
244,16,36586,5,2,3:0:0:0:
204,23,36659,1,0,3:0:0:0:
164,30,36732,1,0,3:0:0:0:
337,179,36878,1,0,3:0:0:0:
257,16,37024,1,2,3:0:0:0:
297,23,37097,1,0,3:0:0:0:
337,30,37170,1,0,3:0:0:0:
170,184,37316,1,0,3:0:0:0:
260,384,37462,5,2,3:0:0:0:
196,109,37608,1,8,0:0:0:0:
212,116,37900,1,8,0:0:0:0:
333,66,38192,1,8,0:0:0:0:
502,144,38338,6,0,L|507:84,1,60.0000022888184,10|0,0:2|3:0,0:0:0:0:
411,210,38479,2,0,L|418:129,1,60.0000022888184,8|0,0:0|3:0,0:0:0:0:
487,299,38621,2,0,L|492:239,1,60.0000022888184,8|0,0:0|3:0,0:0:0:0:
396,368,38763,2,0,L|403:287,5,60.0000022888184,10|0|8|0|8|0,0:3|3:0|0:0|3:0|0:0|3:0,0:0:0:0:
165,384,39189,6,0,L|99:378,1,60.0000022888184,10|0,0:3|3:0,0:0:0:0:
0,305,39330,2,0,L|59:310,1,60.0000022888184,8|0,0:0|3:0,0:0:0:0:
198,264,39472,2,0,L|132:258,1,60.0000022888184,8|0,0:0|3:0,0:0:0:0:
30,179,39614,2,0,L|89:184,5,60.0000022888184,10|0|8|0|8|0,0:3|3:0|0:0|3:0|0:0|3:0,0:0:0:0:
230,0,40040,6,0,L|235:59,1,60.0000022888184,10|0,0:3|3:0,0:0:0:0:
321,144,40181,2,0,L|315:84,1,60.0000022888184,8|0,0:0|3:0,0:0:0:0:
394,0,40323,2,0,L|399:59,1,60.0000022888184,8|0,0:0|3:0,0:0:0:0:
483,160,40465,2,0,L|477:100,5,60.0000022888184,10|0|8|0|8|0,0:3|3:0|0:0|3:0|0:0|3:0,0:0:0:0:
503,384,40891,6,0,L|431:377,1,60.0000022888184,10|0,0:3|3:0,0:0:0:0:
401,272,41033,2,0,L|461:278,1,60.0000022888184,8|0,0:0|3:0,0:0:0:0:
334,357,41174,2,0,L|274:351,1,60.0000022888184,8|0,0:0|3:0,0:0:0:0:
234,251,41316,2,0,L|294:257,5,60.0000022888184,10|0|8|0|8|0,0:3|3:0|0:0|3:0|0:0|3:0,0:0:0:0:
24,243,41742,5,2,3:3:0:0:
47,208,41813,1,0,3:0:0:0:
52,166,41884,1,0,3:0:0:0:
36,126,41955,1,0,3:0:0:0:
8,95,42025,2,0,L|14:23,1,60.0000022888184,0|0,3:0|3:0,3:0:0:0:
120,20,42167,1,10,3:3:0:0:
155,43,42238,1,0,3:0:0:0:
197,48,42309,1,0,3:0:0:0:
237,32,42380,1,0,3:0:0:0:
268,4,42451,2,0,L|339:10,1,60.0000022888184,0|0,3:0|3:0,3:0:0:0:
336,116,42593,5,2,3:3:0:0:
313,151,42664,1,0,3:0:0:0:
308,193,42735,1,0,3:0:0:0:
324,233,42806,1,0,3:0:0:0:
352,264,42876,2,0,L|345:335,1,60.0000022888184,0|0,3:0|3:0,3:0:0:0:
240,339,43018,1,10,3:3:0:0:
205,316,43089,1,0,3:0:0:0:
163,311,43160,1,0,3:0:0:0:
123,327,43231,1,0,3:0:0:0:
92,355,43302,2,0,L|20:348,1,60.0000022888184,0|0,3:0|3:0,3:0:0:0:
136,226,43444,5,2,3:3:0:0:
172,204,43515,1,0,3:0:0:0:
213,197,43586,1,0,3:0:0:0:
254,204,43657,1,0,3:0:0:0:
288,227,43728,1,0,3:0:0:0:
310,261,43798,1,0,3:0:0:0:
325,300,43869,1,10,3:3:0:0:
360,322,43940,1,0,3:0:0:0:
402,323,44011,1,0,3:0:0:0:
438,302,44082,1,0,3:0:0:0:
460,266,44153,1,0,3:0:0:0:
448,225,44224,1,0,3:0:0:0:
411,207,44295,5,2,3:2:0:0:
400,192,44366,1,0,3:0:0:0:
395,174,44437,1,8,3:0:0:0:
395,155,44508,1,0,3:0:0:0:
401,137,44579,1,0,3:0:0:0:
411,122,44650,1,0,3:0:0:0:
443,92,44720,5,10,3:2:0:0:
428,103,44791,1,0,3:0:0:0:
410,106,44862,1,0,3:0:0:0:
393,104,44933,1,0,3:0:0:0:
377,94,45004,2,0,B|358:72|358:72|359:33,1,60.0000022888184,8|0,3:0|3:0,3:0:0:0:
242,34,45146,5,2,3:2:0:0:
221,46,45217,1,0,3:0:0:0:
198,54,45288,1,0,3:0:0:0:
174,55,45359,1,0,3:0:0:0:
150,53,45430,1,0,3:0:0:0:
127,45,45501,1,0,3:0:0:0:
105,33,45572,2,0,L|110:97,1,60.0000022888184,10|0,3:2|3:0,3:0:0:0:
0,124,45713,2,0,L|5:188,1,60.0000022888184,2|0,3:2|3:0,3:0:0:0:
104,192,45855,2,0,L|109:256,1,60.0000022888184,2|2,3:2|3:2,3:0:0:0:
64,383,45997,5,2,3:2:0:0:
85,371,46068,1,0,3:0:0:0:
108,363,46139,1,2,3:2:0:0:
132,362,46210,1,0,3:0:0:0:
156,364,46281,1,2,3:2:0:0:
179,372,46352,1,0,3:0:0:0:
201,384,46423,2,0,L|195:319,1,60.0000022888184,10|0,3:2|3:0,3:0:0:0:
289,241,46564,2,0,L|283:305,1,60.0000022888184,2|0,3:2|3:0,3:0:0:0:
369,384,46706,2,0,L|374:319,1,60.0000022888184,2|0,3:2|3:0,3:0:0:0:
511,321,46848,5,2,3:2:0:0:
499,300,46919,1,2,3:2:0:0:
491,277,46990,1,2,3:2:0:0:
490,253,47061,1,2,3:2:0:0:
492,229,47132,1,2,3:2:0:0:
500,206,47203,1,2,3:2:0:0:
512,184,47274,2,0,L|447:189,1,60.0000022888184,10|0,3:2|3:0,3:0:0:0:
408,100,47416,2,0,L|467:94,1,60.0000022888184,2|0,3:2|3:0,3:0:0:0:
512,0,47557,2,0,L|452:5,1,60.0000022888184,2|0,3:2|3:0,3:0:0:0:
244,84,47699,5,2,3:2:0:0:
200,101,47770,1,2,3:2:0:0:
190,148,47841,1,2,3:2:0:0:
217,187,47912,1,2,3:2:0:0:
265,194,47983,2,0,L|325:185,1,60.0000022888184,2|0,3:2|3:0,3:0:0:0:
430,253,48125,5,10,3:2:0:0:
477,258,48196,1,2,3:2:0:0:
499,300,48267,1,2,3:2:0:0:
483,345,48338,1,2,3:2:0:0:
439,364,48409,2,0,L|380:370,1,60.0000022888184,2|0,3:2|3:0,3:0:0:0:
195,330,48550,6,0,L|135:391,1,60.0000022888184,4|0,3:3|3:0,3:0:0:0:
91,275,48692,2,0,L|6:290,1,60.0000022888184,0|0,3:0|3:0,3:0:0:0:
54,158,48834,2,0,L|-23:122,1,60.0000022888184,0|0,3:0|3:0,3:0:0:0:
181,332,48976,6,0,L|127:386,1,60.0000022888184,4|0,3:3|3:0,3:0:0:0:
88,283,49118,2,0,L|12:296,1,60.0000022888184,0|0,3:0|3:0,3:0:0:0:
54,177,49260,2,0,L|-15:145,1,60.0000022888184,0|0,3:0|3:0,3:0:0:0:
169,337,49401,6,0,L|120:386,1,60.0000022888184,4|0,3:3|3:0,3:0:0:0:
85,292,49543,2,0,L|17:304,1,60.0000022888184,0|0,3:0|3:0,3:0:0:0:
54,197,49685,2,0,L|-8:168,1,60.0000022888184,0|0,3:0|3:0,3:0:0:0:
100,2,49827,5,4,3:3:0:0:
140,12,49898,1,0,3:0:0:0:
158,49,49969,1,0,3:0:0:0:
150,90,50040,1,0,3:0:0:0:
115,113,50111,1,8,3:0:0:0:
73,109,50181,1,8,3:0:0:0:
52,68,50252,5,2,3:3:0:0:
65,61,50322,1,0,3:0:0:0:
79,57,50393,1,0,3:0:0:0:
94,54,50464,1,0,3:0:0:0:
109,53,50535,1,0,3:0:0:0:
124,54,50606,1,0,3:0:0:0:
139,56,50677,1,10,3:3:0:0:
153,60,50748,1,2,3:2:0:0:
167,66,50819,1,2,3:2:0:0:
180,73,50890,1,2,3:2:0:0:
192,82,50962,2,2,L|259:87,1,60.0000022888184,2|2,3:2|3:2,3:2:0:0:
394,14,51103,5,2,3:2:0:0:
382,25,51173,1,0,3:0:0:0:
375,37,51244,1,0,3:0:0:0:
368,51,51315,1,0,3:0:0:0:
364,66,51386,1,0,3:0:0:0:
362,81,51457,1,0,3:0:0:0:
360,96,51528,5,10,3:3:0:0:
390,100,51600,1,0,3:0:0:0:
417,111,51671,1,0,3:0:0:0:
440,129,51741,1,0,3:0:0:0:
459,152,51813,2,0,L|446:220,1,60.0000022888184,0|0,3:0|3:0,3:0:0:0:
507,315,51955,6,0,B|492:341|492:341|489:387,3,60.0000022888184,2|0|0|0,3:3|3:0|3:0|3:0,3:0:0:0:
355,262,52238,6,2,B|350:291|350:291|363:335,3,60.0000022888184,2|2|10|2,3:2|3:2|3:2|3:2,3:2:0:0:
219,304,52522,6,2,B|223:333|223:333|210:377,3,60.0000022888184,2|2|2|2,3:2|3:2|3:2|3:2,3:2:0:0:
30,375,52806,5,8,0:3:0:0:
9,338,52877,1,8,0:3:0:0:
4,296,52947,1,8,0:3:0:0:
20,257,53018,1,8,0:3:0:0:
52,230,53089,1,8,0:3:0:0:
92,217,53160,1,8,0:3:0:0:
132,228,53231,5,0,3:0:0:0:
121,213,53302,1,0,3:0:0:0:
117,195,53373,1,0,3:0:0:0:
116,176,53444,1,0,3:0:0:0:
117,158,53515,1,0,3:0:0:0:
123,141,53586,1,0,3:0:0:0:
131,124,53657,6,0,L|190:118,1,60.0000022888184,4|0,3:3|3:0,3:0:0:0:
348,69,53798,2,0,L|288:63,1,60.0000022888184,0|0,3:0|3:0,3:0:0:0:
269,225,53940,2,0,L|274:165,1,60.0000022888184,0|0,3:0|3:0,3:0:0:0:
120,114,54082,6,0,L|186:113,1,60.0000022888184,12|0,3:3|3:0,3:0:0:0:
363,74,54224,2,0,L|298:62,1,60.0000022888184,0|0,3:0|3:0,3:0:0:0:
261,237,54366,2,0,L|272:172,1,60.0000022888184,0|0,3:0|3:0,3:0:0:0:
113,102,54508,6,0,L|185:108,1,60.0000022888184,4|0,3:3|3:0,3:0:0:0:
383,81,54649,2,0,L|312:62,1,60.0000022888184,0|0,3:0|3:0,3:0:0:0:
255,250,54791,2,0,L|273:179,1,60.0000022888184,0|0,3:0|3:0,3:0:0:0:
110,88,54933,6,0,L|188:101,1,60.0000022888184,12|0,3:3|3:0,3:0:0:0:
407,90,55075,2,0,L|331:62,1,60.0000022888184,0|0,3:0|3:0,3:0:0:0:
251,263,55217,2,0,L|278:187,1,60.0000022888184,0|0,3:0|3:0,3:0:0:0:
486,236,55359,6,0,L|492:306,1,60.0000022888184,4|0,3:3|3:0,3:0:0:0:
399,271,55501,2,0,L|405:341,1,60.0000022888184,0|0,3:0|3:0,3:0:0:0:
306,311,55642,2,0,L|312:381,1,60.0000022888184,0|0,3:0|3:0,3:0:0:0:
478,241,55784,6,0,L|484:311,1,60.0000022888184,12|0,3:3|3:0,3:0:0:0:
391,276,55926,2,0,L|397:346,1,60.0000022888184,0|0,3:0|3:0,3:0:0:0:
298,316,56068,2,0,L|304:386,1,60.0000022888184,0|0,3:0|3:0,3:0:0:0:
26,317,56210,6,0,L|92:322,1,60.0000022888184,4|0,3:3|3:0,3:0:0:0:
211,256,56352,2,0,L|151:261,1,60.0000022888184,8|0,3:0|3:0,3:0:0:0:
61,175,56494,2,0,L|66:234,1,60.0000022888184,0|0,3:0|3:0,3:0:0:0:
30,310,56635,6,0,L|96:309,1,60.0000022888184,12|0,3:3|3:0,3:0:0:0:
202,253,56777,2,0,L|142:263,1,60.0000022888184,0|0,3:0|3:0,3:0:0:0:
68,181,56919,2,0,L|78:240,1,60.0000022888184,8|0,3:0|3:0,3:0:0:0:
258,335,57061,5,0,3:0:0:0:
269,349,57132,1,0,3:0:0:0:
282,361,57203,1,0,3:0:0:0:
298,367,57274,1,0,3:0:0:0:
315,369,57345,1,0,3:0:0:0:
332,367,57416,1,0,3:0:0:0:
348,360,57486,5,10,3:2:0:0:
344,330,57557,1,0,3:2:0:0:
340,300,57628,1,2,3:2:0:0:
336,270,57699,1,0,3:2:0:0:
333,240,57770,2,2,L|398:234,1,60.0000022888184,2|2,3:2|3:2,3:2:0:0:
493,213,57912,5,2,3:3:0:0:
478,202,57983,1,0,3:0:0:0:
467,187,58054,1,2,3:2:0:0:
460,170,58125,1,0,3:0:0:0:
457,152,58196,1,2,3:2:0:0:
458,134,58267,1,0,3:0:0:0:
460,116,58338,5,10,3:2:0:0:
430,121,58408,1,0,3:0:0:0:
399,119,58479,1,0,3:0:0:0:
369,111,58550,1,0,3:0:0:0:
344,94,58621,2,0,L|339:153,1,60.0000022888184,0|0,3:0|3:0,3:0:0:0:
320,11,58763,5,2,3:3:0:0:
302,13,58834,1,0,3:0:0:0:
284,15,58905,1,0,3:0:0:0:
266,17,58976,1,0,3:0:0:0:
248,19,59047,1,0,3:0:0:0:
230,21,59118,1,0,3:0:0:0:
212,24,59189,2,0,L|144:30,5,60.0000022888184,10|0|0|0|2|0,3:2|3:0|3:0|3:0|3:2|3:0,3:0:0:0:
54,80,59614,5,8,0:0:0:0:
9,111,59685,1,8,0:0:0:0:
0,164,59756,1,8,0:0:0:0:
22,213,59827,1,8,0:0:0:0:
74,226,59898,1,8,0:0:0:0:
122,202,59969,1,8,0:0:0:0:
140,151,60040,5,0,3:0:0:0:
160,138,60111,1,0,3:0:0:0:
183,138,60181,1,0,3:0:0:0:
203,150,60252,1,0,3:0:0:0:
215,170,60323,2,0,L|208:238,1,60.0000022888184,0|0,3:0|3:0,3:0:0:0:
118,378,60465,5,4,3:3:0:0:
128,373,60536,1,0,3:0:0:0:
139,372,60607,1,0,3:0:0:0:
151,373,60678,1,0,3:0:0:0:
162,374,60749,1,0,3:0:0:0:
173,377,60820,1,0,3:0:0:0:
217,345,60891,5,12,3:3:0:0:
227,349,60962,1,0,3:0:0:0:
238,350,61033,1,0,3:0:0:0:
250,349,61104,1,0,3:0:0:0:
261,348,61175,1,0,3:0:0:0:
272,345,61246,1,0,3:0:0:0:
314,369,61316,5,4,3:3:0:0:
319,368,61387,1,0,3:0:0:0:
324,367,61458,1,0,3:0:0:0:
329,366,61529,1,0,3:0:0:0:
334,365,61600,1,0,3:0:0:0:
425,181,61742,1,8,0:3:0:0:
200,231,61884,1,0,0:0:0:0:
465,247,62025,2,0,L|513:256,1,48
450,43,62588,5,6,3:3:0:0:
413,58,62660,1,0,3:0:0:0:
373,49,62733,1,0,3:0:0:0:
217,0,62879,1,0,3:0:0:0:
268,238,63025,1,2,3:0:0:0:
59,112,63171,1,0,3:0:0:0:
296,57,63317,1,0,3:0:0:0:
350,286,63463,6,0,L|382:289,2,26.3999999194336,10|0|0,3:0|3:0|3:0,3:0:0:0:
135,370,63901,2,0,L|103:373,2,26.3999999194336,2|0|0,3:0|3:0|3:0,3:0:0:0:
369,243,64339,5,2,3:0:0:0:
334,230,64412,1,0,3:0:0:0:
295,238,64485,1,0,3:0:0:0:
512,378,64631,1,0,3:0:0:0:
381,239,64777,1,0,3:0:0:0:
375,198,64850,1,0,0:0:0:0:
391,160,64923,1,2,3:0:0:0:
135,370,65069,1,0,3:0:0:0:
249,175,65215,6,0,L|218:173,2,26.3999999194336,10|0|0,3:0|3:0|3:0,3:0:0:0:
21,104,65653,2,0,L|53:102,2,26.3999999194336,2|0|0,3:0|3:0|3:0,3:0:0:0:
17,29,66091,5,2,3:0:0:0:
30,65,66164,1,0,3:0:0:0:
21,104,66237,1,0,3:0:0:0:
72,342,66383,1,0,3:0:0:0:
249,175,66529,1,2,3:0:0:0:
11,230,66675,1,0,3:0:0:0:
249,285,66821,1,0,3:0:0:0:
315,63,66967,6,0,L|349:59,2,26.3999999194336,10|0|0,3:0|3:0|3:0,3:0:0:0:
512,168,67405,2,0,L|485:165,2,26.3999999194336,2|0|0,3:0|3:0|3:0,3:0:0:0:
362,280,67843,5,6,3:0:0:0:
324,268,67916,1,0,3:0:0:0:
286,280,67989,1,0,3:0:0:0:
512,372,68135,1,0,3:0:0:0:
374,267,68281,1,2,3:0:0:0:
362,229,68354,1,0,3:0:0:0:
374,191,68427,1,0,3:0:0:0:
229,363,68573,1,0,3:0:0:0:
152,99,68719,6,0,P|145:154|172:210,1,100,10|0,3:0|3:0,3:0:0:0:
179,207,68938,1,0,3:0:0:0:
178,208,69011,1,0,3:0:0:0:
243,24,69157,1,2,3:0:0:0:
332,222,69303,2,0,L|438:231,1,100,0|0,3:0|3:0,3:0:0:0:
500,25,69595,5,2,3:0:0:0:
480,59,69668,1,0,3:0:0:0:
485,98,69741,1,0,3:0:0:0:
434,336,69887,1,0,3:0:0:0:
357,104,70033,2,0,L|365:2,1,100,2|0,3:0|3:0,3:0:0:0:
410,181,70325,1,0,3:0:0:0:
290,264,70471,6,0,L|281:363,1,100,10|0,3:0|3:0,3:0:0:0:
237,181,70763,1,0,3:0:0:0:
123,99,70909,2,0,L|114:-2,1,100,2|0,3:0|3:0,3:0:0:0:
70,176,71201,1,0,3:0:0:0:
174,342,71347,5,0,3:0:0:0:
213,354,71420,1,0,3:0:0:0:
250,338,71493,1,2,3:0:0:0:
281,137,71639,1,0,3:0:0:0:
148,344,71785,1,2,3:0:0:0:
111,360,71858,1,0,3:0:0:0:
72,348,71931,1,0,3:0:0:0:
208,139,72077,1,0,3:0:0:0:
333,287,72223,6,0,P|345:343|325:420,2,100,10|0|0,3:0|3:0|3:0,3:0:0:0:
282,104,72660,2,0,B|339:117|339:117|396:106,1,100,2|0,3:0|3:0,3:0:0:0:
512,61,72952,1,0,3:0:0:0:
208,139,73098,5,0,3:0:0:0:
170,126,73171,1,0,3:0:0:0:
133,143,73244,1,2,3:0:0:0:
221,351,73390,1,0,3:0:0:0:
300,119,73536,1,2,3:0:0:0:
376,348,73682,1,0,3:0:0:0:
174,209,73828,1,0,3:0:0:0:
84,384,73974,6,0,L|109:381,2,26.3999999194336,10|0|0,3:0|3:0|3:0,3:0:0:0:
26,233,74412,2,0,L|0:230,2,26.3999999194336,2|0|0,3:0|3:0|3:0,3:0:0:0:
147,102,74850,5,0,3:0:0:0:
151,63,74923,1,0,3:0:0:0:
131,29,74996,1,2,3:0:0:0:
12,306,75142,1,0,3:0:0:0:
158,113,75288,1,2,3:0:0:0:
192,93,75361,1,0,3:0:0:0:
231,97,75434,1,0,3:0:0:0:
170,290,75580,1,0,3:0:0:0:
375,323,75726,6,0,L|410:326,2,26.3999999194336,10|0|0,3:0|3:0|3:0,3:0:0:0:
512,154,76164,2,0,L|477:157,2,26.3999999194336,2|0|0,3:0|3:0|3:0,3:0:0:0:
291,19,76602,5,2,3:0:0:0:
328,33,76675,1,0,3:0:0:0:
367,27,76748,1,0,3:0:0:0:
215,76,76894,1,0,3:0:0:0:
294,197,77040,2,0,B|311:236|311:236|296:304,1,100,2|0,3:0|3:0,3:0:0:0:
196,384,77332,1,0,3:0:0:0:
392,323,77478,6,0,L|426:325,2,26.3999999194336,10|0|0,3:0|3:0|3:0,3:0:0:0:
294,197,77916,2,0,L|259:199,2,26.3999999194336,2|0|0,3:0|3:0|3:0,3:0:0:0:
264,356,78354,5,2,3:0:0:0:
241,376,78427,1,0,3:0:0:0:
212,384,78500,1,0,3:0:0:0:
182,381,78573,1,0,3:0:0:0:
154,366,78646,1,0,3:0:0:0:
142,345,78719,1,0,3:0:0:0:
140,315,78792,1,2,3:0:0:0:
129,286,78865,1,0,3:0:0:0:
107,264,78938,1,0,3:0:0:0:
80,253,79011,1,0,3:0:0:0:
49,253,79084,1,0,3:0:0:0:
28,267,79157,1,0,3:0:0:0:
9,290,79230,6,0,L|13:343,2,40,10|0|0,3:0|3:0|3:0,3:0:0:0:
34,149,79668,2,0,L|29:95,2,40,2|0|0,3:0|3:0|3:0,3:0:0:0:
1,24,80106,5,2,3:0:0:0:
20,7,80179,1,0,3:0:0:0:
44,0,80252,1,0,3:0:0:0:
69,3,80325,1,0,3:0:0:0:
92,15,80398,1,0,3:0:0:0:
102,33,80471,1,0,3:0:0:0:
104,58,80544,1,2,3:0:0:0:
113,82,80617,1,0,3:0:0:0:
131,100,80690,1,0,3:0:0:0:
154,109,80763,1,0,3:0:0:0:
180,109,80836,1,0,3:0:0:0:
197,98,80909,1,0,3:0:0:0:
205,79,80982,6,0,L|200:25,2,40,10|0|0,3:0|3:0|3:0,3:0:0:0:
343,39,81420,2,0,L|347:-14,2,40,2|0|0,3:0|3:0|3:0,3:0:0:0:
482,216,81858,5,0,3:0:0:0:
477,177,81931,1,0,3:0:0:0:
492,140,82004,1,2,3:0:0:0:
512,375,82150,1,0,3:0:0:0:
471,233,82296,1,0,3:0:0:0:
432,228,82369,1,0,3:0:0:0:
395,243,82442,1,2,3:0:0:0:
142,345,82588,1,0,3:0:0:0:
111,126,82733,5,8,3:0:0:0:
302,210,82879,1,8,3:0:0:0:
302,210,82952,1,8,3:0:0:0:
302,210,83025,1,8,3:0:0:0:
336,88,83171,1,8,3:0:0:0:
271,317,83317,1,8,3:0:0:0:
218,75,83463,1,8,3:0:0:0:
142,345,83609,6,0,B|112:338|112:338|38:350,2,80,4|0|0,3:3|3:0|3:0,3:0:0:0:
3,189,84047,1,2,3:2:0:0:
0,194,84193,2,0,L|8:291,1,80,2|0,3:2|3:0,3:0:0:0:
127,361,84485,5,8,3:0:0:0:
191,234,84631,2,0,L|196:294,1,40,0|0,3:0|3:0,3:0:0:0:
253,324,84777,1,0,3:0:0:0:
392,358,84923,1,0,3:0:0:0:
392,358,85069,2,0,B|348:376|302:378,1,80,0|0,3:0|3:0,3:0:0:0:
496,282,85361,6,0,B|487:237|487:237|500:189,1,80,2|0,3:0|3:0,3:0:0:0:
475,85,85653,1,0,3:0:0:0:
475,85,85799,2,0,P|414:87|378:79,1,80,0|0,3:0|3:0,3:0:0:0:
316,22,86091,1,0,3:0:0:0:
149,71,86237,6,0,B|114:82|114:82|55:73,1,80,0|0,3:0|3:0,3:0:0:0:
227,31,86529,1,0,3:0:0:0:
5,275,86675,2,2,B|-13:246|7:183|7:183|0:162|0:162|7:139|7:139|0:121,1,160,2|2,3:2|3:2,3:2:0:0:
19,365,87113,6,0,P|72:353|115:356,1,80,6|0,3:3|3:0,3:0:0:0:
203,317,87405,1,0,3:0:0:0:
357,384,87551,2,0,L|349:293,1,80,2|0,3:0|3:0,3:0:0:0:
271,217,87843,1,0,3:0:0:0:
475,118,87989,5,8,3:0:0:0:
403,24,88135,2,0,L|407:76,1,40,0|0,3:0|3:0,3:0:0:0:
325,96,88281,1,0,3:0:0:0:
176,34,88427,1,0,3:0:0:0:
181,38,88573,2,0,B|218:33|218:33|284:47,1,80,0|0,3:0|3:0,3:0:0:0:
11,134,88865,6,0,B|18:166|12:200|12:200|36:188|36:188|26:232|33:273,1,160,2|0,3:3|3:0,3:0:0:0:
149,323,89303,1,0,3:0:0:0:
151,330,89449,2,0,P|94:344|51:342,1,80,0|0,3:0|3:0,3:0:0:0:
291,281,89741,6,0,L|329:284,1,20,0|0,3:0|3:0,3:0:0:0:
286,275,89887,1,0,3:0:0:0:
496,227,90033,2,0,L|471:229,1,20,0|0,3:0|3:0,3:0:0:0:
504,220,90179,1,0,3:0:0:0:
372,114,90325,2,0,L|371:87,1,20,0|0,3:0|3:0,3:0:0:0:
380,127,90471,2,0,L|381:98,1,20,0|0,3:0|3:0,3:0:0:0:
426,334,90617,6,0,B|457:343|457:343|516:328,2,80,4|0|0,3:3|3:0|3:0,3:0:0:0:
302,283,91055,1,0,3:0:0:0:
302,283,91201,2,0,P|300:214|303:185,1,80,0|0,3:0|3:0,3:0:0:0:
255,383,91493,5,8,3:0:0:0:
192,279,91639,2,0,L|195:325,1,40,0|0,3:0|3:0,3:0:0:0:
127,358,91785,1,0,3:0:0:0:
0,291,91931,1,0,3:0:0:0:
0,291,92077,2,0,P|43:288|89:295,1,80,0|0,3:0|3:0,3:0:0:0:
239,185,92369,6,0,B|234:137|234:137|251:93,1,80,2|0,3:3|3:0,3:0:0:0:
121,40,92660,1,2,3:2:0:0:
121,40,92806,2,2,P|68:44|20:35,1,80,2|2,3:2|3:2,3:2:0:0:
184,0,93098,1,0,3:0:0:0:
316,47,93244,6,0,B|349:58|349:58|414:50,1,80,0|0,3:0|3:0,3:0:0:0:
512,27,93536,1,0,3:0:0:0:
190,76,93682,2,0,B|181:93|181:93|190:114|190:114|180:140|180:140|197:189|172:235,1,160,2|2,3:3|3:2,3:0:0:0:
298,350,94120,6,0,P|345:356|391:354,1,80,4|0,3:3|3:0,3:0:0:0:
470,307,94412,1,0,3:0:0:0:
367,254,94558,2,0,P|320:248|274:250,1,80,0|0,3:0|3:0,3:0:0:0:
183,295,94850,1,0,3:0:0:0:
7,245,94996,5,8,3:0:0:0:
118,190,95142,2,0,L|77:193,1,40,0|0,3:0|3:0,3:0:0:0:
18,137,95288,1,0,3:0:0:0:
91,23,95434,1,0,3:0:0:0:
91,23,95580,2,0,P|96:67|93:110,1,80,0|0,3:0|3:0,3:0:0:0:
41,259,95872,5,0,3:0:0:0:
81,363,96018,2,0,L|85:314,1,40,0|0,3:0|3:0,3:0:0:0:
158,299,96164,1,0,3:0:0:0:
298,353,96310,1,0,3:0:0:0:
298,353,96456,2,0,P|246:356|208:348,1,80,0|0,3:0|3:0,3:0:0:0:
462,351,96748,6,0,P|421:287|476:228,1,150,0|0,3:0|3:0,3:0:0:0:
497,207,97040,2,0,B|421:213|421:213|437:228|437:228|321:238,1,200,0|0,3:0|3:0,3:0:0:0:
320,240,97370,2,0,L|326:272,1,20,0|0,3:0|3:0,3:0:0:0:
402,102,97515,2,0,L|396:134,1,20,0|0,3:0|3:0,3:0:0:0:
235,0,97665,6,0,B|232:26|232:26|248:56|248:56|246:89,1,80,6|0,3:3|3:0,3:0:0:0:
311,130,98123,2,0,B|284:150|284:150|229:157,1,80,2|0,3:0|3:0,3:0:0:0:
160,137,98581,1,2,3:0:0:0:
113,205,98733,1,0,3:0:0:0:
167,269,98886,1,0,3:0:0:0:
245,232,99039,2,0,B|251:265|251:265|235:314,1,80,2|0,3:0|3:0,3:0:0:0:
148,376,99497,5,4,0:0:0:0:
88,367,99597,1,0,0:0:0:0:
55,316,99697,1,0,0:0:0:0:
54,247,99797,2,0,L|45:178,2,60
218,82,100131,2,0,L|209:151,2,60
158,43,100412,5,2,0:0:0:0:
126,60,100527,1,0,0:0:0:0:
114,83,100627,1,0,0:0:0:0:
139,125,100718,1,0,0:0:0:0:
138,139,100818,1,0,0:0:0:0:
130,154,100918,1,0,0:0:0:0:
102,183,101018,2,0,L|27:171,2,60
425,259,101318,6,0,L|366:268,1,60
338,266,101518,1,0,0:0:0:0:
313,240,101618,1,0,0:0:0:0:
314,174,101718,1,0,0:0:0:0:
373,134,101784,2,0,L|381:215,1,60
487,154,101984,2,0,L|504:70,1,80
268,208,102252,5,0,0:0:0:0:
212,2,102382,2,0,L|133:13,1,60
94,47,102548,1,0,0:0:0:0:
78,96,102632,1,0,0:0:0:0:
93,143,102715,2,0,L|103:207,1,60
242,155,102988,5,0,0:0:0:0:
268,208,103078,2,0,L|242:275,1,60
100,355,103349,1,0,0:0:0:0:
61,314,103474,2,0,L|2:325,1,60
202,318,103757,1,0,0:0:0:0:
215,172,103887,2,0,L|221:243,1,60
299,367,104083,2,0,L|383:376,1,60
510,261,104389,1,0,0:0:0:0:
355,174,104539,1,0,0:0:0:0:
348,159,104614,1,0,0:0:0:0:
344,140,104689,1,0,0:0:0:0:
344,124,104764,1,0,0:0:0:0:
349,109,104839,1,0,0:0:0:0:
199,219,104996,5,2,0:3:0:0:
198,230,105454,1,2,0:3:0:0:
117,13,105606,1,0,0:0:0:0:
119,30,105683,1,0,0:0:0:0:
121,47,105759,1,0,0:0:0:0:
123,64,105835,1,0,0:0:0:0:
130,104,105912,6,0,L|133:129,1,20,10|0,0:3|0:0,0:0:0:0:
23,218,106064,2,0,L|19:248,1,20
95,349,106217,2,0,L|91:379,1,20
198,230,106370,2,0,L|196:259,1,20,2|0,0:3|0:0,0:0:0:0:
346,356,106522,1,0,0:0:0:0:
346,356,106675,1,0,0:0:0:0:
486,238,106828,6,0,L|496:116,1,120,2|0,0:3|0:0,0:0:0:0:
487,68,107133,2,0,P|443:79|343:22,1,160
319,53,107515,1,0,0:0:0:0:
321,84,107591,1,0,0:0:0:0:
322,115,107667,1,0,0:0:0:0:
325,147,107744,6,0,P|289:191|222:173,1,120,10|0,0:3|0:0,0:0:0:0:
200,162,108049,2,0,P|127:157|100:220,1,120
106,227,108354,2,0,L|109:256,1,20
160,25,108507,2,0,L|155:57,1,20
197,245,108660,6,0,B|220:312|346:337|405:230|363:136|271:122|271:122|266:155|266:155|296:237|296:237|294:249|294:249|336:356|336:356|320:351|320:351|383:342|416:295|441:229|421:173,1,827.999974731446,4|0,0:3|0:0,0:0:0:0:
422,170,110492,6,0,P|457:179|494:176,1,60,2|0,0:3|0:0,0:0:0:0:
381,8,110797,2,0,P|346:-1|309:2,1,60
303,4,111102,1,0,0:0:0:0:
287,16,111179,1,0,0:0:0:0:
275,32,111255,1,0,0:0:0:0:
270,51,111331,1,0,0:0:0:0:
270,71,111408,6,0,L|209:76,1,60,10|0,0:3|0:0,0:0:0:0:
13,3,111713,2,0,L|73:8,1,60
91,244,112018,1,0,0:0:0:0:
96,117,112171,1,0,0:0:0:0:
87,371,112333,6,0,P|142:383|197:374,1,105.599999677734,4|0,0:0|0:0,0:0:0:0:
209,355,113047,1,0,0:0:0:0:
220,348,113126,1,0,0:0:0:0:
233,346,113206,1,0,0:0:0:0:
245,348,113285,6,0,L|248:333,1,10,12|0,0:3|0:0,0:0:0:0:
361,273,113444,2,0,L|360:258,1,10
469,364,113602,2,0,L|470:348,1,10
486,218,113761,2,0,L|517:213,2,23.9999992675781
472,91,114237,6,0,L|431:94,1,35.9999989013672,4|0,0:0|0:0,0:0:0:0:
220,27,114555,2,0,B|237:20|237:20|268:34|268:34|305:24|305:24|339:49,1,120
375,153,114872,2,0,L|377:165,1,10
189,207,115031,2,0,L|191:219,1,10
88,45,115190,6,0,L|85:90,1,39.5999998791504,12|0,0:0|0:0,0:0:0:0:
2,297,115507,2,0,B|12:280|12:280|10:253|10:253|32:232|32:232|38:196|38:196|28:182,1,120
197,219,115825,2,0,L|195:231,1,10
383,273,115984,2,0,L|381:285,1,10
112,342,116142,6,0,P|168:355|219:348,1,105.599999677734,4|0,0:0|0:0,0:0:0:0:
231,337,116856,1,0,0:0:0:0:
243,331,116936,1,0,0:0:0:0:
256,329,117015,1,0,0:0:0:0:
269,329,117094,6,0,L|271:317,1,10,12|0,0:0|0:0,0:0:0:0:
174,219,117253,2,0,L|172:231,1,10
67,356,117412,2,0,L|65:344,1,10
22,167,117571,2,0,L|25:219,2,40
180,47,118047,6,0,P|218:62|284:41,1,90.0000034332277,4|0,0:0|0:0,0:0:0:0:
328,22,118364,2,0,P|306:65|322:125,1,90.0000034332277
402,270,118682,2,0,L|406:296,1,15.0000005722046
501,115,118840,2,0,L|497:141,1,15.0000005722046
312,225,118999,6,0,P|274:240|208:219,1,90.0000034332277,12|0,0:0|0:0,0:0:0:0:
167,199,119316,2,0,P|189:242|173:302,1,90.0000034332277
52,345,119634,2,0,L|48:371,1,15.0000005722046
5,170,119793,2,0,L|9:196,1,15.0000005722046
133,25,119952,6,0,B|149:57|189:75|189:75|180:164|96:211,1,240.000009155274,4|0,0:0|0:0,0:0:0:0:
86,216,120666,1,0,0:0:0:0:
106,238,120745,1,0,0:0:0:0:
134,247,120825,1,0,0:0:0:0:
163,243,120904,6,0,L|189:248,1,15.0000005722046,12|0,0:0|0:0,0:0:0:0:
343,198,121063,2,0,L|317:203,1,15.0000005722046
248,368,121221,2,0,L|274:373,1,15.0000005722046
428,318,121380,2,0,L|506:324,2,60.0000022888184
471,112,121856,6,0,P|477:65|513:20,1,102.000001945496,4|0,0:0|0:0,0:0:0:0:
450,123,122174,2,0,P|412:94|355:87,1,102.000001945496
124,22,122491,2,0,L|127:46,1,15.0000005722046
217,194,122650,2,0,L|214:218,1,15.0000005722046
38,327,122809,6,0,P|32:280|-4:235,1,102.000001945496,12|0,0:0|0:0,0:0:0:0:
59,338,123127,2,0,P|96:309|153:302,1,102.000001945496
308,369,123444,2,0,L|307:344,1,15.0000005722046
474,293,123602,2,0,L|475:268,1,15.0000005722046
343,209,123761,6,0,B|362:163|362:163|347:117|347:117|406:129|446:106|461:57,1,240.000009155274,4|0,0:0|0:0,0:0:0:0:
466,27,124475,1,0,0:0:0:0:
441,28,124555,1,0,0:0:0:0:
417,29,124634,1,0,0:0:0:0:
393,31,124713,6,0,L|366:32,1,15.0000005722046,12|0,0:0|0:0,0:0:0:0:
194,99,124872,2,0,L|221:100,1,15.0000005722046
363,197,125031,2,0,L|336:198,1,15.0000005722046
265,299,125190,2,0,L|269:367,2,60.0000022888184
431,346,125666,6,0,P|388:327|336:336,1,90.0000034332277,4|0,0:0|0:0,0:0:0:0:
268,358,125983,2,0,L|263:260,1,90.0000034332277
311,178,126301,1,0,0:0:0:0:
279,168,126380,1,0,0:0:0:0:
246,169,126459,1,0,0:0:0:0:
215,182,126539,1,0,0:0:0:0:
197,209,126618,6,0,P|149:236|96:220,1,90.0000034332277,12|0,0:0|0:0,0:0:0:0:
41,183,126936,2,0,L|51:301,1,90.0000034332277
93,113,127253,2,0,L|89:52,1,60.0000022888184
197,209,127571,5,2,0:0:0:0:
287,125,127728,1,0,0:0:0:0:
310,114,128042,1,0,0:0:0:0:
225,242,128199,5,10,0:0:0:0:
101,172,128356,1,0,0:0:0:0:
116,189,128670,1,0,0:0:0:0:
226,288,128827,5,2,0:0:0:0:
363,235,128984,1,0,0:0:0:0:
347,262,129298,1,0,0:0:0:0:
195,326,129455,5,10,0:0:0:0:
192,167,129612,1,0,0:0:0:0:
192,248,129769,1,0,0:0:0:0:
273,204,129927,1,0,0:0:0:0:
146,347,130084,5,2,0:0:0:0:
56,186,130241,1,0,0:0:0:0:
63,204,130555,1,0,0:0:0:0:
100,344,130712,5,10,0:0:0:0:
237,237,130869,1,0,0:0:0:0:
268,210,131183,1,0,0:0:0:0:
282,236,131262,1,0,0:0:0:0:
312,250,131340,6,0,B|328:258|328:258|354:257,4,40
480,183,131654,2,0,B|464:175|464:175|438:176,4,40
333,63,131968,1,2,0:0:0:0:
396,243,132125,1,0,0:0:0:0:
397,250,132178,1,0,0:0:0:0:
397,257,132230,1,0,0:0:0:0:
398,265,132283,1,10,0:0:0:0:
56,258,132597,5,2,0:0:0:0:
221,240,132754,1,0,0:0:0:0:
215,249,133068,1,0,0:0:0:0:
44,206,133225,5,10,0:0:0:0:
102,363,133382,1,0,0:0:0:0:
111,347,133696,1,0,0:0:0:0:
66,155,133853,5,2,0:0:0:0:
232,254,134167,1,0,0:0:0:0:
66,155,134324,1,0,0:0:0:0:
256,111,134639,1,0,0:0:0:0:
66,155,134796,1,8,0:0:0:0:
197,93,135110,5,2,0:0:0:0:
308,211,135267,1,0,0:0:0:0:
157,241,135424,1,0,0:0:0:0:
256,77,135738,5,10,0:0:0:0:
312,256,135895,1,0,0:0:0:0:
324,246,136209,1,0,0:0:0:0:
317,92,136366,5,2,0:0:0:0:
470,172,136523,2,0,B|467:190|467:190|473:226,3,40,0|0|0|8,0:0|0:0|0:0|0:0,0:0:0:0:
420,353,136838,1,0,0:0:0:0:
419,345,136890,1,0,0:0:0:0:
418,337,136942,1,0,0:0:0:0:
417,328,136995,1,0,0:0:0:0:
291,288,137152,1,0,0:0:0:0:
178,366,137309,1,0,0:0:0:0:
454,62,137623,5,2,0:0:0:0:
251,31,137780,1,0,0:0:0:0:
255,40,138094,1,0,0:0:0:0:
422,109,138251,5,10,0:0:0:0:
489,271,138408,1,0,0:0:0:0:
482,270,138722,1,0,0:0:0:0:
372,143,138879,5,2,0:0:0:0:
194,102,139036,1,0,0:0:0:0:
197,108,139351,1,0,0:0:0:0:
316,166,139508,5,10,0:0:0:0:
337,306,139665,1,0,0:0:0:0:
444,219,139822,1,0,0:0:0:0:
444,219,139979,1,0,0:0:0:0:
255,186,140136,5,2,0:0:0:0:
173,346,140293,1,0,0:0:0:0:
187,342,140607,1,0,0:0:0:0:
195,193,140764,5,10,0:0:0:0:
360,161,140921,1,0,0:0:0:0:
366,158,141235,1,0,0:0:0:0:
295,46,141392,5,8,0:0:0:0:
295,46,141445,1,0,0:0:0:0:
295,46,141497,2,0,B|276:43|276:43|241:49,2,40
140,27,141707,2,0,B|122:32|122:32|92:52,4,40
13,102,142021,1,0,0:0:0:0:
13,102,142073,1,0,0:0:0:0:
13,102,142125,2,0,B|8:131|8:131|11:158,2,40
71,275,142335,1,8,0:0:0:0:
361,341,142649,5,2,0:0:0:0:
506,282,142806,1,0,0:0:0:0:
499,280,143120,1,0,0:0:0:0:
352,280,143277,5,10,0:0:0:0:
451,129,143434,1,0,0:0:0:0:
458,137,143749,1,0,0:0:0:0:
333,224,143906,5,2,0:0:0:0:
308,384,144220,1,0,0:0:0:0:
333,224,144377,1,0,0:0:0:0:
153,157,144691,1,0,0:0:0:0:
333,224,144848,1,8,0:0:0:0:
287,187,145162,5,2,0:0:0:0:
242,342,145319,1,0,0:0:0:0:
377,279,145476,1,0,0:0:0:0:
232,168,145790,5,10,0:0:0:0:
260,23,145947,1,0,0:0:0:0:
263,27,146262,1,0,0:0:0:0:
171,156,146419,5,2,0:0:0:0:
13,137,146576,2,0,B|10:159|10:159|17:191,3,40,0|0|0|8,0:0|0:0|0:0|0:0,0:0:0:0:
108,306,146890,1,0,0:0:0:0:
100,308,146942,1,0,0:0:0:0:
92,310,146995,1,0,0:0:0:0:
84,312,147047,1,0,0:0:0:0:
262,361,147204,1,0,0:0:0:0:
221,209,147361,1,0,0:0:0:0:
420,329,147675,5,2,0:0:0:0:
262,361,147832,1,0,0:0:0:0:
271,354,148146,1,0,0:0:0:0:
415,275,148303,5,10,0:0:0:0:
438,103,148461,1,0,0:0:0:0:
445,100,148775,1,0,0:0:0:0:
390,229,148932,5,2,0:0:0:0:
245,237,149089,1,0,0:0:0:0:
226,235,149403,1,0,0:0:0:0:
345,193,149560,5,10,0:0:0:0:
343,56,149717,1,0,0:0:0:0:
460,124,149874,1,0,0:0:0:0:
460,124,150031,1,0,0:0:0:0:
286,186,150188,5,2,0:0:0:0:
196,50,150345,1,0,0:0:0:0:
205,56,150660,1,0,0:0:0:0:
228,191,150817,5,10,0:0:0:0:
110,268,150974,1,0,0:0:0:0:
112,278,151288,1,0,0:0:0:0:
267,333,151445,5,8,0:0:0:0:
260,337,151497,1,0,0:0:0:0:
252,340,151550,2,0,B|226:346|226:346|189:343,2,40
66,357,151759,2,0,B|41:347|41:347|12:323,4,40
22,200,152073,1,2,0:2:0:0:
23,192,152125,1,0,0:0:0:0:
24,184,152178,1,0,0:0:0:0:
25,176,152230,2,0,B|27:149|27:149|24:128,1,40
126,53,152387,1,8,0:0:0:0:
144,329,152701,5,2,0:0:0:0:
266,377,152858,1,0,0:0:0:0:
260,370,153173,1,0,0:0:0:0:
112,278,153330,5,10,0:0:0:0:
172,113,153487,1,0,0:0:0:0:
179,104,153801,1,0,0:0:0:0:
167,249,153958,5,2,0:0:0:0:
300,173,154272,1,0,0:0:0:0:
167,249,154429,1,0,0:0:0:0:
311,315,154743,1,0,0:0:0:0:
167,249,154900,1,8,0:0:0:0:
156,194,155214,5,2,0:0:0:0:
161,348,155372,1,0,0:0:0:0:
291,258,155529,1,0,0:0:0:0:
116,154,155843,5,10,0:0:0:0:
194,54,156000,1,0,0:0:0:0:
193,61,156314,1,0,0:0:0:0:
59,144,156471,5,2,0:0:0:0:
82,282,156785,1,0,0:0:0:0:
59,144,156942,1,0,0:0:0:0:
230,316,157256,1,0,0:0:0:0:
232,323,157309,1,0,0:0:0:0:
233,330,157361,1,0,0:0:0:0:
235,337,157413,1,0,0:0:0:0:
358,87,157728,5,2,0:0:0:0:
466,225,157885,1,0,0:0:0:0:
460,213,158199,1,0,0:0:0:0:
346,143,158356,5,10,0:0:0:0:
348,22,158513,1,0,0:0:0:0:
341,39,158827,1,0,0:0:0:0:
300,180,158984,5,2,0:0:0:0:
381,290,159141,1,0,0:0:0:0:
371,283,159455,1,0,0:0:0:0:
242,202,159612,5,10,0:0:0:0:
284,53,159769,1,0,0:0:0:0:
397,161,159927,1,0,0:0:0:0:
397,161,160084,1,0,0:0:0:0:
182,219,160241,5,2,0:0:0:0:
197,355,160398,1,0,0:0:0:0:
191,348,160712,1,0,0:0:0:0:
129,200,160869,5,10,0:0:0:0:
208,43,161026,1,0,0:0:0:0:
24,95,161340,1,0,0:0:0:0:
24,102,161392,1,0,0:0:0:0:
24,110,161445,1,0,0:0:0:0:
24,117,161497,6,0,L|25:164,4,40,8|0|0|0|0,0:0|0:0|0:0|0:0|0:0,0:0:0:0:
136,219,161811,2,0,L|108:256,4,40
26,364,162125,2,0,P|82:352|151:363,1,120,2|0,0:2|0:0,0:0:0:0:
310,308,162440,1,8,0:0:0:0:
111,78,162754,5,2,0:0:0:0:
0,212,162911,1,0,0:0:0:0:
6,212,163225,1,0,0:0:0:0:
118,136,163382,5,10,0:0:0:0:
137,12,163539,1,0,0:0:0:0:
136,27,163853,1,0,0:0:0:0:
141,193,164010,5,2,0:0:0:0:
283,99,164324,1,0,0:0:0:0:
141,193,164481,1,0,0:0:0:0:
306,239,164796,1,0,0:0:0:0:
141,193,164953,1,8,0:0:0:0:
182,237,165267,5,2,0:0:0:0:
23,248,165424,1,0,0:0:0:0:
78,109,165581,1,0,0:0:0:0:
241,266,165895,5,10,0:0:0:0:
374,133,166052,1,0,0:0:0:0:
359,134,166366,1,0,0:0:0:0:
305,268,166523,5,2,0:0:0:0:
452,251,166838,1,0,0:0:0:0:
305,268,166995,1,0,0:0:0:0:
411,384,167309,1,0,0:0:0:0:
359,134,167466,1,4,0:0:0:0:
256,192,167518,12,0,169036,0:0:0:0:
512,109,169297,5,8,0:0:0:0:
490,114,169362,1,8,0:0:0:0:
467,114,169428,1,8,0:0:0:0:
445,105,169494,1,8,0:0:0:0:
427,90,169560,2,0,L|433:37,3,45.0000017166138
378,172,169823,5,8,0:0:0:0:
382,194,169889,1,8,0:0:0:0:
386,215,169954,1,8,0:0:0:0:
390,237,170020,1,8,0:0:0:0:
394,259,170086,2,2,L|404:325,1,45.0000017166138,2|2,0:2|0:2,0:2:0:0:
508,373,170218,2,2,L|498:307,1,45.0000017166138,2|2,0:2|0:2,0:2:0:0:
292,362,170349,5,2,0:0:0:0:
282,362,170415,1,0,0:0:0:0:
272,363,170481,1,0,0:0:0:0:
262,364,170547,1,0,0:0:0:0:
237,326,170612,5,2,0:0:0:0:
227,326,170678,1,0,0:0:0:0:
217,325,170744,1,0,0:0:0:0:
207,324,170810,1,0,0:0:0:0:
175,366,170875,5,2,0:0:0:0:
165,366,170941,1,0,0:0:0:0:
155,367,171007,1,0,0:0:0:0:
145,368,171073,1,0,0:0:0:0:
108,335,171139,5,8,0:0:0:0:
8,28,171402,5,4,0:0:0:0:
95,258,174560,6,0,B|155:308|226:280|215:253|294:222|352:262|352:262|406:300|375:370|297:365|265:297|335:212|335:212|353:189|387:179|387:179|428:138|436:30|294:-31|202:92|265:169,1,930
267,169,176665,1,4,0:0:0:0:
214,351,176797,2,0,P|176:358|138:357,1,76.8,2|0,0:0|0:0,0:0:0:0:
446,303,178770,6,0,B|415:272|248:246|382:359|199:342|144:264|200:109|265:144|277:207|322:109|266:44|266:44|259:74|259:74|273:100|273:100|255:124|255:124|231:102|231:102|171:122|156:186|156:186|162:119|133:70|133:70|92:89|79:173|79:173|106:227|105:343|13:373|13:373|19:306|87:305|87:305|94:338|132:354,1,1380,4|0,0:0|0:0,0:0:0:0:
301,224,181928,6,0,B|242:258|220:359|306:411|409:396|437:312|428:220|358:291|334:183|381:106|381:106|478:145|460:248|460:248|506:204|492:143|492:143|506:85|506:85|470:34|383:12,1,960,4|2,0:0|0:2,0:0:0:0:
256,192,184165,12,8,185875,0:0:0:0:
27,32,186139,5,4,0:0:0:0:
1,226,186402,1,10,0:3:0:0:
27,200,186468,1,0,0:0:0:0:
62,194,186533,1,8,0:0:0:0:
96,202,186599,1,0,0:0:0:0:
118,230,186665,1,10,0:3:0:0:
118,266,186731,1,0,0:0:0:0:
135,297,186797,1,8,0:0:0:0:
167,310,186862,1,0,0:0:0:0:
202,305,186928,1,10,0:3:0:0:
231,284,186994,1,0,0:0:0:0:
241,249,187060,2,0,P|280:260|308:261,1,60,8|0,0:0|0:0,0:0:0:0:
398,365,187191,6,0,P|359:376|331:377,1,60,10|0,0:3|0:0,0:0:0:0:
454,238,187323,1,8,0:0:0:0:
454,238,187389,1,0,0:0:0:0:
454,238,187454,2,0,P|470:214|484:174,1,60,10|0,0:3|0:0,0:0:0:0:
489,39,187586,1,8,0:0:0:0:
464,73,187652,1,0,0:0:0:0:
429,96,187718,1,10,0:3:0:0:
387,100,187783,1,0,0:0:0:0:
346,87,187849,2,0,P|352:48|353:15,1,60,8|0,0:0|0:0,0:0:0:0:
206,24,187981,1,10,0:3:0:0:
169,25,188047,1,0,0:0:0:0:
133,26,188112,1,8,0:0:0:0:
96,28,188178,1,0,0:0:0:0:
59,30,188244,5,12,0:0:0:0:
93,40,188310,1,0,0:0:0:0:
115,67,188375,1,8,0:0:0:0:
124,101,188441,1,0,0:0:0:0:
109,134,188507,1,10,0:3:0:0:
81,157,188573,1,0,0:0:0:0:
45,161,188639,1,8,0:0:0:0:
16,181,188704,1,0,0:0:0:0:
6,215,188770,1,10,0:0:0:0:
12,250,188836,1,0,0:0:0:0:
35,277,188902,2,0,P|66:286|99:289,1,60,8|0,0:0|0:0,0:0:0:0:
207,192,189033,2,0,P|183:214|164:241,1,60,10|0,0:0|0:0,0:0:0:0:
189,384,189165,2,0,P|181:352|167:322,1,60,10|0,0:0|0:0,0:0:0:0:
307,216,189297,5,12,0:0:0:0:
286,244,189362,1,0,0:0:0:0:
286,280,189428,1,8,0:0:0:0:
308,307,189494,1,0,0:0:0:0:
343,314,189560,1,10,0:0:0:0:
376,302,189625,1,0,0:0:0:0:
393,270,189691,1,8,0:0:0:0:
424,252,189757,1,0,0:0:0:0:
459,256,189823,1,10,0:0:0:0:
486,278,189889,1,0,0:0:0:0:
498,311,189954,2,0,P|494:339|493:371,1,60,8|0,0:0|0:0,0:0:0:0:
387,210,190086,2,0,P|391:238|392:270,1,60,10|0,0:0|0:0,0:0:0:0:
490,100,190218,2,0,P|486:128|485:160,1,60,8|0,0:0|0:0,0:0:0:0:
387,3,190349,5,12,0:0:0:0:
408,39,190415,1,0,0:0:0:0:
406,81,190481,1,8,0:0:0:0:
377,112,190547,1,0,0:0:0:0:
335,112,190612,2,0,P|290:106|269:99,1,60,10|0,0:2|0:0,0:0:0:0:
120,126,190744,1,10,0:2:0:0:
102,95,190810,1,0,0:0:0:0:
103,58,190876,1,10,0:2:0:0:
129,31,190942,1,0,0:0:0:0:
166,31,191007,2,0,P|205:36|223:42,1,60,10|0,0:2|0:0,0:0:0:0:
335,112,191139,1,10,0:0:0:0:
339,153,191204,1,0,0:0:0:0:
343,194,191270,1,8,0:0:0:0:
347,235,191336,1,0,0:0:0:0:
351,276,191402,5,8,0:0:0:0:
313,256,191468,1,0,0:0:0:0:
308,214,191533,1,8,0:0:0:0:
343,194,191599,1,0,0:0:0:0:
382,207,191665,2,0,P|412:207|446:203,1,60,8|0,0:0|0:0,0:0:0:0:
512,325,191797,5,8,0:0:0:0:
484,356,191862,1,0,0:0:0:0:
446,375,191928,1,10,0:0:0:0:
403,375,191994,1,0,0:0:0:0:
366,354,192060,1,8,0:0:0:0:
345,317,192125,1,0,0:0:0:0:
312,289,192191,1,10,0:0:0:0:
270,281,192257,1,0,0:0:0:0:
230,296,192323,1,8,0:0:0:0:
208,332,192389,2,0,P|174:339|140:341,1,60,0|14,0:0|0:0,0:0:0:0:
27,361,192520,5,0,0:0:0:0:
51,334,192586,1,8,0:0:0:0:
66,301,192652,1,0,0:0:0:0:
66,264,192718,1,8,0:0:0:0:
55,230,192783,1,0,0:0:0:0:
31,202,192849,1,8,0:0:0:0:
12,170,192915,1,0,0:0:0:0:
9,133,192981,5,8,0:0:0:0:
52,175,193047,1,8,0:0:0:0:
111,175,193112,1,8,0:0:0:0:
163,144,193178,1,8,0:0:0:0:
180,86,193244,1,8,0:0:0:0:
163,28,193310,1,8,0:0:0:0:
109,2,193375,2,8,L|37:9,1,60
261,55,193507,5,8,0:0:0:0:
471,149,193770,2,0,L|465:226,1,60,10|0,0:0|0:0,0:0:0:0:
452,370,193902,2,0,L|458:293,1,60,8|0,0:0|0:0,0:0:0:0:
264,189,194033,6,0,L|271:267,1,60,10|0,0:2|0:0,0:0:0:0:
349,342,194165,2,0,L|343:263,1,60,8|0,0:0|0:0,0:0:0:0:
258,197,194297,2,0,L|265:275,1,60,10|0,0:2|0:0,0:0:0:0:
343,350,194429,2,0,L|337:271,1,60,8|0,0:0|0:0,0:0:0:0:
336,76,194560,6,0,L|414:82,1,60,10|0,0:2|3:0,0:0:0:0:
498,151,194692,2,0,L|419:144,1,60,8|0,0:0|3:0,0:0:0:0:
344,70,194824,2,0,L|422:76,1,60,10|0,0:2|3:0,0:0:0:0:
278,195,194954,2,0,L|281:269,1,60,8|0,0:0|3:0,0:0:0:0:
270,189,195086,2,0,L|273:263,1,60,10|0,0:2|3:0,0:0:0:0:
288,201,195218,2,0,L|290:260,1,60,8|0,0:0|3:0,0:0:0:0:
145,350,195349,2,0,L|71:353,1,60,10|0,0:2|3:0,0:0:0:0:
151,342,195481,2,0,L|77:345,1,60,8|0,0:0|3:0,0:0:0:0:
9,180,195612,6,0,L|83:177,1,60,10|0,0:2|3:0,0:0:0:0:
3,188,195744,2,0,L|77:185,1,60,8|0,0:0|3:0,0:0:0:0:
215,41,195875,2,0,L|141:44,1,60,10|0,0:2|3:0,0:0:0:0:
221,33,196007,2,0,L|147:36,1,60,8|0,0:0|3:0,0:0:0:0:
175,221,196139,2,0,L|172:147,1,60,10|0,0:2|3:0,0:0:0:0:
353,140,196270,1,8,0:0:0:0:
353,140,196336,1,0,3:0:0:0:
353,140,196402,2,0,L|412:145,1,60,10|0,0:2|3:0,0:0:0:0:
512,225,196533,2,0,L|452:219,1,60,8|0,0:0|3:0,0:0:0:0:
351,373,196665,5,12,0:0:0:0:
44,327,196928,2,0,L|38:250,1,60,10|0,0:2|0:0,0:0:0:0:
25,106,197060,2,0,L|31:183,1,60,8|0,0:0|0:0,0:0:0:0:
310,156,197191,6,0,L|233:162,1,60,8|0,0:0|0:0,0:0:0:0:
313,168,197323,2,0,L|236:174,1,60,8|0,0:0|0:0,0:0:0:0:
131,224,197454,2,0,L|208:218,1,60,10|0,0:2|0:0,0:0:0:0:
134,236,197586,2,0,L|211:230,1,60,10|0,0:2|0:0,0:0:0:0:
418,293,197718,6,0,P|431:360|433:367,1,60,10|0,0:2|0:0,0:0:0:0:
428,298,197849,2,0,P|441:365|443:372,1,60,8|0,0:0|0:0,0:0:0:0:
440,303,197981,2,0,P|453:370|455:377,1,60,10|0,0:2|0:0,0:0:0:0:
270,237,198112,2,0,P|205:214|198:212,1,60,8|0,0:0|0:0,0:0:0:0:
260,243,198244,2,0,P|195:220|188:218,1,60,10|0,0:2|0:0,0:0:0:0:
250,251,198375,2,0,P|185:228|178:226,1,60,8|0,0:0|0:0,0:0:0:0:
379,140,198507,2,0,P|430:95|435:90,1,60,10|0,0:2|0:0,0:0:0:0:
377,127,198639,2,0,P|428:82|433:77,1,60,8|0,0:0|0:0,0:0:0:0:
200,88,198770,6,0,P|176:23|174:16,1,60,10|0,0:2|0:0,0:0:0:0:
206,79,198902,2,0,P|182:14|180:7,1,60,8|0,0:0|0:0,0:0:0:0:
214,68,199033,2,0,P|190:3|188:-3,1,60,10|0,0:2|0:0,0:0:0:0:
62,266,199165,2,0,P|18:318|13:323,1,60,8|0,0:0|0:0,0:0:0:0:
51,265,199297,2,0,P|7:317|2:322,1,60,10|0,0:2|0:0,0:0:0:0:
38,264,199428,2,0,P|-6:316|-11:321,1,60,8|0,0:0|0:0,0:0:0:0:
309,294,199559,2,0,P|376:305|383:307,1,60,10|0,0:2|0:0,0:0:0:0:
314,306,199691,2,0,P|381:317|388:319,1,60,8|0,0:0|0:0,0:0:0:0:
43,137,199823,6,0,P|101:154|115:151,1,60,10|0,0:2|0:0,0:0:0:0:
274,168,199954,2,0,P|256:226|259:240,1,60,8|0,0:0|0:0,0:0:0:0:
236,384,200086,2,0,P|177:366|163:369,1,60,10|0,0:2|0:0,0:0:0:0:
4,352,200217,2,0,P|21:293|18:279,1,60,8|0,0:0|0:0,0:0:0:0:
43,137,200349,5,8,0:0:0:0:
78,185,200415,1,8,0:0:0:0:
138,189,200481,1,8,0:0:0:0:
179,144,200547,1,8,0:0:0:0:
174,84,200612,5,0,0:0:0:0:
194,72,200678,1,0,0:0:0:0:
217,68,200744,2,0,P|255:68|279:78,1,60
434,174,200875,5,6,0:0:0:0:
444,188,200941,1,0,0:0:0:0:
447,205,201007,1,0,0:0:0:0:
442,222,201073,1,0,0:0:0:0:
432,237,201139,1,0,0:0:0:0:
416,246,201204,1,0,0:0:0:0:
398,247,201270,1,0,0:0:0:0:
381,240,201336,1,0,0:0:0:0:
363,241,201402,1,2,0:0:0:0:
347,249,201468,1,0,0:0:0:0:
335,262,201533,1,0,0:0:0:0:
329,279,201599,1,0,0:0:0:0:
331,296,201665,1,0,0:0:0:0:
339,311,201731,1,0,0:0:0:0:
352,322,201797,1,0,0:0:0:0:
369,324,201862,1,0,0:0:0:0:
342,353,201928,5,10,0:0:0:0:
331,356,201994,1,0,0:0:0:0:
318,356,202060,1,0,0:0:0:0:
306,352,202125,1,0,0:0:0:0:
271,328,202191,5,0,0:0:0:0:
258,329,202257,1,0,0:0:0:0:
211,359,202323,5,0,0:0:0:0:
215,347,202389,1,0,0:0:0:0:
217,335,202454,1,2,0:0:0:0:
217,322,202520,1,0,0:0:0:0:
215,310,202586,1,0,0:0:0:0:
211,298,202652,1,0,0:0:0:0:
168,276,202718,5,0,0:0:0:0:
165,258,202783,1,0,0:0:0:0:
167,240,202849,1,0,0:0:0:0:
174,223,202915,1,0,0:0:0:0:
220,198,202981,5,2,0:0:0:0:
205,187,203046,1,0,0:0:0:0:
188,184,203112,1,0,0:0:0:0:
171,190,203178,1,0,0:0:0:0:
158,203,203244,1,0,0:0:0:0:
153,220,203309,1,0,0:0:0:0:
157,237,203375,1,0,0:0:0:0:
168,251,203441,1,0,0:0:0:0:
184,258,203507,1,2,0:0:0:0:
202,257,203573,1,0,0:0:0:0:
221,248,203639,2,0,P|270:250|291:253,1,60
384,170,203770,2,0,P|357:211|344:228,1,60
372,353,203902,2,0,P|349:309|341:289,1,60
492,193,204033,5,6,0:0:0:0:
485,182,204099,1,0,0:0:0:0:
479,172,204165,1,0,0:0:0:0:
474,160,204231,1,0,0:0:0:0:
472,148,204297,1,0,0:0:0:0:
470,136,204362,1,0,0:0:0:0:
468,124,204428,1,0,0:0:0:0:
468,111,204494,1,0,0:0:0:0:
468,99,204560,1,2,0:0:0:0:
470,87,204625,1,0,0:0:0:0:
474,75,204691,1,0,0:0:0:0:
478,64,204757,1,0,0:0:0:0:
484,53,204823,2,0,P|451:56|421:57,3,60,2|0|0|0,0:2|0:0|0:0|0:0,0:0:0:0:
163,28,205086,6,0,L|157:97,1,60,10|0,0:2|0:0,0:0:0:0:
171,116,205218,2,0,L|177:47,1,60,8|0,0:0|0:0,0:0:0:0:
198,34,205349,2,0,L|191:102,1,60,10|0,0:2|0:0,0:0:0:0:
294,228,205481,2,0,L|237:188,1,60,8|0,0:0|0:0,0:0:0:0:
214,190,205613,2,0,L|270:229,1,60,10|0,0:2|0:0,0:0:0:0:
272,254,205744,2,0,L|215:214,1,60,8|0,0:0|0:0,0:0:0:0:
50,238,205875,2,0,L|112:208,1,60,10|0,0:2|0:0,0:0:0:0:
122,187,206007,2,0,L|59:216,1,60,8|0,0:0|0:0,0:0:0:0:
315,103,206139,6,0,L|342:162,1,45.0000017166138,10|0,0:2|0:0,0:0:0:0:
363,163,206270,2,0,L|344:122,1,45.0000017166138,8|0,0:0|0:0,0:0:0:0:
350,85,206402,2,0,L|368:125,1,45.0000017166138,10|0,0:2|0:0,0:0:0:0:
507,199,206533,2,0,L|442:192,1,45.0000017166138,8|0,0:0|0:0,0:0:0:0:
431,210,206665,2,0,L|475:214,1,45.0000017166138,10|0,0:2|0:0,0:0:0:0:
505,238,206796,2,0,L|460:233,1,45.0000017166138,8|0,0:0|0:0,0:0:0:0:
329,312,206928,2,0,L|366:259,1,45.0000017166138,10|0,0:2|0:0,0:0:0:0:
357,240,207059,2,0,L|330:276,1,45.0000017166138,8|0,0:0|0:0,0:0:0:0:
56,345,207191,6,0,L|134:349,1,60,10|0,0:2|0:0,0:0:0:0:
230,297,207323,2,0,L|152:301,1,60,8|0,0:0|0:0,0:0:0:0:
47,334,207454,2,0,L|125:338,1,60,10|0,0:2|0:0,0:0:0:0:
221,286,207586,2,0,L|143:290,1,60,8|0,0:0|0:0,0:0:0:0:
9,154,207718,6,0,L|87:150,1,60,10|0,0:2|0:0,0:0:0:0:
183,202,207850,2,0,L|105:198,1,60,8|0,0:0|0:0,0:0:0:0:
0,165,207981,2,0,L|78:161,1,60,8|0,0:0|0:0,0:0:0:0:
174,213,208113,2,0,L|96:209,1,60,8|0,0:0|0:0,0:0:0:0:
22,38,208244,5,4,0:0:0:0:
42,74,208310,1,0,0:0:0:0:
75,97,208375,1,0,0:0:0:0:
116,104,208441,1,0,0:0:0:0:
158,100,208507,1,0,0:0:0:0:
197,85,208573,1,0,0:0:0:0:
226,54,208639,1,0,0:0:0:0:
266,44,208704,1,0,0:0:0:0:
307,52,208770,1,2,0:0:0:0:
341,75,208836,1,0,0:0:0:0:
358,113,208902,1,0,0:0:0:0:
355,155,208968,1,0,0:0:0:0:
333,190,209033,1,0,0:0:0:0:
296,210,209099,1,0,0:0:0:0:
253,208,209165,1,0,0:0:0:0:
218,183,209231,1,0,0:0:0:0:
198,145,209297,5,10,0:0:0:0:
166,180,209362,1,0,0:0:0:0:
152,226,209428,1,0,0:0:0:0:
160,273,209494,1,0,0:0:0:0:
185,313,209560,1,0,0:0:0:0:
226,335,209625,1,0,0:0:0:0:
273,328,209691,5,0,0:0:0:0:
229,307,209757,1,0,0:0:0:0:
185,313,209823,1,2,0:0:0:0:
149,346,209889,1,0,0:0:0:0:
108,370,209954,1,0,0:0:0:0:
59,372,210020,1,0,0:0:0:0:
22,340,210086,1,0,0:0:0:0:
14,292,210152,1,0,0:0:0:0:
36,249,210218,2,0,L|113:242,1,60
58,62,210349,5,2,0:0:0:0:
35,104,210415,1,0,0:0:0:0:
45,150,210481,1,0,0:0:0:0:
87,172,210547,1,0,0:0:0:0:
133,163,210612,1,0,0:0:0:0:
161,124,210678,1,0,0:0:0:0:
206,108,210744,1,0,0:0:0:0:
250,126,210810,1,0,0:0:0:0:
267,170,210875,2,0,L|275:244,1,60,2|0,0:0|0:0,0:0:0:0:
376,352,211007,1,0,0:0:0:0:
376,352,211073,1,0,0:0:0:0:
376,352,211139,2,0,L|369:292,1,60
498,231,211270,1,0,0:0:0:0:
498,231,211336,1,0,0:0:0:0:
498,231,211402,5,4,0:0:0:0:
505,183,211468,1,0,0:0:0:0:
492,137,211533,1,0,0:0:0:0:
452,108,211599,1,0,0:0:0:0:
404,101,211665,1,2,0:2:0:0:
360,122,211731,1,0,0:0:0:0:
332,161,211797,1,0,0:0:0:0:
289,182,211862,1,0,0:0:0:0:
242,169,211928,1,2,0:2:0:0:
221,125,211994,1,0,0:0:0:0:
234,78,212060,1,0,0:0:0:0:
277,59,212125,1,0,0:0:0:0:
321,78,212191,1,2,0:2:0:0:
345,120,212257,1,0,0:0:0:0:
332,161,212323,2,0,P|335:193|344:227,1,60
411,325,212454,5,10,0:2:0:0:
377,360,212520,1,0,0:0:0:0:
329,369,212586,1,0,0:0:0:0:
282,355,212652,1,0,0:0:0:0:
261,311,212718,2,0,P|226:306|182:304,1,60
63,355,212849,5,4,0:0:0:0:
58,319,212915,1,0,0:0:0:0:
54,283,212981,1,2,0:0:0:0:
51,247,213047,1,0,0:0:0:0:
48,211,213112,2,0,L|44:141,1,60,2|0,0:2|0:0,0:0:0:0:
124,18,213244,1,2,0:2:0:0:
124,18,213310,1,0,0:0:0:0:
124,18,213375,2,0,P|126:54|135:98,1,60
239,238,213507,5,4,0:0:0:0:
252,257,213573,1,0,0:0:0:0:
256,280,213639,1,0,0:0:0:0:
245,301,213704,1,0,0:0:0:0:
223,312,213770,1,0,0:0:0:0:
198,312,213836,1,0,0:0:0:0:
177,298,213902,1,0,0:0:0:0:
153,294,213968,1,0,0:0:0:0:
131,304,214033,1,2,0:0:0:0:
116,322,214099,1,0,0:0:0:0:
116,346,214165,5,0,0:0:0:0:
94,334,214231,1,0,0:0:0:0:
82,312,214297,1,0,0:0:0:0:
82,288,214362,1,0,0:0:0:0:
89,265,214428,1,0,0:0:0:0:
105,247,214494,1,0,0:0:0:0:
137,231,214560,1,10,0:0:0:0:
172,234,214625,1,0,0:0:0:0:
207,257,214691,1,0,0:0:0:0:
238,293,214757,1,0,0:0:0:0:
303,305,214823,1,0,0:0:0:0:
368,273,214889,1,0,0:0:0:0:
398,202,214954,1,0,0:0:0:0:
362,125,215020,1,0,0:0:0:0:
282,96,215086,2,0,P|256:82|221:31,1,80
18,95,215537,5,6,0:0:0:0:
37,138,215609,1,0,0:0:0:0:
29,187,215682,1,0,0:0:0:0:
190,337,215828,1,0,0:0:0:0:
147,121,215974,1,2,0:0:0:0:
54,319,216120,1,0,0:0:0:0:
246,213,216266,1,0,0:0:0:0:
232,19,216412,6,0,B|270:42|270:42|356:25,1,120.000004577637,10|0,0:0|0:0,0:0:0:0:
181,103,216704,1,8,0:0:0:0:
454,32,216850,1,8,0:0:0:0:
246,213,216996,1,8,0:0:0:0:
512,150,217142,1,8,0:0:0:0:
256,321,217288,5,2,0:0:0:0:
208,313,217361,1,0,0:0:0:0:
161,324,217434,1,0,0:0:0:0:
0,256,217580,1,2,0:0:0:0:
8,262,217726,1,0,0:0:0:0:
310,187,217872,1,8,0:0:0:0:
92,270,218018,1,8,0:0:0:0:
62,13,218164,6,0,B|69:57|69:57|31:156,1,120.000004577637,8|0,0:0|0:0,0:0:0:0:
289,301,218456,2,0,B|282:257|282:257|320:158,1,120.000004577637
345,363,218748,1,2,0:2:0:0:
351,368,218894,1,0,0:0:0:0:
495,124,219040,5,0,0:0:0:0:
447,128,219113,1,0,0:0:0:0:
403,107,219186,1,0,0:0:0:0:
210,0,219332,1,0,0:0:0:0:
281,208,219478,1,0,0:0:0:0:
352,0,219624,1,0,0:0:0:0:
423,208,219770,1,0,0:0:0:0:
231,362,219916,5,8,0:0:0:0:
116,257,220062,2,0,B|69:239|69:239|-27:251,1,120.000004577637,8|0,0:0|0:0,0:0:0:0:
287,38,220354,2,0,B|240:56|240:56|144:44,1,120.000004577637,8|0,0:0|0:0,0:0:0:0:
9,16,220646,1,8,0:0:0:0:
192,130,220792,6,0,B|212:188|212:188|199:256,1,120.000004577637,2|2,0:2|0:0,0:0:0:0:
39,362,221084,1,8,0:0:0:0:
231,362,221230,1,8,0:0:0:0:
201,246,221376,1,0,0:0:0:0:
315,279,221522,1,0,0:0:0:0:
448,76,221668,5,0,0:0:0:0:
315,156,221814,1,0,0:0:0:0:
315,156,221887,1,0,0:0:0:0:
315,156,221960,1,0,0:0:0:0:
446,240,222106,1,0,0:0:0:0:
252,85,222252,2,0,L|129:95,1,120.000004577637
2,253,222544,5,6,0:0:0:0:
41,279,222617,1,0,0:0:0:0:
87,265,222690,1,0,0:0:0:0:
224,169,222836,1,0,0:0:0:0:
332,329,222982,2,0,B|375:348|375:348|452:331,1,120.000004577637,2|0,0:0|0:0,0:0:0:0:
446,240,223274,1,0,0:0:0:0:
241,254,223420,6,8,B|198:235|198:235|121:252,1,120.000004577637,2|8,0:0|0:0,0:0:0:0:
121,251,223639,1,8,0:0:0:0:
121,251,223712,1,8,0:0:0:0:
231,366,223858,1,10,0:0:0:0:
122,22,224004,1,8,0:0:0:0:
33,266,224150,1,8,0:0:0:0:
237,83,224296,6,0,B|282:65|282:65|381:86,1,120.000004577637,10|0,0:0|0:0,0:0:0:0:
491,330,224588,1,8,0:0:0:0:
264,226,224734,1,10,0:0:0:0:
448,98,224880,1,8,0:0:0:0:
356,326,225026,1,8,0:0:0:0:
142,246,225172,6,0,B|94:235|94:235|10:250,1,120.000004577637,10|0,0:0|0:0,0:0:0:0:
133,8,225464,1,8,0:0:0:0:
137,15,225609,1,0,0:0:0:0:
346,161,225755,1,8,0:0:0:0:
142,246,225901,1,8,0:0:0:0:
420,73,226047,6,0,L|416:22,3,30,6|0|0|0,0:0|0:0|0:0|0:0,0:0:0:0:
346,161,226347,2,0,L|342:110,3,30
433,243,226647,2,0,L|429:192,3,30,2|0|0|0,0:0|0:0|0:0|0:0,0:0:0:0:
450,354,226947,5,8,0:0:0:0:
438,355,227022,1,0,0:0:0:0:
426,356,227097,1,0,0:0:0:0:
414,357,227172,1,0,0:0:0:0:
390,326,227247,5,2,0:0:0:0:
378,325,227322,1,0,0:0:0:0:
366,324,227397,1,0,0:0:0:0:
354,323,227472,1,0,0:0:0:0:
324,356,227547,5,8,0:0:0:0:
312,357,227622,1,0,0:0:0:0:
300,358,227697,1,0,0:0:0:0:
288,359,227772,1,0,0:0:0:0:
254,320,227847,6,0,L|203:316,3,30,2|0|0|0,0:0|0:0|0:0|0:0,0:0:0:0:
80,357,228147,2,0,L|109:359,3,30
152,261,228447,2,0,L|149:290,3,30,2|0|0|0,0:0|0:0|0:0|0:0,0:0:0:0:
35,213,228747,5,8,0:0:0:0:
36,201,228822,1,0,0:0:0:0:
37,189,228897,1,0,0:0:0:0:
38,177,228972,1,0,0:0:0:0:
7,153,229047,5,2,0:0:0:0:
6,141,229122,1,0,0:0:0:0:
5,129,229197,1,0,0:0:0:0:
4,117,229272,1,0,0:0:0:0:
36,84,229347,6,0,L|108:77,1,60
269,38,229647,5,6,0:0:0:0:
229,137,229792,1,0,0:0:0:0:
341,122,229938,1,0,0:0:0:0:
285,338,230084,5,2,0:0:0:0:
382,283,230230,1,0,0:0:0:0:
479,337,230376,1,0,0:0:0:0:
272,343,230522,6,0,L|188:353,2,80,10|0|0,0:0|0:0|0:0,0:0:0:0:
0,291,230960,2,0,L|84:301,2,80,2|0|0,0:0|0:0|0:0,0:0:0:0:
171,188,231398,5,2,0:0:0:0:
136,77,231544,1,0,0:0:0:0:
51,162,231690,1,0,0:0:0:0:
254,47,231836,5,2,0:0:0:0:
346,88,231982,1,0,0:0:0:0:
443,56,232128,1,0,0:0:0:0:
509,196,232274,6,0,L|499:280,2,80,10|0|0,0:0|0:0|0:0,0:0:0:0:
419,305,232712,2,0,L|429:389,2,80,2|0|0,0:0|0:0|0:0,0:0:0:0:
221,313,233150,5,2,0:0:0:0:
115,336,233296,1,0,0:0:0:0:
19,202,233442,5,0,0:0:0:0:
132,230,233588,1,2,0:0:0:0:
230,100,233734,5,0,0:0:0:0:
100,132,233880,1,0,0:0:0:0:
338,184,234026,6,0,L|451:172,1,80,10|0,0:0|0:0,0:0:0:0:
244,307,234318,2,0,L|314:345,1,80,0|2,0:0|0:0,0:0:0:0:
65,248,234610,2,0,L|114:350,1,80
57,5,234902,5,2,0:0:0:0:
20,127,235048,1,0,0:0:0:0:
167,227,235194,5,0,0:0:0:0:
129,105,235340,1,2,0:0:0:0:
279,15,235486,5,0,0:0:0:0:
242,137,235632,1,0,0:0:0:0:
331,330,235778,6,0,L|436:322,2,80,10|0|0,0:0|0:0|0:0,0:0:0:0:
167,227,236216,2,0,L|87:233,2,80,2|0|0,0:0|0:0|0:0,0:0:0:0:
411,324,236654,5,4,0:0:0:0:
403,326,236800,1,0,0:0:0:0:
395,326,236946,1,0,0:0:0:0:
213,238,237092,5,2,0:0:0:0:
195,358,237238,1,0,0:0:0:0:
313,313,237384,1,0,0:0:0:0:
79,283,237530,6,0,L|-13:296,2,80,10|0|0,0:0|0:0|0:0,0:0:0:0:
213,238,237968,2,0,L|292:249,2,80,2|0|0,0:0|0:0|0:0,0:0:0:0:
63,39,238406,5,2,0:0:0:0:
55,41,238552,1,0,0:0:0:0:
47,41,238698,1,0,0:0:0:0:
237,155,238844,5,2,0:0:0:0:
245,157,238990,1,0,0:0:0:0:
253,157,239136,1,0,0:0:0:0:
391,97,239282,6,0,P|414:97|435:85,6,30,8|0|0|0|0|0|0,0:0|0:0|0:0|0:0|0:0|0:0|0:0,0:0:0:0:
175,195,239719,2,0,P|152:195|131:183,6,30
276,305,240157,5,4,0:0:0:0:
267,304,240232,1,0,0:0:0:0:
258,303,240307,1,0,0:0:0:0:
249,303,240382,1,0,0:0:0:0:
217,267,240457,5,0,0:0:0:0:
208,268,240532,1,0,0:0:0:0:
199,269,240607,1,0,0:0:0:0:
190,269,240682,1,0,0:0:0:0:
160,309,240757,5,2,0:0:0:0:
151,308,240832,1,0,0:0:0:0:
142,307,240907,1,0,0:0:0:0:
133,307,240982,1,0,0:0:0:0:
101,271,241057,6,0,L|56:274,3,30,8|0|0|0,0:0|0:0|0:0|0:0,0:0:0:0:
6,182,241357,1,2,0:0:0:0:
17,171,241432,1,0,0:0:0:0:
23,157,241507,1,0,0:0:0:0:
26,143,241582,2,0,L|32:106,4,30,0|8|0|0|0,0:0|0:0|0:0|0:0|0:0,0:0:0:0:
130,22,241957,5,2,0:0:0:0:
149,30,242032,1,0,0:0:0:0:
169,29,242107,1,0,0:0:0:0:
188,22,242182,1,0,0:0:0:0:
217,55,242257,5,0,0:0:0:0:
232,48,242332,1,0,0:0:0:0:
248,49,242407,1,0,0:0:0:0:
263,55,242482,1,0,0:0:0:0:
312,31,242557,5,2,0:0:0:0:
305,38,242632,1,0,0:0:0:0:
302,48,242707,1,0,0:0:0:0:
301,58,242782,1,0,0:0:0:0:
304,67,242857,1,8,0:0:0:0:
309,76,242932,1,0,0:0:0:0:
317,82,243007,1,0,0:0:0:0:
326,86,243082,1,0,0:0:0:0:
336,87,243157,1,2,0:0:0:0:
345,85,243232,1,0,0:0:0:0:
354,80,243307,1,0,0:0:0:0:
361,73,243382,1,0,0:0:0:0:
365,64,243457,1,0,0:0:0:0:
488,191,243757,5,4,0:0:0:0:
420,353,243902,1,0,0:0:0:0:
314,218,244048,1,0,0:0:0:0:
418,342,244194,5,2,0:0:0:0:
479,202,244340,1,0,0:0:0:0:
323,228,244486,1,0,0:0:0:0:
469,213,244632,5,10,0:0:0:0:
417,325,244778,1,0,0:0:0:0:
338,239,244924,1,0,0:0:0:0:
391,88,245070,5,8,0:0:0:0:
266,28,245216,1,0,0:0:0:0:
146,71,245362,1,8,0:0:0:0:
50,179,245508,5,4,0:0:0:0:
118,341,245653,1,0,0:0:0:0:
224,206,245799,1,0,0:0:0:0:
120,330,245945,5,2,0:0:0:0:
59,190,246091,1,0,0:0:0:0:
215,216,246237,1,0,0:0:0:0:
69,201,246383,5,10,0:0:0:0:
121,313,246529,1,0,0:0:0:0:
200,227,246675,1,8,0:0:0:0:
299,369,246822,5,2,0:0:0:0:
416,341,246968,1,0,0:0:0:0:
495,240,247114,1,0,0:0:0:0:
296,217,247260,5,4,0:0:0:0:
362,94,247406,1,0,0:0:0:0:
284,104,247552,1,0,0:0:0:0:
305,199,247698,5,0,0:0:0:0:
353,115,247844,1,0,0:0:0:0:
305,120,247990,1,0,0:0:0:0:
289,234,248136,5,10,0:0:0:0:
362,94,248282,1,8,0:0:0:0:
284,104,248428,1,8,0:0:0:0:
283,250,248574,5,10,0:0:0:0:
374,73,248720,1,0,0:0:0:0:
261,82,248866,1,8,0:0:0:0:
142,341,249012,5,4,0:0:0:0:
134,177,249158,1,0,0:0:0:0:
174,263,249304,1,0,0:0:0:0:
141,327,249450,5,0,0:0:0:0:
134,191,249596,1,0,0:0:0:0:
167,249,249742,1,0,0:0:0:0:
141,306,249888,5,10,0:0:0:0:
137,221,250034,1,8,0:0:0:0:
150,241,250180,1,8,0:0:0:0:
143,334,250326,5,8,0:0:0:0:
130,163,250472,1,0,0:0:0:0:
178,237,250618,1,8,0:0:0:0:
37,24,250764,6,0,B|76:57|134:56|178:40|178:40|228:16|284:21|334:53,1,300.000011444092
257,181,251640,5,10,0:0:0:0:
512,200,251786,1,8,0:0:0:0:
512,200,251859,1,8,0:0:0:0:
512,200,251932,1,8,0:0:0:0:
287,317,252078,1,8,0:0:0:0:
383,106,252224,1,8,0:0:0:0:
457,332,252370,1,8,0:0:0:0:
257,181,252516,6,0,P|198:175|157:182,1,80,8|0,0:0|0:0,0:0:0:0:
114,377,252808,1,8,0:0:0:0:
256,205,252954,1,8,0:0:0:0:
122,378,253100,1,8,0:0:0:0:
264,206,253246,1,8,0:0:0:0:
15,246,253392,6,0,P|9:187|16:146,1,80,8|0,0:0|0:0,0:0:0:0:
68,62,253684,1,0,0:0:0:0:
125,166,253829,1,0,0:0:0:0:
236,131,253975,2,0,L|322:140,1,80
462,95,254267,5,4,0:0:0:0:
459,112,254342,1,0,0:0:0:0:
460,129,254417,1,0,0:0:0:0:
464,146,254492,1,0,0:0:0:0:
425,158,254567,5,0,0:0:0:0:
428,175,254642,1,0,0:0:0:0:
427,192,254717,1,0,0:0:0:0:
423,209,254792,1,0,0:0:0:0:
459,231,254867,5,2,0:0:0:0:
456,248,254942,1,0,0:0:0:0:
457,265,255017,1,0,0:0:0:0:
461,282,255092,1,0,0:0:0:0:
431,307,255167,6,0,L|434:349,3,30,8|0|0|0,0:0|0:0|0:0|0:0,0:0:0:0:
325,254,255467,2,0,L|322:296,3,30,2|0|0|0,0:0|0:0|0:0|0:0,0:0:0:0:
225,333,255767,2,0,L|228:375,3,30,8|0|0|0,0:0|0:0|0:0|0:0,0:0:0:0:
28,354,256067,5,2,0:0:0:0:
31,337,256142,1,0,0:0:0:0:
30,320,256217,1,0,0:0:0:0:
26,303,256292,1,0,0:0:0:0:
64,285,256367,5,0,0:0:0:0:
61,268,256442,1,0,0:0:0:0:
62,251,256517,1,0,0:0:0:0:
66,234,256592,1,0,0:0:0:0:
31,218,256667,5,2,0:0:0:0:
34,201,256742,1,0,0:0:0:0:
33,184,256817,1,0,0:0:0:0:
29,167,256892,1,0,0:0:0:0:
59,142,256967,6,0,L|56:100,3,30,8|0|0|0,0:0|0:0|0:0|0:0,0:0:0:0:
153,68,257267,2,0,L|156:26,3,30,2|0|0|0,0:0|0:0|0:0|0:0,0:0:0:0:
265,116,257567,2,0,L|262:74,3,30,8|0|0|0,0:0|0:0|0:0|0:0,0:0:0:0:
494,124,257867,6,0,L|382:130,1,80,4|0,0:0|0:0,0:0:0:0:
240,183,258158,1,0,0:0:0:0:
388,296,258304,2,0,P|397:357|382:392,1,80,2|0,0:0|0:0,0:0:0:0:
265,384,258596,1,0,0:0:0:0:
86,343,258742,6,0,L|-23:359,1,80,10|0,0:0|0:0,0:0:0:0:
27,179,259034,1,0,0:0:0:0:
27,179,259180,2,0,P|48:236|41:267,2,80,2|0|0,0:0|0:0|0:0,0:0:0:0:
121,25,259618,6,0,P|174:56|206:54,1,80,4|0,0:0|0:0,0:0:0:0:
190,148,259910,2,0,P|251:142|276:123,1,80,0|2,0:0|0:0,0:0:0:0:
347,190,260202,2,0,P|394:150|403:120,1,80
507,375,260494,5,10,0:0:0:0:
342,298,260640,1,0,0:0:0:0:
311,307,260713,1,0,0:0:0:0:
289,330,260786,2,0,L|223:344,1,40
104,357,260932,6,0,L|171:349,1,40,2|0,0:0|0:0,0:0:0:0:
130,257,261078,2,0,L|180:212,1,40
78,168,261224,2,0,L|94:102,1,40
15,11,261370,6,0,L|-4:109,2,80,4|0|0,0:0|0:0|0:0,0:0:0:0:
78,168,261808,1,2,0:0:0:0:
86,243,261954,1,0,0:0:0:0:
92,319,262100,1,0,0:0:0:0:
310,344,262246,6,0,L|201:356,1,80,10|0,0:0|0:0,0:0:0:0:
421,288,262538,1,0,0:0:0:0:
357,195,262684,2,0,P|417:170|506:213,1,160,2|0,0:0|0:0,0:0:0:0:
235,25,263122,6,0,L|70:37,1,160,4|0,0:0|0:0,0:0:0:0:
1,192,263560,1,2,0:0:0:0:
157,118,263706,1,0,0:0:0:0:
1,44,263852,1,0,0:0:0:0:
148,262,263998,5,10,0:0:0:0:
313,126,264144,1,8,0:0:0:0:
261,123,264217,1,8,0:0:0:0:
215,148,264290,1,8,0:0:0:0:
461,261,264436,2,8,L|473:356,2,80
227,359,264874,6,0,B|195:367|195:367|149:348,1,80,4|0,0:0|0:0,0:0:0:0:
76,152,265166,2,0,B|84:120|84:120|124:90,1,80,2|2,0:0|0:0,0:0:0:0:
339,126,265458,2,0,B|361:148|361:148|368:198,1,80,0|2,0:0|0:0,0:0:0:0:
227,359,265750,1,0,0:0:0:0:
227,359,265896,1,0,0:0:0:0:
115,104,266042,5,2,0:2:0:0:
126,181,266188,1,2,0:2:0:0:
137,258,266334,1,8,0:0:0:0:
333,355,266480,1,8,0:0:0:0:
478,214,266626,1,0,0:0:0:0:
482,176,266699,1,0,0:0:0:0:
476,130,266772,1,0,0:0:0:0:
300,22,266918,5,8,0:0:0:0:
49,176,267064,1,8,0:0:0:0:
276,156,267210,1,8,0:0:0:0:
75,47,267356,1,8,0:0:0:0:
40,373,267502,5,0,0:0:0:0:
62,345,267575,1,0,0:0:0:0:
93,327,267648,1,0,0:0:0:0:
127,317,267721,1,0,0:0:0:0:
162,317,267794,1,0,0:0:0:0:
195,330,267867,1,0,0:0:0:0:
223,350,267939,2,0,L|279:361,1,40
332,207,268085,2,0,L|305:237,1,40
412,364,268231,2,0,L|399:326,1,40
502,149,268377,5,6,0:0:0:0:
485,150,268452,1,0,0:0:0:0:
469,149,268527,1,0,0:0:0:0:
454,142,268602,1,0,0:0:0:0:
431,102,268677,5,0,0:0:0:0:
416,98,268752,1,0,0:0:0:0:
400,96,268827,1,0,0:0:0:0:
383,100,268902,1,0,0:0:0:0:
366,110,268977,6,0,L|370:162,3,30,2|0|0|0,0:0|0:0|0:0|0:0,0:0:0:0:
243,37,269277,5,8,0:0:0:0:
222,48,269352,1,0,0:0:0:0:
198,54,269427,1,0,0:0:0:0:
174,51,269502,1,0,0:0:0:0:
152,39,269577,2,0,L|147:85,1,30,2|0,0:0|0:0,0:0:0:0:
52,190,269727,1,0,0:0:0:0:
49,166,269802,1,0,0:0:0:0:
47,142,269877,1,8,0:0:0:0:
46,118,269952,1,0,0:0:0:0:
43,93,270027,2,0,L|38:38,1,30
171,158,270177,2,0,L|166:212,1,30,2|0,0:0|0:0,0:0:0:0:
20,343,270327,5,0,0:0:0:0:
38,327,270402,1,0,0:0:0:0:
60,318,270477,1,0,0:0:0:0:
83,316,270552,1,0,0:0:0:0:
106,322,270627,1,0,0:0:0:0:
125,336,270702,1,0,0:0:0:0:
135,357,270777,5,2,0:0:0:0:
102,354,270852,1,0,0:0:0:0:
83,316,270927,1,0,0:0:0:0:
95,285,271002,1,0,0:0:0:0:
123,267,271077,1,8,0:0:0:0:
155,270,271152,1,0,0:0:0:0:
181,289,271227,1,0,0:0:0:0:
201,315,271302,1,0,0:0:0:0:
231,327,271377,1,2,0:0:0:0:
263,323,271452,1,0,0:0:0:0:
290,304,271527,1,0,0:0:0:0:
300,272,271602,1,0,0:0:0:0:
295,239,271677,1,0,0:0:0:0:
180,28,271970,6,0,P|226:43|284:34,1,100,6|0,0:0|0:0,0:0:0:0:
442,2,272261,2,0,L|454:125,2,100,0|2|0,0:0|0:0|0:0,0:0:0:0:
434,1,272699,1,0,0:0:0:0:
511,194,272845,5,10,0:0:0:0:
331,182,272991,1,0,0:0:0:0:
331,182,273064,1,0,0:0:0:0:
331,182,273137,1,0,0:0:0:0:
145,328,273283,2,0,P|214:339|251:335,1,100
59,368,273575,1,0,0:0:0:0:
20,146,273721,6,0,P|18:213|24:264,1,100,6|0,0:0|0:0,0:0:0:0:
74,78,274013,1,0,0:0:0:0:
207,38,274159,2,0,P|166:91|142:136,1,100,2|0,0:0|0:0,0:0:0:0:
290,13,274451,1,0,0:0:0:0:
345,203,274597,6,0,P|420:211|476:207,1,100,8|0,0:0|0:0,0:0:0:0:
239,353,274889,2,0,P|164:345|28:362,1,200
169,233,275327,1,0,0:0:0:0:
62,127,275473,6,0,P|54:184|29:235,1,100,6|0,0:0|0:0,0:0:0:0:
184,29,275765,2,0,P|195:85|225:134,1,100,0|2,0:0|0:2,0:0:0:0:
358,167,276057,2,0,P|346:223|316:272,1,100
332,81,276349,5,12,0:0:0:0:
511,217,276495,1,0,0:0:0:0:
337,88,276641,1,0,0:0:0:0:
352,288,276787,5,0,0:0:0:0:
173,152,276933,1,0,0:0:0:0:
347,281,277079,1,0,0:0:0:0:
190,348,277225,6,0,P|133:341|79:349,1,100,4|0,0:0|0:0,0:0:0:0:
7,183,277517,2,0,P|60:204|114:210,1,100,0|2,0:0|0:0,0:0:0:0:
106,55,277809,2,0,P|155:63|201:82,1,100
242,294,278101,5,10,0:0:0:0:
483,195,278247,1,8,0:0:0:0:
483,195,278320,1,8,0:0:0:0:
483,195,278393,1,8,0:0:0:0:
228,99,278539,5,8,0:0:0:0:
290,384,278685,1,8,0:0:0:0:
235,104,278831,1,8,0:0:0:0:
23,279,278977,5,6,0:0:0:0:
33,235,279050,1,0,0:0:0:0:
30,190,279123,1,0,0:0:0:0:
130,8,279269,1,0,0:0:0:0:
230,190,279415,1,2,0:0:0:0:
337,14,279561,2,0,P|449:22|467:18,1,100
510,183,279853,6,0,P|505:293|506:308,1,100
416,384,280145,1,0,0:0:0:0:
216,320,280291,2,8,P|148:328|84:328,1,100
306,248,280583,1,8,0:0:0:0:
345,58,280729,6,0,L|352:175,2,100,2|0|2,0:0|0:0|0:2,0:0:0:0:
145,36,281167,1,10,0:0:0:0:
231,226,281313,1,8,0:0:0:0:
249,17,281459,1,8,0:0:0:0:
119,280,281605,6,0,P|23:286|-3:280,2,100
63,87,282042,2,0,L|68:194,1,100
20,285,282334,1,0,0:0:0:0:
214,377,282480,5,6,0:0:0:0:
228,371,282555,1,0,0:0:0:0:
242,370,282630,1,0,0:0:0:0:
256,375,282705,1,0,0:0:0:0:
282,337,282780,5,0,0:0:0:0:
296,343,282855,1,0,0:0:0:0:
310,344,282930,1,0,0:0:0:0:
324,339,283005,1,0,0:0:0:0:
353,368,283080,5,2,0:0:0:0:
367,362,283155,1,0,0:0:0:0:
381,361,283230,1,0,0:0:0:0:
395,366,283305,1,0,0:0:0:0:
465,335,283380,5,8,0:0:0:0:
465,335,283455,1,0,0:0:0:0:
465,335,283530,2,0,L|466:280,1,30
381,195,283680,5,2,0:0:0:0:
381,195,283755,1,0,0:0:0:0:
381,195,283830,2,0,L|374:139,1,30
281,334,283980,5,8,0:0:0:0:
255,349,284055,1,0,0:0:0:0:
225,356,284130,1,0,0:0:0:0:
195,349,284205,1,0,0:0:0:0:
176,325,284280,5,2,0:0:0:0:
170,295,284355,1,0,0:0:0:0:
180,266,284430,1,0,0:0:0:0:
203,247,284505,1,0,0:0:0:0:
219,222,284580,1,0,0:0:0:0:
217,192,284655,1,0,0:0:0:0:
200,167,284730,1,0,0:0:0:0:
171,158,284805,1,0,0:0:0:0:
141,162,284880,5,2,0:0:0:0:
119,182,284955,1,0,0:0:0:0:
109,210,285030,1,0,0:0:0:0:
115,239,285105,1,0,0:0:0:0:
134,261,285180,1,8,0:0:0:0:
162,271,285255,1,0,0:0:0:0:
191,268,285330,1,0,0:0:0:0:
214,248,285405,1,0,0:0:0:0:
226,220,285480,5,2,0:0:0:0:
248,199,285555,1,0,0:0:0:0:
277,196,285630,1,0,0:0:0:0:
305,206,285705,1,0,0:0:0:0:
321,230,285780,1,8,0:0:0:0:
182,33,286080,6,0,B|133:53|133:53|16:23,1,160,6|0,0:0|0:0,0:0:0:0:
29,26,286517,5,2,0:0:0:0:
233,113,286663,1,0,0:0:0:0:
21,193,286809,1,0,0:0:0:0:
314,149,286955,5,8,0:0:0:0:
403,374,287101,1,8,0:0:0:0:
389,321,287174,1,8,0:0:0:0:
406,271,287247,1,8,0:0:0:0:
511,117,287393,5,8,0:0:0:0:
510,303,287539,1,2,0:2:0:0:
407,85,287685,1,8,0:0:0:0:
273,371,287831,5,2,0:0:0:0:
32,296,287977,1,0,0:0:0:0:
287,215,288123,1,8,0:0:0:0:
287,215,288269,5,0,0:0:0:0:
130,172,288415,1,8,0:0:0:0:
273,371,288561,1,8,0:0:0:0:
367,171,288707,6,0,B|410:167|410:167|446:174,2,80
214,272,289145,2,0,B|170:275|170:275|134:268,2,80
27,126,289583,5,6,0:0:0:0:
226,189,289729,1,0,0:0:0:0:
43,353,289875,2,0,P|16:354|-12:328,1,40
123,351,290021,1,0,0:0:0:0:
190,323,290131,1,0,0:0:0:0:
235,263,290240,1,0,0:0:0:0:
226,189,290350,1,0,0:0:0:0:
173,136,290459,1,10,0:3:0:0:
166,95,290569,1,0,0:0:0:0:
189,58,290678,1,0,0:0:0:0:
228,53,290788,1,0,0:0:0:0:
261,72,290897,1,0,0:0:0:0:
273,98,291007,1,0,0:0:0:0:
271,127,291116,2,0,L|283:190,1,60
475,372,291335,6,0,B|448:321|448:321|461:216,1,160,6|0,0:0|0:0,0:0:0:0:
512,11,291773,2,0,L|363:18,1,80
355,98,292065,1,0,0:0:0:0:
188,30,292211,5,10,0:0:0:0:
143,46,292320,1,0,0:0:0:0:
109,82,292430,1,0,0:0:0:0:
100,131,292539,1,0,0:0:0:0:
125,190,292649,1,0,0:0:0:0:
198,233,292758,1,0,0:0:0:0:
277,217,292868,1,0,0:0:0:0:
323,141,292977,1,0,0:0:0:0:
319,58,293087,6,0,B|346:49|346:49|395:62,2,80,6|0|0,0:0|0:0|0:0,0:0:0:0:
161,348,293525,2,0,B|134:357|134:357|84:343,2,80
217,106,293963,1,8,0:0:0:0:
276,218,294109,2,0,L|365:225,1,80,2|0,0:2|0:0,0:0:0:0:
14,246,294401,1,8,0:0:0:0:
217,106,294547,1,8,0:0:0:0:
126,334,294693,1,8,0:0:0:0:
391,300,294839,6,0,L|393:353,1,40
385,293,294985,1,0,0:0:0:0:
323,26,295131,1,8,0:0:0:0:
203,273,295277,1,4,0:0:0:0:
209,281,295423,1,0,0:0:0:0:
449,223,295569,5,8,0:0:0:0:
178,115,295715,1,8,0:0:0:0:
184,107,295861,1,0,0:0:0:0:
58,202,296007,5,8,0:0:0:0:
73,384,296152,1,0,0:0:0:0:
189,100,296298,5,8,0:0:0:0:
164,282,296443,1,0,0:0:0:0:
276,27,296590,5,6,0:0:0:0:
300,53,296665,1,0,0:0:0:0:
331,70,296740,1,0,0:0:0:0:
366,76,296815,1,0,0:0:0:0:
401,69,296890,1,0,0:0:0:0:
366,76,296965,1,0,0:0:0:0:
336,95,297040,1,0,0:0:0:0:
313,122,297115,1,0,0:0:0:0:
302,156,297190,1,2,0:0:0:0:
313,122,297265,1,0,0:0:0:0:
308,87,297340,2,0,L|265:83,1,30
125,107,297490,5,8,0:0:0:0:
101,133,297565,1,0,0:0:0:0:
70,150,297640,1,0,0:0:0:0:
35,156,297715,1,0,0:0:0:0:
0,149,297790,1,2,0:0:0:0:
35,156,297865,1,0,0:0:0:0:
65,175,297940,1,0,0:0:0:0:
88,202,298015,1,0,0:0:0:0:
99,236,298090,1,8,0:0:0:0:
88,202,298165,1,0,0:0:0:0:
93,167,298240,2,0,L|135:163,1,30
292,312,298390,5,2,0:0:0:0:
308,273,298465,1,0,0:0:0:0:
337,243,298540,1,0,0:0:0:0:
376,229,298615,1,0,0:0:0:0:
418,224,298690,1,0,0:0:0:0:
376,229,298765,1,0,0:0:0:0:
336,219,298840,1,0,0:0:0:0:
304,192,298915,1,0,0:0:0:0:
279,159,298990,1,2,0:0:0:0:
304,192,299065,1,0,0:0:0:0:
313,232,299140,2,0,L|257:239,1,30
218,384,299290,5,8,0:0:0:0:
170,375,299365,1,0,0:0:0:0:
142,335,299440,2,0,L|130:283,1,30
262,114,299590,5,2,0:0:0:0:
279,159,299665,1,0,0:0:0:0:
258,204,299740,2,0,L|218:240,1,30
0,219,299890,5,0,0:0:0:0:
30,181,299965,1,0,0:0:0:0:
79,177,300040,2,0,L|130:192,1,30
337,265,300190,6,0,B|397:297|409:342|409:342|419:301|449:264,1,160,6|0,0:0|0:0,0:0:0:0:
488,130,300627,1,0,0:0:0:0:
507,302,300773,1,0,0:0:0:0:
337,265,300919,1,0,0:0:0:0:
444,34,301065,5,10,0:2:0:0:
251,52,301211,1,8,0:0:0:0:
240,94,301284,1,8,0:0:0:0:
248,139,301357,1,8,0:0:0:0:
424,200,301503,1,8,0:0:0:0:
142,171,301649,2,0,B|151:211|151:211|140:262,1,80,2|0,0:2|0:0,0:0:0:0:
105,378,301941,5,4,0:0:0:0:
105,378,302014,1,0,0:0:0:0:
105,378,302087,2,0,B|152:370|152:370|195:377,1,80,0|2,0:0|0:0,0:0:0:0:
298,384,302379,1,0,0:0:0:0:
143,247,302525,1,8,0:0:0:0:
401,254,302671,1,8,0:0:0:0:
318,142,302817,6,0,B|275:129|275:129|157:148,1,160,2|2,0:2|0:2,0:0:0:0:
58,303,303255,1,0,0:0:0:0:
23,123,303401,1,0,0:0:0:0:
60,137,303474,1,0,0:0:0:0:
99,135,303547,1,0,0:0:0:0:
361,102,303693,5,6,0:0:0:0:
184,86,303839,1,0,0:0:0:0:
254,244,303985,2,0,L|256:288,2,40
477,187,304277,2,0,L|473:258,1,60
430,329,304481,1,2,0:0:0:0:
344,364,304569,6,0,B|274:384|274:384|185:363|185:363|109:386,1,240,10|2,0:0|0:0,0:0:0:0:
7,248,305153,1,0,0:0:0:0:
73,117,305299,1,2,0:0:0:0:
252,47,305488,6,0,L|180:71,1,60
150,127,305706,1,0,0:0:0:0:
137,197,305816,1,0,0:0:0:0:
156,245,305925,1,0,0:0:0:0:
194,270,306035,1,0,0:0:0:0:
227,279,306148,1,0,0:0:0:0:
248,278,306257,1,0,0:0:0:0:
262,274,306367,6,0,L|375:278,1,110,8|0,0:0|0:0,0:0:0:0:
97,384,306914,2,0,B|75:346|75:346|86:280,1,100
56,23,307197,5,4,0:0:0:0:
34,39,307270,1,0,0:0:0:0:
24,65,307342,1,0,0:0:0:0:
28,92,307415,1,0,0:0:0:0:
46,112,307488,1,0,0:0:0:0:
73,117,307561,1,0,0:0:0:0:
114,101,307634,1,2,0:0:0:0:
169,110,307707,1,0,0:0:0:0:
211,167,307780,1,0,0:0:0:0:
196,247,307853,1,0,0:0:0:0:
119,300,307926,2,0,L|190:306,1,50,8|0,0:0|0:0,0:0:0:0:
312,367,308072,5,8,0:0:0:0:
391,368,308145,1,0,0:0:0:0:
447,326,308218,1,8,0:0:0:0:
465,271,308291,1,0,0:0:0:0:
461,234,308364,1,0,0:0:0:0:
451,207,308437,1,0,0:0:0:0:
431,186,308510,2,0,L|507:193,1,50,8|0,0:0|0:0,0:0:0:0:
350,35,308656,2,0,L|426:28,1,50,8|0,0:0|0:0,0:0:0:0:
255,113,308802,2,0,L|331:120,1,50,8|0,0:0|0:0,0:0:0:0:
169,25,308948,5,0,0:0:0:0:
91,35,309021,1,0,0:0:0:0:
43,91,309094,1,0,0:0:0:0:
38,140,309167,1,0,0:0:0:0:
52,176,309240,1,2,0:0:0:0:
81,193,309313,1,0,0:0:0:0:
115,194,309386,1,8,0:0:0:0:
148,182,309459,1,0,0:0:0:0:
181,190,309532,1,0,0:0:0:0:
202,217,309605,1,0,0:0:0:0:
208,251,309678,1,0,0:0:0:0:
192,282,309751,1,0,0:0:0:0:
159,294,309824,6,0,L|99:301,1,50,10|0,0:0|0:0,0:0:0:0:
275,362,309970,2,0,L|215:355,1,50
375,277,310116,2,0,L|315:284,1,50
500,349,310262,2,0,L|450:343,1,50
512,82,310408,5,0,0:0:0:0:
450,124,310481,1,0,0:0:0:0:
375,126,310554,2,0,L|287:113,1,50,8|0,0:0|0:0,0:0:0:0:
131,29,310700,6,0,L|151:57,3,30,6|0|0|0,0:0|0:0|0:0|0:0,0:0:0:0:
259,5,311000,2,0,L|224:8,3,30
210,125,311300,2,0,L|224:93,3,30,2|0|0|0,0:0|0:0|0:0|0:0,0:0:0:0:
26,94,311600,5,8,0:0:0:0:
28,117,311675,1,0,0:0:0:0:
26,140,311750,1,0,0:0:0:0:
20,163,311825,1,0,0:0:0:0:
52,190,311900,5,2,0:0:0:0:
49,209,311975,1,0,0:0:0:0:
50,230,312050,1,0,0:0:0:0:
54,252,312125,1,0,0:0:0:0:
20,289,312200,6,0,L|21:322,3,30,8|0|0|0,0:0|0:0|0:0|0:0,0:0:0:0:
120,348,312500,5,2,0:0:0:0:
159,365,312575,1,0,0:0:0:0:
200,365,312650,1,0,0:0:0:0:
238,348,312725,1,0,0:0:0:0:
244,308,312800,5,2,0:0:0:0:
283,291,312875,1,0,0:0:0:0:
324,291,312950,1,0,0:0:0:0:
363,308,313025,1,0,0:0:0:0:
367,351,313100,6,0,L|411:356,3,30,2|0|0|0,0:0|0:0|0:0|0:0,0:0:0:0:
512,184,313400,5,8,0:0:0:0:
476,246,313475,1,0,0:0:0:0:
407,268,313550,1,0,0:0:0:0:
339,240,313625,1,0,0:0:0:0:
313,174,313700,5,0,0:0:0:0:
263,120,313775,1,0,0:0:0:0:
191,125,313850,1,0,0:0:0:0:
138,174,313925,1,0,0:0:0:0:
126,245,314000,1,0,0:0:0:0:
166,14,314300,6,0,L|76:22,1,80,6|0,0:0|0:0,0:0:0:0:
0,71,314591,1,2,0:2:0:0:
135,289,314737,1,8,0:0:0:0:
233,52,314883,1,8,0:0:0:0:
29,207,315029,1,8,0:0:0:0:
286,187,315175,5,8,0:0:0:0:
286,187,315321,1,0,0:0:0:0:
388,367,315467,1,8,0:0:0:0:
376,309,315540,1,0,0:0:0:0:
395,252,315613,1,8,0:0:0:0:
487,57,315759,1,8,0:0:0:0:
511,278,315905,1,8,0:0:0:0:
264,363,316051,6,0,B|228:375|169:373,1,80,4|0,0:0|0:0,0:0:0:0:
11,332,316343,1,2,0:2:0:0:
94,97,316489,5,0,0:0:0:0:
95,104,316562,1,0,0:0:0:0:
96,111,316635,1,0,0:0:0:0:
97,118,316708,1,0,0:0:0:0:
98,125,316781,1,0,0:0:0:0:
99,132,316854,1,0,0:0:0:0:
136,162,316927,5,8,0:0:0:0:
137,169,317000,1,0,0:0:0:0:
138,176,317073,1,0,0:0:0:0:
139,183,317146,1,0,0:0:0:0:
140,190,317219,1,0,0:0:0:0:
141,197,317292,1,0,0:0:0:0:
112,231,317365,5,8,0:0:0:0:
113,238,317438,1,0,0:0:0:0:
114,245,317511,1,0,0:0:0:0:
115,252,317584,1,0,0:0:0:0:
116,259,317657,1,0,0:0:0:0:
324,353,317803,6,0,B|293:344|238:354,1,80
403,266,318095,1,0,0:0:0:0:
404,259,318168,1,0,0:0:0:0:
405,252,318241,1,0,0:0:0:0:
406,245,318314,1,0,0:0:0:0:
407,238,318387,1,0,0:0:0:0:
408,231,318460,1,0,0:0:0:0:
409,225,318533,1,0,0:0:0:0:
410,218,318606,1,0,0:0:0:0:
448,179,318679,5,0,0:0:0:0:
420,183,318752,1,0,0:0:0:0:
392,179,318825,1,0,0:0:0:0:
370,161,318898,1,0,0:0:0:0:
387,132,318971,5,8,0:0:0:0:
388,125,319044,1,0,0:0:0:0:
434,99,319117,5,0,0:0:0:0:
419,79,319190,1,0,0:0:0:0:
399,65,319263,1,0,0:0:0:0:
375,58,319336,1,0,0:0:0:0:
351,59,319409,1,0,0:0:0:0:
328,67,319482,1,0,0:0:0:0:
310,83,319555,2,0,B|267:93|208:71,1,80,2|0,0:0|0:0,0:0:0:0:
62,29,319847,5,0,0:0:0:0:
88,246,319993,1,2,0:2:0:0:
151,143,320139,5,8,0:0:0:0:
125,360,320285,1,2,0:2:0:0:
341,321,320431,6,0,B|307:312|250:325,1,80
448,180,320723,5,0,0:0:0:0:
425,351,320869,1,2,0:0:0:0:
344,59,321015,5,0,0:0:0:0:
356,224,321161,1,2,0:2:0:0:
186,21,321307,5,6,0:0:0:0:
212,62,321380,1,0,0:0:0:0:
222,116,321453,1,0,0:0:0:0:
229,277,321599,1,0,0:0:0:0:
398,251,321745,2,0,B|362:242|362:242|301:253,1,80,0|2,0:0|0:2,0:0:0:0:
64,339,322037,1,8,0:0:0:0:
92,198,322183,6,0,B|95:169|85:108,1,80,2|2,0:2|0:0,0:0:0:0:
352,30,322475,1,8,0:0:0:0:
86,118,322621,1,8,0:0:0:0:
247,330,322767,2,0,P|295:340|335:331,1,80,8|8,0:0|0:0,0:0:0:0:
511,249,323059,5,2,0:2:0:0:
434,58,323205,2,0,L|489:62,1,40
434,58,323351,1,8,0:0:0:0:
349,194,323497,1,0,0:0:0:0:
274,13,323643,2,8,L|185:20,1,80
19,90,323935,5,10,0:2:0:0:
55,107,324008,1,0,0:0:0:0:
79,138,324081,1,8,0:0:0:0:
82,177,324154,1,8,0:0:0:0:
69,214,324227,1,8,0:0:0:0:
38,240,324300,1,8,0:0:0:0:
1,252,324372,5,8,0:0:0:0:
37,268,324445,1,0,0:0:0:0:
76,273,324518,1,8,0:0:0:0:
115,271,324591,1,8,0:0:0:0:
151,255,324664,2,8,L|139:314,1,40
357,348,324810,6,0,L|311:362,3,30,6|0|0|0,0:0|0:0|0:0|0:0,0:0:0:0:
350,243,325110,2,0,L|360:196,3,30
447,291,325410,2,0,L|482:323,3,30,2|0|0|0,0:0|0:0|0:0|0:0,0:0:0:0:
482,68,325710,5,8,0:0:0:0:
464,70,325785,1,0,0:0:0:0:
446,72,325860,1,0,0:0:0:0:
428,74,325935,1,0,0:0:0:0:
411,46,326010,5,2,0:2:0:0:
393,44,326085,1,0,0:0:0:0:
375,42,326160,1,0,0:0:0:0:
357,40,326235,1,0,0:0:0:0:
335,79,326310,5,8,0:0:0:0:
317,81,326385,1,0,0:0:0:0:
299,83,326460,1,0,0:0:0:0:
281,85,326535,1,0,0:0:0:0:
247,46,326610,6,0,L|198:39,3,30,2|0|0|0,0:0|0:0|0:0|0:0,0:0:0:0:
157,163,326910,2,0,L|187:124,3,30
97,26,327210,2,0,L|115:71,3,30,2|0|0|0,0:0|0:0|0:0|0:0,0:0:0:0:
0,263,327510,5,8,0:0:0:0:
18,265,327585,1,0,0:0:0:0:
36,267,327660,1,0,0:0:0:0:
54,269,327735,1,0,0:0:0:0:
71,241,327810,5,2,0:0:0:0:
89,239,327885,1,0,0:0:0:0:
107,237,327960,1,0,0:0:0:0:
125,235,328035,1,0,0:0:0:0:
147,274,328110,5,8,0:0:0:0:
165,276,328185,1,0,0:0:0:0:
183,278,328260,1,0,0:0:0:0:
201,280,328335,1,0,0:0:0:0:
240,249,328410,6,0,B|255:285|255:285|241:338,2,80,6|0|0,0:0|0:0|0:0,0:0:0:0:
115,131,328847,1,2,0:0:0:0:
282,75,328993,1,0,0:0:0:0:
240,249,329139,1,0,0:0:0:0:
480,214,329285,6,0,P|436:207|392:211,1,80,10|8,0:0|0:0,0:0:0:0:
388,215,329504,1,8,0:0:0:0:
388,215,329577,1,8,0:0:0:0:
242,358,329723,5,0,0:0:0:0:
127,328,329869,1,0,0:0:0:0:
96,217,330015,1,0,0:0:0:0:
345,82,330161,5,8,0:0:0:0:
345,82,330307,2,0,B|356:54|356:54|343:-10,1,80
103,34,330599,2,0,B|131:45|131:45|180:35,2,80
167,198,331037,2,0,B|156:226|156:226|169:290,2,80
409,246,331475,2,0,B|381:235|381:235|331:244,2,80
256,355,331913,5,4,0:0:0:0:
256,355,332059,2,0,L|141:363,1,80,0|2,0:0|0:0,0:0:0:0:
30,254,332351,2,0,B|16:224|16:224|29:163,1,80,0|2,0:0|0:0,0:0:0:0:
76,64,332643,1,2,0:0:0:0:
363,95,332789,6,0,L|262:102,1,80,8|2,0:0|0:0,0:0:0:0:
80,68,333081,1,0,0:0:0:0:
356,101,333227,2,0,L|276:106,1,80,2|0,0:0|0:0,0:0:0:0:
84,76,333519,1,0,0:0:0:0:
426,48,333665,5,4,0:0:0:0:
426,48,333811,2,0,B|440:89|440:89|434:140,1,80,0|2,0:0|0:0,0:0:0:0:
363,285,334103,2,0,L|464:293,1,80,0|2,0:0|0:0,0:0:0:0:
277,336,334395,1,2,0:0:0:0:
212,86,334541,6,0,L|220:177,1,80,8|2,0:0|0:0,0:0:0:0:
279,342,334833,1,0,0:0:0:0:
216,93,334979,2,0,L|224:184,1,80,2|0,0:0|0:0,0:0:0:0:
282,348,335271,1,0,0:0:0:0:
13,279,335417,5,6,0:0:0:0:
57,282,335490,1,0,0:0:0:0:
99,295,335563,1,0,0:0:0:0:
286,365,335709,1,0,0:0:0:0:
425,242,335855,2,0,L|421:306,1,40,2|0,0:2|0:0,0:0:0:0:
426,227,336001,1,0,0:0:0:0:
295,102,336147,1,2,0:2:0:0:
505,62,336293,6,0,P|453:55|414:59,1,80,8|2,0:0|0:2,0:0:0:0:
152,199,336585,2,0,P|204:206|243:202,1,80,8|2,0:0|0:2,0:0:0:0:
512,355,336877,2,0,P|460:362|421:358,1,80,8|2,0:0|0:2,0:0:0:0:
167,361,337169,5,8,0:0:0:0:
166,346,337315,1,0,0:0:0:0:
0,201,337461,5,8,0:0:0:0:
1,216,337607,1,2,0:2:0:0:
222,129,337753,5,8,0:0:0:0:
2,230,337899,1,10,0:2:0:0:
270,336,338045,5,10,0:2:0:0:
187,42,338191,1,10,0:2:0:0:
67,323,338337,1,10,0:2:0:0:
84,51,338482,5,10,0:2:0:0:
166,346,338628,1,10,0:2:0:0:
286,64,338774,1,10,0:2:0:0:
471,264,338920,6,0,L|475:217,3,30,6|0|0|0,0:0|0:0|0:0|0:0,0:0:0:0:
376,215,339220,2,0,L|371:168,3,30
287,257,339520,2,0,L|274:211,3,30,2|0|0|0,0:0|0:0|0:0|0:0,0:0:0:0:
206,375,339820,5,8,0:0:0:0:
196,367,339895,1,0,0:0:0:0:
184,362,339970,1,0,0:0:0:0:
172,359,340045,1,0,0:0:0:0:
160,357,340120,1,2,0:0:0:0:
148,356,340195,1,0,0:0:0:0:
136,357,340270,1,0,0:0:0:0:
125,362,340345,1,0,0:0:0:0:
74,383,340420,5,8,0:0:0:0:
74,371,340495,1,0,0:0:0:0:
74,359,340570,1,0,0:0:0:0:
74,347,340645,1,0,0:0:0:0:
44,312,340720,5,2,0:0:0:0:
44,300,340795,1,0,0:0:0:0:
44,288,340870,1,0,0:0:0:0:
44,276,340945,1,0,0:0:0:0:
73,245,341020,5,0,0:0:0:0:
73,233,341095,1,0,0:0:0:0:
73,221,341170,1,0,0:0:0:0:
73,209,341245,1,0,0:0:0:0:
40,184,341320,6,0,L|39:137,3,30,2|0|0|0,0:0|0:0|0:0|0:0,0:0:0:0:
126,52,341620,6,0,L|134:5,3,30,8|0|0|0,0:0|0:0|0:0|0:0,0:0:0:0:
230,31,341920,2,0,L|246:-12,3,30,2|0|0|0,0:0|0:0|0:0|0:0,0:0:0:0:
304,95,342220,2,0,L|328:55,3,30
412,368,342520,5,6,0:0:0:0:
420,322,342592,1,0,0:0:0:0:
414,273,342665,1,0,0:0:0:0:
304,95,342811,1,0,0:0:0:0:
265,292,342957,2,0,L|169:304,2,80
506,157,343395,5,10,0:0:0:0:
378,178,343541,1,0,0:0:0:0:
456,288,343687,1,0,0:0:0:0:
426,51,343833,2,0,P|486:47|518:37,2,80,2|0|0,0:0|0:0|0:0,0:0:0:0:
247,23,344271,5,2,0:0:0:0:
192,14,344344,1,0,0:0:0:0:
141,30,344417,1,0,0:0:0:0:
40,227,344563,1,0,0:0:0:0:
237,126,344709,1,0,0:0:0:0:
16,111,344855,1,0,0:0:0:0:
167,249,345001,1,0,0:0:0:0:
295,64,345147,6,0,P|353:74|383:70,1,80,8|0,0:0|0:0,0:0:0:0:
481,47,345439,1,0,0:0:0:0:
502,217,345585,2,0,P|444:207|414:211,1,80
307,233,345877,1,0,0:0:0:0:
148,315,346023,5,6,0:0:0:0:
186,338,346096,1,0,0:0:0:0:
232,346,346169,1,0,0:0:0:0:
396,198,346315,1,0,0:0:0:0:
210,211,346461,1,2,0:2:0:0:
377,315,346607,1,0,0:0:0:0:
292,132,346753,1,0,0:0:0:0:
187,384,346899,5,10,0:2:0:0:
60,205,347045,2,0,P|53:162|66:117,1,80,8|0,0:0|0:0,0:0:0:0:
136,317,347337,1,8,0:0:0:0:
136,317,347483,1,0,0:0:0:0:
286,132,347629,1,8,0:0:0:0:
463,350,347775,6,0,B|433:363|433:363|381:355,1,80,4|8,0:0|0:0,0:0:0:0:
137,305,348067,1,8,0:0:0:0:
414,228,348213,2,0,L|422:136,1,80,8|0,0:0|0:0,0:0:0:0:
197,17,348505,1,8,0:0:0:0:
414,228,348651,5,8,0:0:0:0:
137,305,348797,2,0,B|107:294|107:294|41:308,1,80,8|0,0:0|0:0,0:0:0:0:
79,85,349089,2,0,L|70:179,1,80,8|0,0:0|0:0,0:0:0:0:
100,384,349381,1,8,0:0:0:0:
320,362,349527,5,6,0:0:0:0:
351,355,349600,1,0,0:0:0:0:
383,360,349673,1,0,0:0:0:0:
500,378,349819,1,0,0:0:0:0:
469,264,349965,2,0,B|465:225|465:225|478:181,2,64,2|0|0,0:2|0:0|0:0,0:0:0:0:
362,172,350403,5,8,0:0:0:0:
512,75,350549,2,0,P|465:76|426:68,1,64,8|0,0:0|0:0,0:0:0:0:
272,14,350841,2,0,P|279:57|272:103,1,64,8|0,0:0|0:0,0:0:0:0:
192,231,351133,1,8,0:0:0:0:
137,22,351279,5,6,0:0:0:0:
110,24,351352,1,0,0:0:0:0:
82,31,351425,1,0,0:0:0:0:
0,122,351571,1,0,0:0:0:0:
36,241,351717,2,0,B|47:274|47:274|29:327,2,64,2|0|0,0:2|0:0|0:0,0:0:0:0:
278,351,352155,1,8,0:0:0:0:
269,342,352228,1,0,0:0:0:0:
258,336,352301,1,0,0:0:0:0:
246,333,352374,1,0,0:0:0:0:
234,333,352447,1,0,0:0:0:0:
222,337,352520,1,0,0:0:0:0:
213,345,352592,2,0,L|165:355,5,32
56,246,353030,6,0,L|58:288,3,30,6|0|0|0,0:0|0:0|0:0|0:0,0:0:0:0:
106,194,353330,2,0,L|104:236,3,30
60,142,353630,2,0,L|62:184,3,30,2|0|0|0,0:0|0:0|0:0|0:0,0:0:0:0:
224,118,353930,6,0,L|222:160,3,30,8|0|0|0,0:0|0:0|0:0|0:0,0:0:0:0:
174,66,354230,2,0,L|176:108,3,30,2|0|0|0,0:0|0:0|0:0|0:0,0:0:0:0:
220,14,354530,2,0,L|218:56,3,30,8|0|0|0,0:0|0:0|0:0|0:0,0:0:0:0:
321,80,354830,5,2,0:0:0:0:
330,80,354905,1,0,0:0:0:0:
339,80,354980,1,0,0:0:0:0:
347,79,355055,1,0,0:0:0:0:
380,106,355130,5,0,0:0:0:0:
389,106,355205,1,0,0:0:0:0:
398,106,355280,1,0,0:0:0:0:
406,105,355355,1,0,0:0:0:0:
430,71,355430,6,0,L|460:69,3,30,2|0|0|0,0:0|0:0|0:0|0:0,0:0:0:0:
512,208,355730,6,0,L|510:166,3,30,8|0|0|0,0:0|0:0|0:0|0:0,0:0:0:0:
462,260,356030,2,0,L|464:218,3,30,2|0|0|0,0:0|0:0|0:0|0:0,0:0:0:0:
508,312,356330,2,0,L|506:270,3,30,8|0|0|0,0:0|0:0|0:0|0:0,0:0:0:0:
344,365,356630,6,4,B|320:371|320:371|287:363,2,47.9999985351563,6|0|0,0:0|0:0|0:0,0:0:0:0:
462,260,357067,2,0,L|457:194,1,47.9999985351563,2|0,0:2|0:0,0:0:0:0:
487,104,357359,1,0,0:0:0:0:
394,38,357505,6,8,P|363:44|330:42,1,47.9999985351563
330,42,357724,1,8,0:0:0:0:
330,42,357797,1,8,0:0:0:0:
196,6,357943,2,0,L|203:66,2,47.9999985351563,8|2|0,0:0|0:2|0:0,0:0:0:0:
87,146,358381,6,0,B|65:141|65:141|40:146,2,47.9999985351563,2|0|2,0:0|0:0|0:0,0:0:0:0:
206,206,358819,2,0,L|201:265,1,47.9999985351563
146,347,359111,1,0,0:0:0:0:
266,344,359257,6,0,P|299:339|332:349,2,47.9999985351563,2|0|2,0:0|0:0|0:0,0:0:0:0:
440,291,359695,2,0,P|407:286|374:296,2,47.9999985351563
500,94,360133,6,0,B|497:116|497:116|503:144,2,40,4|0|0,0:0|0:0|0:0,0:0:0:0:
512,8,360571,2,0,L|465:13,1,40
375,52,360863,1,2,0:2:0:0:
257,8,361009,1,8,0:0:0:0:
257,8,361155,2,0,L|264:59,1,40
132,54,361447,2,0,L|127:104,1,40,8|0,0:0|0:0,0:0:0:0:
148,188,361739,1,0,0:0:0:0:
17,232,361885,6,0,B|41:229|41:229|66:233,2,40,2|0|2,0:2|0:0|0:2,0:0:0:0:
167,270,362323,2,0,L|161:323,1,40,0|2,0:0|0:2,0:0:0:0:
223,373,362615,1,0,0:0:0:0:
349,338,362761,6,0,L|318:343,1,23.9999992675781,10|2,0:2|0:2,0:0:0:0:
361,336,363053,1,2,0:2:0:0:
404,237,363199,2,0,L|374:241,1,23.9999992675781,2|2,0:2|0:2,0:0:0:0:
416,235,363491,1,2,0:2:0:0:
399,152,363637,1,6,0:0:0:0:
256,192,363710,12,0,370440,3:0:0:0:
