osu file format v14

[General]
AudioFilename: audio.mp3
AudioLeadIn: 0
PreviewTime: 51699
Countdown: 0
SampleSet: Soft
StackLeniency: 0.6
Mode: 0
LetterboxInBreaks: 0
EpilepsyWarning: 1
WidescreenStoryboard: 1

[Editor]
DistanceSpacing: 0.3
BeatDivisor: 8
GridSize: 32
TimelineZoom: 2.699999

[Metadata]
Title:CUFF IT
TitleUnicode:CUFF IT
Artist:Beyonce
ArtistUnicode:Beyoncé
Creator:DeviousPanda
Version:stz's Hard
Source:
Tags:RENAISSANCE funk r&b soul english pop asphyxia stz urghi stzur venerablenyanta mrekk grandmaster cup mgc semifinals sf dt4 double time
BeatmapID:4337396
BeatmapSetID:2072150

[Difficulty]
HPDrainRate:4
CircleSize:3.5
OverallDifficulty:6
ApproachRate:8
SliderMultiplier:2.2
SliderTickRate:1

[Events]
//Background and Video events
0,0,"pbg.png",0,0
//Break Periods
2,184796,199924
//Storyboard Layer 0 (Background)
//Storyboard Layer 1 (Fail)
//Storyboard Layer 2 (Pass)
//Storyboard Layer 3 (Foreground)
//Storyboard Layer 4 (Overlay)
//Storyboard Sound Samples

[TimingPoints]
614,588.235294117647,4,2,1,40,1,0
761,530.973451327434,4,2,1,40,1,0
1159,530.973451327434,4,2,1,40,1,0
1689,493.827160493827,4,2,1,40,1,0
2182,524.017467248908,4,2,1,40,1,0
2706,521.739130434783,4,2,1,40,1,0
2706,-111.111111111111,4,2,1,40,0,0
18358,-100,4,2,1,40,0,0
19401,-100,4,2,1,50,0,0
26314,-111.111111111111,4,2,1,35,0,0
26706,-100,4,2,1,50,0,0
35053,-100,4,2,1,40,0,0
36097,-111.111111111111,4,2,1,40,0,0
41314,-100,4,2,1,40,0,0
42358,-111.111111111111,4,2,1,40,0,0
47575,-100,4,2,1,55,0,0
50706,-111.111111111111,4,2,1,55,0,0
51749,-100,4,2,1,55,0,0
52532,-90.9090909090909,4,2,1,55,0,0
52792,-83.3333333333333,4,2,1,70,0,1
67401,-111.111111111111,4,2,1,45,0,0
77836,-100,4,2,1,50,0,0
94532,-100,4,2,1,60,0,0
99619,-100,4,2,1,35,0,0
99749,535.714285714286,4,2,1,35,1,0
100016,652.173913043478,4,2,1,35,1,0
100342,468.75,4,2,1,35,1,0
100576,521.739130434783,4,2,1,35,1,0
101097,413.793103448276,4,2,1,35,1,0
101303,504.201680672269,4,2,1,35,1,0
101807,521.739130434783,4,2,1,20,1,0
102852,521.739130434783,4,2,1,40,1,0
117982,555.555555555556,4,2,1,40,1,0
118537,600,4,2,1,40,1,0
118687,499.583680266445,4,2,1,40,1,0
119061,606.060606060606,4,2,1,40,1,0
119212,504.201680672269,4,2,1,40,1,0
119299,-90.9090909090909,4,2,1,40,0,0
119548,521.739130434783,4,2,1,70,1,0
119548,-83.3333333333333,4,2,1,70,0,1
134156,-100,4,2,1,45,0,0
136243,-111.111111111111,4,2,1,50,0,0
144591,-100,4,2,1,60,0,0
152417,-100,4,2,1,70,0,0
153199,-100,4,2,1,60,0,0
161286,-100,4,2,1,40,0,0
163895,545.454545454546,4,2,1,40,1,0
164440,548.822318774297,4,2,1,60,1,0
164440,-100,4,2,1,60,0,0
164988,521.739130434783,4,2,1,60,1,0
165473,-100,4,2,1,30,0,0
166256,-100,4,2,1,50,0,0
166778,-100,4,2,1,30,0,0
166814,461.538461538462,4,2,1,30,1,0
166814,-100,4,2,1,30,0,0
167044,503.14465408805,4,2,1,70,1,0
167044,-100,4,2,1,70,0,0
167421,-100,4,2,1,30,0,0
167547,521.739130434783,4,2,1,80,1,1
167547,-83.3333333333333,4,2,1,80,0,1
168590,-100,4,2,1,80,0,1
169111,-90.9090909090909,4,2,1,80,0,1
169633,-83.3333333333333,4,2,1,80,0,1
171720,-90.9090909090909,4,2,1,80,0,1
173807,-83.3333333333333,4,2,1,80,0,1
175894,-90.9090909090909,4,2,1,80,0,1
179807,-100,4,2,1,80,0,1
180068,-90.9090909090909,4,2,1,90,0,1
183720,555.555555555556,4,2,1,90,1,1
183812,-100,4,2,1,5,0,1
183997,-100,4,2,1,90,0,1
184275,521.739130434783,4,2,1,40,1,0
184275,-90.9090909090909,4,2,1,40,0,0
187405,500,4,2,1,40,1,0
187905,521.739130434783,4,2,1,40,1,0
188948,535.714285714286,4,2,1,40,1,0
189483,500,4,2,1,40,1,0
189983,571.428571428571,4,2,1,40,1,0
190268,521.739130434783,4,2,1,40,1,0
190528,519.480519480519,4,2,1,40,1,0
192346,550.45871559633,4,2,1,40,1,0
192621,535.714285714286,4,2,1,40,1,0
193692,500,4,2,1,40,1,0
194192,515.021459227468,4,2,1,40,1,0
195222,521.739130434783,4,2,1,40,1,0
196265,558.139534883721,4,2,1,40,1,0
196823,461.538461538462,4,2,1,40,1,0
197284,524.017467248908,4,2,1,40,1,0
198332,535.714285714286,4,2,1,40,1,0
199403,521.739130434783,4,2,1,40,1,0
199908,-90.9090909090909,4,2,1,30,0,0
200968,521.739130434783,4,2,1,30,1,0
217663,-100,4,2,1,25,0,0
224707,550.45871559633,4,2,1,15,1,0
225257,521.739130434783,4,2,1,15,1,0

[Colours]
Combo1 : 228,206,253
Combo2 : 182,153,242
Combo3 : 175,137,197
Combo4 : 255,149,171
Combo5 : 211,81,108
Combo6 : 187,26,62
Combo7 : 255,226,116
Combo8 : 235,182,57

[HitObjects]
87,190,614,5,8,0:1:0:0:
87,190,761,1,8,0:1:0:0:
14,98,1159,1,8,0:1:0:0:
14,98,1291,1,8,0:1:0:0:
110,31,2182,1,8,0:1:0:0:
110,31,2313,1,8,0:1:0:0:
175,118,2706,6,0,P|167:173|163:248,1,98.9999969787599,6|0,1:2|3:0,0:0:0:0:
224,301,3227,1,8,3:1:0:0:
107,345,3488,2,0,B|142:349|129:370|181:374,1,49.4999984893799,0|0,3:0|0:0,0:0:0:0:
151,368,3749,1,2,1:2:0:0:
265,381,4010,1,0,3:0:0:0:
335,289,4271,1,8,3:1:0:0:
288,185,4532,1,2,3:2:0:0:
276,172,4662,1,0,3:0:0:0:
278,155,4792,86,0,P|334:150|387:153,1,98.9999969787599,0|0,1:0|3:0,0:0:0:0:
459,219,5314,1,8,3:1:0:0:
363,288,5575,2,0,B|272:263|291:298|193:302,1,148.49999546814,2|0,3:2|0:0,0:0:0:0:
218,300,6097,1,2,3:2:0:0:
149,198,6358,1,8,3:1:0:0:
60,262,6619,1,4,3:0:0:0:
123,350,6879,6,0,P|135:301|144:238,1,98.9999969787599,6|0,1:2|3:0,0:0:0:0:
68,154,7401,2,0,B|58:130|58:130|76:100,1,49.4999984893799,8|0,3:1|0:0,0:0:0:0:
75,76,7662,2,0,B|206:51|168:114|283:137,1,197.99999395752,0|0,3:0|3:0,0:0:0:0:
377,86,8445,1,8,3:1:0:0:
366,99,8575,1,2,0:0:0:0:
370,115,8706,1,2,3:2:0:0:
443,212,8966,5,0,1:0:0:0:
453,232,9097,2,0,P|420:248|395:261,1,49.4999984893799,2|0,3:2|0:0,0:0:0:0:
396,277,9358,2,0,P|322:315|280:344,1,98.9999969787599,2|2,3:2|3:2,0:0:0:0:
202,270,9879,1,0,3:0:0:0:
192,285,10010,2,0,P|164:316|152:332,1,49.4999984893799,0|0,1:0|0:0,0:0:0:0:
161,333,10271,1,0,3:0:0:0:
55,281,10532,1,8,0:1:0:0:
44,184,10792,1,2,3:2:0:0:
109,87,11053,86,0,P|181:72|221:54,1,98.9999969787599,6|0,1:2|3:0,0:0:0:0:
306,13,11575,1,8,3:1:0:0:
379,99,11836,1,0,3:0:0:0:
285,175,12097,2,0,P|216:213|185:312,1,148.49999546814,6|0,1:2|0:0,0:0:0:0:
171,288,12619,1,8,3:1:0:0:
248,368,12879,1,2,3:2:0:0:
337,295,13140,6,2,P|363:281|391:267,1,49.4999984893799,4|0,1:3|0:0,0:0:0:0:
390,247,13401,2,0,P|418:252|461:263,1,49.4999984893799,0|0,3:0|0:0,0:0:0:0:
452,246,13662,2,0,P|486:291|506:345,1,98.9999969787599,8|0,2:1|3:0,0:0:0:0:
410,382,14184,1,2,1:2:0:0:
333,282,14445,1,2,3:2:0:0:
386,197,14706,1,8,3:1:0:0:
469,181,14966,1,0,3:0:0:0:
463,76,15227,6,0,P|406:88|334:102,1,98.9999969787599,6|2,1:2|3:2,0:0:0:0:
232,61,15749,2,0,B|204:63|204:63|178:44,1,49.4999984893799,8|2,3:1|3:2,0:0:0:0:
154,9,16010,2,0,P|106:73|94:211,1,197.99999395752,2|2,3:2|3:2,0:0:0:0:
140,315,16792,1,8,3:1:0:0:
130,329,16923,1,0,0:0:0:0:
113,327,17053,1,2,3:2:0:0:
3,381,17314,85,0,1:0:0:0:
11,366,17445,2,0,P|8:328|7:301,1,49.4999984893799,0|2,3:0|3:2,0:0:0:0:
26,284,17706,2,0,P|30:220|36:166,1,98.9999969787599,2|2,3:2|3:2,0:0:0:0:
95,64,18227,1,0,3:0:0:0:
122,28,18358,2,0,B|208:27|157:62|236:83,1,110,6|0,1:2|3:0,0:0:0:0:
234,115,18749,1,0,3:0:0:0:
220,118,18879,1,8,3:1:0:0:
268,230,19140,6,0,P|213:285|151:408,1,165,2|0,3:2|0:0,0:0:0:0:
140,367,19662,2,0,P|167:307|186:245,1,110,0|8,3:0|3:1,0:0:0:0:
141,132,20184,1,0,0:0:0:0:
158,142,20314,1,2,0:0:0:0:
176,152,20445,2,0,B|241:135|207:117|318:103,1,110,4|2,1:3|3:2,0:0:0:0:
293,120,20836,1,0,3:0:0:0:
287,137,20966,1,8,3:1:0:0:
396,115,21227,6,0,P|449:177|489:289,1,165,2|0,3:2|0:0,0:0:0:0:
467,296,21749,2,0,P|445:224|442:176,1,110,2|8,3:2|3:1,0:0:0:0:
490,75,22271,1,0,3:0:0:0:
496,59,22401,1,0,0:0:0:0:
503,44,22532,2,0,B|433:31|451:53|374:43,1,110,2|2,1:2|3:2,0:0:0:0:
387,29,22923,1,2,0:0:0:0:
399,23,23053,1,8,3:1:0:0:
287,1,23314,86,0,P|211:26|113:92,1,165,2|0,3:2|0:0,0:0:0:0:
123,60,23836,2,0,P|105:133|92:205,1,110,0|8,3:0|3:1,0:0:0:0:
149,286,24358,1,0,3:0:0:0:
130,307,24488,1,2,3:2:0:0:
108,301,24619,1,4,1:3:0:0:
115,284,26314,6,0,P|139:294|170:309,2,49.4999984893799,2|2|2,0:0|0:0|0:0,0:0:0:0:
55,305,26706,2,0,P|51:273|48:244,1,55,2|0,1:2|0:0,0:0:0:0:
28,225,26966,2,0,P|32:186|35:156,1,55,2|0,3:2|0:0,0:0:0:0:
68,86,27227,2,0,P|101:67|131:47,1,55,8|0,3:1|0:0,0:0:0:0:
177,5,27488,1,0,0:0:0:0:
313,67,27749,6,0,P|373:113|447:256,1,220,6|8,1:2|3:1,0:0:0:0:
433,342,28532,1,2,3:2:0:0:
315,287,28792,2,0,B|211:260|244:324|151:361,1,165,6|0,1:2|0:0,0:0:0:0:
181,338,29314,1,8,3:1:0:0:
69,283,29575,2,0,P|67:240|69:215,1,55,0|2,3:0|3:2,0:0:0:0:
91,180,29836,86,0,P|90:117|79:7,1,165,6|0,1:2|0:0,0:0:0:0:
64,24,30358,1,8,3:1:0:0:
166,87,30619,2,0,B|233:73|227:133|284:146,1,110,0|2,0:0|1:2,0:0:0:0:
315,222,31140,1,2,3:2:0:0:
302,244,31271,1,0,3:0:0:0:
283,241,31401,2,0,P|291:305|288:356,1,110,8|0,3:1|0:0,0:0:0:0:
414,293,31923,6,0,P|428:199|423:97,1,165,6|0,1:2|0:0,0:0:0:0:
429,102,32445,2,0,B|349:79|382:129|280:142,1,110,8|2,3:1|3:2,0:0:0:0:
313,136,32836,1,2,0:0:0:0:
303,122,32966,1,4,1:3:0:0:
258,18,33227,1,2,3:2:0:0:
236,40,33358,1,2,0:0:0:0:
221,50,33488,1,8,3:1:0:0:
197,48,33619,1,0,3:0:0:0:
181,38,33749,2,0,P|143:61|124:78,1,55,2|2,3:2|3:2,0:0:0:0:
93,52,34010,6,0,P|65:103|29:225,1,165,2|0,1:2|0:0,0:0:0:0:
45,231,34532,1,8,3:1:0:0:
38,249,34662,2,0,P|39:294|41:319,1,55,2|0,3:2|0:0,0:0:0:0:
485,343,35966,85,2,0:0:0:0:
512,301,36097,2,0,P|463:305|408:324,1,98.9999969787599,4|0,1:3|0:0,0:0:0:0:
320,358,36619,2,0,P|327:315|312:240,1,98.9999969787599,8|0,3:1|0:0,0:0:0:0:
334,226,37010,1,0,0:0:0:0:
321,196,37140,2,0,P|338:114|365:32,1,148.49999546814,4|2,1:3|0:0,0:0:0:0:
355,44,37662,1,8,3:1:0:0:
478,30,37923,1,2,3:2:0:0:
438,141,38184,6,0,B|332:133|376:186|269:220,1,148.49999546814,8|0,1:3|0:0,0:0:0:0:
281,207,38706,1,8,3:1:0:0:
258,194,38836,1,8,3:0:0:0:
170,86,39097,1,0,3:0:0:0:
148,71,39227,2,0,P|98:143|80:226,1,148.49999546814,4|2,3:3|3:2,0:0:0:0:
56,231,39749,2,0,P|87:258|106:290,1,49.4999984893799,8|0,1:0|0:0,0:0:0:0:
122,282,40010,2,0,P|123:312|121:344,1,49.4999984893799,8|0,1:3|0:0,0:0:0:0:
112,357,40271,6,0,P|142:266|208:162,1,197.99999395752,4|8,1:3|3:1,0:0:0:0:
323,100,41053,1,2,3:2:0:0:
227,5,41314,2,2,B|343:27|289:63|349:127,1,165,6|0,1:2|3:0,0:1:0:0:
417,101,41836,2,0,B|497:187|438:201|467:282,1,165,8|0,3:1|3:2,0:2:0:0:
481,278,42358,2,0,B|413:289|436:325|382:332,1,98.9999969787599,8|4,1:3|3:0,0:0:0:0:
220,378,42879,85,8,3:1:0:0:
195,354,43010,1,2,0:2:0:0:
157,365,43140,1,2,3:2:0:0:
132,338,43271,1,2,0:0:0:0:
95,353,43401,2,0,P|60:346|38:344,1,49.4999984893799,8|2,1:3|0:0,0:0:0:0:
22,357,43662,2,0,P|11:321|4:299,1,49.4999984893799,2|2,3:2|0:0,0:0:0:0:
19,275,43923,2,0,B|26:247|26:247|13:217,1,49.4999984893799,8|2,3:1|3:2,0:0:0:0:
1,108,44314,1,2,3:2:0:0:
10,80,44445,6,0,B|107:37|79:115|164:147,1,148.49999546814,4|0,1:3|0:0,0:0:0:0:
158,132,44966,2,0,P|164:196|160:245,1,98.9999969787599,8|0,3:1|0:0,0:0:0:0:
268,328,45488,2,0,P|313:347|363:374,1,98.9999969787599,6|2,1:2|3:2,0:0:0:0:
372,355,45879,1,0,0:0:0:0:
382,338,46010,2,0,B|385:308|385:308|368:285,1,49.4999984893799,8|2,3:1|3:2,0:0:0:0:
332,147,46401,1,8,3:0:0:0:
350,175,46532,6,0,B|444:150|421:218|506:251,1,148.49999546814,4|0,1:3|0:0,0:0:0:0:
487,190,47053,2,0,B|416:202|455:231|384:268,1,98.9999969787599,8|0,3:1|0:0,0:0:0:0:
245,284,47575,86,0,P|261:318|269:365,2,82.5,6|2|2,1:2|3:2|3:2,0:0:0:0:
167,263,48097,2,0,B|163:223|163:223|196:164,2,82.5,10|2|2,3:1|3:1|3:1,0:0:0:0:
92,326,48619,6,2,P|66:252|46:90,2,220,6|8|6,1:2|1:1|1:2,0:2:0:0:
191,236,49923,1,2,3:2:0:0:
206,255,50053,1,2,3:2:0:0:
221,274,50184,2,0,B|293:278|262:303|343:346,1,110,8|4,3:1|3:0,0:0:0:0:
443,272,50706,2,0,B|356:268|390:325|294:364,1,148.49999546814,8|2,1:3|3:2,0:0:0:0:
315,361,51227,1,8,3:1:0:0:
297,206,51488,1,0,0:0:0:0:
300,185,51619,1,0,0:0:0:0:
304,158,51749,2,0,P|207:178|112:222,1,165,0|0,1:0|0:0,0:0:0:0:
59,239,52271,6,0,P|54:211|60:184,1,55,8|2,1:0|3:2,0:0:0:0:
5,124,52532,86,0,P|26:105|58:96,1,60.5000018463135,0|2,0:0|0:0,0:0:0:0:
75,10,52792,54,2,P|101:19|224:186,1,197.99999395752,6|2,1:0|2:2,0:1:0:0:
295,184,53314,2,0,B|378:171|386:228|389:237|380:240|408:299|453:293,1,197.99999395752,8|2,3:1|2:2,0:0:0:0:
434,272,53836,1,8,1:3:0:0:
279,313,54097,1,0,0:0:0:0:
254,336,54227,1,4,3:0:0:0:
279,367,54358,2,0,B|281:334|281:334|250:284,1,65.9999979858399,8|0,3:1|0:0,0:0:0:0:
189,261,54619,2,0,B|191:225|191:225|177:190,1,65.9999979858399,2|0,3:2|0:0,0:0:0:0:
113,126,54879,6,0,P|80:201|81:350,1,197.99999395752,6|0,1:2|0:0,0:0:0:0:
154,356,55401,2,0,B|238:336|232:377|327:382,1,131.99999597168,8|0,1:0|0:0,0:0:0:0:
374,245,55923,1,0,1:0:0:0:
268,123,56184,1,0,3:0:0:0:
293,149,56314,1,8,3:0:0:0:
321,128,56445,2,0,B|350:109|350:109|386:100,1,65.9999979858399,8|0,1:0|0:0,0:0:0:0:
426,30,56706,2,0,B|460:11|460:11|491:2,1,65.9999979858399,2|0,0:0|0:0,0:0:0:0:
506,82,56966,86,0,P|473:164|470:280,1,197.99999395752,6|2,1:2|3:2,0:0:0:0:
382,251,57488,2,0,B|317:238|295:301|300:309|306:306|301:366|214:384,1,197.99999395752,8|2,1:0|0:0,0:0:0:0:
185,312,58010,2,2,B|195:245|195:245|140:188,1,131.99999597168,4|2,1:3|0:0,0:0:0:0:
121,183,58401,1,0,0:0:0:0:
94,167,58532,2,0,B|71:140|71:140|71:86,1,65.9999979858399,8|0,1:0|0:0,0:0:0:0:
0,66,58792,2,0,B|11:32|11:32|58:5,1,65.9999979858399,2|0,3:2|3:0,0:0:0:0:
140,8,59053,6,0,P|73:109|27:240,1,197.99999395752,6|0,1:2|0:0,0:0:0:0:
7,258,59575,2,0,B|86:283|48:298|105:356,1,131.99999597168,8|0,1:0|0:0,0:0:0:0:
241,242,60097,1,4,1:3:0:0:
255,217,60227,1,0,3:0:0:0:
243,190,60358,2,0,P|285:204|319:220,1,65.9999979858399,2|0,3:2|3:0,0:0:0:0:
394,180,60619,2,0,B|412:210|412:210|409:255,1,65.9999979858399,8|0,1:0|0:0,0:0:0:0:
369,314,60879,1,0,3:0:0:0:
510,380,61140,6,0,P|501:286|505:210,1,131.99999597168,6|2,1:0|3:0,0:0:0:0:
392,148,61662,1,8,1:0:0:0:
491,11,61923,2,0,B|277:-39|422:151|273:234,1,329.9999899292,2|2,3:0|3:2,0:0:0:0:
233,170,62706,2,0,B|186:163|206:186|156:184,1,65.9999979858399,8|0,1:0|0:0,0:0:0:0:
145,167,62966,1,2,3:2:0:0:
10,10,63227,85,2,1:2:0:0:
51,40,63358,1,2,3:2:0:0:
39,75,63488,1,2,3:3:0:0:
50,100,63619,2,0,B|31:140|63:129|39:183,1,65.9999979858399,2|8,3:2|1:0,0:2:0:0:
97,235,63879,2,0,B|78:275|110:264|86:318,1,65.9999979858399,2|0,3:2|3:0,0:2:0:0:
71,321,64140,1,2,3:2:0:0:
43,312,64271,1,0,1:0:0:0:
209,369,64532,6,0,P|213:318|205:256,1,65.9999979858399,2|2,3:3|3:2,0:0:0:0:
205,218,64792,1,8,1:0:0:0:
188,192,64923,1,2,3:2:0:0:
206,175,65053,2,0,B|249:162|244:185|299:195,1,65.9999979858399,6|0,3:0|0:0,0:0:0:0:
337,128,65314,2,0,B|422:138|382:167|452:215,1,131.99999597168,6|2,1:2|3:3,0:0:0:0:
490,372,65836,2,0,P|456:352|424:321,1,65.9999979858399,8|2,1:0|3:2,0:0:0:0:
349,341,66097,6,0,P|321:221|317:29,1,263.99999194336,2|2,3:3|3:3,0:0:0:0:
477,2,66879,1,8,1:0:0:0:
485,47,67010,1,2,0:2:0:0:
440,62,67140,1,2,3:3:0:0:
448,85,67271,1,2,0:2:0:0:
418,101,67401,2,0,B|334:118|376:120|305:130,1,98.9999969787599,4|0,1:3|0:0,0:0:0:0:
323,128,67792,1,2,0:2:0:0:
26,24,68445,54,0,P|30:53|37:112,1,49.4999984893799,2|2,0:1|0:0,0:0:0:0:
35,13,68966,2,0,P|39:42|47:103,1,49.4999984893799,2|2,0:1|0:0,0:0:0:0:
69,166,69358,5,2,3:2:0:0:
91,148,69488,2,0,P|78:234|75:280,1,98.9999969787599,6|0,1:2|0:0,0:0:0:0:
115,359,70010,1,8,3:1:0:0:
217,320,70271,2,0,P|247:326|281:335,1,49.4999984893799,2|0,3:2|0:0,0:0:0:0:
281,345,70532,1,4,1:3:0:0:
364,292,70792,1,0,3:0:0:0:
323,193,71053,2,0,B|421:183|386:213|460:252,1,148.49999546814,8|2,3:1|3:2,0:0:0:0:
471,276,71575,86,0,P|466:197|465:157,1,98.9999969787599,8|4,1:3|3:3,0:0:0:0:
512,91,72097,1,8,3:1:0:0:
441,17,72358,2,0,B|415:18|415:18|362:42,1,49.4999984893799,0|0,3:0|0:0,0:0:0:0:
363,32,72619,2,0,P|334:63|318:84,1,49.4999984893799,4|0,1:3|0:0,0:0:0:0:
336,88,72879,1,0,3:0:0:0:
262,189,73140,2,0,B|208:196|230:175|160:163,1,98.9999969787599,8|2,3:1|3:2,0:0:0:0:
163,174,73532,1,0,0:0:0:0:
140,92,73662,6,2,B|170:-3|170:-3|203:103,1,197.99999395752,6|8,1:2|3:1,0:0:0:0:
127,176,74445,1,2,0:0:0:0:
122,191,74575,1,0,0:0:0:0:
119,207,74706,2,0,P|116:246|117:263,1,49.4999984893799,4|0,1:3|0:0,0:0:0:0:
127,263,74966,1,2,3:2:0:0:
59,360,75227,2,0,B|131:344|109:385|197:388,1,98.9999969787599,8|2,3:1|3:2,0:0:0:0:
182,370,75619,1,2,0:0:0:0:
216,378,75749,2,0,P|219:284|217:201,1,148.49999546814,4|0,1:3|0:0,0:0:0:0:
212,201,76271,5,8,3:1:0:0:
286,108,76532,1,0,0:0:0:0:
304,102,76662,1,0,0:0:0:0:
323,115,76792,1,4,1:3:0:0:
382,212,77053,2,0,P|388:246|387:275,1,49.4999984893799,0|2,3:0|0:0,0:0:0:0:
420,253,77314,2,0,P|465:305|498:337,1,98.9999969787599,8|2,3:1|3:2,0:0:0:0:
501,327,77706,1,0,0:0:0:0:
422,368,77836,86,2,B|272:316|327:367|207:385,1,220,6|8,1:2|3:1,0:1:0:0:
175,280,78619,1,0,0:0:0:0:
64,300,78879,2,0,B|36:301|36:301|-2:278,1,55,8|2,1:3|3:2,0:0:0:0:
8,191,79271,1,2,3:2:0:0:
29,181,79401,2,0,P|37:116|19:4,1,165,8|0,3:1|0:0,0:0:0:0:
54,36,79923,6,0,P|85:45|155:72,1,55,0|2,1:0|3:2,0:0:0:0:
173,139,80314,1,2,3:2:0:0:
185,157,80445,2,0,P|266:148|353:162,1,165,8|0,3:1|0:0,0:0:0:0:
364,184,80966,2,0,B|353:211|353:211|359:255,1,55,8|2,1:3|3:2,0:0:0:0:
294,337,81358,1,2,3:2:0:0:
277,317,81488,2,0,P|206:340|167:362,1,110,8|4,3:1|3:0,0:0:0:0:
59,373,82010,6,0,P|44:335|40:303,1,55,4|2,1:3|3:2,0:0:0:0:
23,201,82401,1,2,3:2:0:0:
40,147,82532,2,2,B|156:108|105:174|202:196,1,165,6|0,1:2|0:0,0:1:0:0:
190,201,83053,2,0,P|226:211|263:219,1,55,6|0,1:2|0:0,0:0:0:0:
277,181,83314,1,0,0:0:0:0:
283,167,83445,1,2,3:2:0:0:
279,152,83575,2,0,B|390:144|352:191|459:214,1,165,8|2,3:1|0:0,0:0:0:0:
460,179,84097,2,0,B|393:196|423:235|352:273,1,110,2|0,1:2|3:0,0:0:0:0:
435,357,85140,86,0,L|352:342,1,55
461,315,85532,1,8,3:0:0:0:
444,330,85662,2,0,B|409:324|424:306|364:300,1,55,8|0,3:1|0:0,0:0:0:0:
374,276,85923,2,0,P|321:287|300:294,1,55,0|2,0:0|3:2,0:0:0:0:
249,329,86184,6,0,P|217:250|208:101,1,220,6|8,1:2|3:1,0:0:0:0:
103,40,86966,1,2,3:2:0:0:
87,50,87097,1,2,0:0:0:0:
91,70,87227,1,0,1:0:0:0:
74,179,87488,1,2,3:2:0:0:
78,199,87618,1,2,0:0:0:0:
62,208,87749,2,0,P|58:244|53:297,1,55,8|0,3:1|0:0,0:0:0:0:
68,293,88010,2,0,P|64:329|59:382,1,55,0|2,0:0|3:2,0:0:0:0:
147,373,88271,6,0,P|154:284|190:182,1,165,6|0,1:2|0:0,0:0:0:0:
189,200,88792,1,8,3:1:0:0:
249,123,89053,1,0,0:0:0:0:
265,115,89184,1,0,0:0:0:0:
281,123,89314,1,0,1:3:0:0:
367,241,89575,2,0,P|365:203|367:168,1,55,2|0,3:2|3:0,0:0:0:0:
384,168,89836,2,0,B|418:149|399:137|437:111,1,55,8|0,3:1|0:0,0:0:0:0:
435,132,90097,1,0,0:0:0:0:
495,15,90358,85,6,1:2:0:0:
506,58,90488,2,0,P|427:49|381:33,1,110,0|2,0:0|0:0,0:0:0:0:
378,30,90879,2,0,P|364:71|364:103,1,55,8|0,3:1|0:0,0:0:0:0:
387,107,91140,1,2,3:2:0:0:
403,129,91271,1,0,0:0:0:0:
383,138,91401,2,0,P|317:167|273:191,1,110,4|0,1:3|3:0,0:0:0:0:
264,211,91792,1,2,3:2:0:0:
230,194,91923,2,0,B|184:183|203:205|155:204,1,55,8|2,3:1|3:2,0:0:0:0:
188,216,92184,1,2,3:2:0:0:
90,159,92445,6,0,P|86:217|99:312,1,110,6|8,1:2|1:3,0:0:0:0:
100,289,92836,1,0,0:0:0:0:
93,311,92966,2,0,P|66:344|45:371,1,55,8|4,3:1|3:0,0:0:0:0:
8,373,93227,6,0,B|1:361|21:351|11:317,1,55,0|2,0:0|3:2,0:0:0:0:
12,252,93488,2,2,B|-1:232|21:214|9:174,1,55,4|0,1:3|0:0,0:0:0:0:
22,169,93749,2,0,B|9:150|37:135|11:74,1,55
17,97,94010,1,8,3:1:0:0:
95,1,94271,2,0,B|209:9|142:79|212:133,1,165,2|0,3:2|0:0,0:0:0:0:
270,96,94792,2,0,B|294:118|294:118|300:155,1,55
287,154,95053,1,8,3:1:0:0:
309,235,95314,22,0,B|348:251|324:265|373:290,1,55,2|2,3:2|0:0,0:0:0:0:
399,309,95575,2,0,B|363:316|377:333|342:340,1,55,8|0,1:3|0:0,0:0:0:0:
328,341,95836,2,0,B|295:345|303:361|267:371,1,55,2|0,3:2|3:0,0:0:0:0:
249,378,96097,1,8,3:1:0:0:
172,288,96358,2,0,P|169:169|177:78,1,165,2|0,3:2|0:0,0:0:0:0:
223,63,96879,2,0,B|232:37|232:37|215:6,1,55
199,22,97140,1,8,3:1:0:0:
52,54,97401,6,0,P|56:99|60:125,1,55,0|2,0:0|3:2,0:0:0:0:
59,186,97662,2,0,B|99:196|86:217|127:232,1,55,4|0,1:3|0:0,0:0:0:0:
124,218,97923,2,0,B|162:229|152:251|192:274,1,55,2|8,3:2|3:0,0:0:0:0:
180,291,98184,2,0,P|210:277|260:279,1,55,8|0,3:1|0:0,0:0:0:0:
321,283,98445,2,0,P|300:220|215:115,1,165,4|0,3:0|0:1,0:0:0:0:
163,140,98966,2,0,B|139:130|139:130|121:84,1,55,0|0,3:0|0:0,0:0:0:0:
111,97,99227,1,8,3:1:0:0:
188,9,99488,1,0,0:0:0:0:
188,1,99619,1,2,3:2:0:0:
195,18,101303,53,2,0:0:0:0:
244,108,101807,5,2,0:0:0:0:
201,186,102328,85,4,1:3:0:0:
263,250,102852,6,0,P|270:279|276:329,1,55,4|0,1:3|0:0,0:0:0:0:
263,323,103112,1,4,0:3:0:0:
385,250,103373,2,0,P|391:211|395:185,1,55,8|0,3:1|0:0,0:0:0:0:
406,171,103634,1,4,3:0:0:0:
394,146,103765,1,2,2:2:0:0:
415,111,103895,1,8,1:3:0:0:
503,13,104156,1,2,3:2:0:0:
491,29,104286,1,2,0:2:0:0:
495,45,104417,1,8,3:1:0:0:
386,31,104678,1,2,0:2:0:0:
264,0,104938,6,0,B|162:6|201:74|116:119,1,165,6|0,1:2|0:0,0:0:0:0:
108,91,105460,2,0,P|115:140|118:170,1,55,8|0,3:1|0:0,0:0:0:0:
108,181,105721,1,8,3:0:0:0:
210,303,105982,1,2,1:2:0:0:
178,293,106112,1,2,3:2:0:0:
158,319,106243,1,2,3:2:0:0:
126,315,106373,1,2,3:2:0:0:
110,334,106504,2,0,P|56:357|-4:387,1,110,8|2,3:1|0:0,0:0:0:0:
29,228,107025,86,0,P|36:159|15:45,1,165,4|0,1:3|0:0,0:0:0:0:
10,46,107547,2,0,B|104:50|60:69|132:96,1,110,8|8,3:1|3:0,0:0:0:0:
235,155,108069,2,2,B|342:141|305:205|383:251,1,165,8|0,1:3|0:0,0:1:0:0:
422,182,108591,2,0,B|311:185|376:250|285:303,1,165,8|2,3:1|3:2,0:0:0:0:
261,299,109112,2,0,P|307:336|339:383,1,110,4|8,1:3|3:3,0:0:0:0:
472,336,109634,5,8,3:1:0:0:
486,306,109765,1,2,3:2:0:0:
471,284,109895,1,2,3:2:0:0:
481,263,110025,1,2,3:2:0:0:
471,243,110156,2,0,P|466:206|458:177,1,55,8|2,1:3|3:2,0:0:0:0:
478,154,110417,2,0,P|473:118|470:92,1,55,2|2,3:0|3:2,0:0:0:0:
494,59,110678,2,0,B|474:43|474:43|436:44,1,55,8|2,3:1|3:2,0:0:0:0:
318,27,111069,1,0,3:0:0:0:
304,8,111199,6,0,B|191:-14|242:58|169:110,1,165,6|0,1:2|0:0,0:0:0:0:
151,67,111721,2,0,P|163:133|167:183,1,110,8|2,3:1|3:2,0:0:0:0:
150,207,112112,1,2,0:0:0:0:
118,195,112243,1,8,3:0:0:0:
33,317,112504,1,2,3:2:0:0:
66,332,112634,1,2,0:0:0:0:
92,314,112765,2,0,B|121:313|121:313|151:334,1,55,8|0,2:1|0:0,0:0:0:0:
283,268,113156,1,2,0:0:0:0:
276,306,113286,86,0,B|366:291|306:248|432:198,1,165,6|0,1:2|0:0,0:0:0:0:
440,234,113808,2,0,B|372:205|449:120|295:142,1,165,8|0,3:1|0:0,0:0:0:0:
262,93,114330,6,0,P|249:136|249:180,2,82.5,6|2|2,1:2|3:2|3:2,0:0:0:0:
150,157,114852,2,0,B|161:191|195:235,2,82.5,10|2|2,3:1|3:1|3:1,0:0:0:0:
67,255,115373,6,0,P|152:295|288:328,2,220,6|8|6,1:2|3:1|1:2,0:0:0:0:
103,114,116678,1,0,0:0:0:0:
124,109,116808,1,0,0:0:0:0:
141,120,116938,2,0,P|179:137|214:157,1,55,8|0,3:1|0:0,0:0:0:0:
225,133,117199,2,0,P|247:165|267:196,1,55,2|0,3:2|0:0,0:0:0:0:
302,205,117460,2,0,P|302:276|289:343,1,110,2|4,1:2|3:0,0:0:0:0:
439,240,117982,1,8,3:1:0:0:
364,117,118259,1,8,3:0:0:0:
364,117,119061,86,0,P|344:134|323:160,1,55,2|2,0:0|0:0,0:0:0:0:
256,54,119338,6,0,P|251:75|250:124,1,60.5000018463135,2|2,0:0|3:2,0:0:0:0:
145,125,119548,38,2,P|213:220|253:321,1,197.99999395752,6|2,1:1|0:3,0:1:0:0:
342,302,120070,2,0,B|292:272|237:316|243:322|249:317|231:376|161:376,1,197.99999395752,8|2,3:1|3:0,0:0:0:0:
109,307,120592,1,4,1:3:0:0:
119,297,120722,2,0,P|119:257|117:225,1,65.9999979858399,2|0,3:0|0:0,0:0:0:0:
163,162,120983,1,2,3:0:0:0:
173,154,121113,2,0,P|161:106|146:76,1,65.9999979858399,8|0,3:1|0:0,0:0:0:0:
202,16,121374,2,0,B|172:2|172:2|120:0,1,65.9999979858399,2|0,0:3|0:0,0:0:0:0:
45,21,121635,6,2,P|33:139|18:227,1,197.99999395752,6|2,1:2|3:0,0:0:0:0:
83,280,122157,2,0,B|168:254|147:323|194:344,1,131.99999597168,8|0,3:1|0:0,0:0:0:0:
317,245,122679,1,6,1:2:0:0:
247,105,122939,1,2,3:0:0:0:
263,88,123070,1,2,3:2:0:0:
294,88,123200,2,0,B|337:97|322:108|360:127,1,65.9999979858399,8|0,3:1|0:0,0:0:0:0:
435,140,123461,2,0,B|467:147|467:147|489:179,1,65.9999979858399,2|0,3:2|0:0,0:0:0:0:
502,259,123722,86,2,P|387:303|339:374,1,197.99999395752,6|0,1:2|0:0,0:0:0:0:
423,344,124244,2,0,B|369:282|321:305|327:321|318:326|253:343|218:306,1,197.99999395752,8|2,3:1|3:0,0:1:0:0:
178,248,124766,1,4,1:3:0:0:
170,242,124896,2,0,P|150:277|138:309,1,65.9999979858399,2|0,3:0|0:0,0:0:0:0:
61,348,125157,1,2,3:0:0:0:
66,358,125287,2,0,P|43:322|31:287,1,65.9999979858399,8|0,3:1|0:0,0:0:0:0:
44,212,125548,2,0,B|25:187|25:187|42:143,1,65.9999979858399,2|0,0:0|0:0,0:0:0:0:
23,69,125809,6,2,P|97:73|206:190,1,197.99999395752,6|0,1:2|0:0,0:0:0:0:
269,116,126331,2,0,B|356:137|309:157|367:204,1,131.99999597168,8|0,3:1|0:0,0:0:0:0:
231,303,126853,1,2,1:0:0:0:
204,289,126983,1,0,3:0:0:0:
206,262,127113,2,0,B|210:226|210:226|186:182,1,65.9999979858399,2|2,3:2|0:0,0:0:0:0:
124,232,127374,1,10,3:1:0:0:
27,72,127635,1,2,0:2:0:0:
20,188,127896,6,0,B|81:175|56:108|162:121,1,131.99999597168,6|2,1:0|3:0,0:0:0:0:
205,147,128287,1,0,0:0:0:0:
219,140,128418,2,0,P|226:186|225:223,1,65.9999979858399,8|2,3:1|3:2,0:0:0:0:
204,289,128679,2,0,B|414:241|339:348|533:390,1,329.9999899292,2|2,3:0|3:0,0:0:0:0:
489,303,129461,2,0,B|440:313|458:333|421:344,1,65.9999979858399,8|0,3:1|0:0,0:0:0:0:
356,373,129722,1,2,3:0:0:0:
206,300,129983,85,6,1:2:0:0:
166,318,130113,1,2,3:2:0:0:
131,303,130244,1,2,3:0:0:0:
79,318,130374,2,0,B|45:325|57:334|17:356,1,65.9999979858399,2|8,3:2|3:1,0:0:0:0:
10,259,130635,2,0,B|9:232|29:237|23:184,1,65.9999979858399,2|0,3:2|3:0,0:0:0:0:
39,173,130896,1,2,3:2:0:0:
25,152,131026,1,0,1:3:0:0:
126,19,131287,6,0,P|166:42|200:60,1,65.9999979858399,2|0,3:0|3:0,0:0:0:0:
261,82,131548,2,0,B|298:117|280:117|315:154,1,65.9999979858399,8|2,3:1|3:2,0:0:0:0:
280,178,131809,2,0,P|274:225|272:260,1,65.9999979858399,2|0,3:0|0:0,0:0:0:0:
228,322,132070,2,0,P|319:342|388:367,1,131.99999597168,6|2,1:2|3:0,0:0:0:0:
502,224,132592,2,0,P|470:245|441:269,1,65.9999979858399,8|2,3:1|3:2,0:0:0:0:
368,204,132853,6,0,B|269:174|302:88|171:24,1,263.99999194336,2|2,3:0|3:2,0:0:0:0:
39,130,133635,1,8,3:1:0:0:
76,166,133766,1,2,3:2:0:0:
60,209,133896,1,2,3:0:0:0:
78,235,134026,1,2,3:2:0:0:
68,261,134157,2,0,B|51:327|54:300|27:370,1,110,4|0,1:3|0:0,0:0:0:0:
29,363,134548,1,0,0:0:0:0:
68,373,134679,1,8,3:1:0:0:
316,283,135200,54,0,L|307:211,1,55,2|2,0:1|0:0,0:0:0:0:
332,291,135722,2,0,L|323:219,1,55,2|2,0:1|0:0,0:0:0:0:
420,346,136113,5,2,0:0:0:0:
431,359,136244,2,0,P|438:290|438:234,1,98.9999969787599,0|4,1:0|3:0,0:0:0:0:
465,131,136766,2,0,P|421:148|404:160,1,49.4999984893799,8|0,3:1|0:0,0:0:0:0:
401,160,137026,1,8,3:0:0:0:
295,102,137287,2,0,B|241:83|266:62|192:57,1,98.9999969787599,8|0,1:3|0:0,0:0:0:0:
109,127,137809,1,8,3:1:0:0:
139,130,137939,1,2,0:3:0:0:
152,150,138070,1,2,0:0:0:0:
160,263,138331,86,0,P|122:278|101:287,1,49.4999984893799,0|0,1:3|0:0,0:0:0:0:
102,271,138592,1,8,3:0:0:0:
11,364,138853,2,0,P|4:307|0:245,1,98.9999969787599,8|8,3:1|3:0,0:0:0:0:
55,161,139374,1,8,1:3:0:0:
68,144,139505,1,0,0:0:0:0:
59,125,139635,2,0,P|55:90|52:73,1,49.4999984893799,8|2,3:0|3:0,0:0:0:0:
41,47,139896,2,0,B|110:30|91:66|155:72,1,98.9999969787599,8|0,3:1|3:0,0:0:0:0:
164,79,140287,1,0,0:0:0:0:
197,52,140418,6,0,B|264:64|236:87|285:122,1,98.9999969787599,0|4,1:0|3:0,0:0:0:0:
381,87,140939,1,8,3:1:0:0:
452,172,141200,1,8,3:0:0:0:
370,257,141461,2,0,P|361:300|357:317,1,49.4999984893799,8|0,1:3|0:0,0:0:0:0:
372,320,141722,1,0,0:0:0:0:
258,269,141983,2,0,P|192:297|146:323,1,98.9999969787599,8|0,3:1|0:0,0:0:0:0:
101,210,142505,6,0,B|146:186|122:165|205:141,1,98.9999969787599,0|4,1:0|3:0,0:0:0:0:
257,45,143026,2,0,B|292:36|281:53|317:46,1,49.4999984893799,8|0,3:1|0:0,0:0:0:0:
325,37,143287,1,8,3:0:0:0:
369,131,143548,2,0,B|360:162|351:150|347:185,3,49.4999984893799,2|2|2|2,3:3|3:3|3:3|3:3,0:3:0:0:
477,22,144592,86,2,P|473:105|472:147,1,110,6|0,1:0|0:0,0:1:0:0:
490,160,144983,1,0,0:0:0:0:
480,187,145113,2,0,P|450:215|433:236,1,55,8|0,3:1|0:0,0:0:0:0:
441,241,145374,1,8,3:0:0:0:
321,317,145635,2,0,P|310:232|306:186,1,110,0|2,1:0|3:0,0:0:0:0:
277,99,146157,2,0,P|242:85|218:76,1,55,8|0,3:1|0:0,0:0:0:0:
215,93,146418,2,0,B|184:92|192:109|169:128,1,55,0|0,3:0|0:0,0:0:0:0:
109,167,146679,5,2,1:2:0:0:
115,194,146809,1,0,3:0:0:0:
122,218,146939,2,0,P|122:265|120:293,1,55,8|0,3:0|0:0,0:0:0:0:
155,288,147200,2,0,P|157:326|159:351,1,55,8|0,3:1|0:0,0:0:0:0:
166,353,147461,1,2,3:0:0:0:
17,332,147722,2,0,P|16:244|20:192,1,110,14|10,1:2|3:2,0:0:0:0:
36,190,148113,1,2,3:2:0:0:
23,149,148244,2,0,B|90:131|80:169|174:182,1,110,8|8,3:1|3:0,3:0:0:0:
234,102,148766,5,6,1:2:0:0:
337,75,149026,1,4,3:0:0:0:
396,170,149287,2,0,B|391:202|409:200|409:253,1,55,8|2,3:1|3:2,0:0:0:0:
432,239,149548,2,0,P|424:278|421:304,1,55,2|2,3:0|3:2,0:0:0:0:
457,321,149809,2,0,B|382:345|405:365|342:400,1,110,8|0,1:3|0:0,0:0:0:0:
334,357,150200,1,0,0:0:0:0:
301,368,150331,2,0,P|227:364|160:365,1,110,8|0,3:1|3:0,0:0:0:0:
92,273,150853,85,8,1:3:0:0:
166,181,151113,2,0,P|162:145|158:124,1,55,2|2,3:0|3:2,0:0:0:0:
142,123,151374,1,8,3:1:0:0:
148,10,151635,2,0,B|98:-2|116:17|77:21,1,55,8|0,3:0|0:0,0:0:0:0:
21,37,151896,2,0,B|69:73|30:91|67:162,1,110,6|10,1:2|3:0,0:0:0:0:
40,213,152287,1,4,3:0:0:0:
116,238,152418,6,2,B|367:114|301:347|440:378,1,385,14|4,1:0|3:0,0:1:0:0:
461,310,153461,2,0,P|488:331|510:358,1,55,8|0,3:1|0:0,0:0:0:0:
495,363,153722,1,8,3:0:0:0:
502,235,153983,1,0,1:0:0:0:
481,216,154113,1,2,0:3:0:0:
489,192,154244,1,4,3:3:0:0:
472,175,154374,1,2,0:3:0:0:
486,144,154505,2,0,P|395:165|310:231,1,165,8|0,3:1|0:0,0:0:0:0:
269,151,155026,6,0,P|249:127|238:89,1,55,6|2,1:2|0:3,0:0:0:0:
256,77,155287,2,0,P|262:45|272:17,1,55,4|2,3:0|3:0,0:0:0:0:
279,31,155548,1,8,3:1:0:0:
158,71,155809,1,2,3:2:0:0:
173,221,156070,2,2,B|64:225|110:272|29:339,1,165,2|0,1:0|0:0,0:1:0:0:
15,249,156592,2,2,B|89:266|70:298|145:328,1,110,10|0,1:0|0:0,0:1:0:0:
231,268,157113,86,0,P|306:286|391:350,1,165,6|0,1:2|0:0,0:0:0:0:
396,365,157635,1,8,3:1:0:0:
432,370,157766,1,2,3:2:0:0:
443,349,157896,2,0,P|445:294|444:216,1,110,2|8,3:0|1:3,0:0:0:0:
479,121,158418,1,0,0:0:0:0:
488,115,158548,1,2,3:0:0:0:
483,98,158679,2,0,B|430:100|430:100|369:119,1,110,8|2,3:1|0:0,0:0:0:0:
263,15,159200,6,0,P|235:88|207:178,1,165,6|0,1:2|0:0,0:0:0:0:
184,197,159722,2,0,P|190:268|186:328,1,110,8|8,3:1|3:0,0:0:0:0:
294,239,160244,2,0,B|83:178|193:252|51:263,2,220,8|8|0,1:3|3:1|1:0,0:0:0:0:
265,149,161809,5,8,3:1:0:0:
263,149,162853,1,10,0:1:0:0:
275,126,162983,1,0,0:0:0:0:
263,99,163113,2,0,P|258:63|256:35,1,55
266,23,163374,2,0,B|200:5|207:38|134:62,1,110,0|2,1:0|3:0,0:0:0:0:
144,69,163766,1,2,0:1:0:0:
114,59,163895,2,0,B|50:80|75:94|27:161,1,110,8|2,3:1|3:0,0:0:0:0:
146,245,164440,86,2,B|117:266|161:277|132:302,1,55,2|0,0:1|0:0,0:1:0:0:
158,239,164988,2,2,B|129:260|173:271|144:296,1,55,2|0,0:1|0:0,0:1:0:0:
256,192,166292,12,6,167547,1:0:0:0:
254,174,168068,53,8,3:1:0:0:
250,201,168590,2,2,P|244:267|244:320,1,110,8|0,1:3|0:0,0:1:0:0:
227,338,168981,1,0,0:0:0:0:
183,322,169111,2,0,P|144:330|102:346,1,60.5000018463135,8|0,3:1|0:0,0:0:0:0:
55,286,169372,2,0,P|35:326|22:362,1,60.5000018463135,2|0,3:2|0:0,0:0:0:0:
31,358,169633,6,0,P|40:304|40:277,1,65.9999979858399,6|0,1:0|0:0,0:0:0:0:
4,217,169894,1,4,3:0:0:0:
47,65,170155,2,0,B|90:48|85:70|126:64,1,65.9999979858399,14|0,1:0|0:0,0:0:0:0:
182,22,170416,2,0,B|220:20|220:20|255:45,1,65.9999979858399,4|0,3:0|0:0,0:0:0:0:
291,111,170677,1,6,1:0:0:0:
340,100,170807,1,2,0:0:0:0:
369,131,170937,1,2,0:3:0:0:
396,124,171068,1,2,3:2:0:0:
417,142,171198,2,0,P|389:171|368:197,1,65.9999979858399,8|0,3:1|0:0,0:0:0:0:
291,218,171459,2,0,P|302:256|314:287,1,65.9999979858399
273,364,171720,86,0,B|411:331|376:380|475:384,1,181.500005538941,6|0,1:2|0:0,0:0:0:0:
481,384,172242,2,0,P|481:330|486:291,1,60.5000018463135,8|0,3:1|0:0,0:0:0:0:
498,240,172503,1,8,3:0:0:0:
414,137,172764,2,2,P|318:162|208:222,1,181.500005538941,8|0,1:3|3:0,0:1:0:0:
184,131,173285,2,0,P|178:98|174:56,1,60.5000018463135,8|0,3:1|0:0,0:0:0:0:
111,17,173546,2,0,P|78:23|36:27,1,60.5000018463135,2|0,3:0|0:0,0:0:0:0:
14,100,173807,6,0,B|1:140|31:131|51:206,1,65.9999979858399,6|0,1:0|0:0,0:0:0:0:
89,223,174068,1,4,3:0:0:0:
33,379,174329,2,0,B|65:359|65:359|100:363,1,65.9999979858399,14|0,1:0|0:0,0:0:0:0:
171,327,174590,2,0,P|209:310|236:296,1,65.9999979858399,8|0,3:0|0:0,0:0:0:0:
269,215,174851,1,6,1:0:0:0:
311,188,174981,1,2,3:2:0:0:
352,195,175111,1,2,0:3:0:0:
371,177,175242,1,2,3:2:0:0:
401,191,175372,2,0,B|463:223|435:242|505:286,1,131.99999597168,8|0,3:1|3:0,0:0:0:0:
352,312,175894,6,0,B|248:254|265:310|161:304,1,181.500005538941,6|0,1:2|0:0,0:0:0:0:
148,267,176416,2,0,P|148:335|147:359,1,60.5000018463135,8|0,3:1|0:0,0:0:0:0:
81,374,176677,1,8,3:0:0:0:
1,274,176937,1,8,1:3:0:0:
92,144,177198,2,0,B|139:147|116:163|163:178,1,60.5000018463135,0|2,3:0|3:2,0:0:0:0:
225,222,177459,2,2,P|237:138|228:30,1,181.500005538941,8|0,3:1|0:0,0:1:0:0:
243,9,177981,86,0,B|314:2|304:30|371:50,1,121.000003692627,6|4,1:0|3:0,0:0:0:0:
512,5,178503,1,8,3:1:0:0:
430,117,178764,1,8,3:0:0:0:
494,240,179024,2,0,P|455:232|412:223,1,60.5000018463135,6|2,1:0|3:2,0:0:0:0:
403,240,179285,1,2,2:3:0:0:
373,223,179416,1,2,3:2:0:0:
381,180,179546,1,8,3:1:0:0:
285,86,179807,1,0,0:0:0:0:
267,84,179937,1,0,0:0:0:0:
248,108,180068,38,0,P|255:159|257:185,1,60.5000018463135,6|0,1:0|0:0,0:0:0:0:
210,235,180329,2,0,B|223:268|223:268|219:312,1,60.5000018463135,6|0,3:2|0:0,0:0:0:0:
239,325,180590,1,10,1:1:0:0:
74,271,180851,1,8,3:3:0:0:
67,258,180981,1,0,0:0:0:0:
73,236,181111,2,0,B|123:226|112:242|147:250,1,60.5000018463135,6|0,1:0|0:0,0:0:0:0:
210,235,181372,2,0,B|244:232|244:232|281:245,1,60.5000018463135,6|0,3:2|0:0,0:0:0:0:
298,257,181633,1,8,1:0:0:0:
426,226,181894,5,2,3:0:0:0:
431,209,182024,1,2,3:0:0:0:
422,193,182155,2,0,B|443:223|418:240|431:301,1,60.5000018463135,6|0,1:0|0:0,0:0:0:0:
472,323,182416,1,6,3:2:0:0:
350,376,182677,2,0,P|333:311|326:243,1,121.000003692627,8|8,3:1|3:0,0:0:0:0:
272,195,183068,1,0,0:0:0:0:
262,173,183199,102,2,B|353:144|353:144|441:201,1,181.500005538941,6|2,1:0|3:1,0:1:0:0:
430,221,183720,2,0,L|319:260,1,110,8|2,1:0|0:2,0:0:0:0:
133,319,184275,1,4,1:3:0:0:
71,233,200968,38,0,B|152:240|116:260|197:280,1,110,0|2,1:0|0:0,0:0:0:0:
199,197,201489,1,8,3:2:0:0:
255,288,201750,1,2,0:0:0:0:
255,288,201881,2,0,B|284:278|283:267|314:262,1,55,2|0,0:0|1:0,0:0:0:0:
328,221,202141,2,0,L|447:267,1,110,0|2,3:0|0:0,0:0:0:0:
459,232,202533,1,0,1:0:0:0:
509,135,202794,2,0,P|502:105|498:72,1,55,2|0,0:0|0:0,0:0:0:0:
507,55,203054,6,0,B|408:56|439:97|320:156,1,165,0|0,1:0|0:0,0:0:0:0:
356,147,203576,1,8,3:2:0:0:
250,84,203837,2,0,P|243:49|244:22,1,55
256,27,204098,2,0,P|262:53|262:81,1,55,0|0,1:0|0:0,0:0:0:0:
262,170,204359,1,0,0:0:0:0:
142,184,204620,2,0,P|86:200|12:214,1,110,8|4,3:2|3:0,0:0:0:0:
5,336,205141,86,0,B|120:298|72:372|198:371,1,165,0|0,1:2|0:0,0:0:0:0:
181,357,205663,1,8,3:2:0:0:
213,189,206185,2,0,B|205:163|205:163|203:125,1,55,0|0,1:0|0:0,0:0:0:0:
215,113,206446,1,0,0:0:0:0:
121,130,206707,6,0,L|54:109,2,55,8|2|2,3:2|0:0|0:0,0:0:0:0:
277,63,207228,2,0,L|329:79,2,55,0|2|2,1:2|0:0|0:0,0:0:0:0:
293,272,207750,5,8,3:2:0:0:
310,274,207881,1,2,0:0:0:0:
323,286,208011,1,2,0:0:0:0:
340,286,208141,1,2,0:0:0:0:
354,299,208272,2,0,B|246:258|289:344|185:357,1,165,2|2,1:0|0:0,0:0:0:0:
158,280,208794,2,0,B|113:272|136:297|94:308,1,55,2|2,3:1|3:2,0:0:0:0:
53,352,209054,2,0,P|24:365|-14:383,1,55
18,378,209315,86,0,P|19:290|4:131,2,220,0|8|4,1:0|3:2|1:3,0:0:0:0:
130,165,210881,2,0,B|170:172|162:185|196:212,1,55,8|0,3:2|0:0,0:0:0:0:
253,200,211141,2,0,P|278:224|301:251,1,55,2|0,0:0|0:0,0:0:0:0:
281,248,211402,2,0,P|370:244|512:253,2,220,0|8|8,1:0|3:2|3:2,0:0:0:0:
274,88,212968,2,0,B|315:76|304:99|335:91,1,55,8|0,3:2|0:0,0:0:0:0:
404,53,213228,2,0,P|440:33|457:26,1,55,2|0,0:0|0:0,0:0:0:0:
469,10,213489,6,2,P|465:103|475:244,2,220,6|8|4,1:2|3:2|1:3,0:1:0:0:
272,158,215054,2,0,B|282:190|262:183|277:217,1,55,8|0,3:2|0:0,0:0:0:0:
326,272,215315,2,0,P|312:310|305:335,1,55,2|0,0:0|0:0,0:0:0:0:
325,320,215576,2,0,P|213:313|99:333,2,220,0|8|2,1:0|3:2|1:0,0:0:0:0:
275,195,216881,1,0,0:0:0:0:
263,182,217011,1,0,0:0:0:0:
271,161,217141,1,2,1:0:0:0:
251,140,217272,1,0,0:0:0:0:
264,105,217402,2,0,P|259:75|253:46,1,55
174,3,217663,6,0,B|44:2|103:74|13:144,2,220,8|8|4,1:3|3:2|1:3,0:0:0:0:
291,202,219228,2,0,B|330:211|318:224|350:245,1,55,8|0,3:2|0:0,0:0:0:0:
369,311,219489,2,0,P|397:303|426:293,1,55,0|0,0:0|3:0,0:0:0:0:
439,290,219750,2,0,P|343:313|217:377,2,220,0|8|2,1:0|3:2|1:2,0:0:0:0:
497,77,221315,1,10,3:2:0:0:
305,16,221837,86,0,P|220:114|191:200,2,220,0|8|4,1:0|3:2|1:3,0:0:0:0:
413,229,223402,2,0,P|382:242|355:255,1,55,0|0,1:0|0:0,0:0:0:0:
341,238,223663,2,0,B|301:248|317:266|284:282,1,55,2|0,0:0|0:0,0:0:0:0:
213,298,223924,2,0,B|88:301|117:342|0:392,1,220,8|0,3:2|1:0,0:0:0:0:
0,261,224707,85,2,0:0:0:0:
0,261,224844,1,2,0:0:0:0:
0,261,224982,1,2,0:0:0:0:
69,184,225257,5,2,0:0:0:0:
69,184,225387,1,2,0:0:0:0:
69,184,225517,1,2,0:0:0:0:
