osu file format v14

[General]
AudioFilename: 02. Betwixt & Between - out of Blue.ogg
AudioLeadIn: 0
PreviewTime: 96548
Countdown: 0
SampleSet: None
StackLeniency: 0.7
Mode: 3
LetterboxInBreaks: 0
SpecialStyle: 0
WidescreenStoryboard: 0

[Editor]
DistanceSpacing: 0.8
BeatDivisor: 2
GridSize: 32
TimelineZoom: 1

[Metadata]
Title:out of Blue
TitleUnicode:out of Blue
Artist:Betwixt & Between
ArtistUnicode:Betwixt & Between
Creator:Shoegazer
Version:Abyss
Source:
Tags:nanosecond eternity schranz betwixt and between kaoru kimura
BeatmapID:2159709
BeatmapSetID:846425

[Difficulty]
HPDrainRate:9
CircleSize:4
OverallDifficulty:9
ApproachRate:5
SliderMultiplier:1.4
SliderTickRate:1

[Events]
//Background and Video events
0,0,"out of blue-bg3.png",0,0
//Break Periods
//Storyboard Layer 0 (Background)
//Storyboard Layer 1 (Fail)
//Storyboard Layer 2 (Pass)
//Storyboard Layer 3 (Foreground)
//Storyboard Layer 4 (Overlay)
//Storyboard Sound Samples

[TimingPoints]
548,363.636364,4,3,0,35,1,0
548,-100,4,3,0,35,0,0
183821,375.239215,4,3,0,35,1,0
183821,-97.0873786407767,4,3,0,35,0,0
184196,392.652169,4,3,0,35,1,0
184196,-92.5925925925926,4,3,0,35,0,0
184589,398.459291,4,3,0,35,1,0
184589,-90.9090909090909,4,3,0,35,0,0
184987,408.616357,4,3,0,35,1,0
184987,-89.2857142857143,4,3,0,35,0,0
185396,410.06855,4,3,0,35,1,0
185396,-88.495575221239,4,3,0,35,0,0
185806,460.86135,4,3,0,35,1,0
185806,-78.740157480315,4,3,0,35,0,0
186267,459.411035,4,3,0,35,1,0
186267,-79.3650793650794,4,3,0,35,0,0
186726,476.826245,4,3,0,35,1,0
186726,-76.3358778625954,4,3,0,35,0,0
187203,511.657258,4,3,0,35,1,0
187203,-70.9219858156028,4,3,0,35,0,0
187715,547.935198,4,3,0,35,1,0
187715,-66.2251655629139,4,3,0,35,0,0
188262,584.220212,4,3,0,35,1,0
188262,-62.111801242236,4,3,0,35,0,0
188847,639.365749,4,3,0,35,1,0
188847,-56.8181818181818,4,3,0,35,0,0
189486,755.467697,4,3,0,35,1,0
189486,-48.0769230769231,4,3,0,35,0,0
190242,906.399178,4,3,0,35,1,0
190242,-40.1606425702811,4,3,0,35,0,0
191148,1126.99337,4,3,0,35,1,0
191148,-32.258064516129,4,3,0,35,0,0
192275,878.400141,4,3,0,35,1,0
192275,-41.3223140495868,4,3,0,35,0,0

[HitObjects]
320,192,548,5,0,0:0:0:0:
448,192,548,1,0,0:0:0:0:
192,192,638,1,0,0:0:0:0:
448,192,729,1,0,0:0:0:0:
64,192,820,1,0,0:0:0:0:
320,192,911,1,0,0:0:0:0:
192,192,911,1,0,0:0:0:0:
320,192,1002,1,0,0:0:0:0:
192,192,1093,1,0,0:0:0:0:
64,192,1184,1,0,0:0:0:0:
448,192,1275,1,0,0:0:0:0:
320,192,1275,1,0,0:0:0:0:
192,192,1366,1,0,0:0:0:0:
448,192,1457,1,0,0:0:0:0:
64,192,1548,1,0,0:0:0:0:
320,192,1638,1,0,0:0:0:0:
192,192,1638,1,0,0:0:0:0:
320,192,1729,1,0,0:0:0:0:
192,192,1820,1,0,0:0:0:0:
64,192,1911,1,0,0:0:0:0:
448,192,2002,1,0,0:0:0:0:
320,192,2002,1,0,0:0:0:0:
192,192,2093,1,0,0:0:0:0:
448,192,2184,1,0,0:0:0:0:
64,192,2275,1,0,0:0:0:0:
320,192,2366,1,0,0:0:0:0:
192,192,2366,1,0,0:0:0:0:
320,192,2457,1,0,0:0:0:0:
192,192,2548,1,0,0:0:0:0:
64,192,2638,1,0,0:0:0:0:
448,192,2729,1,0,0:0:0:0:
320,192,2729,1,0,0:0:0:0:
192,192,2820,1,0,0:0:0:0:
448,192,2911,1,0,0:0:0:0:
64,192,3002,1,0,0:0:0:0:
320,192,3093,1,0,0:0:0:0:
192,192,3093,1,0,0:0:0:0:
320,192,3184,1,0,0:0:0:0:
192,192,3275,1,0,0:0:0:0:
64,192,3366,1,0,0:0:0:0:
448,192,3457,1,0,0:0:0:0:
320,192,3457,1,0,0:0:0:0:
192,192,3548,1,0,0:0:0:0:
448,192,3638,1,0,0:0:0:0:
64,192,3729,1,0,0:0:0:0:
320,192,3820,1,0,0:0:0:0:
192,192,3820,1,0,0:0:0:0:
320,192,3911,1,0,0:0:0:0:
192,192,4002,1,0,0:0:0:0:
64,192,4093,1,0,0:0:0:0:
448,192,4184,1,0,0:0:0:0:
320,192,4184,1,0,0:0:0:0:
192,192,4275,1,0,0:0:0:0:
448,192,4366,1,0,0:0:0:0:
64,192,4457,1,0,0:0:0:0:
320,192,4548,1,0,0:0:0:0:
192,192,4548,1,0,0:0:0:0:
320,192,4638,1,0,0:0:0:0:
192,192,4729,1,0,0:0:0:0:
64,192,4820,1,0,0:0:0:0:
448,192,4911,1,0,0:0:0:0:
320,192,4911,1,0,0:0:0:0:
192,192,5002,1,0,0:0:0:0:
448,192,5093,1,0,0:0:0:0:
64,192,5184,1,0,0:0:0:0:
320,192,5275,1,0,0:0:0:0:
192,192,5275,1,0,0:0:0:0:
320,192,5366,1,0,0:0:0:0:
192,192,5457,1,0,0:0:0:0:
64,192,5548,1,0,0:0:0:0:
448,192,5638,1,0,0:0:0:0:
320,192,5638,1,0,0:0:0:0:
192,192,5729,1,0,0:0:0:0:
448,192,5820,1,0,0:0:0:0:
64,192,5911,1,0,0:0:0:0:
320,192,6002,1,0,0:0:0:0:
192,192,6002,1,0,0:0:0:0:
320,192,6093,1,0,0:0:0:0:
192,192,6184,1,0,0:0:0:0:
64,192,6275,1,0,0:0:0:0:
448,192,6366,1,0,0:0:0:0:
320,192,6366,1,0,0:0:0:0:
192,192,6457,1,0,0:0:0:0:
448,192,6548,1,0,0:0:0:0:
64,192,6638,1,0,0:0:0:0:
320,192,6729,1,0,0:0:0:0:
192,192,6729,1,0,0:0:0:0:
320,192,6820,1,0,0:0:0:0:
192,192,6911,1,0,0:0:0:0:
64,192,7002,1,0,0:0:0:0:
448,192,7093,1,0,0:0:0:0:
320,192,7093,1,0,0:0:0:0:
192,192,7184,1,0,0:0:0:0:
448,192,7275,1,0,0:0:0:0:
64,192,7366,1,0,0:0:0:0:
320,192,7457,1,0,0:0:0:0:
192,192,7457,1,0,0:0:0:0:
320,192,7548,1,0,0:0:0:0:
192,192,7638,1,0,0:0:0:0:
64,192,7729,1,0,0:0:0:0:
448,192,7820,1,0,0:0:0:0:
320,192,7820,1,0,0:0:0:0:
192,192,7911,1,0,0:0:0:0:
448,192,8002,1,0,0:0:0:0:
64,192,8093,1,0,0:0:0:0:
320,192,8184,1,0,0:0:0:0:
192,192,8184,1,0,0:0:0:0:
320,192,8275,1,0,0:0:0:0:
192,192,8366,1,0,0:0:0:0:
64,192,8457,1,0,0:0:0:0:
448,192,8548,1,0,0:0:0:0:
320,192,8548,1,0,0:0:0:0:
192,192,8638,1,0,0:0:0:0:
448,192,8729,1,0,0:0:0:0:
64,192,8820,1,0,0:0:0:0:
320,192,8911,1,0,0:0:0:0:
192,192,8911,1,0,0:0:0:0:
320,192,9002,1,0,0:0:0:0:
192,192,9093,1,0,0:0:0:0:
64,192,9184,1,0,0:0:0:0:
448,192,9275,1,0,0:0:0:0:
320,192,9275,1,0,0:0:0:0:
192,192,9366,1,0,0:0:0:0:
448,192,9457,1,0,0:0:0:0:
64,192,9548,1,0,0:0:0:0:
320,192,9638,1,0,0:0:0:0:
192,192,9638,1,0,0:0:0:0:
320,192,9729,1,0,0:0:0:0:
192,192,9820,1,0,0:0:0:0:
64,192,9911,1,0,0:0:0:0:
448,192,10002,1,0,0:0:0:0:
320,192,10002,1,0,0:0:0:0:
192,192,10093,1,0,0:0:0:0:
448,192,10184,1,0,0:0:0:0:
64,192,10275,1,0,0:0:0:0:
320,192,10366,1,0,0:0:0:0:
192,192,10366,1,0,0:0:0:0:
320,192,10457,1,0,0:0:0:0:
64,192,10548,1,0,0:0:0:0:
64,192,10638,1,0,0:0:0:0:
448,192,10729,1,0,0:0:0:0:
320,192,10729,1,0,0:0:0:0:
192,192,10820,1,0,0:0:0:0:
448,192,10911,1,0,0:0:0:0:
64,192,11002,1,0,0:0:0:0:
320,192,11093,1,0,0:0:0:0:
192,192,11093,1,0,0:0:0:0:
320,192,11184,1,0,0:0:0:0:
64,192,11275,1,0,0:0:0:0:
64,192,11366,1,0,0:0:0:0:
64,192,11457,1,0,0:0:0:0:
64,192,11548,1,0,0:0:0:0:
64,192,11638,1,0,0:0:0:0:
64,192,11729,1,0,0:0:0:0:
320,192,11820,1,0,0:0:0:0:
192,192,11820,1,0,0:0:0:0:
192,192,11911,1,0,0:0:0:0:
320,192,12002,1,0,0:0:0:0:
448,192,12093,1,0,0:0:0:0:
192,192,12184,1,0,0:0:0:0:
64,192,12184,1,0,0:0:0:0:
320,192,12275,1,0,0:0:0:0:
64,192,12366,1,0,0:0:0:0:
448,192,12457,1,0,0:0:0:0:
320,192,12548,1,0,0:0:0:0:
192,192,12548,1,0,0:0:0:0:
192,192,12638,1,0,0:0:0:0:
320,192,12729,1,0,0:0:0:0:
448,192,12820,1,0,0:0:0:0:
192,192,12911,1,0,0:0:0:0:
64,192,12911,1,0,0:0:0:0:
320,192,13002,1,0,0:0:0:0:
64,192,13093,1,0,0:0:0:0:
448,192,13184,1,0,0:0:0:0:
320,192,13275,1,0,0:0:0:0:
192,192,13275,1,0,0:0:0:0:
192,192,13366,1,0,0:0:0:0:
320,192,13457,1,0,0:0:0:0:
448,192,13548,1,0,0:0:0:0:
192,192,13638,1,0,0:0:0:0:
64,192,13638,1,0,0:0:0:0:
320,192,13729,1,0,0:0:0:0:
64,192,13820,1,0,0:0:0:0:
448,192,13911,1,0,0:0:0:0:
320,192,14002,1,0,0:0:0:0:
192,192,14002,1,0,0:0:0:0:
192,192,14093,1,0,0:0:0:0:
320,192,14184,1,0,0:0:0:0:
448,192,14275,1,0,0:0:0:0:
192,192,14366,1,0,0:0:0:0:
64,192,14366,1,0,0:0:0:0:
320,192,14457,1,0,0:0:0:0:
64,192,14548,1,0,0:0:0:0:
448,192,14638,1,0,0:0:0:0:
320,192,14729,1,0,0:0:0:0:
192,192,14729,1,0,0:0:0:0:
192,192,14820,1,0,0:0:0:0:
320,192,14911,1,0,0:0:0:0:
448,192,15002,1,0,0:0:0:0:
192,192,15093,1,0,0:0:0:0:
64,192,15093,1,0,0:0:0:0:
320,192,15184,1,0,0:0:0:0:
64,192,15275,1,0,0:0:0:0:
448,192,15366,1,0,0:0:0:0:
320,192,15457,1,0,0:0:0:0:
192,192,15457,1,0,0:0:0:0:
192,192,15548,1,0,0:0:0:0:
320,192,15638,1,0,0:0:0:0:
448,192,15729,1,0,0:0:0:0:
192,192,15820,1,0,0:0:0:0:
64,192,15820,1,0,0:0:0:0:
320,192,15911,1,0,0:0:0:0:
64,192,16002,1,0,0:0:0:0:
448,192,16093,1,0,0:0:0:0:
320,192,16184,1,0,0:0:0:0:
192,192,16184,1,0,0:0:0:0:
192,192,16275,1,0,0:0:0:0:
320,192,16366,1,0,0:0:0:0:
448,192,16457,1,0,0:0:0:0:
192,192,16548,1,0,0:0:0:0:
64,192,16548,1,0,0:0:0:0:
320,192,16638,1,0,0:0:0:0:
192,192,16729,1,0,0:0:0:0:
64,192,16729,1,0,0:0:0:0:
320,192,16820,1,0,0:0:0:0:
192,192,16911,1,0,0:0:0:0:
64,192,16911,1,0,0:0:0:0:
320,192,17002,1,0,0:0:0:0:
64,192,17093,1,0,0:0:0:0:
192,192,17184,1,0,0:0:0:0:
448,192,17275,1,0,0:0:0:0:
320,192,17275,1,0,0:0:0:0:
64,192,17366,1,0,0:0:0:0:
448,192,17457,1,0,0:0:0:0:
320,192,17457,1,0,0:0:0:0:
64,192,17548,1,0,0:0:0:0:
320,192,17638,1,0,0:0:0:0:
192,192,17638,1,0,0:0:0:0:
192,192,17729,1,0,0:0:0:0:
448,192,17820,1,0,0:0:0:0:
320,192,17911,1,0,0:0:0:0:
64,192,18002,128,0,18063:0:0:0:0:
448,192,18093,128,0,18154:0:0:0:0:
320,192,18184,128,0,18244:0:0:0:0:
192,192,18275,128,0,18335:0:0:0:0:
64,192,18366,1,0,0:0:0:0:
192,192,18411,1,0,0:0:0:0:
448,192,18457,1,0,0:0:0:0:
320,192,18502,1,0,0:0:0:0:
64,192,18548,1,0,0:0:0:0:
192,192,18593,1,0,0:0:0:0:
448,192,18638,1,0,0:0:0:0:
320,192,18684,1,0,0:0:0:0:
64,192,18729,1,0,0:0:0:0:
448,192,18820,128,0,18881:0:0:0:0:
320,192,18911,128,0,18972:0:0:0:0:
192,192,19002,1,0,0:0:0:0:
64,192,19093,1,0,0:0:0:0:
192,192,19138,1,0,0:0:0:0:
448,192,19184,1,0,0:0:0:0:
320,192,19229,1,0,0:0:0:0:
64,192,19275,1,0,0:0:0:0:
192,192,19320,1,0,0:0:0:0:
448,192,19366,1,0,0:0:0:0:
320,192,19411,1,0,0:0:0:0:
64,192,19457,1,0,0:0:0:0:
448,192,19548,128,0,19608:0:0:0:0:
320,192,19638,128,0,19699:0:0:0:0:
192,192,19729,1,0,0:0:0:0:
64,192,19820,1,0,0:0:0:0:
192,192,19866,1,0,0:0:0:0:
448,192,19911,1,0,0:0:0:0:
320,192,19957,1,0,0:0:0:0:
64,192,20002,1,0,0:0:0:0:
192,192,20048,1,0,0:0:0:0:
448,192,20093,1,0,0:0:0:0:
320,192,20138,1,0,0:0:0:0:
192,192,20184,1,0,0:0:0:0:
448,192,20275,1,0,0:0:0:0:
64,192,20366,1,0,0:0:0:0:
320,192,20457,1,0,0:0:0:0:
192,192,20548,128,0,20608:0:0:0:0:
64,192,20548,1,0,0:0:0:0:
448,192,20638,128,0,20699:0:0:0:0:
320,192,20729,128,0,20790:0:0:0:0:
64,192,20729,1,0,0:0:0:0:
192,192,20820,128,0,20881:0:0:0:0:
448,192,20911,1,0,0:0:0:0:
320,192,20911,1,0,0:0:0:0:
64,192,21002,1,0,0:0:0:0:
320,192,21093,1,0,0:0:0:0:
192,192,21184,1,0,0:0:0:0:
448,192,21275,1,0,0:0:0:0:
320,192,21275,1,0,0:0:0:0:
64,192,21275,1,0,0:0:0:0:
64,192,21366,1,0,0:0:0:0:
448,192,21457,1,0,0:0:0:0:
320,192,21548,1,0,0:0:0:0:
192,192,21638,1,0,0:0:0:0:
64,192,21638,1,0,0:0:0:0:
192,192,21729,1,0,0:0:0:0:
320,192,21820,1,0,0:0:0:0:
192,192,21911,1,0,0:0:0:0:
448,192,22002,1,0,0:0:0:0:
320,192,22002,1,0,0:0:0:0:
64,192,22002,1,0,0:0:0:0:
64,192,22093,1,0,0:0:0:0:
448,192,22184,1,0,0:0:0:0:
320,192,22275,1,0,0:0:0:0:
192,192,22366,1,0,0:0:0:0:
64,192,22366,1,0,0:0:0:0:
192,192,22457,1,0,0:0:0:0:
320,192,22548,1,0,0:0:0:0:
192,192,22638,1,0,0:0:0:0:
448,192,22729,1,0,0:0:0:0:
320,192,22729,1,0,0:0:0:0:
64,192,22729,1,0,0:0:0:0:
64,192,22820,1,0,0:0:0:0:
448,192,22911,1,0,0:0:0:0:
320,192,23002,1,0,0:0:0:0:
192,192,23093,1,0,0:0:0:0:
64,192,23093,1,0,0:0:0:0:
192,192,23184,1,0,0:0:0:0:
320,192,23275,1,0,0:0:0:0:
192,192,23366,1,0,0:0:0:0:
448,192,23457,1,0,0:0:0:0:
320,192,23457,1,0,0:0:0:0:
64,192,23457,1,0,0:0:0:0:
64,192,23548,1,0,0:0:0:0:
448,192,23638,1,0,0:0:0:0:
320,192,23729,1,0,0:0:0:0:
192,192,23820,1,0,0:0:0:0:
64,192,23820,1,0,0:0:0:0:
192,192,23911,1,0,0:0:0:0:
320,192,24002,1,0,0:0:0:0:
192,192,24093,1,0,0:0:0:0:
448,192,24184,1,0,0:0:0:0:
320,192,24184,1,0,0:0:0:0:
64,192,24184,1,0,0:0:0:0:
64,192,24275,1,0,0:0:0:0:
448,192,24366,1,0,0:0:0:0:
320,192,24457,1,0,0:0:0:0:
192,192,24548,1,0,0:0:0:0:
64,192,24548,1,0,0:0:0:0:
192,192,24638,1,0,0:0:0:0:
320,192,24729,1,0,0:0:0:0:
192,192,24820,1,0,0:0:0:0:
448,192,24911,1,0,0:0:0:0:
320,192,24911,1,0,0:0:0:0:
64,192,24911,1,0,0:0:0:0:
64,192,25002,1,0,0:0:0:0:
448,192,25093,1,0,0:0:0:0:
320,192,25184,1,0,0:0:0:0:
192,192,25275,1,0,0:0:0:0:
64,192,25275,1,0,0:0:0:0:
192,192,25366,1,0,0:0:0:0:
320,192,25457,1,0,0:0:0:0:
192,192,25548,1,0,0:0:0:0:
448,192,25638,1,0,0:0:0:0:
320,192,25638,1,0,0:0:0:0:
64,192,25638,1,0,0:0:0:0:
64,192,25729,1,0,0:0:0:0:
448,192,25820,1,0,0:0:0:0:
320,192,25911,1,0,0:0:0:0:
192,192,26002,1,0,0:0:0:0:
64,192,26002,1,0,0:0:0:0:
64,192,26093,1,0,0:0:0:0:
320,192,26184,1,0,0:0:0:0:
320,192,26275,1,0,0:0:0:0:
448,192,26366,1,0,0:0:0:0:
192,192,26366,1,0,0:0:0:0:
448,192,26457,1,0,0:0:0:0:
64,192,26548,1,0,0:0:0:0:
192,192,26638,1,0,0:0:0:0:
192,192,26729,1,0,0:0:0:0:
64,192,26729,1,0,0:0:0:0:
448,192,26820,1,0,0:0:0:0:
192,192,26911,1,0,0:0:0:0:
320,192,27002,1,0,0:0:0:0:
448,192,27093,1,0,0:0:0:0:
192,192,27093,1,0,0:0:0:0:
64,192,27093,1,0,0:0:0:0:
448,192,27184,1,0,0:0:0:0:
64,192,27275,1,0,0:0:0:0:
192,192,27366,1,0,0:0:0:0:
448,192,27457,1,0,0:0:0:0:
320,192,27457,1,0,0:0:0:0:
320,192,27548,1,0,0:0:0:0:
192,192,27638,1,0,0:0:0:0:
320,192,27729,1,0,0:0:0:0:
448,192,27820,1,0,0:0:0:0:
192,192,27820,1,0,0:0:0:0:
64,192,27820,1,0,0:0:0:0:
448,192,27911,1,0,0:0:0:0:
64,192,28002,1,0,0:0:0:0:
192,192,28093,1,0,0:0:0:0:
448,192,28184,1,0,0:0:0:0:
320,192,28184,1,0,0:0:0:0:
320,192,28275,1,0,0:0:0:0:
192,192,28366,1,0,0:0:0:0:
320,192,28457,1,0,0:0:0:0:
448,192,28548,1,0,0:0:0:0:
192,192,28548,1,0,0:0:0:0:
64,192,28548,1,0,0:0:0:0:
448,192,28638,1,0,0:0:0:0:
64,192,28729,1,0,0:0:0:0:
192,192,28820,1,0,0:0:0:0:
448,192,28911,1,0,0:0:0:0:
320,192,28911,1,0,0:0:0:0:
320,192,29002,1,0,0:0:0:0:
192,192,29093,1,0,0:0:0:0:
320,192,29184,1,0,0:0:0:0:
448,192,29275,1,0,0:0:0:0:
192,192,29275,1,0,0:0:0:0:
64,192,29275,1,0,0:0:0:0:
448,192,29366,1,0,0:0:0:0:
64,192,29457,1,0,0:0:0:0:
192,192,29548,1,0,0:0:0:0:
448,192,29638,1,0,0:0:0:0:
320,192,29638,1,0,0:0:0:0:
320,192,29729,1,0,0:0:0:0:
192,192,29820,1,0,0:0:0:0:
320,192,29911,1,0,0:0:0:0:
448,192,30002,1,0,0:0:0:0:
192,192,30002,1,0,0:0:0:0:
64,192,30002,1,0,0:0:0:0:
448,192,30093,1,0,0:0:0:0:
64,192,30184,1,0,0:0:0:0:
192,192,30275,1,0,0:0:0:0:
448,192,30366,1,0,0:0:0:0:
320,192,30366,1,0,0:0:0:0:
320,192,30457,1,0,0:0:0:0:
192,192,30548,1,0,0:0:0:0:
320,192,30638,1,0,0:0:0:0:
448,192,30729,1,0,0:0:0:0:
192,192,30729,1,0,0:0:0:0:
64,192,30729,1,0,0:0:0:0:
448,192,30820,1,0,0:0:0:0:
64,192,30911,1,0,0:0:0:0:
192,192,31002,1,0,0:0:0:0:
448,192,31093,1,0,0:0:0:0:
320,192,31093,1,0,0:0:0:0:
320,192,31184,1,0,0:0:0:0:
448,192,31275,1,0,0:0:0:0:
448,192,31366,1,0,0:0:0:0:
320,192,31457,1,0,0:0:0:0:
192,192,31457,1,0,0:0:0:0:
64,192,31457,1,0,0:0:0:0:
64,192,31548,1,0,0:0:0:0:
192,192,31638,1,0,0:0:0:0:
192,192,31729,1,0,0:0:0:0:
448,192,31820,1,0,0:0:0:0:
320,192,31820,1,0,0:0:0:0:
64,192,31911,1,0,0:0:0:0:
320,192,32002,1,0,0:0:0:0:
192,192,32093,1,0,0:0:0:0:
448,192,32184,1,0,0:0:0:0:
320,192,32184,1,0,0:0:0:0:
64,192,32184,1,0,0:0:0:0:
64,192,32275,1,0,0:0:0:0:
448,192,32366,1,0,0:0:0:0:
320,192,32457,1,0,0:0:0:0:
192,192,32548,1,0,0:0:0:0:
64,192,32548,1,0,0:0:0:0:
192,192,32638,1,0,0:0:0:0:
320,192,32729,1,0,0:0:0:0:
192,192,32820,1,0,0:0:0:0:
448,192,32911,1,0,0:0:0:0:
320,192,32911,1,0,0:0:0:0:
64,192,32911,1,0,0:0:0:0:
64,192,33002,1,0,0:0:0:0:
448,192,33093,1,0,0:0:0:0:
320,192,33184,1,0,0:0:0:0:
192,192,33275,1,0,0:0:0:0:
64,192,33275,1,0,0:0:0:0:
192,192,33366,1,0,0:0:0:0:
320,192,33457,1,0,0:0:0:0:
192,192,33548,1,0,0:0:0:0:
448,192,33638,1,0,0:0:0:0:
320,192,33638,1,0,0:0:0:0:
64,192,33638,1,0,0:0:0:0:
64,192,33729,1,0,0:0:0:0:
448,192,33820,1,0,0:0:0:0:
320,192,33911,1,0,0:0:0:0:
192,192,34002,1,0,0:0:0:0:
64,192,34002,1,0,0:0:0:0:
192,192,34093,1,0,0:0:0:0:
320,192,34184,1,0,0:0:0:0:
192,192,34275,1,0,0:0:0:0:
448,192,34366,1,0,0:0:0:0:
64,192,34366,1,0,0:0:0:0:
320,192,34457,1,0,0:0:0:0:
192,192,34502,1,0,0:0:0:0:
448,192,34548,1,0,0:0:0:0:
64,192,34638,1,0,0:0:0:0:
192,192,34684,1,0,0:0:0:0:
448,192,34729,1,0,0:0:0:0:
320,192,34729,1,0,0:0:0:0:
64,192,34820,1,0,0:0:0:0:
320,192,34911,1,0,0:0:0:0:
192,192,35002,1,0,0:0:0:0:
448,192,35093,1,0,0:0:0:0:
320,192,35093,1,0,0:0:0:0:
64,192,35093,1,0,0:0:0:0:
64,192,35184,1,0,0:0:0:0:
448,192,35275,1,0,0:0:0:0:
320,192,35366,1,0,0:0:0:0:
192,192,35457,1,0,0:0:0:0:
64,192,35457,1,0,0:0:0:0:
192,192,35548,1,0,0:0:0:0:
320,192,35638,1,0,0:0:0:0:
192,192,35729,1,0,0:0:0:0:
448,192,35820,1,0,0:0:0:0:
320,192,35820,1,0,0:0:0:0:
64,192,35820,1,0,0:0:0:0:
64,192,35911,1,0,0:0:0:0:
448,192,36002,1,0,0:0:0:0:
320,192,36093,1,0,0:0:0:0:
192,192,36184,1,0,0:0:0:0:
64,192,36184,1,0,0:0:0:0:
192,192,36275,1,0,0:0:0:0:
320,192,36366,1,0,0:0:0:0:
192,192,36457,1,0,0:0:0:0:
448,192,36548,1,0,0:0:0:0:
320,192,36548,1,0,0:0:0:0:
64,192,36548,1,0,0:0:0:0:
64,192,36638,1,0,0:0:0:0:
448,192,36729,1,0,0:0:0:0:
320,192,36820,1,0,0:0:0:0:
192,192,36911,1,0,0:0:0:0:
64,192,36911,1,0,0:0:0:0:
192,192,37002,1,0,0:0:0:0:
320,192,37093,1,0,0:0:0:0:
192,192,37184,1,0,0:0:0:0:
448,192,37275,1,0,0:0:0:0:
320,192,37275,1,0,0:0:0:0:
64,192,37275,1,0,0:0:0:0:
64,192,37366,1,0,0:0:0:0:
448,192,37457,1,0,0:0:0:0:
320,192,37548,1,0,0:0:0:0:
192,192,37638,1,0,0:0:0:0:
64,192,37638,1,0,0:0:0:0:
192,192,37729,1,0,0:0:0:0:
320,192,37820,1,0,0:0:0:0:
192,192,37911,1,0,0:0:0:0:
448,192,38002,1,0,0:0:0:0:
320,192,38002,1,0,0:0:0:0:
64,192,38002,1,0,0:0:0:0:
64,192,38093,1,0,0:0:0:0:
448,192,38184,1,0,0:0:0:0:
320,192,38275,1,0,0:0:0:0:
192,192,38366,1,0,0:0:0:0:
64,192,38366,1,0,0:0:0:0:
320,192,38457,1,0,0:0:0:0:
64,192,38548,1,0,0:0:0:0:
448,192,38638,1,0,0:0:0:0:
320,192,38729,1,0,0:0:0:0:
192,192,38729,1,0,0:0:0:0:
64,192,38820,1,0,0:0:0:0:
448,192,38911,1,0,0:0:0:0:
320,192,39002,1,0,0:0:0:0:
192,192,39093,1,0,0:0:0:0:
64,192,39093,1,0,0:0:0:0:
320,192,39184,1,0,0:0:0:0:
64,192,39275,1,0,0:0:0:0:
448,192,39366,1,0,0:0:0:0:
320,192,39457,1,0,0:0:0:0:
192,192,39457,1,0,0:0:0:0:
64,192,39548,1,0,0:0:0:0:
448,192,39638,1,0,0:0:0:0:
320,192,39729,1,0,0:0:0:0:
192,192,39820,1,0,0:0:0:0:
64,192,39820,1,0,0:0:0:0:
320,192,39911,1,0,0:0:0:0:
64,192,40002,1,0,0:0:0:0:
448,192,40093,1,0,0:0:0:0:
320,192,40184,1,0,0:0:0:0:
192,192,40184,1,0,0:0:0:0:
64,192,40275,1,0,0:0:0:0:
448,192,40366,1,0,0:0:0:0:
320,192,40457,1,0,0:0:0:0:
192,192,40548,1,0,0:0:0:0:
64,192,40548,1,0,0:0:0:0:
320,192,40638,1,0,0:0:0:0:
64,192,40729,1,0,0:0:0:0:
448,192,40820,1,0,0:0:0:0:
320,192,40911,1,0,0:0:0:0:
192,192,40911,1,0,0:0:0:0:
64,192,41002,1,0,0:0:0:0:
448,192,41093,1,0,0:0:0:0:
320,192,41184,1,0,0:0:0:0:
192,192,41275,1,0,0:0:0:0:
64,192,41275,1,0,0:0:0:0:
448,192,41366,1,0,0:0:0:0:
64,192,41457,1,0,0:0:0:0:
448,192,41548,1,0,0:0:0:0:
320,192,41638,1,0,0:0:0:0:
192,192,41638,1,0,0:0:0:0:
448,192,41729,1,0,0:0:0:0:
64,192,41820,1,0,0:0:0:0:
448,192,41911,1,0,0:0:0:0:
192,192,42002,1,0,0:0:0:0:
64,192,42002,1,0,0:0:0:0:
448,192,42093,1,0,0:0:0:0:
64,192,42184,1,0,0:0:0:0:
448,192,42275,1,0,0:0:0:0:
320,192,42366,1,0,0:0:0:0:
448,192,42457,1,0,0:0:0:0:
64,192,42548,1,0,0:0:0:0:
448,192,42638,1,0,0:0:0:0:
320,192,42729,1,0,0:0:0:0:
320,192,42820,1,0,0:0:0:0:
192,192,42911,1,0,0:0:0:0:
192,192,43002,1,0,0:0:0:0:
448,192,43093,1,0,0:0:0:0:
448,192,43184,1,0,0:0:0:0:
64,192,43275,1,0,0:0:0:0:
64,192,43366,1,0,0:0:0:0:
448,192,43457,128,0,43820:0:0:0:0:
320,192,43548,1,0,0:0:0:0:
192,192,43638,1,0,0:0:0:0:
320,192,43729,1,0,0:0:0:0:
192,192,43820,128,0,44184:0:0:0:0:
64,192,43911,1,0,0:0:0:0:
448,192,44002,1,0,0:0:0:0:
320,192,44093,1,0,0:0:0:0:
64,192,44184,128,0,46366:0:0:0:0:
320,192,46366,128,0,47093:0:0:0:0:
448,192,47093,128,0,49275:0:0:0:0:
320,192,49275,128,0,50002:0:0:0:0:
448,192,50002,1,0,0:0:0:0:
64,192,50002,128,0,52184:0:0:0:0:
320,192,50093,1,0,0:0:0:0:
448,192,50275,1,0,0:0:0:0:
192,192,50366,1,0,0:0:0:0:
320,192,50548,1,0,0:0:0:0:
192,192,50638,1,0,0:0:0:0:
320,192,50729,1,0,0:0:0:0:
192,192,50820,1,0,0:0:0:0:
320,192,51002,1,0,0:0:0:0:
192,192,51093,1,0,0:0:0:0:
320,192,51275,1,0,0:0:0:0:
192,192,51366,1,0,0:0:0:0:
320,192,51457,1,0,0:0:0:0:
192,192,51548,1,0,0:0:0:0:
320,192,51729,1,0,0:0:0:0:
192,192,51820,1,0,0:0:0:0:
320,192,52002,1,0,0:0:0:0:
192,192,52093,1,0,0:0:0:0:
320,192,52184,128,0,52911:0:0:0:0:
192,192,52275,1,0,0:0:0:0:
192,192,52457,1,0,0:0:0:0:
64,192,52548,1,0,0:0:0:0:
192,192,52729,1,0,0:0:0:0:
64,192,52820,1,0,0:0:0:0:
448,192,52911,128,0,55093:0:0:0:0:
192,192,53002,1,0,0:0:0:0:
320,192,53184,1,0,0:0:0:0:
192,192,53275,1,0,0:0:0:0:
320,192,53457,1,0,0:0:0:0:
192,192,53548,1,0,0:0:0:0:
320,192,53638,1,0,0:0:0:0:
192,192,53729,1,0,0:0:0:0:
320,192,53911,1,0,0:0:0:0:
192,192,54002,1,0,0:0:0:0:
320,192,54184,1,0,0:0:0:0:
192,192,54275,1,0,0:0:0:0:
320,192,54366,1,0,0:0:0:0:
192,192,54457,1,0,0:0:0:0:
320,192,54638,1,0,0:0:0:0:
192,192,54729,1,0,0:0:0:0:
320,192,54911,1,0,0:0:0:0:
64,192,55002,1,0,0:0:0:0:
192,192,55093,128,0,55820:0:0:0:0:
64,192,55184,1,0,0:0:0:0:
320,192,55366,1,0,0:0:0:0:
64,192,55457,1,0,0:0:0:0:
448,192,55638,1,0,0:0:0:0:
320,192,55729,1,0,0:0:0:0:
448,192,55820,1,0,0:0:0:0:
64,192,55820,128,0,58002:0:0:0:0:
448,192,55911,1,0,0:0:0:0:
192,192,56093,1,0,0:0:0:0:
192,192,56184,1,0,0:0:0:0:
320,192,56366,1,0,0:0:0:0:
192,192,56457,1,0,0:0:0:0:
320,192,56548,1,0,0:0:0:0:
192,192,56638,1,0,0:0:0:0:
320,192,56820,1,0,0:0:0:0:
192,192,56911,1,0,0:0:0:0:
320,192,57093,1,0,0:0:0:0:
192,192,57184,1,0,0:0:0:0:
320,192,57275,1,0,0:0:0:0:
192,192,57366,1,0,0:0:0:0:
320,192,57548,1,0,0:0:0:0:
192,192,57638,1,0,0:0:0:0:
320,192,57820,1,0,0:0:0:0:
192,192,57911,1,0,0:0:0:0:
320,192,58002,128,0,58729:0:0:0:0:
192,192,58093,1,0,0:0:0:0:
192,192,58275,1,0,0:0:0:0:
64,192,58366,1,0,0:0:0:0:
192,192,58548,1,0,0:0:0:0:
64,192,58638,1,0,0:0:0:0:
448,192,58729,128,0,60911:0:0:0:0:
192,192,58820,1,0,0:0:0:0:
320,192,59002,1,0,0:0:0:0:
192,192,59093,1,0,0:0:0:0:
320,192,59275,1,0,0:0:0:0:
192,192,59366,1,0,0:0:0:0:
320,192,59457,1,0,0:0:0:0:
192,192,59548,1,0,0:0:0:0:
320,192,59729,1,0,0:0:0:0:
192,192,59820,1,0,0:0:0:0:
320,192,60002,1,0,0:0:0:0:
192,192,60093,1,0,0:0:0:0:
320,192,60184,1,0,0:0:0:0:
192,192,60275,1,0,0:0:0:0:
320,192,60457,1,0,0:0:0:0:
192,192,60548,1,0,0:0:0:0:
320,192,60729,1,0,0:0:0:0:
64,192,60820,1,0,0:0:0:0:
320,192,60911,128,0,61638:0:0:0:0:
192,192,61002,1,0,0:0:0:0:
192,192,61184,1,0,0:0:0:0:
64,192,61275,1,0,0:0:0:0:
448,192,61457,1,0,0:0:0:0:
192,192,61548,1,0,0:0:0:0:
448,192,61638,1,0,0:0:0:0:
64,192,61638,128,0,63820:0:0:0:0:
448,192,61729,1,0,0:0:0:0:
192,192,61911,1,0,0:0:0:0:
192,192,62002,1,0,0:0:0:0:
320,192,62184,1,0,0:0:0:0:
320,192,62275,1,0,0:0:0:0:
192,192,62366,1,0,0:0:0:0:
192,192,62457,1,0,0:0:0:0:
192,192,62638,1,0,0:0:0:0:
192,192,62729,1,0,0:0:0:0:
320,192,62911,1,0,0:0:0:0:
320,192,63002,1,0,0:0:0:0:
192,192,63093,1,0,0:0:0:0:
192,192,63184,1,0,0:0:0:0:
192,192,63366,1,0,0:0:0:0:
192,192,63457,1,0,0:0:0:0:
448,192,63638,1,0,0:0:0:0:
448,192,63729,1,0,0:0:0:0:
320,192,63820,128,0,64548:0:0:0:0:
192,192,63911,1,0,0:0:0:0:
64,192,64093,1,0,0:0:0:0:
64,192,64184,1,0,0:0:0:0:
64,192,64366,1,0,0:0:0:0:
64,192,64457,1,0,0:0:0:0:
448,192,64548,128,0,66002:0:0:0:0:
320,192,64638,1,0,0:0:0:0:
192,192,64820,1,0,0:0:0:0:
192,192,64911,1,0,0:0:0:0:
320,192,65093,1,0,0:0:0:0:
320,192,65184,1,0,0:0:0:0:
192,192,65275,1,0,0:0:0:0:
192,192,65366,1,0,0:0:0:0:
192,192,65548,1,0,0:0:0:0:
192,192,65638,1,0,0:0:0:0:
320,192,65820,1,0,0:0:0:0:
320,192,65911,1,0,0:0:0:0:
192,192,66002,128,0,67457:0:0:0:0:
64,192,66093,1,0,0:0:0:0:
448,192,66275,1,0,0:0:0:0:
448,192,66366,1,0,0:0:0:0:
64,192,66548,1,0,0:0:0:0:
64,192,66638,1,0,0:0:0:0:
448,192,66729,1,0,0:0:0:0:
448,192,66820,1,0,0:0:0:0:
448,192,67002,1,0,0:0:0:0:
448,192,67093,1,0,0:0:0:0:
64,192,67275,1,0,0:0:0:0:
64,192,67366,1,0,0:0:0:0:
448,192,67457,1,0,0:0:0:0:
320,192,67457,1,0,0:0:0:0:
448,192,67548,1,0,0:0:0:0:
320,192,67729,1,0,0:0:0:0:
320,192,67820,1,0,0:0:0:0:
192,192,67820,1,0,0:0:0:0:
192,192,68002,1,0,0:0:0:0:
192,192,68093,1,0,0:0:0:0:
448,192,68184,1,0,0:0:0:0:
320,192,68184,1,0,0:0:0:0:
320,192,68275,1,0,0:0:0:0:
320,192,68457,1,0,0:0:0:0:
320,192,68548,1,0,0:0:0:0:
192,192,68548,1,0,0:0:0:0:
192,192,68729,1,0,0:0:0:0:
192,192,68820,1,0,0:0:0:0:
448,192,68911,1,0,0:0:0:0:
320,192,68911,1,0,0:0:0:0:
320,192,69002,1,0,0:0:0:0:
320,192,69184,1,0,0:0:0:0:
320,192,69275,1,0,0:0:0:0:
192,192,69275,1,0,0:0:0:0:
192,192,69457,1,0,0:0:0:0:
192,192,69548,1,0,0:0:0:0:
448,192,69638,1,0,0:0:0:0:
320,192,69638,1,0,0:0:0:0:
448,192,69729,1,0,0:0:0:0:
448,192,69911,1,0,0:0:0:0:
448,192,70002,1,0,0:0:0:0:
192,192,70002,1,0,0:0:0:0:
64,192,70184,1,0,0:0:0:0:
64,192,70275,1,0,0:0:0:0:
448,192,70366,1,0,0:0:0:0:
320,192,70366,1,0,0:0:0:0:
320,192,70457,1,0,0:0:0:0:
320,192,70638,1,0,0:0:0:0:
320,192,70729,1,0,0:0:0:0:
192,192,70729,1,0,0:0:0:0:
192,192,70911,1,0,0:0:0:0:
192,192,71002,1,0,0:0:0:0:
448,192,71093,1,0,0:0:0:0:
320,192,71093,1,0,0:0:0:0:
320,192,71184,1,0,0:0:0:0:
320,192,71366,1,0,0:0:0:0:
320,192,71457,1,0,0:0:0:0:
192,192,71457,1,0,0:0:0:0:
192,192,71638,1,0,0:0:0:0:
192,192,71729,1,0,0:0:0:0:
448,192,71820,1,0,0:0:0:0:
320,192,71820,1,0,0:0:0:0:
320,192,71911,1,0,0:0:0:0:
320,192,72093,1,0,0:0:0:0:
320,192,72184,1,0,0:0:0:0:
192,192,72184,1,0,0:0:0:0:
192,192,72366,1,0,0:0:0:0:
192,192,72457,1,0,0:0:0:0:
448,192,72548,1,0,0:0:0:0:
320,192,72548,1,0,0:0:0:0:
448,192,72638,1,0,0:0:0:0:
448,192,72820,1,0,0:0:0:0:
448,192,72911,1,0,0:0:0:0:
192,192,72911,1,0,0:0:0:0:
64,192,73093,1,0,0:0:0:0:
64,192,73184,1,0,0:0:0:0:
448,192,73275,1,0,0:0:0:0:
320,192,73275,1,0,0:0:0:0:
448,192,73366,1,0,0:0:0:0:
320,192,73548,1,0,0:0:0:0:
320,192,73638,1,0,0:0:0:0:
192,192,73638,1,0,0:0:0:0:
320,192,73820,1,0,0:0:0:0:
320,192,73911,1,0,0:0:0:0:
192,192,74002,1,0,0:0:0:0:
64,192,74002,1,0,0:0:0:0:
192,192,74093,1,0,0:0:0:0:
192,192,74275,1,0,0:0:0:0:
320,192,74366,1,0,0:0:0:0:
192,192,74366,1,0,0:0:0:0:
320,192,74548,1,0,0:0:0:0:
320,192,74638,1,0,0:0:0:0:
192,192,74729,1,0,0:0:0:0:
64,192,74729,1,0,0:0:0:0:
192,192,74820,1,0,0:0:0:0:
192,192,75002,1,0,0:0:0:0:
320,192,75093,1,0,0:0:0:0:
192,192,75093,1,0,0:0:0:0:
320,192,75275,1,0,0:0:0:0:
320,192,75366,1,0,0:0:0:0:
192,192,75457,1,0,0:0:0:0:
64,192,75457,1,0,0:0:0:0:
64,192,75548,1,0,0:0:0:0:
64,192,75729,1,0,0:0:0:0:
320,192,75820,1,0,0:0:0:0:
64,192,75820,1,0,0:0:0:0:
448,192,76002,1,0,0:0:0:0:
448,192,76093,1,0,0:0:0:0:
192,192,76184,1,0,0:0:0:0:
64,192,76184,1,0,0:0:0:0:
192,192,76275,1,0,0:0:0:0:
192,192,76457,1,0,0:0:0:0:
320,192,76548,1,0,0:0:0:0:
192,192,76548,1,0,0:0:0:0:
320,192,76729,1,0,0:0:0:0:
320,192,76820,1,0,0:0:0:0:
192,192,76911,1,0,0:0:0:0:
64,192,76911,1,0,0:0:0:0:
192,192,77002,1,0,0:0:0:0:
192,192,77184,1,0,0:0:0:0:
320,192,77275,1,0,0:0:0:0:
192,192,77275,1,0,0:0:0:0:
320,192,77457,1,0,0:0:0:0:
320,192,77548,1,0,0:0:0:0:
192,192,77638,1,0,0:0:0:0:
64,192,77638,1,0,0:0:0:0:
192,192,77729,1,0,0:0:0:0:
192,192,77911,1,0,0:0:0:0:
320,192,78002,1,0,0:0:0:0:
192,192,78002,1,0,0:0:0:0:
64,192,78093,1,0,0:0:0:0:
448,192,78138,1,0,0:0:0:0:
320,192,78184,1,0,0:0:0:0:
320,192,78275,1,0,0:0:0:0:
64,192,78366,1,0,0:0:0:0:
64,192,78457,1,0,0:0:0:0:
448,192,78502,1,0,0:0:0:0:
192,192,78548,1,0,0:0:0:0:
64,192,78638,1,0,0:0:0:0:
64,192,78729,1,0,0:0:0:0:
320,192,78866,1,0,0:0:0:0:
64,192,78911,1,0,0:0:0:0:
64,192,79002,1,0,0:0:0:0:
448,192,79093,1,0,0:0:0:0:
320,192,79093,1,0,0:0:0:0:
448,192,79184,1,0,0:0:0:0:
64,192,79275,1,0,0:0:0:0:
320,192,79366,1,0,0:0:0:0:
448,192,79457,1,0,0:0:0:0:
320,192,79457,1,0,0:0:0:0:
192,192,79457,1,0,0:0:0:0:
192,192,79638,1,0,0:0:0:0:
192,192,79729,1,0,0:0:0:0:
448,192,79820,1,0,0:0:0:0:
320,192,79820,1,0,0:0:0:0:
320,192,79911,1,0,0:0:0:0:
64,192,80002,1,0,0:0:0:0:
320,192,80093,1,0,0:0:0:0:
448,192,80184,1,0,0:0:0:0:
320,192,80184,1,0,0:0:0:0:
192,192,80184,1,0,0:0:0:0:
192,192,80366,1,0,0:0:0:0:
192,192,80457,1,0,0:0:0:0:
448,192,80548,1,0,0:0:0:0:
320,192,80548,1,0,0:0:0:0:
320,192,80638,1,0,0:0:0:0:
64,192,80729,1,0,0:0:0:0:
320,192,80820,1,0,0:0:0:0:
320,192,80911,1,0,0:0:0:0:
192,192,80911,1,0,0:0:0:0:
64,192,80911,1,0,0:0:0:0:
192,192,81093,1,0,0:0:0:0:
192,192,81184,1,0,0:0:0:0:
448,192,81275,1,0,0:0:0:0:
320,192,81275,1,0,0:0:0:0:
448,192,81366,1,0,0:0:0:0:
64,192,81457,1,0,0:0:0:0:
448,192,81548,1,0,0:0:0:0:
448,192,81638,1,0,0:0:0:0:
320,192,81638,1,0,0:0:0:0:
192,192,81638,1,0,0:0:0:0:
64,192,81820,1,0,0:0:0:0:
64,192,81911,1,0,0:0:0:0:
448,192,82002,1,0,0:0:0:0:
320,192,82002,1,0,0:0:0:0:
320,192,82093,1,0,0:0:0:0:
64,192,82184,1,0,0:0:0:0:
320,192,82275,1,0,0:0:0:0:
320,192,82366,1,0,0:0:0:0:
192,192,82366,1,0,0:0:0:0:
64,192,82366,1,0,0:0:0:0:
192,192,82548,1,0,0:0:0:0:
192,192,82638,1,0,0:0:0:0:
448,192,82729,1,0,0:0:0:0:
320,192,82729,1,0,0:0:0:0:
320,192,82820,1,0,0:0:0:0:
64,192,82911,1,0,0:0:0:0:
320,192,83002,1,0,0:0:0:0:
448,192,83093,1,0,0:0:0:0:
320,192,83093,1,0,0:0:0:0:
192,192,83093,1,0,0:0:0:0:
192,192,83275,1,0,0:0:0:0:
192,192,83366,1,0,0:0:0:0:
448,192,83457,1,0,0:0:0:0:
320,192,83457,1,0,0:0:0:0:
320,192,83548,1,0,0:0:0:0:
64,192,83638,1,0,0:0:0:0:
320,192,83729,1,0,0:0:0:0:
320,192,83820,1,0,0:0:0:0:
192,192,83820,1,0,0:0:0:0:
64,192,83820,1,0,0:0:0:0:
192,192,84002,1,0,0:0:0:0:
192,192,84093,1,0,0:0:0:0:
448,192,84184,1,0,0:0:0:0:
320,192,84184,1,0,0:0:0:0:
448,192,84275,1,0,0:0:0:0:
64,192,84366,1,0,0:0:0:0:
448,192,84457,1,0,0:0:0:0:
448,192,84548,1,0,0:0:0:0:
320,192,84548,1,0,0:0:0:0:
192,192,84548,1,0,0:0:0:0:
64,192,84729,1,0,0:0:0:0:
64,192,84820,1,0,0:0:0:0:
448,192,84911,1,0,0:0:0:0:
320,192,84911,1,0,0:0:0:0:
448,192,85002,1,0,0:0:0:0:
64,192,85093,1,0,0:0:0:0:
320,192,85184,1,0,0:0:0:0:
448,192,85275,1,0,0:0:0:0:
320,192,85275,1,0,0:0:0:0:
192,192,85275,1,0,0:0:0:0:
320,192,85457,1,0,0:0:0:0:
320,192,85548,1,0,0:0:0:0:
192,192,85638,1,0,0:0:0:0:
64,192,85638,1,0,0:0:0:0:
192,192,85729,1,0,0:0:0:0:
448,192,85820,1,0,0:0:0:0:
192,192,85911,1,0,0:0:0:0:
320,192,86002,1,0,0:0:0:0:
192,192,86002,1,0,0:0:0:0:
64,192,86002,1,0,0:0:0:0:
320,192,86184,1,0,0:0:0:0:
320,192,86275,1,0,0:0:0:0:
192,192,86366,1,0,0:0:0:0:
64,192,86366,1,0,0:0:0:0:
192,192,86457,1,0,0:0:0:0:
448,192,86548,1,0,0:0:0:0:
192,192,86638,1,0,0:0:0:0:
448,192,86729,1,0,0:0:0:0:
320,192,86729,1,0,0:0:0:0:
192,192,86729,1,0,0:0:0:0:
320,192,86911,1,0,0:0:0:0:
320,192,87002,1,0,0:0:0:0:
192,192,87093,1,0,0:0:0:0:
64,192,87093,1,0,0:0:0:0:
64,192,87184,1,0,0:0:0:0:
448,192,87275,1,0,0:0:0:0:
64,192,87366,1,0,0:0:0:0:
320,192,87457,1,0,0:0:0:0:
192,192,87457,1,0,0:0:0:0:
64,192,87457,1,0,0:0:0:0:
448,192,87638,1,0,0:0:0:0:
448,192,87729,1,0,0:0:0:0:
192,192,87820,1,0,0:0:0:0:
64,192,87820,1,0,0:0:0:0:
192,192,87911,1,0,0:0:0:0:
448,192,88002,1,0,0:0:0:0:
192,192,88093,1,0,0:0:0:0:
448,192,88184,1,0,0:0:0:0:
320,192,88184,1,0,0:0:0:0:
192,192,88184,1,0,0:0:0:0:
320,192,88366,1,0,0:0:0:0:
320,192,88457,1,0,0:0:0:0:
192,192,88548,1,0,0:0:0:0:
64,192,88548,1,0,0:0:0:0:
192,192,88638,1,0,0:0:0:0:
448,192,88729,1,0,0:0:0:0:
192,192,88820,1,0,0:0:0:0:
448,192,88911,1,0,0:0:0:0:
320,192,88911,1,0,0:0:0:0:
192,192,88911,1,0,0:0:0:0:
320,192,89093,1,0,0:0:0:0:
320,192,89184,1,0,0:0:0:0:
192,192,89275,1,0,0:0:0:0:
192,192,89366,1,0,0:0:0:0:
192,192,89548,1,0,0:0:0:0:
192,192,89638,1,0,0:0:0:0:
320,192,89820,1,0,0:0:0:0:
320,192,89911,1,0,0:0:0:0:
192,192,90002,1,0,0:0:0:0:
192,192,90093,1,0,0:0:0:0:
192,192,90275,1,0,0:0:0:0:
192,192,90366,1,0,0:0:0:0:
192,192,90548,1,0,0:0:0:0:
192,192,90638,1,0,0:0:0:0:
448,192,90729,1,0,0:0:0:0:
320,192,90729,1,0,0:0:0:0:
192,192,90820,1,0,0:0:0:0:
320,192,90911,1,0,0:0:0:0:
64,192,91002,1,0,0:0:0:0:
448,192,91093,1,0,0:0:0:0:
320,192,91093,1,0,0:0:0:0:
192,192,91093,1,0,0:0:0:0:
192,192,91184,1,0,0:0:0:0:
448,192,91275,1,0,0:0:0:0:
320,192,91366,1,0,0:0:0:0:
192,192,91457,1,0,0:0:0:0:
64,192,91457,1,0,0:0:0:0:
64,192,91548,1,0,0:0:0:0:
192,192,91638,1,0,0:0:0:0:
64,192,91729,1,0,0:0:0:0:
448,192,91820,1,0,0:0:0:0:
320,192,91820,1,0,0:0:0:0:
192,192,91820,1,0,0:0:0:0:
320,192,91911,1,0,0:0:0:0:
64,192,92010,1,0,0:0:0:0:
64,192,92101,1,0,0:0:0:0:
448,192,92184,1,0,0:0:0:0:
320,192,92184,1,0,0:0:0:0:
192,192,92275,1,0,0:0:0:0:
320,192,92366,1,0,0:0:0:0:
64,192,92457,1,0,0:0:0:0:
448,192,92548,1,0,0:0:0:0:
320,192,92548,1,0,0:0:0:0:
192,192,92548,1,0,0:0:0:0:
192,192,92638,1,0,0:0:0:0:
448,192,92729,1,0,0:0:0:0:
320,192,92820,1,0,0:0:0:0:
192,192,92911,1,0,0:0:0:0:
64,192,92911,1,0,0:0:0:0:
320,192,93002,1,0,0:0:0:0:
192,192,93093,1,0,0:0:0:0:
64,192,93184,1,0,0:0:0:0:
448,192,93275,1,0,0:0:0:0:
320,192,93275,1,0,0:0:0:0:
192,192,93275,1,0,0:0:0:0:
320,192,93366,1,0,0:0:0:0:
448,192,93465,1,0,0:0:0:0:
448,192,93556,1,0,0:0:0:0:
192,192,93638,1,0,0:0:0:0:
64,192,93638,1,0,0:0:0:0:
320,192,93729,1,0,0:0:0:0:
192,192,93820,1,0,0:0:0:0:
448,192,93911,1,0,0:0:0:0:
320,192,94002,1,0,0:0:0:0:
192,192,94002,1,0,0:0:0:0:
64,192,94002,1,0,0:0:0:0:
320,192,94093,1,0,0:0:0:0:
64,192,94184,1,0,0:0:0:0:
192,192,94275,1,0,0:0:0:0:
448,192,94366,1,0,0:0:0:0:
320,192,94366,1,0,0:0:0:0:
448,192,94457,1,0,0:0:0:0:
320,192,94548,1,0,0:0:0:0:
448,192,94638,1,0,0:0:0:0:
320,192,94729,1,0,0:0:0:0:
192,192,94729,1,0,0:0:0:0:
64,192,94729,1,0,0:0:0:0:
192,192,94820,1,0,0:0:0:0:
448,192,94919,1,0,0:0:0:0:
448,192,95010,1,0,0:0:0:0:
192,192,95093,1,0,0:0:0:0:
64,192,95093,1,0,0:0:0:0:
320,192,95184,1,0,0:0:0:0:
192,192,95275,1,0,0:0:0:0:
448,192,95366,1,0,0:0:0:0:
320,192,95457,1,0,0:0:0:0:
192,192,95457,1,0,0:0:0:0:
64,192,95457,1,0,0:0:0:0:
320,192,95548,1,0,0:0:0:0:
64,192,95638,1,0,0:0:0:0:
192,192,95729,1,0,0:0:0:0:
448,192,95820,1,0,0:0:0:0:
320,192,95820,1,0,0:0:0:0:
192,192,95911,1,0,0:0:0:0:
320,192,96002,1,0,0:0:0:0:
448,192,96093,1,0,0:0:0:0:
320,192,96184,1,0,0:0:0:0:
192,192,96184,1,0,0:0:0:0:
64,192,96184,1,0,0:0:0:0:
192,192,96275,1,0,0:0:0:0:
64,192,96374,1,0,0:0:0:0:
64,192,96465,1,0,0:0:0:0:
448,192,96548,1,0,0:0:0:0:
320,192,96548,1,0,0:0:0:0:
192,192,96638,1,0,0:0:0:0:
320,192,96729,1,0,0:0:0:0:
64,192,96820,1,0,0:0:0:0:
448,192,96911,1,0,0:0:0:0:
320,192,96911,1,0,0:0:0:0:
192,192,96911,1,0,0:0:0:0:
192,192,97002,1,0,0:0:0:0:
448,192,97093,1,0,0:0:0:0:
320,192,97184,1,0,0:0:0:0:
192,192,97275,1,0,0:0:0:0:
64,192,97275,1,0,0:0:0:0:
64,192,97366,1,0,0:0:0:0:
192,192,97457,1,0,0:0:0:0:
64,192,97548,1,0,0:0:0:0:
448,192,97638,1,0,0:0:0:0:
320,192,97638,1,0,0:0:0:0:
192,192,97638,1,0,0:0:0:0:
320,192,97729,1,0,0:0:0:0:
64,192,97828,1,0,0:0:0:0:
64,192,97919,1,0,0:0:0:0:
448,192,98002,1,0,0:0:0:0:
320,192,98002,1,0,0:0:0:0:
192,192,98093,1,0,0:0:0:0:
320,192,98184,1,0,0:0:0:0:
64,192,98275,1,0,0:0:0:0:
448,192,98366,1,0,0:0:0:0:
320,192,98366,1,0,0:0:0:0:
192,192,98366,1,0,0:0:0:0:
192,192,98457,1,0,0:0:0:0:
448,192,98548,1,0,0:0:0:0:
320,192,98638,1,0,0:0:0:0:
192,192,98729,1,0,0:0:0:0:
64,192,98729,1,0,0:0:0:0:
320,192,98820,1,0,0:0:0:0:
192,192,98911,1,0,0:0:0:0:
64,192,99002,1,0,0:0:0:0:
448,192,99093,1,0,0:0:0:0:
320,192,99093,1,0,0:0:0:0:
192,192,99093,1,0,0:0:0:0:
320,192,99184,1,0,0:0:0:0:
448,192,99283,1,0,0:0:0:0:
448,192,99374,1,0,0:0:0:0:
192,192,99457,1,0,0:0:0:0:
64,192,99457,1,0,0:0:0:0:
320,192,99548,1,0,0:0:0:0:
192,192,99638,1,0,0:0:0:0:
448,192,99729,1,0,0:0:0:0:
320,192,99820,1,0,0:0:0:0:
192,192,99820,1,0,0:0:0:0:
64,192,99820,1,0,0:0:0:0:
320,192,99911,1,0,0:0:0:0:
64,192,100002,1,0,0:0:0:0:
192,192,100093,1,0,0:0:0:0:
448,192,100184,1,0,0:0:0:0:
320,192,100184,1,0,0:0:0:0:
448,192,100275,1,0,0:0:0:0:
320,192,100366,1,0,0:0:0:0:
448,192,100457,1,0,0:0:0:0:
320,192,100548,1,0,0:0:0:0:
192,192,100548,1,0,0:0:0:0:
64,192,100548,1,0,0:0:0:0:
192,192,100638,1,0,0:0:0:0:
448,192,100737,1,0,0:0:0:0:
448,192,100828,1,0,0:0:0:0:
192,192,100911,1,0,0:0:0:0:
64,192,100911,1,0,0:0:0:0:
448,192,101002,1,0,0:0:0:0:
192,192,101093,1,0,0:0:0:0:
320,192,101184,1,0,0:0:0:0:
192,192,101275,1,0,0:0:0:0:
64,192,101275,1,0,0:0:0:0:
448,192,101366,1,0,0:0:0:0:
192,192,101457,1,0,0:0:0:0:
192,192,101548,1,0,0:0:0:0:
192,192,101638,1,0,0:0:0:0:
192,192,101729,1,0,0:0:0:0:
192,192,101820,1,0,0:0:0:0:
192,192,101911,1,0,0:0:0:0:
320,192,102002,1,0,0:0:0:0:
320,192,102093,1,0,0:0:0:0:
64,192,102192,1,0,0:0:0:0:
64,192,102283,1,0,0:0:0:0:
448,192,102366,1,0,0:0:0:0:
320,192,102366,1,0,0:0:0:0:
192,192,102457,1,0,0:0:0:0:
320,192,102548,1,0,0:0:0:0:
64,192,102638,1,0,0:0:0:0:
448,192,102729,1,0,0:0:0:0:
320,192,102729,1,0,0:0:0:0:
192,192,102729,1,0,0:0:0:0:
192,192,102820,1,0,0:0:0:0:
448,192,102911,1,0,0:0:0:0:
320,192,103002,1,0,0:0:0:0:
192,192,103093,1,0,0:0:0:0:
64,192,103093,1,0,0:0:0:0:
64,192,103184,1,0,0:0:0:0:
192,192,103275,1,0,0:0:0:0:
64,192,103366,1,0,0:0:0:0:
448,192,103457,1,0,0:0:0:0:
320,192,103457,1,0,0:0:0:0:
192,192,103457,1,0,0:0:0:0:
320,192,103548,1,0,0:0:0:0:
64,192,103646,1,0,0:0:0:0:
64,192,103737,1,0,0:0:0:0:
448,192,103820,1,0,0:0:0:0:
320,192,103820,1,0,0:0:0:0:
192,192,103911,1,0,0:0:0:0:
320,192,104002,1,0,0:0:0:0:
64,192,104093,1,0,0:0:0:0:
448,192,104184,1,0,0:0:0:0:
320,192,104184,1,0,0:0:0:0:
192,192,104184,1,0,0:0:0:0:
192,192,104275,1,0,0:0:0:0:
448,192,104366,1,0,0:0:0:0:
320,192,104457,1,0,0:0:0:0:
64,192,104457,1,0,0:0:0:0:
192,192,104548,1,0,0:0:0:0:
320,192,104638,1,0,0:0:0:0:
64,192,104638,1,0,0:0:0:0:
192,192,104729,1,0,0:0:0:0:
320,192,104820,1,0,0:0:0:0:
64,192,104820,1,0,0:0:0:0:
448,192,104911,1,0,0:0:0:0:
320,192,104911,1,0,0:0:0:0:
192,192,104911,1,0,0:0:0:0:
64,192,105002,1,0,0:0:0:0:
448,192,105101,1,0,0:0:0:0:
448,192,105192,1,0,0:0:0:0:
192,192,105275,1,0,0:0:0:0:
64,192,105275,1,0,0:0:0:0:
320,192,105366,1,0,0:0:0:0:
192,192,105457,1,0,0:0:0:0:
448,192,105548,1,0,0:0:0:0:
320,192,105638,1,0,0:0:0:0:
192,192,105638,1,0,0:0:0:0:
64,192,105638,1,0,0:0:0:0:
320,192,105729,1,0,0:0:0:0:
64,192,105820,1,0,0:0:0:0:
192,192,105911,1,0,0:0:0:0:
448,192,106002,1,0,0:0:0:0:
320,192,106002,1,0,0:0:0:0:
448,192,106093,1,0,0:0:0:0:
320,192,106184,1,0,0:0:0:0:
448,192,106275,1,0,0:0:0:0:
320,192,106366,1,0,0:0:0:0:
192,192,106366,1,0,0:0:0:0:
64,192,106366,1,0,0:0:0:0:
192,192,106457,1,0,0:0:0:0:
448,192,106556,1,0,0:0:0:0:
448,192,106646,1,0,0:0:0:0:
192,192,106729,1,0,0:0:0:0:
64,192,106729,1,0,0:0:0:0:
320,192,106820,1,0,0:0:0:0:
192,192,106911,1,0,0:0:0:0:
448,192,107002,1,0,0:0:0:0:
320,192,107093,1,0,0:0:0:0:
192,192,107093,1,0,0:0:0:0:
64,192,107093,1,0,0:0:0:0:
320,192,107184,1,0,0:0:0:0:
64,192,107275,1,0,0:0:0:0:
192,192,107366,1,0,0:0:0:0:
448,192,107457,1,0,0:0:0:0:
320,192,107457,1,0,0:0:0:0:
192,192,107548,1,0,0:0:0:0:
320,192,107638,1,0,0:0:0:0:
448,192,107729,1,0,0:0:0:0:
320,192,107820,1,0,0:0:0:0:
192,192,107820,1,0,0:0:0:0:
64,192,107820,1,0,0:0:0:0:
192,192,107911,1,0,0:0:0:0:
64,192,108010,1,0,0:0:0:0:
64,192,108101,1,0,0:0:0:0:
448,192,108184,1,0,0:0:0:0:
320,192,108184,1,0,0:0:0:0:
192,192,108275,1,0,0:0:0:0:
320,192,108366,1,0,0:0:0:0:
64,192,108457,1,0,0:0:0:0:
448,192,108548,1,0,0:0:0:0:
320,192,108548,1,0,0:0:0:0:
192,192,108548,1,0,0:0:0:0:
192,192,108638,1,0,0:0:0:0:
448,192,108729,1,0,0:0:0:0:
320,192,108820,1,0,0:0:0:0:
192,192,108911,1,0,0:0:0:0:
64,192,108911,1,0,0:0:0:0:
64,192,109002,1,0,0:0:0:0:
192,192,109093,1,0,0:0:0:0:
64,192,109184,1,0,0:0:0:0:
448,192,109275,1,0,0:0:0:0:
320,192,109275,1,0,0:0:0:0:
192,192,109275,1,0,0:0:0:0:
320,192,109366,1,0,0:0:0:0:
64,192,109465,1,0,0:0:0:0:
64,192,109556,1,0,0:0:0:0:
448,192,109638,1,0,0:0:0:0:
320,192,109638,1,0,0:0:0:0:
192,192,109729,1,0,0:0:0:0:
320,192,109820,1,0,0:0:0:0:
64,192,109911,1,0,0:0:0:0:
448,192,110002,1,0,0:0:0:0:
320,192,110002,1,0,0:0:0:0:
192,192,110002,1,0,0:0:0:0:
192,192,110093,1,0,0:0:0:0:
448,192,110184,1,0,0:0:0:0:
320,192,110275,1,0,0:0:0:0:
192,192,110366,1,0,0:0:0:0:
64,192,110366,1,0,0:0:0:0:
320,192,110457,1,0,0:0:0:0:
192,192,110548,1,0,0:0:0:0:
64,192,110638,1,0,0:0:0:0:
448,192,110729,1,0,0:0:0:0:
320,192,110729,1,0,0:0:0:0:
192,192,110729,1,0,0:0:0:0:
320,192,110820,1,0,0:0:0:0:
448,192,110919,1,0,0:0:0:0:
448,192,111010,1,0,0:0:0:0:
192,192,111093,1,0,0:0:0:0:
64,192,111093,1,0,0:0:0:0:
320,192,111184,1,0,0:0:0:0:
192,192,111275,1,0,0:0:0:0:
448,192,111366,1,0,0:0:0:0:
320,192,111457,1,0,0:0:0:0:
192,192,111457,1,0,0:0:0:0:
64,192,111457,1,0,0:0:0:0:
320,192,111548,1,0,0:0:0:0:
64,192,111638,1,0,0:0:0:0:
192,192,111729,1,0,0:0:0:0:
448,192,111820,1,0,0:0:0:0:
320,192,111820,1,0,0:0:0:0:
448,192,111911,1,0,0:0:0:0:
320,192,112002,1,0,0:0:0:0:
448,192,112093,1,0,0:0:0:0:
320,192,112184,1,0,0:0:0:0:
192,192,112184,1,0,0:0:0:0:
64,192,112184,1,0,0:0:0:0:
192,192,112275,1,0,0:0:0:0:
448,192,112374,1,0,0:0:0:0:
448,192,112465,1,0,0:0:0:0:
192,192,112548,1,0,0:0:0:0:
320,192,112638,1,0,0:0:0:0:
64,192,112729,1,0,0:0:0:0:
448,192,112820,1,0,0:0:0:0:
192,192,112911,128,0,113093:0:0:0:0:
448,192,112957,1,0,0:0:0:0:
320,192,113002,1,0,0:0:0:0:
64,192,113093,1,0,0:0:0:0:
448,192,113184,1,0,0:0:0:0:
192,192,113275,128,0,113457:0:0:0:0:
448,192,113320,1,0,0:0:0:0:
320,192,113366,1,0,0:0:0:0:
64,192,113457,1,0,0:0:0:0:
448,192,113548,1,0,0:0:0:0:
192,192,113638,128,0,113820:0:0:0:0:
448,192,113684,1,0,0:0:0:0:
320,192,113729,1,0,0:0:0:0:
64,192,113820,1,0,0:0:0:0:
192,192,113911,1,0,0:0:0:0:
448,192,114002,1,0,0:0:0:0:
320,192,114002,1,0,0:0:0:0:
192,192,114093,1,0,0:0:0:0:
320,192,114184,1,0,0:0:0:0:
64,192,114275,1,0,0:0:0:0:
448,192,114366,1,0,0:0:0:0:
320,192,114366,1,0,0:0:0:0:
192,192,114366,1,0,0:0:0:0:
192,192,114457,1,0,0:0:0:0:
448,192,114548,1,0,0:0:0:0:
320,192,114638,1,0,0:0:0:0:
192,192,114729,1,0,0:0:0:0:
64,192,114729,1,0,0:0:0:0:
64,192,114820,1,0,0:0:0:0:
192,192,114911,1,0,0:0:0:0:
64,192,115002,1,0,0:0:0:0:
448,192,115093,1,0,0:0:0:0:
320,192,115093,1,0,0:0:0:0:
192,192,115093,1,0,0:0:0:0:
320,192,115184,1,0,0:0:0:0:
64,192,115283,1,0,0:0:0:0:
64,192,115374,1,0,0:0:0:0:
448,192,115457,1,0,0:0:0:0:
320,192,115457,1,0,0:0:0:0:
192,192,115548,1,0,0:0:0:0:
320,192,115638,1,0,0:0:0:0:
64,192,115729,1,0,0:0:0:0:
448,192,115820,1,0,0:0:0:0:
320,192,115820,1,0,0:0:0:0:
192,192,115820,1,0,0:0:0:0:
192,192,115911,1,0,0:0:0:0:
448,192,116002,1,0,0:0:0:0:
448,192,116093,1,0,0:0:0:0:
192,192,116184,1,0,0:0:0:0:
64,192,116184,1,0,0:0:0:0:
192,192,116275,1,0,0:0:0:0:
64,192,116366,1,0,0:0:0:0:
64,192,116457,1,0,0:0:0:0:
448,192,116548,1,0,0:0:0:0:
320,192,116548,1,0,0:0:0:0:
192,192,116548,1,0,0:0:0:0:
320,192,116638,1,0,0:0:0:0:
448,192,116737,1,0,0:0:0:0:
448,192,116828,1,0,0:0:0:0:
192,192,116911,1,0,0:0:0:0:
64,192,116911,1,0,0:0:0:0:
320,192,117002,1,0,0:0:0:0:
192,192,117093,1,0,0:0:0:0:
448,192,117184,1,0,0:0:0:0:
320,192,117275,1,0,0:0:0:0:
192,192,117275,1,0,0:0:0:0:
64,192,117275,1,0,0:0:0:0:
320,192,117366,1,0,0:0:0:0:
64,192,117457,1,0,0:0:0:0:
192,192,117548,1,0,0:0:0:0:
448,192,117638,1,0,0:0:0:0:
320,192,117638,1,0,0:0:0:0:
448,192,117729,1,0,0:0:0:0:
320,192,117820,1,0,0:0:0:0:
448,192,117911,1,0,0:0:0:0:
320,192,118002,1,0,0:0:0:0:
192,192,118002,1,0,0:0:0:0:
64,192,118002,1,0,0:0:0:0:
192,192,118093,1,0,0:0:0:0:
448,192,118192,1,0,0:0:0:0:
448,192,118283,1,0,0:0:0:0:
192,192,118366,1,0,0:0:0:0:
64,192,118366,1,0,0:0:0:0:
448,192,118457,1,0,0:0:0:0:
192,192,118548,1,0,0:0:0:0:
64,192,118548,1,0,0:0:0:0:
448,192,118638,1,0,0:0:0:0:
192,192,118729,1,0,0:0:0:0:
64,192,118729,1,0,0:0:0:0:
448,192,118820,1,0,0:0:0:0:
64,192,118911,1,0,0:0:0:0:
192,192,119002,1,0,0:0:0:0:
448,192,119093,1,0,0:0:0:0:
192,192,119184,1,0,0:0:0:0:
448,192,119275,1,0,0:0:0:0:
192,192,119366,1,0,0:0:0:0:
320,192,119457,1,0,0:0:0:0:
192,192,119548,1,0,0:0:0:0:
64,192,119646,1,0,0:0:0:0:
64,192,119737,1,0,0:0:0:0:
320,192,119820,1,0,0:0:0:0:
192,192,119911,1,0,0:0:0:0:
320,192,120002,1,0,0:0:0:0:
64,192,120093,1,0,0:0:0:0:
448,192,120184,1,0,0:0:0:0:
320,192,120184,1,0,0:0:0:0:
192,192,120184,1,0,0:0:0:0:
192,192,120275,1,0,0:0:0:0:
448,192,120366,1,0,0:0:0:0:
320,192,120457,1,0,0:0:0:0:
192,192,120548,1,0,0:0:0:0:
64,192,120548,1,0,0:0:0:0:
64,192,120638,1,0,0:0:0:0:
192,192,120729,1,0,0:0:0:0:
64,192,120820,1,0,0:0:0:0:
448,192,120911,1,0,0:0:0:0:
320,192,120911,1,0,0:0:0:0:
192,192,120911,1,0,0:0:0:0:
320,192,121002,1,0,0:0:0:0:
64,192,121101,1,0,0:0:0:0:
64,192,121192,1,0,0:0:0:0:
448,192,121275,1,0,0:0:0:0:
320,192,121275,1,0,0:0:0:0:
192,192,121366,1,0,0:0:0:0:
320,192,121457,1,0,0:0:0:0:
64,192,121548,1,0,0:0:0:0:
448,192,121638,1,0,0:0:0:0:
320,192,121638,1,0,0:0:0:0:
192,192,121638,1,0,0:0:0:0:
192,192,121729,1,0,0:0:0:0:
448,192,121820,1,0,0:0:0:0:
448,192,121911,1,0,0:0:0:0:
192,192,122002,1,0,0:0:0:0:
64,192,122002,1,0,0:0:0:0:
192,192,122093,1,0,0:0:0:0:
64,192,122184,1,0,0:0:0:0:
64,192,122275,1,0,0:0:0:0:
448,192,122366,1,0,0:0:0:0:
320,192,122366,1,0,0:0:0:0:
192,192,122366,1,0,0:0:0:0:
320,192,122457,1,0,0:0:0:0:
448,192,122556,1,0,0:0:0:0:
448,192,122646,1,0,0:0:0:0:
192,192,122729,1,0,0:0:0:0:
64,192,122729,1,0,0:0:0:0:
320,192,122820,1,0,0:0:0:0:
192,192,122911,1,0,0:0:0:0:
448,192,123002,1,0,0:0:0:0:
320,192,123093,1,0,0:0:0:0:
192,192,123093,1,0,0:0:0:0:
64,192,123093,1,0,0:0:0:0:
320,192,123184,1,0,0:0:0:0:
64,192,123275,1,0,0:0:0:0:
192,192,123366,1,0,0:0:0:0:
448,192,123457,1,0,0:0:0:0:
320,192,123457,1,0,0:0:0:0:
448,192,123548,1,0,0:0:0:0:
320,192,123638,1,0,0:0:0:0:
448,192,123729,1,0,0:0:0:0:
320,192,123820,1,0,0:0:0:0:
192,192,123820,1,0,0:0:0:0:
64,192,123820,1,0,0:0:0:0:
192,192,123911,1,0,0:0:0:0:
448,192,124010,1,0,0:0:0:0:
448,192,124101,1,0,0:0:0:0:
192,192,124184,1,0,0:0:0:0:
64,192,124184,1,0,0:0:0:0:
448,192,124275,1,0,0:0:0:0:
192,192,124366,1,0,0:0:0:0:
64,192,124366,1,0,0:0:0:0:
448,192,124457,1,0,0:0:0:0:
192,192,124548,1,0,0:0:0:0:
64,192,124548,1,0,0:0:0:0:
448,192,124638,1,0,0:0:0:0:
192,192,124729,1,0,0:0:0:0:
64,192,124820,1,0,0:0:0:0:
448,192,124911,1,0,0:0:0:0:
320,192,124911,1,0,0:0:0:0:
192,192,125002,1,0,0:0:0:0:
448,192,125093,1,0,0:0:0:0:
320,192,125093,1,0,0:0:0:0:
192,192,125184,1,0,0:0:0:0:
448,192,125275,1,0,0:0:0:0:
320,192,125275,1,0,0:0:0:0:
64,192,125366,1,0,0:0:0:0:
192,192,125465,1,0,0:0:0:0:
192,192,125556,1,0,0:0:0:0:
448,192,125638,1,0,0:0:0:0:
320,192,125638,1,0,0:0:0:0:
192,192,125729,1,0,0:0:0:0:
320,192,125820,1,0,0:0:0:0:
64,192,125911,1,0,0:0:0:0:
448,192,126002,1,0,0:0:0:0:
320,192,126002,1,0,0:0:0:0:
192,192,126002,1,0,0:0:0:0:
192,192,126093,1,0,0:0:0:0:
448,192,126184,1,0,0:0:0:0:
320,192,126275,1,0,0:0:0:0:
192,192,126366,1,0,0:0:0:0:
64,192,126366,1,0,0:0:0:0:
64,192,126457,1,0,0:0:0:0:
192,192,126548,1,0,0:0:0:0:
64,192,126638,1,0,0:0:0:0:
448,192,126729,1,0,0:0:0:0:
320,192,126729,1,0,0:0:0:0:
192,192,126729,1,0,0:0:0:0:
320,192,126820,1,0,0:0:0:0:
64,192,126919,1,0,0:0:0:0:
64,192,127010,1,0,0:0:0:0:
448,192,127093,1,0,0:0:0:0:
320,192,127093,1,0,0:0:0:0:
192,192,127184,1,0,0:0:0:0:
320,192,127275,1,0,0:0:0:0:
64,192,127366,1,0,0:0:0:0:
448,192,127457,1,0,0:0:0:0:
320,192,127457,1,0,0:0:0:0:
192,192,127457,1,0,0:0:0:0:
192,192,127548,1,0,0:0:0:0:
448,192,127638,1,0,0:0:0:0:
320,192,127729,1,0,0:0:0:0:
192,192,127820,1,0,0:0:0:0:
64,192,127820,1,0,0:0:0:0:
320,192,127911,1,0,0:0:0:0:
192,192,128002,1,0,0:0:0:0:
64,192,128093,1,0,0:0:0:0:
448,192,128184,1,0,0:0:0:0:
320,192,128184,1,0,0:0:0:0:
192,192,128184,1,0,0:0:0:0:
320,192,128275,1,0,0:0:0:0:
448,192,128374,1,0,0:0:0:0:
448,192,128465,1,0,0:0:0:0:
192,192,128548,1,0,0:0:0:0:
64,192,128548,1,0,0:0:0:0:
320,192,128638,1,0,0:0:0:0:
192,192,128729,1,0,0:0:0:0:
448,192,128820,1,0,0:0:0:0:
320,192,128911,1,0,0:0:0:0:
192,192,128911,1,0,0:0:0:0:
64,192,128911,1,0,0:0:0:0:
320,192,129002,1,0,0:0:0:0:
64,192,129093,1,0,0:0:0:0:
192,192,129184,1,0,0:0:0:0:
448,192,129275,1,0,0:0:0:0:
320,192,129275,1,0,0:0:0:0:
448,192,129366,1,0,0:0:0:0:
320,192,129457,1,0,0:0:0:0:
448,192,129548,1,0,0:0:0:0:
320,192,129638,1,0,0:0:0:0:
192,192,129638,1,0,0:0:0:0:
64,192,129638,1,0,0:0:0:0:
192,192,129729,1,0,0:0:0:0:
448,192,129828,1,0,0:0:0:0:
448,192,129919,1,0,0:0:0:0:
192,192,130002,1,0,0:0:0:0:
64,192,130002,1,0,0:0:0:0:
320,192,130093,1,0,0:0:0:0:
192,192,130184,1,0,0:0:0:0:
448,192,130275,1,0,0:0:0:0:
320,192,130366,1,0,0:0:0:0:
192,192,130366,1,0,0:0:0:0:
64,192,130366,1,0,0:0:0:0:
320,192,130457,1,0,0:0:0:0:
64,192,130548,1,0,0:0:0:0:
192,192,130638,1,0,0:0:0:0:
448,192,130729,1,0,0:0:0:0:
320,192,130729,1,0,0:0:0:0:
192,192,130820,1,0,0:0:0:0:
320,192,130911,1,0,0:0:0:0:
448,192,131002,1,0,0:0:0:0:
320,192,131093,1,0,0:0:0:0:
192,192,131093,1,0,0:0:0:0:
64,192,131093,1,0,0:0:0:0:
192,192,131184,1,0,0:0:0:0:
64,192,131283,1,0,0:0:0:0:
64,192,131374,1,0,0:0:0:0:
448,192,131457,1,0,0:0:0:0:
320,192,131457,1,0,0:0:0:0:
192,192,131548,1,0,0:0:0:0:
320,192,131638,1,0,0:0:0:0:
64,192,131729,1,0,0:0:0:0:
448,192,131820,1,0,0:0:0:0:
320,192,131820,1,0,0:0:0:0:
192,192,131820,1,0,0:0:0:0:
192,192,131911,1,0,0:0:0:0:
448,192,132002,1,0,0:0:0:0:
320,192,132093,1,0,0:0:0:0:
192,192,132184,1,0,0:0:0:0:
64,192,132184,1,0,0:0:0:0:
64,192,132275,1,0,0:0:0:0:
192,192,132366,1,0,0:0:0:0:
64,192,132457,1,0,0:0:0:0:
448,192,132548,1,0,0:0:0:0:
320,192,132548,1,0,0:0:0:0:
192,192,132548,1,0,0:0:0:0:
320,192,132638,1,0,0:0:0:0:
64,192,132737,1,0,0:0:0:0:
64,192,132828,1,0,0:0:0:0:
448,192,132911,1,0,0:0:0:0:
320,192,132911,1,0,0:0:0:0:
192,192,133002,1,0,0:0:0:0:
320,192,133093,1,0,0:0:0:0:
64,192,133184,1,0,0:0:0:0:
448,192,133275,1,0,0:0:0:0:
320,192,133275,1,0,0:0:0:0:
192,192,133275,1,0,0:0:0:0:
192,192,133366,1,0,0:0:0:0:
448,192,133457,1,0,0:0:0:0:
320,192,133548,1,0,0:0:0:0:
192,192,133638,1,0,0:0:0:0:
64,192,133638,1,0,0:0:0:0:
320,192,133729,1,0,0:0:0:0:
192,192,133820,1,0,0:0:0:0:
64,192,133911,1,0,0:0:0:0:
448,192,134002,1,0,0:0:0:0:
320,192,134002,1,0,0:0:0:0:
192,192,134002,1,0,0:0:0:0:
320,192,134093,1,0,0:0:0:0:
448,192,134192,1,0,0:0:0:0:
448,192,134283,1,0,0:0:0:0:
192,192,134366,1,0,0:0:0:0:
320,192,134548,1,0,0:0:0:0:
64,192,134638,1,0,0:0:0:0:
448,192,134729,1,0,0:0:0:0:
448,192,134911,1,0,0:0:0:0:
320,192,134911,1,0,0:0:0:0:
192,192,135002,1,0,0:0:0:0:
64,192,135002,1,0,0:0:0:0:
448,192,135093,1,0,0:0:0:0:
192,192,135184,1,0,0:0:0:0:
320,192,135275,1,0,0:0:0:0:
64,192,135366,1,0,0:0:0:0:
448,192,135457,1,0,0:0:0:0:
448,192,135638,1,0,0:0:0:0:
320,192,135638,1,0,0:0:0:0:
192,192,135729,1,0,0:0:0:0:
64,192,135729,1,0,0:0:0:0:
320,192,135820,1,0,0:0:0:0:
192,192,136002,128,0,136184:0:0:0:0:
448,192,136184,128,0,136366:0:0:0:0:
192,192,136366,1,0,0:0:0:0:
64,192,136366,1,0,0:0:0:0:
448,192,136457,1,0,0:0:0:0:
320,192,136457,1,0,0:0:0:0:
192,192,136548,1,0,0:0:0:0:
448,192,136729,128,0,136911:0:0:0:0:
320,192,136911,128,0,137093:0:0:0:0:
64,192,137093,1,0,0:0:0:0:
320,192,137184,1,0,0:0:0:0:
192,192,137275,1,0,0:0:0:0:
64,192,137275,128,0,137335:0:0:0:0:
448,192,137366,1,0,0:0:0:0:
192,192,137457,1,0,0:0:0:0:
320,192,137548,1,0,0:0:0:0:
192,192,137638,1,0,0:0:0:0:
64,192,137638,128,0,137699:0:0:0:0:
448,192,137729,1,0,0:0:0:0:
192,192,137820,1,0,0:0:0:0:
320,192,137911,1,0,0:0:0:0:
192,192,138002,1,0,0:0:0:0:
64,192,138002,128,0,138063:0:0:0:0:
448,192,138093,1,0,0:0:0:0:
192,192,138184,1,0,0:0:0:0:
320,192,138275,1,0,0:0:0:0:
192,192,138366,1,0,0:0:0:0:
64,192,138366,128,0,138426:0:0:0:0:
448,192,138457,1,0,0:0:0:0:
320,192,138548,1,0,0:0:0:0:
448,192,138638,1,0,0:0:0:0:
192,192,138729,1,0,0:0:0:0:
64,192,138729,128,0,138790:0:0:0:0:
320,192,138820,1,0,0:0:0:0:
64,192,138911,1,0,0:0:0:0:
192,192,139002,1,0,0:0:0:0:
448,192,139093,1,0,0:0:0:0:
64,192,139093,128,0,139154:0:0:0:0:
320,192,139184,1,0,0:0:0:0:
64,192,139275,1,0,0:0:0:0:
192,192,139366,1,0,0:0:0:0:
448,192,139457,1,0,0:0:0:0:
64,192,139457,128,0,139517:0:0:0:0:
320,192,139548,1,0,0:0:0:0:
64,192,139638,1,0,0:0:0:0:
192,192,139729,1,0,0:0:0:0:
448,192,139820,1,0,0:0:0:0:
64,192,139820,128,0,139881:0:0:0:0:
320,192,139911,1,0,0:0:0:0:
192,192,140002,1,0,0:0:0:0:
448,192,140093,1,0,0:0:0:0:
320,192,140184,1,0,0:0:0:0:
64,192,140184,128,0,140244:0:0:0:0:
192,192,140275,1,0,0:0:0:0:
320,192,140366,1,0,0:0:0:0:
448,192,140457,1,0,0:0:0:0:
320,192,140548,1,0,0:0:0:0:
64,192,140548,128,0,140608:0:0:0:0:
192,192,140638,1,0,0:0:0:0:
320,192,140729,1,0,0:0:0:0:
448,192,140820,1,0,0:0:0:0:
320,192,140911,1,0,0:0:0:0:
64,192,140911,1,0,0:0:0:0:
192,192,141002,1,0,0:0:0:0:
320,192,141093,1,0,0:0:0:0:
448,192,141184,1,0,0:0:0:0:
320,192,141275,1,0,0:0:0:0:
64,192,141275,1,0,0:0:0:0:
448,192,141366,1,0,0:0:0:0:
192,192,141457,1,0,0:0:0:0:
320,192,141548,1,0,0:0:0:0:
448,192,141638,1,0,0:0:0:0:
64,192,141638,1,0,0:0:0:0:
192,192,141729,1,0,0:0:0:0:
448,192,141820,1,0,0:0:0:0:
320,192,141911,1,0,0:0:0:0:
448,192,142002,1,0,0:0:0:0:
64,192,142002,1,0,0:0:0:0:
192,192,142093,1,0,0:0:0:0:
448,192,142184,1,0,0:0:0:0:
320,192,142275,1,0,0:0:0:0:
448,192,142366,1,0,0:0:0:0:
192,192,142457,1,0,0:0:0:0:
448,192,142548,1,0,0:0:0:0:
320,192,142638,1,0,0:0:0:0:
448,192,142729,1,0,0:0:0:0:
64,192,142820,1,0,0:0:0:0:
448,192,142911,1,0,0:0:0:0:
192,192,143002,1,0,0:0:0:0:
448,192,143093,1,0,0:0:0:0:
320,192,143093,1,0,0:0:0:0:
64,192,143184,1,0,0:0:0:0:
320,192,143275,1,0,0:0:0:0:
192,192,143366,1,0,0:0:0:0:
448,192,143457,1,0,0:0:0:0:
320,192,143457,1,0,0:0:0:0:
64,192,143457,1,0,0:0:0:0:
64,192,143548,1,0,0:0:0:0:
448,192,143638,1,0,0:0:0:0:
320,192,143729,1,0,0:0:0:0:
192,192,143820,1,0,0:0:0:0:
64,192,143820,1,0,0:0:0:0:
192,192,143911,1,0,0:0:0:0:
320,192,144002,1,0,0:0:0:0:
192,192,144093,1,0,0:0:0:0:
448,192,144184,1,0,0:0:0:0:
320,192,144184,1,0,0:0:0:0:
64,192,144184,1,0,0:0:0:0:
64,192,144275,1,0,0:0:0:0:
448,192,144366,1,0,0:0:0:0:
320,192,144457,1,0,0:0:0:0:
192,192,144548,1,0,0:0:0:0:
64,192,144548,1,0,0:0:0:0:
192,192,144638,1,0,0:0:0:0:
320,192,144729,1,0,0:0:0:0:
192,192,144820,1,0,0:0:0:0:
448,192,144911,1,0,0:0:0:0:
320,192,144911,1,0,0:0:0:0:
64,192,144911,1,0,0:0:0:0:
64,192,145002,1,0,0:0:0:0:
448,192,145093,1,0,0:0:0:0:
320,192,145184,1,0,0:0:0:0:
192,192,145275,1,0,0:0:0:0:
64,192,145275,1,0,0:0:0:0:
448,192,145320,1,0,0:0:0:0:
192,192,145366,1,0,0:0:0:0:
320,192,145457,1,0,0:0:0:0:
448,192,145502,1,0,0:0:0:0:
192,192,145548,1,0,0:0:0:0:
448,192,145638,1,0,0:0:0:0:
320,192,145638,1,0,0:0:0:0:
64,192,145638,1,0,0:0:0:0:
64,192,145729,1,0,0:0:0:0:
448,192,145820,1,0,0:0:0:0:
320,192,145911,1,0,0:0:0:0:
192,192,146002,1,0,0:0:0:0:
64,192,146002,1,0,0:0:0:0:
192,192,146093,1,0,0:0:0:0:
320,192,146184,1,0,0:0:0:0:
192,192,146275,1,0,0:0:0:0:
448,192,146366,1,0,0:0:0:0:
320,192,146366,1,0,0:0:0:0:
64,192,146366,1,0,0:0:0:0:
64,192,146457,1,0,0:0:0:0:
448,192,146548,1,0,0:0:0:0:
320,192,146638,1,0,0:0:0:0:
192,192,146729,1,0,0:0:0:0:
64,192,146729,1,0,0:0:0:0:
192,192,146820,1,0,0:0:0:0:
320,192,146911,1,0,0:0:0:0:
192,192,147002,1,0,0:0:0:0:
448,192,147093,1,0,0:0:0:0:
320,192,147093,1,0,0:0:0:0:
64,192,147093,1,0,0:0:0:0:
64,192,147184,1,0,0:0:0:0:
448,192,147275,1,0,0:0:0:0:
320,192,147366,1,0,0:0:0:0:
192,192,147457,1,0,0:0:0:0:
64,192,147457,1,0,0:0:0:0:
192,192,147548,1,0,0:0:0:0:
320,192,147638,1,0,0:0:0:0:
192,192,147729,1,0,0:0:0:0:
448,192,147820,1,0,0:0:0:0:
320,192,147820,1,0,0:0:0:0:
64,192,147820,1,0,0:0:0:0:
64,192,147911,1,0,0:0:0:0:
448,192,148002,1,0,0:0:0:0:
320,192,148093,1,0,0:0:0:0:
192,192,148184,1,0,0:0:0:0:
64,192,148184,1,0,0:0:0:0:
192,192,148275,1,0,0:0:0:0:
320,192,148366,1,0,0:0:0:0:
192,192,148457,1,0,0:0:0:0:
448,192,148548,1,0,0:0:0:0:
320,192,148548,1,0,0:0:0:0:
64,192,148548,1,0,0:0:0:0:
64,192,148638,1,0,0:0:0:0:
448,192,148729,1,0,0:0:0:0:
320,192,148820,1,0,0:0:0:0:
192,192,148911,1,0,0:0:0:0:
64,192,148911,1,0,0:0:0:0:
192,192,149002,1,0,0:0:0:0:
320,192,149093,1,0,0:0:0:0:
192,192,149184,1,0,0:0:0:0:
448,192,149275,1,0,0:0:0:0:
320,192,149275,1,0,0:0:0:0:
64,192,149275,1,0,0:0:0:0:
64,192,149366,1,0,0:0:0:0:
448,192,149457,1,0,0:0:0:0:
320,192,149548,1,0,0:0:0:0:
192,192,149638,1,0,0:0:0:0:
64,192,149638,1,0,0:0:0:0:
192,192,149729,1,0,0:0:0:0:
320,192,149820,1,0,0:0:0:0:
192,192,149911,1,0,0:0:0:0:
448,192,150002,1,0,0:0:0:0:
320,192,150002,1,0,0:0:0:0:
64,192,150002,1,0,0:0:0:0:
64,192,150093,1,0,0:0:0:0:
448,192,150184,1,0,0:0:0:0:
320,192,150275,1,0,0:0:0:0:
192,192,150366,1,0,0:0:0:0:
64,192,150366,1,0,0:0:0:0:
192,192,150457,1,0,0:0:0:0:
320,192,150548,1,0,0:0:0:0:
192,192,150638,1,0,0:0:0:0:
448,192,150729,1,0,0:0:0:0:
320,192,150729,1,0,0:0:0:0:
64,192,150729,1,0,0:0:0:0:
64,192,150820,1,0,0:0:0:0:
448,192,150911,1,0,0:0:0:0:
320,192,151002,1,0,0:0:0:0:
192,192,151093,1,0,0:0:0:0:
64,192,151093,1,0,0:0:0:0:
192,192,151184,1,0,0:0:0:0:
320,192,151275,1,0,0:0:0:0:
192,192,151366,1,0,0:0:0:0:
448,192,151457,1,0,0:0:0:0:
320,192,151457,1,0,0:0:0:0:
64,192,151457,1,0,0:0:0:0:
64,192,151548,1,0,0:0:0:0:
448,192,151638,1,0,0:0:0:0:
320,192,151729,1,0,0:0:0:0:
192,192,151820,1,0,0:0:0:0:
64,192,151820,1,0,0:0:0:0:
192,192,151911,1,0,0:0:0:0:
320,192,152002,1,0,0:0:0:0:
192,192,152093,1,0,0:0:0:0:
448,192,152184,1,0,0:0:0:0:
320,192,152184,1,0,0:0:0:0:
64,192,152184,1,0,0:0:0:0:
64,192,152275,1,0,0:0:0:0:
448,192,152366,1,0,0:0:0:0:
320,192,152457,1,0,0:0:0:0:
192,192,152548,1,0,0:0:0:0:
64,192,152548,1,0,0:0:0:0:
192,192,152638,1,0,0:0:0:0:
320,192,152729,1,0,0:0:0:0:
192,192,152820,1,0,0:0:0:0:
448,192,152911,1,0,0:0:0:0:
320,192,152911,1,0,0:0:0:0:
64,192,152911,1,0,0:0:0:0:
64,192,153002,1,0,0:0:0:0:
448,192,153093,1,0,0:0:0:0:
320,192,153184,1,0,0:0:0:0:
192,192,153275,1,0,0:0:0:0:
64,192,153275,1,0,0:0:0:0:
192,192,153366,1,0,0:0:0:0:
320,192,153457,1,0,0:0:0:0:
320,192,153548,1,0,0:0:0:0:
448,192,153638,1,0,0:0:0:0:
192,192,153638,1,0,0:0:0:0:
64,192,153638,1,0,0:0:0:0:
64,192,153729,1,0,0:0:0:0:
320,192,153820,1,0,0:0:0:0:
320,192,153911,1,0,0:0:0:0:
320,192,154002,1,0,0:0:0:0:
320,192,154093,1,0,0:0:0:0:
320,192,154184,1,0,0:0:0:0:
320,192,154275,1,0,0:0:0:0:
192,192,154366,1,0,0:0:0:0:
192,192,154457,1,0,0:0:0:0:
192,192,154548,1,0,0:0:0:0:
448,192,154638,1,0,0:0:0:0:
64,192,154638,1,0,0:0:0:0:
192,192,154729,1,0,0:0:0:0:
64,192,154729,1,0,0:0:0:0:
448,192,154820,1,0,0:0:0:0:
192,192,154911,1,0,0:0:0:0:
320,192,155002,1,0,0:0:0:0:
448,192,155093,1,0,0:0:0:0:
192,192,155093,1,0,0:0:0:0:
64,192,155093,1,0,0:0:0:0:
448,192,155184,1,0,0:0:0:0:
64,192,155275,1,0,0:0:0:0:
192,192,155366,1,0,0:0:0:0:
448,192,155457,1,0,0:0:0:0:
320,192,155457,1,0,0:0:0:0:
320,192,155548,1,0,0:0:0:0:
192,192,155638,1,0,0:0:0:0:
320,192,155729,1,0,0:0:0:0:
448,192,155820,1,0,0:0:0:0:
192,192,155820,1,0,0:0:0:0:
64,192,155820,1,0,0:0:0:0:
448,192,155911,1,0,0:0:0:0:
64,192,156002,1,0,0:0:0:0:
192,192,156093,1,0,0:0:0:0:
448,192,156184,1,0,0:0:0:0:
320,192,156184,1,0,0:0:0:0:
320,192,156275,1,0,0:0:0:0:
192,192,156366,1,0,0:0:0:0:
320,192,156457,1,0,0:0:0:0:
448,192,156548,1,0,0:0:0:0:
192,192,156548,1,0,0:0:0:0:
64,192,156548,1,0,0:0:0:0:
448,192,156638,1,0,0:0:0:0:
64,192,156729,1,0,0:0:0:0:
192,192,156820,1,0,0:0:0:0:
448,192,156911,1,0,0:0:0:0:
320,192,156911,1,0,0:0:0:0:
64,192,157002,1,0,0:0:0:0:
448,192,157093,1,0,0:0:0:0:
320,192,157093,1,0,0:0:0:0:
64,192,157184,1,0,0:0:0:0:
448,192,157275,1,0,0:0:0:0:
320,192,157275,1,0,0:0:0:0:
64,192,157366,1,0,0:0:0:0:
448,192,157457,1,0,0:0:0:0:
320,192,157548,1,0,0:0:0:0:
192,192,157638,1,0,0:0:0:0:
64,192,157638,1,0,0:0:0:0:
448,192,157729,1,0,0:0:0:0:
192,192,157820,1,0,0:0:0:0:
320,192,157911,1,0,0:0:0:0:
448,192,158002,1,0,0:0:0:0:
192,192,158002,1,0,0:0:0:0:
64,192,158002,1,0,0:0:0:0:
448,192,158093,1,0,0:0:0:0:
64,192,158184,1,0,0:0:0:0:
192,192,158275,1,0,0:0:0:0:
448,192,158366,1,0,0:0:0:0:
320,192,158366,1,0,0:0:0:0:
320,192,158457,1,0,0:0:0:0:
192,192,158548,1,0,0:0:0:0:
320,192,158638,1,0,0:0:0:0:
448,192,158729,1,0,0:0:0:0:
192,192,158729,1,0,0:0:0:0:
64,192,158729,1,0,0:0:0:0:
448,192,158820,1,0,0:0:0:0:
64,192,158911,1,0,0:0:0:0:
192,192,159002,1,0,0:0:0:0:
448,192,159093,1,0,0:0:0:0:
320,192,159093,1,0,0:0:0:0:
320,192,159184,1,0,0:0:0:0:
192,192,159275,1,0,0:0:0:0:
320,192,159366,1,0,0:0:0:0:
448,192,159457,1,0,0:0:0:0:
192,192,159457,1,0,0:0:0:0:
64,192,159457,1,0,0:0:0:0:
448,192,159548,1,0,0:0:0:0:
64,192,159638,1,0,0:0:0:0:
192,192,159729,1,0,0:0:0:0:
448,192,159820,1,0,0:0:0:0:
320,192,159820,1,0,0:0:0:0:
320,192,159911,1,0,0:0:0:0:
192,192,160002,1,0,0:0:0:0:
320,192,160093,1,0,0:0:0:0:
448,192,160184,1,0,0:0:0:0:
192,192,160184,1,0,0:0:0:0:
64,192,160184,1,0,0:0:0:0:
448,192,160275,1,0,0:0:0:0:
64,192,160366,1,0,0:0:0:0:
192,192,160457,1,0,0:0:0:0:
448,192,160548,1,0,0:0:0:0:
320,192,160548,1,0,0:0:0:0:
320,192,160638,1,0,0:0:0:0:
192,192,160729,1,0,0:0:0:0:
320,192,160820,1,0,0:0:0:0:
448,192,160911,1,0,0:0:0:0:
192,192,160911,1,0,0:0:0:0:
64,192,160911,1,0,0:0:0:0:
448,192,161002,1,0,0:0:0:0:
64,192,161093,1,0,0:0:0:0:
192,192,161184,1,0,0:0:0:0:
448,192,161275,1,0,0:0:0:0:
320,192,161275,1,0,0:0:0:0:
320,192,161366,1,0,0:0:0:0:
192,192,161457,1,0,0:0:0:0:
320,192,161548,1,0,0:0:0:0:
448,192,161638,1,0,0:0:0:0:
192,192,161638,1,0,0:0:0:0:
64,192,161638,1,0,0:0:0:0:
448,192,161729,1,0,0:0:0:0:
64,192,161820,1,0,0:0:0:0:
192,192,161911,1,0,0:0:0:0:
448,192,162002,1,0,0:0:0:0:
320,192,162002,1,0,0:0:0:0:
320,192,162093,1,0,0:0:0:0:
192,192,162184,1,0,0:0:0:0:
320,192,162275,1,0,0:0:0:0:
448,192,162366,1,0,0:0:0:0:
192,192,162366,1,0,0:0:0:0:
64,192,162366,1,0,0:0:0:0:
448,192,162457,1,0,0:0:0:0:
64,192,162548,1,0,0:0:0:0:
192,192,162638,1,0,0:0:0:0:
448,192,162729,1,0,0:0:0:0:
320,192,162729,1,0,0:0:0:0:
320,192,162820,1,0,0:0:0:0:
192,192,162911,1,0,0:0:0:0:
320,192,163002,1,0,0:0:0:0:
448,192,163093,1,0,0:0:0:0:
192,192,163093,1,0,0:0:0:0:
64,192,163093,1,0,0:0:0:0:
448,192,163184,1,0,0:0:0:0:
64,192,163275,1,0,0:0:0:0:
192,192,163366,1,0,0:0:0:0:
448,192,163457,1,0,0:0:0:0:
320,192,163457,1,0,0:0:0:0:
320,192,163548,1,0,0:0:0:0:
192,192,163638,1,0,0:0:0:0:
320,192,163729,1,0,0:0:0:0:
448,192,163820,1,0,0:0:0:0:
192,192,163820,1,0,0:0:0:0:
64,192,163820,1,0,0:0:0:0:
448,192,163911,1,0,0:0:0:0:
64,192,164002,1,0,0:0:0:0:
192,192,164093,1,0,0:0:0:0:
448,192,164184,1,0,0:0:0:0:
320,192,164184,1,0,0:0:0:0:
320,192,164275,1,0,0:0:0:0:
192,192,164366,1,0,0:0:0:0:
320,192,164457,1,0,0:0:0:0:
448,192,164548,1,0,0:0:0:0:
192,192,164548,1,0,0:0:0:0:
64,192,164548,1,0,0:0:0:0:
448,192,164638,1,0,0:0:0:0:
64,192,164729,1,0,0:0:0:0:
192,192,164820,1,0,0:0:0:0:
448,192,164911,1,0,0:0:0:0:
320,192,164911,1,0,0:0:0:0:
320,192,165002,1,0,0:0:0:0:
192,192,165093,1,0,0:0:0:0:
320,192,165184,1,0,0:0:0:0:
448,192,165275,1,0,0:0:0:0:
192,192,165275,1,0,0:0:0:0:
64,192,165275,1,0,0:0:0:0:
448,192,165366,1,0,0:0:0:0:
64,192,165457,1,0,0:0:0:0:
192,192,165548,1,0,0:0:0:0:
448,192,165638,1,0,0:0:0:0:
320,192,165638,1,0,0:0:0:0:
320,192,165729,1,0,0:0:0:0:
192,192,165820,1,0,0:0:0:0:
320,192,165911,1,0,0:0:0:0:
448,192,166002,1,0,0:0:0:0:
192,192,166002,1,0,0:0:0:0:
64,192,166002,1,0,0:0:0:0:
448,192,166093,1,0,0:0:0:0:
64,192,166184,1,0,0:0:0:0:
192,192,166275,1,0,0:0:0:0:
320,192,166366,1,0,0:0:0:0:
192,192,166457,1,0,0:0:0:0:
64,192,166548,1,0,0:0:0:0:
320,192,166638,1,0,0:0:0:0:
448,192,166729,1,0,0:0:0:0:
64,192,166820,1,0,0:0:0:0:
448,192,166911,1,0,0:0:0:0:
320,192,166911,1,0,0:0:0:0:
192,192,167002,1,0,0:0:0:0:
64,192,167002,1,0,0:0:0:0:
320,192,167093,1,0,0:0:0:0:
192,192,167184,1,0,0:0:0:0:
448,192,167275,1,0,0:0:0:0:
64,192,167275,1,0,0:0:0:0:
320,192,167366,1,0,0:0:0:0:
192,192,167366,1,0,0:0:0:0:
448,192,167457,1,0,0:0:0:0:
320,192,167548,1,0,0:0:0:0:
192,192,167646,1,0,0:0:0:0:
64,192,167646,1,0,0:0:0:0:
192,192,167737,1,0,0:0:0:0:
64,192,167737,1,0,0:0:0:0:
320,192,167820,1,0,0:0:0:0:
192,192,167911,1,0,0:0:0:0:
448,192,168002,1,0,0:0:0:0:
64,192,168002,1,0,0:0:0:0:
320,192,168093,1,0,0:0:0:0:
192,192,168093,1,0,0:0:0:0:
448,192,168184,1,0,0:0:0:0:
64,192,168275,1,0,0:0:0:0:
448,192,168366,1,0,0:0:0:0:
320,192,168366,1,0,0:0:0:0:
192,192,168457,1,0,0:0:0:0:
64,192,168457,1,0,0:0:0:0:
320,192,168548,1,0,0:0:0:0:
192,192,168638,1,0,0:0:0:0:
448,192,168729,1,0,0:0:0:0:
64,192,168729,1,0,0:0:0:0:
320,192,168820,1,0,0:0:0:0:
192,192,168820,1,0,0:0:0:0:
448,192,168911,1,0,0:0:0:0:
320,192,169002,1,0,0:0:0:0:
192,192,169093,1,0,0:0:0:0:
64,192,169101,1,0,0:0:0:0:
448,192,169184,1,0,0:0:0:0:
64,192,169192,1,0,0:0:0:0:
320,192,169275,1,0,0:0:0:0:
320,192,169366,1,0,0:0:0:0:
192,192,169457,1,0,0:0:0:0:
192,192,169548,1,0,0:0:0:0:
448,192,169638,1,0,0:0:0:0:
64,192,169729,1,0,0:0:0:0:
448,192,169820,1,0,0:0:0:0:
448,192,169911,1,0,0:0:0:0:
448,192,170002,1,0,0:0:0:0:
448,192,170093,1,0,0:0:0:0:
448,192,170184,1,0,0:0:0:0:
448,192,170275,1,0,0:0:0:0:
192,192,170366,1,0,0:0:0:0:
192,192,170457,1,0,0:0:0:0:
192,192,170548,1,0,0:0:0:0:
192,192,170638,1,0,0:0:0:0:
320,192,170729,1,0,0:0:0:0:
192,192,170820,1,0,0:0:0:0:
64,192,170911,1,0,0:0:0:0:
320,192,171002,1,0,0:0:0:0:
448,192,171093,1,0,0:0:0:0:
64,192,171184,1,0,0:0:0:0:
448,192,171275,1,0,0:0:0:0:
320,192,171275,1,0,0:0:0:0:
192,192,171366,1,0,0:0:0:0:
64,192,171366,1,0,0:0:0:0:
320,192,171457,1,0,0:0:0:0:
192,192,171548,1,0,0:0:0:0:
448,192,171638,1,0,0:0:0:0:
64,192,171638,1,0,0:0:0:0:
320,192,171729,1,0,0:0:0:0:
448,192,171820,128,0,171911:0:0:0:0:
64,192,171820,128,0,171911:0:0:0:0:
192,192,171911,1,0,0:0:0:0:
448,192,172002,128,0,172093:0:0:0:0:
64,192,172002,128,0,172093:0:0:0:0:
192,192,172093,1,0,0:0:0:0:
448,192,172184,1,0,0:0:0:0:
320,192,172184,1,0,0:0:0:0:
192,192,172275,1,0,0:0:0:0:
320,192,172366,1,0,0:0:0:0:
64,192,172457,1,0,0:0:0:0:
448,192,172548,1,0,0:0:0:0:
320,192,172548,1,0,0:0:0:0:
192,192,172548,1,0,0:0:0:0:
192,192,172638,1,0,0:0:0:0:
448,192,172729,1,0,0:0:0:0:
320,192,172820,1,0,0:0:0:0:
192,192,172911,1,0,0:0:0:0:
64,192,172911,1,0,0:0:0:0:
320,192,173002,1,0,0:0:0:0:
192,192,173093,1,0,0:0:0:0:
64,192,173184,1,0,0:0:0:0:
448,192,173275,1,0,0:0:0:0:
320,192,173275,1,0,0:0:0:0:
192,192,173275,1,0,0:0:0:0:
320,192,173366,1,0,0:0:0:0:
64,192,173465,1,0,0:0:0:0:
64,192,173556,1,0,0:0:0:0:
448,192,173638,1,0,0:0:0:0:
320,192,173638,1,0,0:0:0:0:
192,192,173729,1,0,0:0:0:0:
320,192,173820,1,0,0:0:0:0:
64,192,173911,1,0,0:0:0:0:
448,192,174002,1,0,0:0:0:0:
320,192,174002,1,0,0:0:0:0:
192,192,174002,1,0,0:0:0:0:
192,192,174093,1,0,0:0:0:0:
448,192,174184,1,0,0:0:0:0:
320,192,174275,1,0,0:0:0:0:
192,192,174366,1,0,0:0:0:0:
64,192,174366,1,0,0:0:0:0:
320,192,174457,1,0,0:0:0:0:
192,192,174548,1,0,0:0:0:0:
64,192,174638,1,0,0:0:0:0:
448,192,174729,1,0,0:0:0:0:
320,192,174729,1,0,0:0:0:0:
192,192,174729,1,0,0:0:0:0:
320,192,174820,1,0,0:0:0:0:
448,192,174919,1,0,0:0:0:0:
448,192,175010,1,0,0:0:0:0:
192,192,175093,1,0,0:0:0:0:
64,192,175093,1,0,0:0:0:0:
320,192,175184,1,0,0:0:0:0:
192,192,175275,1,0,0:0:0:0:
448,192,175366,1,0,0:0:0:0:
320,192,175457,1,0,0:0:0:0:
192,192,175457,1,0,0:0:0:0:
64,192,175457,1,0,0:0:0:0:
320,192,175548,1,0,0:0:0:0:
64,192,175638,1,0,0:0:0:0:
192,192,175729,1,0,0:0:0:0:
448,192,175820,1,0,0:0:0:0:
320,192,175820,1,0,0:0:0:0:
192,192,175911,1,0,0:0:0:0:
320,192,176002,1,0,0:0:0:0:
448,192,176093,1,0,0:0:0:0:
320,192,176184,1,0,0:0:0:0:
192,192,176184,1,0,0:0:0:0:
64,192,176184,1,0,0:0:0:0:
192,192,176275,1,0,0:0:0:0:
448,192,176374,1,0,0:0:0:0:
448,192,176465,1,0,0:0:0:0:
192,192,176548,1,0,0:0:0:0:
64,192,176548,1,0,0:0:0:0:
320,192,176638,1,0,0:0:0:0:
192,192,176729,1,0,0:0:0:0:
448,192,176820,1,0,0:0:0:0:
320,192,176911,1,0,0:0:0:0:
192,192,176911,1,0,0:0:0:0:
64,192,176911,1,0,0:0:0:0:
320,192,177002,1,0,0:0:0:0:
64,192,177093,1,0,0:0:0:0:
192,192,177184,1,0,0:0:0:0:
448,192,177275,1,0,0:0:0:0:
320,192,177275,1,0,0:0:0:0:
192,192,177366,1,0,0:0:0:0:
320,192,177457,1,0,0:0:0:0:
448,192,177548,1,0,0:0:0:0:
320,192,177638,1,0,0:0:0:0:
192,192,177638,1,0,0:0:0:0:
64,192,177638,1,0,0:0:0:0:
192,192,177729,1,0,0:0:0:0:
64,192,177828,1,0,0:0:0:0:
64,192,177919,1,0,0:0:0:0:
448,192,178002,1,0,0:0:0:0:
320,192,178002,1,0,0:0:0:0:
192,192,178093,1,0,0:0:0:0:
320,192,178184,1,0,0:0:0:0:
64,192,178275,1,0,0:0:0:0:
448,192,178366,1,0,0:0:0:0:
320,192,178366,1,0,0:0:0:0:
192,192,178457,1,0,0:0:0:0:
448,192,178548,1,0,0:0:0:0:
320,192,178638,1,0,0:0:0:0:
192,192,178729,1,0,0:0:0:0:
64,192,178729,1,0,0:0:0:0:
320,192,178820,1,0,0:0:0:0:
192,192,178911,1,0,0:0:0:0:
64,192,179002,1,0,0:0:0:0:
448,192,179093,1,0,0:0:0:0:
320,192,179093,1,0,0:0:0:0:
192,192,179184,1,0,0:0:0:0:
64,192,179283,1,0,0:0:0:0:
64,192,179374,1,0,0:0:0:0:
448,192,179457,1,0,0:0:0:0:
320,192,179457,1,0,0:0:0:0:
192,192,179548,1,0,0:0:0:0:
320,192,179638,1,0,0:0:0:0:
64,192,179729,1,0,0:0:0:0:
448,192,179820,1,0,0:0:0:0:
320,192,179820,1,0,0:0:0:0:
192,192,179911,1,0,0:0:0:0:
448,192,180002,1,0,0:0:0:0:
320,192,180093,1,0,0:0:0:0:
192,192,180184,1,0,0:0:0:0:
64,192,180184,1,0,0:0:0:0:
320,192,180275,1,0,0:0:0:0:
192,192,180366,1,0,0:0:0:0:
64,192,180457,1,0,0:0:0:0:
448,192,180548,1,0,0:0:0:0:
320,192,180548,1,0,0:0:0:0:
192,192,180638,1,0,0:0:0:0:
448,192,180737,1,0,0:0:0:0:
448,192,180828,1,0,0:0:0:0:
192,192,180911,1,0,0:0:0:0:
64,192,180911,1,0,0:0:0:0:
448,192,181002,1,0,0:0:0:0:
192,192,181093,1,0,0:0:0:0:
64,192,181093,1,0,0:0:0:0:
448,192,181184,1,0,0:0:0:0:
192,192,181275,1,0,0:0:0:0:
64,192,181275,1,0,0:0:0:0:
448,192,181366,1,0,0:0:0:0:
64,192,181465,1,0,0:0:0:0:
64,192,181556,1,0,0:0:0:0:
448,192,181638,1,0,0:0:0:0:
320,192,181638,1,0,0:0:0:0:
192,192,181729,1,0,0:0:0:0:
448,192,181820,1,0,0:0:0:0:
320,192,181820,1,0,0:0:0:0:
192,192,181911,1,0,0:0:0:0:
448,192,182002,1,0,0:0:0:0:
320,192,182002,1,0,0:0:0:0:
192,192,182093,1,0,0:0:0:0:
448,192,182192,1,0,0:0:0:0:
448,192,182283,1,0,0:0:0:0:
192,192,182366,1,0,0:0:0:0:
64,192,182366,1,0,0:0:0:0:
448,192,182457,1,0,0:0:0:0:
192,192,182548,1,0,0:0:0:0:
64,192,182548,1,0,0:0:0:0:
448,192,182638,1,0,0:0:0:0:
192,192,182729,1,0,0:0:0:0:
64,192,182729,1,0,0:0:0:0:
448,192,182820,1,0,0:0:0:0:
64,192,182919,1,0,0:0:0:0:
64,192,183010,1,0,0:0:0:0:
448,192,183093,1,0,0:0:0:0:
320,192,183093,1,0,0:0:0:0:
192,192,183184,1,0,0:0:0:0:
448,192,183275,1,0,0:0:0:0:
320,192,183275,1,0,0:0:0:0:
192,192,183366,1,0,0:0:0:0:
448,192,183457,1,0,0:0:0:0:
320,192,183457,1,0,0:0:0:0:
192,192,183548,1,0,0:0:0:0:
448,192,183646,1,0,0:0:0:0:
448,192,183737,1,0,0:0:0:0:
192,192,183821,1,0,0:0:0:0:
64,192,183821,1,0,0:0:0:0:
320,192,183914,1,0,0:0:0:0:
192,192,184008,1,0,0:0:0:0:
448,192,184102,1,0,0:0:0:0:
192,192,184196,1,0,0:0:0:0:
64,192,184196,1,0,0:0:0:0:
320,192,184294,1,0,0:0:0:0:
64,192,184392,1,0,0:0:0:0:
192,192,184490,1,0,0:0:0:0:
448,192,184589,1,0,0:0:0:0:
320,192,184589,1,0,0:0:0:0:
192,192,184688,1,0,0:0:0:0:
320,192,184788,1,0,0:0:0:0:
448,192,184887,1,0,0:0:0:0:
192,192,184987,1,0,0:0:0:0:
64,192,184987,1,0,0:0:0:0:
320,192,185089,1,0,0:0:0:0:
448,192,185200,1,0,0:0:0:0:
448,192,185302,1,0,0:0:0:0:
192,192,185396,1,0,0:0:0:0:
64,192,185396,1,0,0:0:0:0:
320,192,185498,1,0,0:0:0:0:
192,192,185601,1,0,0:0:0:0:
448,192,185703,1,0,0:0:0:0:
192,192,185806,1,0,0:0:0:0:
64,192,185806,1,0,0:0:0:0:
320,192,185921,1,0,0:0:0:0:
64,192,186036,1,0,0:0:0:0:
192,192,186151,1,0,0:0:0:0:
448,192,186267,1,0,0:0:0:0:
320,192,186267,1,0,0:0:0:0:
192,192,186381,1,0,0:0:0:0:
320,192,186496,1,0,0:0:0:0:
448,192,186611,1,0,0:0:0:0:
192,192,186726,1,0,0:0:0:0:
64,192,186726,1,0,0:0:0:0:
320,192,186845,1,0,0:0:0:0:
64,192,186974,1,0,0:0:0:0:
64,192,187094,1,0,0:0:0:0:
448,192,187203,1,0,0:0:0:0:
320,192,187203,1,0,0:0:0:0:
192,192,187330,1,0,0:0:0:0:
320,192,187458,1,0,0:0:0:0:
64,192,187586,1,0,0:0:0:0:
448,192,187715,1,0,0:0:0:0:
320,192,187715,1,0,0:0:0:0:
192,192,187851,1,0,0:0:0:0:
448,192,187988,1,0,0:0:0:0:
320,192,188125,1,0,0:0:0:0:
192,192,188262,1,0,0:0:0:0:
64,192,188262,1,0,0:0:0:0:
320,192,188408,1,0,0:0:0:0:
192,192,188554,1,0,0:0:0:0:
64,192,188700,1,0,0:0:0:0:
448,192,188847,1,0,0:0:0:0:
320,192,188847,1,0,0:0:0:0:
192,192,189006,1,0,0:0:0:0:
64,192,189180,1,0,0:0:0:0:
64,192,189340,1,0,0:0:0:0:
448,192,189486,1,0,0:0:0:0:
320,192,189486,1,0,0:0:0:0:
192,192,189674,1,0,0:0:0:0:
320,192,189863,1,0,0:0:0:0:
64,192,190052,1,0,0:0:0:0:
448,192,190242,1,0,0:0:0:0:
320,192,190242,1,0,0:0:0:0:
192,192,190468,1,0,0:0:0:0:
448,192,190695,1,0,0:0:0:0:
320,192,190921,1,0,0:0:0:0:
192,192,191148,1,0,0:0:0:0:
64,192,191148,1,0,0:0:0:0:
320,192,191429,1,0,0:0:0:0:
192,192,191711,1,0,0:0:0:0:
64,192,191993,1,0,0:0:0:0:
192,192,192275,1,0,0:0:0:0:
192,192,192714,1,0,0:0:0:0:
64,192,193153,128,0,196813:0:0:0:0:
320,192,193885,128,0,196813:0:0:0:0:
448,192,196831,1,0,0:0:0:0:
192,192,196886,1,0,0:0:0:0:
320,192,196941,1,0,0:0:0:0:
64,192,196996,1,0,0:0:0:0:
448,192,197051,1,0,0:0:0:0:
192,192,197106,1,0,0:0:0:0:
320,192,197161,1,0,0:0:0:0:
64,192,197216,1,0,0:0:0:0:
448,192,197270,1,0,0:0:0:0:
192,192,197325,1,0,0:0:0:0:
320,192,197380,1,0,0:0:0:0:
64,192,197435,1,0,0:0:0:0:
192,192,197490,1,0,0:0:0:0:
320,192,197545,1,0,0:0:0:0:
448,192,197600,1,0,0:0:0:0:
64,192,197655,1,0,0:0:0:0:
192,192,197710,1,0,0:0:0:0:
448,192,197765,128,0,197819:0:0:0:0:
320,192,197819,128,0,197874:0:0:0:0:
192,192,197874,128,0,197929:0:0:0:0:
64,192,197929,128,0,197984:0:0:0:0:
448,192,197984,128,0,198039:0:0:0:0:
320,192,198039,128,0,198094:0:0:0:0:
192,192,198094,128,0,198149:0:0:0:0:
64,192,198149,128,0,198204:0:0:0:0:
320,192,198204,128,0,198259:0:0:0:0:
192,192,198277,128,0,201278:0:0:0:0:
