osu file format v14

[General]
AudioFilename: 09 - Betwixt & Between - hydra (long edit).ogg
AudioLeadIn: 0
PreviewTime: 292302
Countdown: 0
SampleSet: Drum
StackLeniency: 0.7
Mode: 3
LetterboxInBreaks: 0
SpecialStyle: 0
WidescreenStoryboard: 0

[Editor]
Bookmarks: 11859,21964,42175,52280,62385,82596,105332,125543,145754,165964,186175,206385,226596,246806,259438,272069,292280,312490,332701,352911,373122
DistanceSpacing: 0.8
BeatDivisor: 4
GridSize: 32
TimelineZoom: 0.7999997

[Metadata]
Title:hydra (long edit)
TitleUnicode:hydra (long edit)
Artist:Betwixt & Between
ArtistUnicode:Betwixt & Between
Creator:Fullerene-
Version:necro
Source:
Tags:shoegazer wiosna rcalibergx valedict freeform hardcore tano*c nanosecond eternity tcslcd-0002 cubegrams chimera CGTW-03 electronic instrumental
BeatmapID:2533563
BeatmapSetID:1217695

[Difficulty]
HPDrainRate:8.5
CircleSize:4
OverallDifficulty:8.5
ApproachRate:5
SliderMultiplier:1.4
SliderTickRate:1

[Events]
//Background and Video events
0,0,"darek-zabrocki-dragonheist-trenches-v001-001-dz.jpg",0,0
//Break Periods
2,267239,270891
//Storyboard Layer 0 (Background)
//Storyboard Layer 1 (Fail)
//Storyboard Layer 2 (Pass)
//Storyboard Layer 3 (Foreground)
//Storyboard Layer 4 (Overlay)
//Storyboard Sound Samples

[TimingPoints]
1776,315.789473684211,4,3,1,35,1,8
21986,-100,4,3,1,40,0,8
62407,-100,4,3,1,45,0,8
82618,-100,4,3,1,45,0,1
102828,-100,4,3,1,40,0,0
105354,-100,4,3,1,30,0,0
146407,-100,4,3,1,20,0,0
165986,-100,4,3,1,35,0,0
186197,-100,4,3,1,40,0,0
201354,-100,4,3,1,45,0,0
203881,-100,4,3,1,50,0,0
206407,-100,4,3,1,40,0,0
226618,-100,4,3,1,45,0,0
246828,-100,4,3,1,40,0,0
259460,-100,4,3,1,45,0,0
261986,-100,4,3,1,50,0,0
265776,-100,4,3,1,55,0,0
292302,-100,4,3,1,55,0,1
332723,-100,4,3,1,45,0,0
352933,-100,4,3,1,40,0,0

[HitObjects]
64,192,11486,5,0,0:0:0:0:
192,192,11565,1,0,0:0:0:0:
320,192,11565,128,0,11644:0:0:0:0:
192,192,11723,1,0,0:0:0:0:
448,192,11723,128,0,11802:0:0:0:0:
64,192,11881,1,0,0:0:0:0:
192,192,11881,1,0,0:0:0:0:
320,192,11960,1,0,0:0:0:0:
448,192,12039,1,0,0:0:0:0:
320,192,12118,1,0,0:0:0:0:
64,192,12197,1,0,0:0:0:0:
64,192,12512,1,0,0:0:0:0:
64,192,12828,1,0,0:0:0:0:
64,192,13144,1,0,0:0:0:0:
64,192,13460,1,0,0:0:0:0:
64,192,13776,1,0,0:0:0:0:
64,192,14091,1,0,0:0:0:0:
448,192,14407,1,0,0:0:0:0:
448,192,14723,1,0,0:0:0:0:
448,192,15039,1,0,0:0:0:0:
448,192,15354,1,0,0:0:0:0:
448,192,15670,1,0,0:0:0:0:
448,192,15986,1,0,0:0:0:0:
448,192,16302,1,0,0:0:0:0:
448,192,16618,1,0,0:0:0:0:
448,192,16776,1,0,0:0:0:0:
192,192,16933,1,0,0:0:0:0:
192,192,17249,1,0,0:0:0:0:
192,192,17565,1,0,0:0:0:0:
192,192,17881,1,0,0:0:0:0:
192,192,18197,1,0,0:0:0:0:
192,192,18512,1,0,0:0:0:0:
192,192,18828,1,0,0:0:0:0:
192,192,19144,1,0,0:0:0:0:
320,192,19460,1,0,0:0:0:0:
320,192,19776,1,0,0:0:0:0:
320,192,20091,1,0,0:0:0:0:
320,192,20407,1,0,0:0:0:0:
320,192,20723,1,0,0:0:0:0:
320,192,21039,1,0,0:0:0:0:
64,192,21354,1,0,0:0:0:0:
448,192,21354,1,0,0:0:0:0:
192,192,21433,1,0,0:0:0:0:
320,192,21433,1,0,0:0:0:0:
64,192,21512,1,0,0:0:0:0:
448,192,21512,1,0,0:0:0:0:
192,192,21591,1,0,0:0:0:0:
320,192,21591,1,0,0:0:0:0:
64,192,21670,1,0,0:0:0:0:
448,192,21670,1,0,0:0:0:0:
192,192,21749,128,0,21907:0:0:0:0:
320,192,21749,128,0,21907:0:0:0:0:
64,192,21986,1,0,0:0:0:0:
448,192,21986,1,0,0:0:0:0:
320,192,22065,1,0,0:0:0:0:
64,192,22144,1,0,0:0:0:0:
192,192,22223,1,0,0:0:0:0:
320,192,22302,1,0,0:0:0:0:
448,192,22302,1,0,0:0:0:0:
64,192,22381,1,0,0:0:0:0:
320,192,22460,1,0,0:0:0:0:
192,192,22539,1,0,0:0:0:0:
64,192,22618,1,0,0:0:0:0:
448,192,22618,1,0,0:0:0:0:
320,192,22697,1,0,0:0:0:0:
64,192,22776,1,0,0:0:0:0:
448,192,22854,1,0,0:0:0:0:
64,192,22933,1,0,0:0:0:0:
192,192,22933,1,0,0:0:0:0:
320,192,23012,1,0,0:0:0:0:
448,192,23091,1,0,0:0:0:0:
192,192,23170,1,0,0:0:0:0:
320,192,23249,1,0,0:0:0:0:
448,192,23249,1,0,0:0:0:0:
64,192,23328,1,0,0:0:0:0:
320,192,23407,1,0,0:0:0:0:
192,192,23486,1,0,0:0:0:0:
64,192,23565,1,0,0:0:0:0:
448,192,23565,1,0,0:0:0:0:
320,192,23644,1,0,0:0:0:0:
64,192,23723,1,0,0:0:0:0:
448,192,23802,1,0,0:0:0:0:
192,192,23881,1,0,0:0:0:0:
64,192,23881,1,0,0:0:0:0:
320,192,23960,1,0,0:0:0:0:
448,192,24039,1,0,0:0:0:0:
192,192,24118,1,0,0:0:0:0:
320,192,24197,1,0,0:0:0:0:
448,192,24197,1,0,0:0:0:0:
64,192,24276,1,0,0:0:0:0:
320,192,24354,1,0,0:0:0:0:
192,192,24433,1,0,0:0:0:0:
64,192,24512,1,0,0:0:0:0:
448,192,24512,1,0,0:0:0:0:
320,192,24591,1,0,0:0:0:0:
64,192,24670,1,0,0:0:0:0:
448,192,24749,1,0,0:0:0:0:
64,192,24828,1,0,0:0:0:0:
192,192,24828,1,0,0:0:0:0:
320,192,24907,1,0,0:0:0:0:
448,192,24986,1,0,0:0:0:0:
192,192,25065,1,0,0:0:0:0:
320,192,25144,1,0,0:0:0:0:
448,192,25144,1,0,0:0:0:0:
64,192,25223,1,0,0:0:0:0:
320,192,25302,1,0,0:0:0:0:
192,192,25381,1,0,0:0:0:0:
64,192,25460,1,0,0:0:0:0:
448,192,25460,1,0,0:0:0:0:
320,192,25539,1,0,0:0:0:0:
64,192,25618,1,0,0:0:0:0:
448,192,25697,1,0,0:0:0:0:
192,192,25776,1,0,0:0:0:0:
64,192,25776,1,0,0:0:0:0:
320,192,25854,1,0,0:0:0:0:
448,192,25933,1,0,0:0:0:0:
192,192,26012,1,0,0:0:0:0:
320,192,26091,1,0,0:0:0:0:
448,192,26091,1,0,0:0:0:0:
64,192,26170,1,0,0:0:0:0:
320,192,26249,1,0,0:0:0:0:
192,192,26328,1,0,0:0:0:0:
64,192,26407,1,0,0:0:0:0:
448,192,26407,1,0,0:0:0:0:
320,192,26486,1,0,0:0:0:0:
64,192,26565,1,0,0:0:0:0:
448,192,26644,1,0,0:0:0:0:
64,192,26723,1,0,0:0:0:0:
192,192,26723,1,0,0:0:0:0:
320,192,26802,1,0,0:0:0:0:
448,192,26881,1,0,0:0:0:0:
192,192,26960,1,0,0:0:0:0:
320,192,27039,1,0,0:0:0:0:
448,192,27039,1,0,0:0:0:0:
64,192,27118,1,0,0:0:0:0:
320,192,27197,1,0,0:0:0:0:
192,192,27276,1,0,0:0:0:0:
64,192,27354,1,0,0:0:0:0:
448,192,27354,1,0,0:0:0:0:
320,192,27433,1,0,0:0:0:0:
64,192,27512,1,0,0:0:0:0:
448,192,27591,1,0,0:0:0:0:
192,192,27670,1,0,0:0:0:0:
64,192,27670,1,0,0:0:0:0:
320,192,27749,1,0,0:0:0:0:
448,192,27828,1,0,0:0:0:0:
192,192,27907,1,0,0:0:0:0:
320,192,27986,1,0,0:0:0:0:
448,192,27986,1,0,0:0:0:0:
64,192,28065,1,0,0:0:0:0:
320,192,28144,1,0,0:0:0:0:
192,192,28223,1,0,0:0:0:0:
64,192,28302,1,0,0:0:0:0:
448,192,28302,1,0,0:0:0:0:
320,192,28381,1,0,0:0:0:0:
64,192,28460,1,0,0:0:0:0:
448,192,28539,1,0,0:0:0:0:
64,192,28618,1,0,0:0:0:0:
192,192,28618,1,0,0:0:0:0:
320,192,28697,1,0,0:0:0:0:
448,192,28776,1,0,0:0:0:0:
192,192,28854,1,0,0:0:0:0:
320,192,28933,1,0,0:0:0:0:
448,192,28933,1,0,0:0:0:0:
64,192,29012,1,0,0:0:0:0:
320,192,29091,1,0,0:0:0:0:
192,192,29170,1,0,0:0:0:0:
64,192,29249,1,0,0:0:0:0:
448,192,29249,1,0,0:0:0:0:
320,192,29328,1,0,0:0:0:0:
64,192,29407,1,0,0:0:0:0:
448,192,29486,1,0,0:0:0:0:
192,192,29565,1,0,0:0:0:0:
64,192,29565,1,0,0:0:0:0:
320,192,29644,1,0,0:0:0:0:
448,192,29723,1,0,0:0:0:0:
192,192,29802,1,0,0:0:0:0:
320,192,29881,1,0,0:0:0:0:
448,192,29881,1,0,0:0:0:0:
64,192,29960,1,0,0:0:0:0:
320,192,30039,1,0,0:0:0:0:
192,192,30118,1,0,0:0:0:0:
64,192,30197,1,0,0:0:0:0:
448,192,30197,1,0,0:0:0:0:
320,192,30276,1,0,0:0:0:0:
64,192,30354,1,0,0:0:0:0:
448,192,30433,1,0,0:0:0:0:
64,192,30512,1,0,0:0:0:0:
192,192,30512,1,0,0:0:0:0:
320,192,30591,1,0,0:0:0:0:
448,192,30670,1,0,0:0:0:0:
192,192,30749,1,0,0:0:0:0:
320,192,30828,1,0,0:0:0:0:
448,192,30828,1,0,0:0:0:0:
64,192,30907,1,0,0:0:0:0:
320,192,30986,1,0,0:0:0:0:
192,192,31065,1,0,0:0:0:0:
64,192,31144,1,0,0:0:0:0:
448,192,31144,1,0,0:0:0:0:
320,192,31223,1,0,0:0:0:0:
64,192,31302,1,0,0:0:0:0:
448,192,31381,1,0,0:0:0:0:
192,192,31460,1,0,0:0:0:0:
64,192,31460,1,0,0:0:0:0:
320,192,31539,1,0,0:0:0:0:
448,192,31618,1,0,0:0:0:0:
192,192,31697,1,0,0:0:0:0:
448,192,31776,1,0,0:0:0:0:
64,192,31776,128,0,31854:0:0:0:0:
320,192,31854,1,0,0:0:0:0:
448,192,31933,128,0,32012:0:0:0:0:
192,192,32012,1,0,0:0:0:0:
64,192,32091,1,0,0:0:0:0:
448,192,32091,1,0,0:0:0:0:
320,192,32170,1,0,0:0:0:0:
64,192,32249,1,0,0:0:0:0:
320,192,32328,1,0,0:0:0:0:
64,192,32407,1,0,0:0:0:0:
448,192,32407,1,0,0:0:0:0:
192,192,32486,1,0,0:0:0:0:
448,192,32565,1,0,0:0:0:0:
320,192,32644,1,0,0:0:0:0:
192,192,32683,1,0,0:0:0:0:
64,192,32723,1,0,0:0:0:0:
448,192,32723,1,0,0:0:0:0:
320,192,32802,1,0,0:0:0:0:
448,192,32881,1,0,0:0:0:0:
64,192,32960,1,0,0:0:0:0:
192,192,32960,1,0,0:0:0:0:
320,192,33039,1,0,0:0:0:0:
192,192,33118,1,0,0:0:0:0:
64,192,33197,1,0,0:0:0:0:
448,192,33197,1,0,0:0:0:0:
320,192,33276,1,0,0:0:0:0:
192,192,33354,1,0,0:0:0:0:
320,192,33433,1,0,0:0:0:0:
448,192,33433,1,0,0:0:0:0:
64,192,33512,1,0,0:0:0:0:
192,192,33591,1,0,0:0:0:0:
64,192,33670,1,0,0:0:0:0:
448,192,33670,1,0,0:0:0:0:
320,192,33749,1,0,0:0:0:0:
192,192,33828,1,0,0:0:0:0:
320,192,33907,1,0,0:0:0:0:
448,192,33907,1,0,0:0:0:0:
64,192,33986,1,0,0:0:0:0:
320,192,34065,1,0,0:0:0:0:
192,192,34144,1,0,0:0:0:0:
448,192,34144,1,0,0:0:0:0:
320,192,34223,1,0,0:0:0:0:
64,192,34302,1,0,0:0:0:0:
192,192,34302,1,0,0:0:0:0:
448,192,34381,1,0,0:0:0:0:
320,192,34460,1,0,0:0:0:0:
192,192,34539,1,0,0:0:0:0:
448,192,34618,1,0,0:0:0:0:
64,192,34618,1,0,0:0:0:0:
320,192,34697,1,0,0:0:0:0:
64,192,34776,1,0,0:0:0:0:
448,192,34854,1,0,0:0:0:0:
192,192,34933,1,0,0:0:0:0:
64,192,34933,1,0,0:0:0:0:
320,192,35012,1,0,0:0:0:0:
448,192,35091,1,0,0:0:0:0:
192,192,35170,1,0,0:0:0:0:
320,192,35249,1,0,0:0:0:0:
448,192,35249,1,0,0:0:0:0:
64,192,35328,1,0,0:0:0:0:
320,192,35407,1,0,0:0:0:0:
192,192,35486,1,0,0:0:0:0:
64,192,35565,1,0,0:0:0:0:
448,192,35565,1,0,0:0:0:0:
320,192,35644,1,0,0:0:0:0:
64,192,35723,1,0,0:0:0:0:
448,192,35802,1,0,0:0:0:0:
192,192,35881,1,0,0:0:0:0:
64,192,35881,1,0,0:0:0:0:
320,192,35960,1,0,0:0:0:0:
448,192,36039,1,0,0:0:0:0:
192,192,36118,1,0,0:0:0:0:
448,192,36197,1,0,0:0:0:0:
320,192,36197,1,0,0:0:0:0:
64,192,36276,1,0,0:0:0:0:
320,192,36354,1,0,0:0:0:0:
192,192,36433,1,0,0:0:0:0:
448,192,36512,1,0,0:0:0:0:
64,192,36512,1,0,0:0:0:0:
320,192,36591,1,0,0:0:0:0:
64,192,36670,1,0,0:0:0:0:
448,192,36749,1,0,0:0:0:0:
64,192,36828,1,0,0:0:0:0:
192,192,36828,1,0,0:0:0:0:
320,192,36907,1,0,0:0:0:0:
448,192,36986,1,0,0:0:0:0:
192,192,37065,1,0,0:0:0:0:
448,192,37144,1,0,0:0:0:0:
64,192,37144,1,0,0:0:0:0:
320,192,37223,1,0,0:0:0:0:
192,192,37302,1,0,0:0:0:0:
64,192,37381,1,0,0:0:0:0:
192,192,37460,1,0,0:0:0:0:
448,192,37460,128,0,37539:0:0:0:0:
320,192,37539,128,0,37618:0:0:0:0:
448,192,37618,1,0,0:0:0:0:
320,192,37697,1,0,0:0:0:0:
64,192,37776,1,0,0:0:0:0:
448,192,37776,1,0,0:0:0:0:
192,192,37854,1,0,0:0:0:0:
320,192,37933,1,0,0:0:0:0:
448,192,38012,1,0,0:0:0:0:
64,192,38091,128,0,38170:0:0:0:0:
320,192,38091,1,0,0:0:0:0:
192,192,38170,128,0,38249:0:0:0:0:
64,192,38249,1,0,0:0:0:0:
192,192,38328,1,0,0:0:0:0:
64,192,38407,1,0,0:0:0:0:
448,192,38407,1,0,0:0:0:0:
320,192,38486,1,0,0:0:0:0:
192,192,38565,1,0,0:0:0:0:
64,192,38644,1,0,0:0:0:0:
192,192,38723,1,0,0:0:0:0:
448,192,38723,128,0,38802:0:0:0:0:
320,192,38802,128,0,38881:0:0:0:0:
448,192,38881,1,0,0:0:0:0:
192,192,38960,1,0,0:0:0:0:
320,192,38960,1,0,0:0:0:0:
64,192,39039,1,0,0:0:0:0:
448,192,39039,1,0,0:0:0:0:
192,192,39118,1,0,0:0:0:0:
64,192,39197,1,0,0:0:0:0:
448,192,39197,1,0,0:0:0:0:
192,192,39276,1,0,0:0:0:0:
320,192,39276,1,0,0:0:0:0:
64,192,39354,128,0,39433:0:0:0:0:
320,192,39433,1,0,0:0:0:0:
192,192,39433,128,0,39512:0:0:0:0:
64,192,39512,1,0,0:0:0:0:
448,192,39512,1,0,0:0:0:0:
192,192,39591,1,0,0:0:0:0:
320,192,39670,1,0,0:0:0:0:
448,192,39670,1,0,0:0:0:0:
64,192,39749,1,0,0:0:0:0:
320,192,39828,1,0,0:0:0:0:
448,192,39828,1,0,0:0:0:0:
192,192,39907,1,0,0:0:0:0:
320,192,39986,1,0,0:0:0:0:
448,192,39986,1,0,0:0:0:0:
64,192,40065,1,0,0:0:0:0:
320,192,40144,1,0,0:0:0:0:
448,192,40144,1,0,0:0:0:0:
192,192,40223,1,0,0:0:0:0:
320,192,40302,1,0,0:0:0:0:
448,192,40302,1,0,0:0:0:0:
64,192,40381,1,0,0:0:0:0:
448,192,40460,1,0,0:0:0:0:
192,192,40539,1,0,0:0:0:0:
320,192,40618,1,0,0:0:0:0:
448,192,40618,1,0,0:0:0:0:
64,192,40697,1,0,0:0:0:0:
448,192,40776,1,0,0:0:0:0:
192,192,40815,1,0,0:0:0:0:
64,192,40854,1,0,0:0:0:0:
320,192,40894,1,0,0:0:0:0:
448,192,40933,1,0,0:0:0:0:
192,192,41012,1,0,0:0:0:0:
320,192,41091,1,0,0:0:0:0:
192,192,41170,1,0,0:0:0:0:
64,192,41170,1,0,0:0:0:0:
448,192,41249,1,0,0:0:0:0:
320,192,41328,1,0,0:0:0:0:
192,192,41407,1,0,0:0:0:0:
448,192,41407,1,0,0:0:0:0:
64,192,41486,1,0,0:0:0:0:
320,192,41565,1,0,0:0:0:0:
192,192,41644,1,0,0:0:0:0:
64,192,41644,1,0,0:0:0:0:
448,192,41723,1,0,0:0:0:0:
320,192,41802,1,0,0:0:0:0:
192,192,41881,1,0,0:0:0:0:
448,192,41881,1,0,0:0:0:0:
64,192,41960,1,0,0:0:0:0:
192,192,42039,1,0,0:0:0:0:
320,192,42039,1,0,0:0:0:0:
64,192,42118,1,0,0:0:0:0:
448,192,42118,1,0,0:0:0:0:
192,192,42197,1,0,0:0:0:0:
320,192,42197,1,0,0:0:0:0:
448,192,42276,1,0,0:0:0:0:
320,192,42354,1,0,0:0:0:0:
192,192,42433,1,0,0:0:0:0:
64,192,42512,1,0,0:0:0:0:
448,192,42512,1,0,0:0:0:0:
320,192,42591,1,0,0:0:0:0:
448,192,42670,1,0,0:0:0:0:
320,192,42749,1,0,0:0:0:0:
192,192,42828,1,0,0:0:0:0:
64,192,42828,1,0,0:0:0:0:
448,192,42907,1,0,0:0:0:0:
64,192,42986,1,0,0:0:0:0:
448,192,43065,1,0,0:0:0:0:
192,192,43144,1,0,0:0:0:0:
320,192,43144,1,0,0:0:0:0:
64,192,43223,1,0,0:0:0:0:
320,192,43302,1,0,0:0:0:0:
64,192,43381,1,0,0:0:0:0:
448,192,43460,1,0,0:0:0:0:
192,192,43460,1,0,0:0:0:0:
320,192,43539,1,0,0:0:0:0:
192,192,43618,1,0,0:0:0:0:
320,192,43697,1,0,0:0:0:0:
64,192,43776,1,0,0:0:0:0:
448,192,43776,1,0,0:0:0:0:
192,192,43854,1,0,0:0:0:0:
448,192,43933,1,0,0:0:0:0:
192,192,44012,1,0,0:0:0:0:
64,192,44091,1,0,0:0:0:0:
320,192,44091,1,0,0:0:0:0:
448,192,44170,1,0,0:0:0:0:
64,192,44249,1,0,0:0:0:0:
448,192,44328,1,0,0:0:0:0:
192,192,44407,1,0,0:0:0:0:
320,192,44407,1,0,0:0:0:0:
64,192,44486,1,0,0:0:0:0:
320,192,44565,1,0,0:0:0:0:
64,192,44644,1,0,0:0:0:0:
192,192,44723,1,0,0:0:0:0:
448,192,44723,1,0,0:0:0:0:
320,192,44802,1,0,0:0:0:0:
192,192,44881,1,0,0:0:0:0:
320,192,44960,1,0,0:0:0:0:
192,192,45039,1,0,0:0:0:0:
448,192,45039,1,0,0:0:0:0:
64,192,45118,1,0,0:0:0:0:
192,192,45197,1,0,0:0:0:0:
64,192,45276,1,0,0:0:0:0:
192,192,45354,1,0,0:0:0:0:
320,192,45354,1,0,0:0:0:0:
448,192,45433,1,0,0:0:0:0:
320,192,45512,1,0,0:0:0:0:
448,192,45591,1,0,0:0:0:0:
64,192,45670,1,0,0:0:0:0:
320,192,45670,1,0,0:0:0:0:
192,192,45749,1,0,0:0:0:0:
320,192,45828,1,0,0:0:0:0:
192,192,45907,1,0,0:0:0:0:
64,192,45986,1,0,0:0:0:0:
320,192,45986,1,0,0:0:0:0:
448,192,46065,1,0,0:0:0:0:
64,192,46144,1,0,0:0:0:0:
448,192,46223,1,0,0:0:0:0:
320,192,46302,1,0,0:0:0:0:
192,192,46302,1,0,0:0:0:0:
64,192,46381,1,0,0:0:0:0:
320,192,46460,1,0,0:0:0:0:
64,192,46539,1,0,0:0:0:0:
192,192,46618,1,0,0:0:0:0:
448,192,46618,1,0,0:0:0:0:
320,192,46697,1,0,0:0:0:0:
192,192,46776,1,0,0:0:0:0:
320,192,46854,1,0,0:0:0:0:
64,192,46933,1,0,0:0:0:0:
448,192,46933,1,0,0:0:0:0:
192,192,47012,1,0,0:0:0:0:
448,192,47091,1,0,0:0:0:0:
64,192,47091,1,0,0:0:0:0:
192,192,47170,1,0,0:0:0:0:
320,192,47249,1,0,0:0:0:0:
448,192,47249,1,0,0:0:0:0:
64,192,47328,1,0,0:0:0:0:
320,192,47407,1,0,0:0:0:0:
64,192,47486,1,0,0:0:0:0:
448,192,47565,1,0,0:0:0:0:
192,192,47565,1,0,0:0:0:0:
320,192,47644,1,0,0:0:0:0:
64,192,47723,1,0,0:0:0:0:
320,192,47802,1,0,0:0:0:0:
448,192,47881,1,0,0:0:0:0:
64,192,47881,1,0,0:0:0:0:
192,192,47960,1,0,0:0:0:0:
320,192,48039,1,0,0:0:0:0:
192,192,48118,1,0,0:0:0:0:
64,192,48197,1,0,0:0:0:0:
320,192,48197,1,0,0:0:0:0:
448,192,48276,1,0,0:0:0:0:
192,192,48354,1,0,0:0:0:0:
448,192,48433,1,0,0:0:0:0:
192,192,48512,1,0,0:0:0:0:
320,192,48512,1,0,0:0:0:0:
64,192,48591,1,0,0:0:0:0:
448,192,48670,1,0,0:0:0:0:
64,192,48749,1,0,0:0:0:0:
448,192,48828,1,0,0:0:0:0:
192,192,48828,1,0,0:0:0:0:
320,192,48907,1,0,0:0:0:0:
64,192,48986,1,0,0:0:0:0:
320,192,49065,1,0,0:0:0:0:
64,192,49144,1,0,0:0:0:0:
448,192,49144,1,0,0:0:0:0:
192,192,49223,1,0,0:0:0:0:
320,192,49302,1,0,0:0:0:0:
192,192,49381,1,0,0:0:0:0:
320,192,49460,1,0,0:0:0:0:
64,192,49460,1,0,0:0:0:0:
448,192,49539,1,0,0:0:0:0:
192,192,49618,1,0,0:0:0:0:
448,192,49697,1,0,0:0:0:0:
320,192,49776,1,0,0:0:0:0:
192,192,49776,1,0,0:0:0:0:
64,192,49854,1,0,0:0:0:0:
448,192,49933,1,0,0:0:0:0:
64,192,50012,1,0,0:0:0:0:
192,192,50091,1,0,0:0:0:0:
448,192,50091,1,0,0:0:0:0:
320,192,50170,1,0,0:0:0:0:
64,192,50249,1,0,0:0:0:0:
320,192,50328,1,0,0:0:0:0:
448,192,50407,1,0,0:0:0:0:
64,192,50407,1,0,0:0:0:0:
192,192,50486,1,0,0:0:0:0:
320,192,50565,1,0,0:0:0:0:
192,192,50644,1,0,0:0:0:0:
64,192,50723,1,0,0:0:0:0:
320,192,50723,1,0,0:0:0:0:
448,192,50802,1,0,0:0:0:0:
192,192,50881,1,0,0:0:0:0:
448,192,50960,1,0,0:0:0:0:
192,192,51039,1,0,0:0:0:0:
320,192,51039,1,0,0:0:0:0:
64,192,51118,1,0,0:0:0:0:
320,192,51197,1,0,0:0:0:0:
64,192,51276,1,0,0:0:0:0:
192,192,51315,1,0,0:0:0:0:
320,192,51354,1,0,0:0:0:0:
448,192,51394,1,0,0:0:0:0:
64,192,51433,1,0,0:0:0:0:
192,192,51473,1,0,0:0:0:0:
320,192,51512,1,0,0:0:0:0:
448,192,51552,1,0,0:0:0:0:
64,192,51591,1,0,0:0:0:0:
192,192,51631,1,0,0:0:0:0:
320,192,51670,1,0,0:0:0:0:
448,192,51670,1,0,0:0:0:0:
64,192,51749,1,0,0:0:0:0:
192,192,51828,1,0,0:0:0:0:
64,192,51907,1,0,0:0:0:0:
320,192,51907,1,0,0:0:0:0:
192,192,51986,128,0,52065:0:0:0:0:
448,192,51986,1,0,0:0:0:0:
64,192,52065,1,0,0:0:0:0:
320,192,52144,128,0,52223:0:0:0:0:
448,192,52144,1,0,0:0:0:0:
192,192,52223,1,0,0:0:0:0:
64,192,52302,1,0,0:0:0:0:
448,192,52302,1,0,0:0:0:0:
320,192,52381,1,0,0:0:0:0:
448,192,52460,1,0,0:0:0:0:
192,192,52460,1,0,0:0:0:0:
64,192,52539,1,0,0:0:0:0:
320,192,52539,1,0,0:0:0:0:
192,192,52618,1,0,0:0:0:0:
64,192,52697,1,0,0:0:0:0:
320,192,52776,1,0,0:0:0:0:
448,192,52776,1,0,0:0:0:0:
64,192,52854,1,0,0:0:0:0:
192,192,52854,1,0,0:0:0:0:
448,192,52933,1,0,0:0:0:0:
320,192,53012,1,0,0:0:0:0:
192,192,53091,1,0,0:0:0:0:
320,192,53170,1,0,0:0:0:0:
192,192,53249,1,0,0:0:0:0:
64,192,53328,1,0,0:0:0:0:
448,192,53328,1,0,0:0:0:0:
320,192,53407,1,0,0:0:0:0:
192,192,53486,1,0,0:0:0:0:
64,192,53486,1,0,0:0:0:0:
448,192,53565,1,0,0:0:0:0:
320,192,53644,1,0,0:0:0:0:
192,192,53723,1,0,0:0:0:0:
448,192,53723,1,0,0:0:0:0:
320,192,53802,1,0,0:0:0:0:
64,192,53881,1,0,0:0:0:0:
192,192,53881,1,0,0:0:0:0:
448,192,53960,1,0,0:0:0:0:
320,192,54039,1,0,0:0:0:0:
448,192,54118,1,0,0:0:0:0:
192,192,54118,1,0,0:0:0:0:
320,192,54197,1,0,0:0:0:0:
64,192,54197,1,0,0:0:0:0:
192,192,54276,1,0,0:0:0:0:
320,192,54354,1,0,0:0:0:0:
448,192,54433,1,0,0:0:0:0:
64,192,54512,1,0,0:0:0:0:
192,192,54512,1,0,0:0:0:0:
320,192,54591,1,0,0:0:0:0:
64,192,54670,1,0,0:0:0:0:
192,192,54749,1,0,0:0:0:0:
320,192,54828,1,0,0:0:0:0:
64,192,54907,1,0,0:0:0:0:
448,192,54907,1,0,0:0:0:0:
192,192,54986,1,0,0:0:0:0:
320,192,55065,1,0,0:0:0:0:
64,192,55144,1,0,0:0:0:0:
448,192,55144,1,0,0:0:0:0:
192,192,55223,1,0,0:0:0:0:
320,192,55302,1,0,0:0:0:0:
64,192,55381,1,0,0:0:0:0:
192,192,55381,1,0,0:0:0:0:
448,192,55460,1,0,0:0:0:0:
64,192,55539,1,0,0:0:0:0:
320,192,55539,1,0,0:0:0:0:
192,192,55618,1,0,0:0:0:0:
320,192,55697,1,0,0:0:0:0:
448,192,55697,1,0,0:0:0:0:
64,192,55776,1,0,0:0:0:0:
192,192,55854,1,0,0:0:0:0:
448,192,55854,1,0,0:0:0:0:
320,192,55933,1,0,0:0:0:0:
64,192,56012,1,0,0:0:0:0:
192,192,56012,1,0,0:0:0:0:
448,192,56091,1,0,0:0:0:0:
64,192,56170,1,0,0:0:0:0:
192,192,56170,1,0,0:0:0:0:
320,192,56249,1,0,0:0:0:0:
448,192,56328,1,0,0:0:0:0:
64,192,56407,1,0,0:0:0:0:
320,192,56407,1,0,0:0:0:0:
192,192,56486,1,0,0:0:0:0:
64,192,56565,1,0,0:0:0:0:
448,192,56565,1,0,0:0:0:0:
320,192,56644,1,0,0:0:0:0:
192,192,56723,1,0,0:0:0:0:
64,192,56802,1,0,0:0:0:0:
320,192,56802,1,0,0:0:0:0:
448,192,56881,1,0,0:0:0:0:
192,192,56960,1,0,0:0:0:0:
320,192,57039,1,0,0:0:0:0:
448,192,57039,1,0,0:0:0:0:
64,192,57118,1,0,0:0:0:0:
320,192,57197,1,0,0:0:0:0:
448,192,57197,1,0,0:0:0:0:
192,192,57276,1,0,0:0:0:0:
320,192,57354,1,0,0:0:0:0:
448,192,57354,1,0,0:0:0:0:
64,192,57433,1,0,0:0:0:0:
192,192,57512,1,0,0:0:0:0:
320,192,57512,1,0,0:0:0:0:
64,192,57591,1,0,0:0:0:0:
448,192,57591,1,0,0:0:0:0:
192,192,57670,1,0,0:0:0:0:
448,192,57749,1,0,0:0:0:0:
64,192,57749,1,0,0:0:0:0:
320,192,57828,1,0,0:0:0:0:
192,192,57907,1,0,0:0:0:0:
448,192,57986,1,0,0:0:0:0:
320,192,57986,1,0,0:0:0:0:
64,192,58065,1,0,0:0:0:0:
192,192,58144,1,0,0:0:0:0:
320,192,58223,1,0,0:0:0:0:
448,192,58302,1,0,0:0:0:0:
192,192,58302,1,0,0:0:0:0:
64,192,58381,1,0,0:0:0:0:
320,192,58460,1,0,0:0:0:0:
64,192,58539,1,0,0:0:0:0:
192,192,58539,1,0,0:0:0:0:
448,192,58618,1,0,0:0:0:0:
192,192,58697,1,0,0:0:0:0:
320,192,58776,1,0,0:0:0:0:
448,192,58776,1,0,0:0:0:0:
64,192,58854,1,0,0:0:0:0:
320,192,58933,1,0,0:0:0:0:
448,192,58933,1,0,0:0:0:0:
192,192,59012,1,0,0:0:0:0:
64,192,59091,1,0,0:0:0:0:
448,192,59091,1,0,0:0:0:0:
320,192,59170,1,0,0:0:0:0:
64,192,59249,1,0,0:0:0:0:
448,192,59249,1,0,0:0:0:0:
192,192,59289,1,0,0:0:0:0:
320,192,59328,1,0,0:0:0:0:
64,192,59368,1,0,0:0:0:0:
448,192,59407,1,0,0:0:0:0:
320,192,59486,1,0,0:0:0:0:
192,192,59526,1,0,0:0:0:0:
64,192,59565,1,0,0:0:0:0:
448,192,59565,1,0,0:0:0:0:
320,192,59644,1,0,0:0:0:0:
192,192,59723,1,0,0:0:0:0:
64,192,59802,1,0,0:0:0:0:
448,192,59802,1,0,0:0:0:0:
192,192,59881,1,0,0:0:0:0:
64,192,59960,1,0,0:0:0:0:
320,192,59960,1,0,0:0:0:0:
448,192,60039,1,0,0:0:0:0:
320,192,60118,1,0,0:0:0:0:
64,192,60197,1,0,0:0:0:0:
192,192,60197,1,0,0:0:0:0:
448,192,60276,1,0,0:0:0:0:
192,192,60354,1,0,0:0:0:0:
64,192,60354,1,0,0:0:0:0:
320,192,60433,1,0,0:0:0:0:
192,192,60512,1,0,0:0:0:0:
64,192,60591,1,0,0:0:0:0:
448,192,60591,1,0,0:0:0:0:
320,192,60670,1,0,0:0:0:0:
64,192,60749,1,0,0:0:0:0:
448,192,60749,1,0,0:0:0:0:
192,192,60828,1,0,0:0:0:0:
320,192,60907,1,0,0:0:0:0:
448,192,60986,1,0,0:0:0:0:
192,192,60986,1,0,0:0:0:0:
64,192,61065,1,0,0:0:0:0:
192,192,61144,128,0,61223:0:0:0:0:
320,192,61144,128,0,61223:0:0:0:0:
448,192,61223,1,0,0:0:0:0:
64,192,61302,1,0,0:0:0:0:
320,192,61302,1,0,0:0:0:0:
192,192,61381,1,0,0:0:0:0:
448,192,61381,1,0,0:0:0:0:
320,192,61460,1,0,0:0:0:0:
448,192,61539,1,0,0:0:0:0:
64,192,61618,1,0,0:0:0:0:
192,192,61618,1,0,0:0:0:0:
320,192,61697,1,0,0:0:0:0:
448,192,61697,1,0,0:0:0:0:
192,192,61776,1,0,0:0:0:0:
64,192,61854,1,0,0:0:0:0:
320,192,61933,1,0,0:0:0:0:
448,192,61933,1,0,0:0:0:0:
192,192,62012,1,0,0:0:0:0:
64,192,62091,1,0,0:0:0:0:
448,192,62091,128,0,62249:0:0:0:0:
192,192,62170,1,0,0:0:0:0:
64,192,62249,1,0,0:0:0:0:
320,192,62249,1,0,0:0:0:0:
192,192,62328,1,0,0:0:0:0:
320,192,62407,1,0,0:0:0:0:
448,192,62407,1,0,0:0:0:0:
64,192,62486,1,0,0:0:0:0:
192,192,62565,1,0,0:0:0:0:
448,192,62565,1,0,0:0:0:0:
320,192,62644,1,0,0:0:0:0:
64,192,62723,1,0,0:0:0:0:
448,192,62723,1,0,0:0:0:0:
192,192,62802,1,0,0:0:0:0:
320,192,62802,1,0,0:0:0:0:
64,192,62881,1,0,0:0:0:0:
448,192,62960,1,0,0:0:0:0:
192,192,63039,1,0,0:0:0:0:
320,192,63039,1,0,0:0:0:0:
64,192,63118,1,0,0:0:0:0:
320,192,63197,1,0,0:0:0:0:
448,192,63197,1,0,0:0:0:0:
192,192,63276,1,0,0:0:0:0:
64,192,63354,1,0,0:0:0:0:
448,192,63354,1,0,0:0:0:0:
320,192,63433,1,0,0:0:0:0:
64,192,63512,1,0,0:0:0:0:
192,192,63512,1,0,0:0:0:0:
448,192,63591,1,0,0:0:0:0:
192,192,63670,1,0,0:0:0:0:
320,192,63670,1,0,0:0:0:0:
64,192,63749,1,0,0:0:0:0:
192,192,63828,1,0,0:0:0:0:
448,192,63828,1,0,0:0:0:0:
320,192,63907,1,0,0:0:0:0:
64,192,63986,1,0,0:0:0:0:
448,192,63986,1,0,0:0:0:0:
192,192,64065,1,0,0:0:0:0:
64,192,64144,1,0,0:0:0:0:
320,192,64144,1,0,0:0:0:0:
448,192,64223,1,0,0:0:0:0:
192,192,64302,1,0,0:0:0:0:
320,192,64302,1,0,0:0:0:0:
64,192,64381,1,0,0:0:0:0:
320,192,64460,1,0,0:0:0:0:
448,192,64460,1,0,0:0:0:0:
192,192,64539,1,0,0:0:0:0:
64,192,64618,1,0,0:0:0:0:
448,192,64618,1,0,0:0:0:0:
320,192,64697,1,0,0:0:0:0:
64,192,64776,1,0,0:0:0:0:
192,192,64776,1,0,0:0:0:0:
448,192,64854,1,0,0:0:0:0:
192,192,64933,1,0,0:0:0:0:
320,192,64933,1,0,0:0:0:0:
64,192,65012,1,0,0:0:0:0:
320,192,65091,1,0,0:0:0:0:
448,192,65091,1,0,0:0:0:0:
192,192,65170,1,0,0:0:0:0:
64,192,65249,1,0,0:0:0:0:
320,192,65249,1,0,0:0:0:0:
448,192,65328,1,0,0:0:0:0:
64,192,65407,1,0,0:0:0:0:
192,192,65407,1,0,0:0:0:0:
320,192,65486,1,0,0:0:0:0:
192,192,65565,1,0,0:0:0:0:
448,192,65565,1,0,0:0:0:0:
64,192,65644,1,0,0:0:0:0:
192,192,65723,1,0,0:0:0:0:
448,192,65723,1,0,0:0:0:0:
320,192,65802,1,0,0:0:0:0:
64,192,65881,1,0,0:0:0:0:
448,192,65881,1,0,0:0:0:0:
192,192,65960,1,0,0:0:0:0:
64,192,66039,1,0,0:0:0:0:
320,192,66039,1,0,0:0:0:0:
448,192,66118,1,0,0:0:0:0:
192,192,66197,1,0,0:0:0:0:
320,192,66197,1,0,0:0:0:0:
64,192,66276,1,0,0:0:0:0:
320,192,66354,1,0,0:0:0:0:
448,192,66354,1,0,0:0:0:0:
192,192,66433,1,0,0:0:0:0:
64,192,66512,1,0,0:0:0:0:
448,192,66512,1,0,0:0:0:0:
320,192,66591,1,0,0:0:0:0:
64,192,66670,1,0,0:0:0:0:
192,192,66670,1,0,0:0:0:0:
448,192,66749,1,0,0:0:0:0:
320,192,66789,1,0,0:0:0:0:
64,192,66828,1,0,0:0:0:0:
192,192,66828,1,0,0:0:0:0:
448,192,66868,1,0,0:0:0:0:
320,192,66907,1,0,0:0:0:0:
192,192,66947,1,0,0:0:0:0:
64,192,66986,1,0,0:0:0:0:
320,192,67065,1,0,0:0:0:0:
64,192,67144,1,0,0:0:0:0:
448,192,67144,1,0,0:0:0:0:
192,192,67223,1,0,0:0:0:0:
64,192,67302,1,0,0:0:0:0:
320,192,67302,1,0,0:0:0:0:
448,192,67381,1,0,0:0:0:0:
192,192,67460,1,0,0:0:0:0:
320,192,67460,1,0,0:0:0:0:
64,192,67539,1,0,0:0:0:0:
320,192,67618,1,0,0:0:0:0:
448,192,67618,1,0,0:0:0:0:
192,192,67697,1,0,0:0:0:0:
64,192,67776,1,0,0:0:0:0:
320,192,67776,1,0,0:0:0:0:
192,192,67854,1,0,0:0:0:0:
448,192,67854,1,0,0:0:0:0:
64,192,67933,1,0,0:0:0:0:
320,192,68012,1,0,0:0:0:0:
192,192,68091,1,0,0:0:0:0:
448,192,68091,1,0,0:0:0:0:
64,192,68170,1,0,0:0:0:0:
192,192,68249,1,0,0:0:0:0:
320,192,68249,1,0,0:0:0:0:
448,192,68328,1,0,0:0:0:0:
64,192,68407,1,0,0:0:0:0:
320,192,68407,1,0,0:0:0:0:
192,192,68486,1,0,0:0:0:0:
64,192,68565,1,0,0:0:0:0:
448,192,68565,1,0,0:0:0:0:
320,192,68644,1,0,0:0:0:0:
192,192,68723,1,0,0:0:0:0:
448,192,68723,1,0,0:0:0:0:
64,192,68802,1,0,0:0:0:0:
320,192,68881,1,0,0:0:0:0:
448,192,68881,1,0,0:0:0:0:
192,192,68960,1,0,0:0:0:0:
64,192,69039,1,0,0:0:0:0:
320,192,69039,1,0,0:0:0:0:
448,192,69118,1,0,0:0:0:0:
64,192,69197,1,0,0:0:0:0:
192,192,69197,1,0,0:0:0:0:
320,192,69276,1,0,0:0:0:0:
192,192,69354,1,0,0:0:0:0:
448,192,69354,1,0,0:0:0:0:
64,192,69433,1,0,0:0:0:0:
192,192,69512,1,0,0:0:0:0:
320,192,69512,1,0,0:0:0:0:
448,192,69591,1,0,0:0:0:0:
64,192,69670,1,0,0:0:0:0:
320,192,69670,1,0,0:0:0:0:
192,192,69749,1,0,0:0:0:0:
64,192,69828,1,0,0:0:0:0:
448,192,69828,1,0,0:0:0:0:
320,192,69907,1,0,0:0:0:0:
64,192,69986,1,0,0:0:0:0:
448,192,69986,1,0,0:0:0:0:
192,192,70065,1,0,0:0:0:0:
320,192,70144,1,0,0:0:0:0:
448,192,70144,1,0,0:0:0:0:
64,192,70223,1,0,0:0:0:0:
192,192,70302,1,0,0:0:0:0:
320,192,70302,1,0,0:0:0:0:
448,192,70381,1,0,0:0:0:0:
64,192,70460,1,0,0:0:0:0:
192,192,70460,1,0,0:0:0:0:
320,192,70539,1,0,0:0:0:0:
192,192,70618,1,0,0:0:0:0:
448,192,70618,1,0,0:0:0:0:
64,192,70697,1,0,0:0:0:0:
192,192,70776,1,0,0:0:0:0:
320,192,70776,1,0,0:0:0:0:
448,192,70854,1,0,0:0:0:0:
64,192,70933,1,0,0:0:0:0:
320,192,70933,1,0,0:0:0:0:
192,192,71012,1,0,0:0:0:0:
64,192,71091,1,0,0:0:0:0:
448,192,71091,1,0,0:0:0:0:
320,192,71170,1,0,0:0:0:0:
64,192,71249,1,0,0:0:0:0:
448,192,71249,1,0,0:0:0:0:
192,192,71328,1,0,0:0:0:0:
320,192,71407,1,0,0:0:0:0:
448,192,71407,1,0,0:0:0:0:
64,192,71486,1,0,0:0:0:0:
192,192,71565,1,0,0:0:0:0:
320,192,71565,1,0,0:0:0:0:
448,192,71644,1,0,0:0:0:0:
64,192,71723,1,0,0:0:0:0:
192,192,71723,1,0,0:0:0:0:
320,192,71802,1,0,0:0:0:0:
448,192,71841,1,0,0:0:0:0:
64,192,71881,1,0,0:0:0:0:
192,192,71881,1,0,0:0:0:0:
320,192,71920,1,0,0:0:0:0:
448,192,71960,1,0,0:0:0:0:
64,192,71999,1,0,0:0:0:0:
192,192,72039,1,0,0:0:0:0:
64,192,72197,128,0,72276:0:0:0:0:
448,192,72197,1,0,0:0:0:0:
448,192,72354,1,0,0:0:0:0:
320,192,72394,1,0,0:0:0:0:
192,192,72433,1,0,0:0:0:0:
64,192,72473,1,0,0:0:0:0:
448,192,72512,1,0,0:0:0:0:
320,192,72512,1,0,0:0:0:0:
192,192,72591,1,0,0:0:0:0:
448,192,72670,1,0,0:0:0:0:
64,192,72670,1,0,0:0:0:0:
320,192,72749,1,0,0:0:0:0:
192,192,72828,1,0,0:0:0:0:
64,192,72828,1,0,0:0:0:0:
448,192,72907,1,0,0:0:0:0:
320,192,72907,1,0,0:0:0:0:
192,192,72986,1,0,0:0:0:0:
64,192,73065,1,0,0:0:0:0:
448,192,73144,1,0,0:0:0:0:
320,192,73144,1,0,0:0:0:0:
192,192,73223,1,0,0:0:0:0:
448,192,73302,1,0,0:0:0:0:
64,192,73302,1,0,0:0:0:0:
320,192,73381,1,0,0:0:0:0:
192,192,73460,1,0,0:0:0:0:
64,192,73460,1,0,0:0:0:0:
448,192,73539,1,0,0:0:0:0:
320,192,73618,1,0,0:0:0:0:
64,192,73618,1,0,0:0:0:0:
192,192,73697,1,0,0:0:0:0:
448,192,73776,1,0,0:0:0:0:
320,192,73776,1,0,0:0:0:0:
64,192,73854,1,0,0:0:0:0:
320,192,73933,1,0,0:0:0:0:
192,192,73933,1,0,0:0:0:0:
448,192,74012,1,0,0:0:0:0:
192,192,74091,1,0,0:0:0:0:
64,192,74091,1,0,0:0:0:0:
320,192,74170,1,0,0:0:0:0:
448,192,74249,1,0,0:0:0:0:
192,192,74249,1,0,0:0:0:0:
64,192,74328,1,0,0:0:0:0:
448,192,74407,1,0,0:0:0:0:
320,192,74407,1,0,0:0:0:0:
192,192,74486,1,0,0:0:0:0:
448,192,74565,1,0,0:0:0:0:
64,192,74565,1,0,0:0:0:0:
320,192,74644,1,0,0:0:0:0:
192,192,74723,1,0,0:0:0:0:
64,192,74723,1,0,0:0:0:0:
448,192,74802,1,0,0:0:0:0:
320,192,74881,1,0,0:0:0:0:
64,192,74881,1,0,0:0:0:0:
192,192,74960,1,0,0:0:0:0:
448,192,75039,1,0,0:0:0:0:
320,192,75039,1,0,0:0:0:0:
64,192,75118,1,0,0:0:0:0:
448,192,75197,1,0,0:0:0:0:
192,192,75197,1,0,0:0:0:0:
320,192,75276,1,0,0:0:0:0:
192,192,75354,1,0,0:0:0:0:
64,192,75354,1,0,0:0:0:0:
448,192,75433,1,0,0:0:0:0:
320,192,75512,1,0,0:0:0:0:
64,192,75512,1,0,0:0:0:0:
192,192,75591,1,0,0:0:0:0:
448,192,75670,1,0,0:0:0:0:
64,192,75670,1,0,0:0:0:0:
320,192,75749,1,0,0:0:0:0:
448,192,75828,1,0,0:0:0:0:
192,192,75828,1,0,0:0:0:0:
64,192,75907,1,0,0:0:0:0:
320,192,75986,1,0,0:0:0:0:
192,192,75986,1,0,0:0:0:0:
448,192,76065,1,0,0:0:0:0:
192,192,76144,1,0,0:0:0:0:
64,192,76144,1,0,0:0:0:0:
320,192,76223,1,0,0:0:0:0:
448,192,76302,1,0,0:0:0:0:
64,192,76302,1,0,0:0:0:0:
192,192,76381,1,0,0:0:0:0:
448,192,76460,1,0,0:0:0:0:
320,192,76460,1,0,0:0:0:0:
64,192,76539,1,0,0:0:0:0:
448,192,76618,1,0,0:0:0:0:
192,192,76618,1,0,0:0:0:0:
320,192,76697,1,0,0:0:0:0:
192,192,76776,1,0,0:0:0:0:
64,192,76776,1,0,0:0:0:0:
448,192,76854,1,0,0:0:0:0:
320,192,76894,1,0,0:0:0:0:
192,192,76933,1,0,0:0:0:0:
64,192,76933,1,0,0:0:0:0:
448,192,76973,1,0,0:0:0:0:
320,192,77012,1,0,0:0:0:0:
192,192,77052,1,0,0:0:0:0:
64,192,77091,1,0,0:0:0:0:
320,192,77170,1,0,0:0:0:0:
192,192,77249,1,0,0:0:0:0:
64,192,77249,1,0,0:0:0:0:
448,192,77328,1,0,0:0:0:0:
320,192,77407,1,0,0:0:0:0:
192,192,77407,1,0,0:0:0:0:
64,192,77486,1,0,0:0:0:0:
448,192,77565,1,0,0:0:0:0:
320,192,77565,1,0,0:0:0:0:
192,192,77644,1,0,0:0:0:0:
320,192,77723,1,0,0:0:0:0:
64,192,77723,1,0,0:0:0:0:
448,192,77802,1,0,0:0:0:0:
320,192,77881,1,0,0:0:0:0:
192,192,77881,1,0,0:0:0:0:
448,192,77960,1,0,0:0:0:0:
64,192,77960,1,0,0:0:0:0:
192,192,78039,1,0,0:0:0:0:
320,192,78118,1,0,0:0:0:0:
448,192,78197,1,0,0:0:0:0:
192,192,78197,1,0,0:0:0:0:
64,192,78276,1,0,0:0:0:0:
448,192,78354,1,0,0:0:0:0:
320,192,78354,1,0,0:0:0:0:
192,192,78433,1,0,0:0:0:0:
448,192,78512,1,0,0:0:0:0:
64,192,78512,1,0,0:0:0:0:
320,192,78591,1,0,0:0:0:0:
192,192,78670,1,0,0:0:0:0:
64,192,78670,1,0,0:0:0:0:
448,192,78749,1,0,0:0:0:0:
320,192,78828,1,0,0:0:0:0:
64,192,78828,1,0,0:0:0:0:
192,192,78907,1,0,0:0:0:0:
320,192,78986,1,0,0:0:0:0:
64,192,78986,1,0,0:0:0:0:
448,192,79065,1,0,0:0:0:0:
320,192,79144,1,0,0:0:0:0:
192,192,79144,1,0,0:0:0:0:
64,192,79223,1,0,0:0:0:0:
448,192,79302,1,0,0:0:0:0:
192,192,79302,1,0,0:0:0:0:
320,192,79381,1,0,0:0:0:0:
448,192,79460,1,0,0:0:0:0:
192,192,79460,1,0,0:0:0:0:
64,192,79539,1,0,0:0:0:0:
448,192,79618,1,0,0:0:0:0:
320,192,79618,1,0,0:0:0:0:
192,192,79697,1,0,0:0:0:0:
320,192,79776,1,0,0:0:0:0:
64,192,79776,1,0,0:0:0:0:
448,192,79854,1,0,0:0:0:0:
192,192,79933,1,0,0:0:0:0:
64,192,79933,1,0,0:0:0:0:
320,192,80012,1,0,0:0:0:0:
448,192,80091,1,0,0:0:0:0:
192,192,80091,1,0,0:0:0:0:
64,192,80170,1,0,0:0:0:0:
320,192,80249,1,0,0:0:0:0:
192,192,80249,1,0,0:0:0:0:
448,192,80328,1,0,0:0:0:0:
320,192,80407,1,0,0:0:0:0:
192,192,80407,1,0,0:0:0:0:
64,192,80486,1,0,0:0:0:0:
448,192,80565,1,0,0:0:0:0:
320,192,80565,1,0,0:0:0:0:
192,192,80644,1,0,0:0:0:0:
448,192,80723,1,0,0:0:0:0:
64,192,80723,1,0,0:0:0:0:
320,192,80802,1,0,0:0:0:0:
64,192,80881,1,0,0:0:0:0:
448,192,80881,1,0,0:0:0:0:
192,192,80960,1,0,0:0:0:0:
320,192,80999,1,0,0:0:0:0:
448,192,81039,1,0,0:0:0:0:
64,192,81078,1,0,0:0:0:0:
192,192,81118,1,0,0:0:0:0:
320,192,81157,1,0,0:0:0:0:
448,192,81197,1,0,0:0:0:0:
64,192,81236,1,0,0:0:0:0:
192,192,81276,1,0,0:0:0:0:
320,192,81315,1,0,0:0:0:0:
448,192,81354,128,0,81433:0:0:0:0:
64,192,81354,128,0,81433:0:0:0:0:
192,192,81433,1,0,0:0:0:0:
320,192,81512,1,0,0:0:0:0:
64,192,81591,1,0,0:0:0:0:
448,192,81670,1,0,0:0:0:0:
320,192,81749,1,0,0:0:0:0:
192,192,81828,1,0,0:0:0:0:
320,192,81907,1,0,0:0:0:0:
192,192,81986,1,0,0:0:0:0:
64,192,82065,1,0,0:0:0:0:
320,192,82144,1,0,0:0:0:0:
192,192,82223,1,0,0:0:0:0:
448,192,82302,1,0,0:0:0:0:
64,192,82381,1,0,0:0:0:0:
320,192,82460,1,0,0:0:0:0:
64,192,82539,1,0,0:0:0:0:
192,192,82539,1,0,0:0:0:0:
320,192,82618,1,0,0:0:0:0:
448,192,82618,1,0,0:0:0:0:
64,192,82697,1,0,0:0:0:0:
192,192,82776,1,0,0:0:0:0:
320,192,82854,1,0,0:0:0:0:
64,192,82933,1,0,0:0:0:0:
448,192,82933,1,0,0:0:0:0:
192,192,83012,1,0,0:0:0:0:
320,192,83091,1,0,0:0:0:0:
448,192,83091,1,0,0:0:0:0:
64,192,83170,1,0,0:0:0:0:
192,192,83170,1,0,0:0:0:0:
320,192,83249,1,0,0:0:0:0:
448,192,83249,1,0,0:0:0:0:
64,192,83328,1,0,0:0:0:0:
192,192,83407,1,0,0:0:0:0:
320,192,83486,1,0,0:0:0:0:
64,192,83565,1,0,0:0:0:0:
192,192,83565,1,0,0:0:0:0:
320,192,83644,1,0,0:0:0:0:
64,192,83723,1,0,0:0:0:0:
448,192,83723,1,0,0:0:0:0:
192,192,83802,1,0,0:0:0:0:
320,192,83802,1,0,0:0:0:0:
64,192,83881,1,0,0:0:0:0:
448,192,83881,1,0,0:0:0:0:
192,192,83960,1,0,0:0:0:0:
320,192,84039,1,0,0:0:0:0:
64,192,84118,1,0,0:0:0:0:
192,192,84197,1,0,0:0:0:0:
320,192,84197,1,0,0:0:0:0:
448,192,84276,1,0,0:0:0:0:
64,192,84354,1,0,0:0:0:0:
192,192,84354,1,0,0:0:0:0:
320,192,84433,1,0,0:0:0:0:
448,192,84433,1,0,0:0:0:0:
64,192,84512,1,0,0:0:0:0:
192,192,84512,1,0,0:0:0:0:
320,192,84591,1,0,0:0:0:0:
448,192,84670,1,0,0:0:0:0:
192,192,84749,1,0,0:0:0:0:
320,192,84828,1,0,0:0:0:0:
448,192,84828,1,0,0:0:0:0:
64,192,84907,1,0,0:0:0:0:
320,192,84986,1,0,0:0:0:0:
192,192,84986,1,0,0:0:0:0:
448,192,85065,1,0,0:0:0:0:
64,192,85065,1,0,0:0:0:0:
192,192,85144,1,0,0:0:0:0:
320,192,85144,1,0,0:0:0:0:
64,192,85223,1,0,0:0:0:0:
448,192,85302,1,0,0:0:0:0:
192,192,85381,1,0,0:0:0:0:
64,192,85460,1,0,0:0:0:0:
448,192,85460,1,0,0:0:0:0:
320,192,85539,1,0,0:0:0:0:
64,192,85618,1,0,0:0:0:0:
192,192,85618,1,0,0:0:0:0:
320,192,85697,1,0,0:0:0:0:
448,192,85697,1,0,0:0:0:0:
64,192,85776,1,0,0:0:0:0:
192,192,85776,1,0,0:0:0:0:
448,192,85854,1,0,0:0:0:0:
320,192,85933,1,0,0:0:0:0:
192,192,86012,1,0,0:0:0:0:
320,192,86091,1,0,0:0:0:0:
448,192,86091,1,0,0:0:0:0:
192,192,86170,1,0,0:0:0:0:
64,192,86249,1,0,0:0:0:0:
448,192,86249,1,0,0:0:0:0:
192,192,86328,1,0,0:0:0:0:
320,192,86328,1,0,0:0:0:0:
64,192,86407,1,0,0:0:0:0:
448,192,86407,1,0,0:0:0:0:
320,192,86486,1,0,0:0:0:0:
192,192,86565,1,0,0:0:0:0:
448,192,86644,1,0,0:0:0:0:
192,192,86723,1,0,0:0:0:0:
320,192,86723,1,0,0:0:0:0:
64,192,86802,1,0,0:0:0:0:
320,192,86881,1,0,0:0:0:0:
448,192,86881,1,0,0:0:0:0:
64,192,86960,1,0,0:0:0:0:
192,192,86960,1,0,0:0:0:0:
320,192,87039,1,0,0:0:0:0:
448,192,87039,1,0,0:0:0:0:
192,192,87118,1,0,0:0:0:0:
64,192,87197,1,0,0:0:0:0:
320,192,87236,1,0,0:0:0:0:
192,192,87276,1,0,0:0:0:0:
448,192,87354,1,0,0:0:0:0:
64,192,87354,1,0,0:0:0:0:
320,192,87433,1,0,0:0:0:0:
448,192,87512,1,0,0:0:0:0:
320,192,87591,1,0,0:0:0:0:
64,192,87670,1,0,0:0:0:0:
192,192,87670,1,0,0:0:0:0:
448,192,87749,1,0,0:0:0:0:
320,192,87828,1,0,0:0:0:0:
448,192,87907,1,0,0:0:0:0:
64,192,87986,1,0,0:0:0:0:
192,192,87986,1,0,0:0:0:0:
320,192,88065,1,0,0:0:0:0:
192,192,88144,1,0,0:0:0:0:
448,192,88223,1,0,0:0:0:0:
64,192,88302,1,0,0:0:0:0:
192,192,88302,1,0,0:0:0:0:
320,192,88381,1,0,0:0:0:0:
448,192,88460,1,0,0:0:0:0:
320,192,88539,1,0,0:0:0:0:
64,192,88618,1,0,0:0:0:0:
192,192,88618,1,0,0:0:0:0:
448,192,88697,1,0,0:0:0:0:
192,192,88776,1,0,0:0:0:0:
320,192,88854,1,0,0:0:0:0:
64,192,88933,1,0,0:0:0:0:
192,192,88933,1,0,0:0:0:0:
448,192,89012,1,0,0:0:0:0:
64,192,89091,1,0,0:0:0:0:
192,192,89091,1,0,0:0:0:0:
320,192,89170,1,0,0:0:0:0:
448,192,89170,1,0,0:0:0:0:
64,192,89249,1,0,0:0:0:0:
192,192,89249,1,0,0:0:0:0:
320,192,89328,1,0,0:0:0:0:
64,192,89407,1,0,0:0:0:0:
448,192,89407,1,0,0:0:0:0:
192,192,89486,1,0,0:0:0:0:
320,192,89486,1,0,0:0:0:0:
64,192,89565,1,0,0:0:0:0:
448,192,89565,1,0,0:0:0:0:
192,192,89644,1,0,0:0:0:0:
320,192,89723,1,0,0:0:0:0:
448,192,89723,1,0,0:0:0:0:
64,192,89802,1,0,0:0:0:0:
192,192,89802,1,0,0:0:0:0:
320,192,89881,1,0,0:0:0:0:
448,192,89881,1,0,0:0:0:0:
64,192,89960,1,0,0:0:0:0:
192,192,89960,1,0,0:0:0:0:
320,192,90039,1,0,0:0:0:0:
448,192,90039,1,0,0:0:0:0:
64,192,90118,1,0,0:0:0:0:
192,192,90118,1,0,0:0:0:0:
320,192,90197,1,0,0:0:0:0:
448,192,90197,1,0,0:0:0:0:
64,192,90276,1,0,0:0:0:0:
192,192,90354,1,0,0:0:0:0:
64,192,90433,1,0,0:0:0:0:
320,192,90433,1,0,0:0:0:0:
192,192,90512,1,0,0:0:0:0:
448,192,90512,1,0,0:0:0:0:
320,192,90591,1,0,0:0:0:0:
192,192,90670,1,0,0:0:0:0:
320,192,90749,1,0,0:0:0:0:
64,192,90828,1,0,0:0:0:0:
192,192,90828,1,0,0:0:0:0:
448,192,90907,1,0,0:0:0:0:
320,192,90986,1,0,0:0:0:0:
192,192,91065,1,0,0:0:0:0:
448,192,91065,1,0,0:0:0:0:
64,192,91144,1,0,0:0:0:0:
320,192,91144,1,0,0:0:0:0:
192,192,91223,1,0,0:0:0:0:
320,192,91302,1,0,0:0:0:0:
64,192,91381,1,0,0:0:0:0:
192,192,91381,1,0,0:0:0:0:
320,192,91460,1,0,0:0:0:0:
448,192,91460,1,0,0:0:0:0:
64,192,91539,1,0,0:0:0:0:
192,192,91618,1,0,0:0:0:0:
448,192,91618,1,0,0:0:0:0:
64,192,91697,1,0,0:0:0:0:
320,192,91697,1,0,0:0:0:0:
192,192,91776,1,0,0:0:0:0:
448,192,91776,1,0,0:0:0:0:
64,192,91854,1,0,0:0:0:0:
320,192,91854,1,0,0:0:0:0:
192,192,91933,1,0,0:0:0:0:
448,192,91933,1,0,0:0:0:0:
64,192,92012,1,0,0:0:0:0:
320,192,92091,1,0,0:0:0:0:
448,192,92091,1,0,0:0:0:0:
192,192,92170,1,0,0:0:0:0:
64,192,92249,1,0,0:0:0:0:
448,192,92328,1,0,0:0:0:0:
192,192,92407,1,0,0:0:0:0:
320,192,92407,1,0,0:0:0:0:
64,192,92486,1,0,0:0:0:0:
192,192,92565,1,0,0:0:0:0:
320,192,92565,1,0,0:0:0:0:
448,192,92644,1,0,0:0:0:0:
192,192,92723,1,0,0:0:0:0:
320,192,92723,1,0,0:0:0:0:
64,192,92802,1,0,0:0:0:0:
448,192,92881,1,0,0:0:0:0:
192,192,92960,1,0,0:0:0:0:
320,192,93039,1,0,0:0:0:0:
448,192,93039,1,0,0:0:0:0:
192,192,93118,1,0,0:0:0:0:
64,192,93197,1,0,0:0:0:0:
448,192,93276,1,0,0:0:0:0:
192,192,93354,1,0,0:0:0:0:
320,192,93354,1,0,0:0:0:0:
448,192,93433,1,0,0:0:0:0:
192,192,93512,1,0,0:0:0:0:
64,192,93591,1,0,0:0:0:0:
320,192,93670,1,0,0:0:0:0:
448,192,93670,1,0,0:0:0:0:
192,192,93749,1,0,0:0:0:0:
320,192,93828,1,0,0:0:0:0:
192,192,93907,1,0,0:0:0:0:
64,192,93986,1,0,0:0:0:0:
320,192,93986,1,0,0:0:0:0:
448,192,94065,1,0,0:0:0:0:
64,192,94144,1,0,0:0:0:0:
320,192,94223,1,0,0:0:0:0:
192,192,94302,1,0,0:0:0:0:
448,192,94302,1,0,0:0:0:0:
64,192,94381,1,0,0:0:0:0:
448,192,94460,1,0,0:0:0:0:
64,192,94539,1,0,0:0:0:0:
192,192,94618,1,0,0:0:0:0:
320,192,94618,1,0,0:0:0:0:
448,192,94697,1,0,0:0:0:0:
64,192,94776,1,0,0:0:0:0:
192,192,94815,1,0,0:0:0:0:
320,192,94854,1,0,0:0:0:0:
448,192,94854,1,0,0:0:0:0:
192,192,94933,1,0,0:0:0:0:
64,192,94973,1,0,0:0:0:0:
320,192,95012,1,0,0:0:0:0:
448,192,95052,1,0,0:0:0:0:
192,192,95091,1,0,0:0:0:0:
64,192,95131,1,0,0:0:0:0:
320,192,95170,1,0,0:0:0:0:
448,192,95210,1,0,0:0:0:0:
64,192,95249,1,0,0:0:0:0:
192,192,95249,1,0,0:0:0:0:
320,192,95328,1,0,0:0:0:0:
448,192,95328,1,0,0:0:0:0:
64,192,95407,1,0,0:0:0:0:
192,192,95407,1,0,0:0:0:0:
320,192,95486,1,0,0:0:0:0:
448,192,95486,1,0,0:0:0:0:
64,192,95565,1,0,0:0:0:0:
192,192,95565,1,0,0:0:0:0:
320,192,95644,1,0,0:0:0:0:
64,192,95723,1,0,0:0:0:0:
192,192,95723,1,0,0:0:0:0:
320,192,95881,1,0,0:0:0:0:
448,192,95881,1,0,0:0:0:0:
192,192,95960,1,0,0:0:0:0:
448,192,96039,1,0,0:0:0:0:
320,192,96118,1,0,0:0:0:0:
64,192,96197,1,0,0:0:0:0:
192,192,96197,1,0,0:0:0:0:
448,192,96276,1,0,0:0:0:0:
64,192,96354,1,0,0:0:0:0:
448,192,96433,1,0,0:0:0:0:
64,192,96512,1,0,0:0:0:0:
320,192,96512,1,0,0:0:0:0:
192,192,96591,1,0,0:0:0:0:
320,192,96670,1,0,0:0:0:0:
192,192,96749,1,0,0:0:0:0:
64,192,96828,1,0,0:0:0:0:
448,192,96828,1,0,0:0:0:0:
320,192,96907,1,0,0:0:0:0:
192,192,96986,1,0,0:0:0:0:
448,192,97065,1,0,0:0:0:0:
192,192,97144,1,0,0:0:0:0:
320,192,97144,1,0,0:0:0:0:
64,192,97223,1,0,0:0:0:0:
448,192,97223,1,0,0:0:0:0:
192,192,97302,1,0,0:0:0:0:
320,192,97302,1,0,0:0:0:0:
64,192,97381,1,0,0:0:0:0:
448,192,97381,1,0,0:0:0:0:
192,192,97460,1,0,0:0:0:0:
320,192,97460,1,0,0:0:0:0:
448,192,97618,1,0,0:0:0:0:
320,192,97697,1,0,0:0:0:0:
64,192,97776,1,0,0:0:0:0:
448,192,97776,1,0,0:0:0:0:
192,192,97854,1,0,0:0:0:0:
64,192,97933,1,0,0:0:0:0:
320,192,98012,1,0,0:0:0:0:
64,192,98091,1,0,0:0:0:0:
192,192,98091,1,0,0:0:0:0:
448,192,98170,1,0,0:0:0:0:
64,192,98249,1,0,0:0:0:0:
192,192,98328,1,0,0:0:0:0:
64,192,98407,1,0,0:0:0:0:
320,192,98407,1,0,0:0:0:0:
192,192,98486,1,0,0:0:0:0:
320,192,98565,1,0,0:0:0:0:
448,192,98644,1,0,0:0:0:0:
192,192,98723,1,0,0:0:0:0:
320,192,98723,1,0,0:0:0:0:
448,192,98802,1,0,0:0:0:0:
320,192,98881,1,0,0:0:0:0:
192,192,98960,1,0,0:0:0:0:
320,192,99039,1,0,0:0:0:0:
448,192,99039,1,0,0:0:0:0:
64,192,99118,1,0,0:0:0:0:
192,192,99197,1,0,0:0:0:0:
64,192,99276,1,0,0:0:0:0:
448,192,99276,1,0,0:0:0:0:
320,192,99354,1,0,0:0:0:0:
448,192,99433,1,0,0:0:0:0:
64,192,99512,1,0,0:0:0:0:
192,192,99512,1,0,0:0:0:0:
320,192,99591,1,0,0:0:0:0:
192,192,99670,1,0,0:0:0:0:
64,192,99749,1,0,0:0:0:0:
448,192,99749,1,0,0:0:0:0:
192,192,99828,1,0,0:0:0:0:
320,192,99828,1,0,0:0:0:0:
64,192,99907,1,0,0:0:0:0:
448,192,99907,1,0,0:0:0:0:
192,192,99986,1,0,0:0:0:0:
320,192,99986,1,0,0:0:0:0:
64,192,100065,1,0,0:0:0:0:
448,192,100065,1,0,0:0:0:0:
192,192,100144,1,0,0:0:0:0:
320,192,100144,1,0,0:0:0:0:
64,192,100223,1,0,0:0:0:0:
448,192,100223,1,0,0:0:0:0:
192,192,100302,1,0,0:0:0:0:
320,192,100302,1,0,0:0:0:0:
448,192,100381,1,0,0:0:0:0:
64,192,100460,1,0,0:0:0:0:
320,192,100539,1,0,0:0:0:0:
64,192,100618,1,0,0:0:0:0:
448,192,100618,1,0,0:0:0:0:
192,192,100697,1,0,0:0:0:0:
448,192,100776,1,0,0:0:0:0:
320,192,100854,1,0,0:0:0:0:
64,192,100933,1,0,0:0:0:0:
448,192,100933,1,0,0:0:0:0:
192,192,101012,1,0,0:0:0:0:
320,192,101091,1,0,0:0:0:0:
448,192,101170,1,0,0:0:0:0:
64,192,101249,1,0,0:0:0:0:
192,192,101249,1,0,0:0:0:0:
320,192,101249,1,0,0:0:0:0:
448,192,101328,1,0,0:0:0:0:
320,192,101407,1,0,0:0:0:0:
192,192,101486,1,0,0:0:0:0:
64,192,101565,1,0,0:0:0:0:
448,192,101565,1,0,0:0:0:0:
320,192,101644,1,0,0:0:0:0:
192,192,101723,1,0,0:0:0:0:
448,192,101723,1,0,0:0:0:0:
320,192,101802,1,0,0:0:0:0:
64,192,101881,1,0,0:0:0:0:
192,192,101881,1,0,0:0:0:0:
320,192,101960,1,0,0:0:0:0:
64,192,102039,1,0,0:0:0:0:
448,192,102039,1,0,0:0:0:0:
192,192,102118,1,0,0:0:0:0:
64,192,102197,1,0,0:0:0:0:
320,192,102197,1,0,0:0:0:0:
192,192,102276,1,0,0:0:0:0:
320,192,102354,1,0,0:0:0:0:
448,192,102354,1,0,0:0:0:0:
64,192,102433,1,0,0:0:0:0:
192,192,102473,1,0,0:0:0:0:
320,192,102512,1,0,0:0:0:0:
448,192,102512,1,0,0:0:0:0:
64,192,102552,1,0,0:0:0:0:
192,192,102591,1,0,0:0:0:0:
320,192,102670,1,0,0:0:0:0:
448,192,102670,1,0,0:0:0:0:
64,192,102749,1,0,0:0:0:0:
192,192,102828,1,0,0:0:0:0:
320,192,102828,1,0,0:0:0:0:
64,192,105354,128,0,105433:0:0:0:0:
448,192,105354,128,0,105433:0:0:0:0:
320,192,105433,1,0,0:0:0:0:
448,192,105512,1,0,0:0:0:0:
320,192,105591,1,0,0:0:0:0:
192,192,105670,1,0,0:0:0:0:
64,192,105749,1,0,0:0:0:0:
320,192,105828,1,0,0:0:0:0:
192,192,105907,1,0,0:0:0:0:
448,192,105986,1,0,0:0:0:0:
320,192,106065,1,0,0:0:0:0:
448,192,106144,1,0,0:0:0:0:
192,192,106223,1,0,0:0:0:0:
320,192,106302,1,0,0:0:0:0:
64,192,106381,1,0,0:0:0:0:
192,192,106460,1,0,0:0:0:0:
448,192,106539,1,0,0:0:0:0:
320,192,106618,1,0,0:0:0:0:
192,192,106697,1,0,0:0:0:0:
320,192,106776,1,0,0:0:0:0:
192,192,106854,1,0,0:0:0:0:
64,192,106933,1,0,0:0:0:0:
320,192,107012,1,0,0:0:0:0:
192,192,107091,1,0,0:0:0:0:
448,192,107170,1,0,0:0:0:0:
320,192,107249,1,0,0:0:0:0:
192,192,107328,1,0,0:0:0:0:
320,192,107407,1,0,0:0:0:0:
64,192,107486,1,0,0:0:0:0:
192,192,107565,1,0,0:0:0:0:
448,192,107644,1,0,0:0:0:0:
64,192,107723,1,0,0:0:0:0:
320,192,107802,1,0,0:0:0:0:
192,192,107881,1,0,0:0:0:0:
64,192,107960,1,0,0:0:0:0:
192,192,108039,1,0,0:0:0:0:
64,192,108118,1,0,0:0:0:0:
320,192,108197,1,0,0:0:0:0:
192,192,108276,1,0,0:0:0:0:
448,192,108354,1,0,0:0:0:0:
320,192,108433,1,0,0:0:0:0:
192,192,108512,1,0,0:0:0:0:
64,192,108591,1,0,0:0:0:0:
192,192,108670,1,0,0:0:0:0:
448,192,108749,1,0,0:0:0:0:
64,192,108828,1,0,0:0:0:0:
320,192,108907,1,0,0:0:0:0:
192,192,108986,1,0,0:0:0:0:
64,192,109065,1,0,0:0:0:0:
448,192,109144,1,0,0:0:0:0:
320,192,109223,1,0,0:0:0:0:
448,192,109302,1,0,0:0:0:0:
320,192,109381,1,0,0:0:0:0:
192,192,109460,1,0,0:0:0:0:
64,192,109539,1,0,0:0:0:0:
320,192,109618,1,0,0:0:0:0:
192,192,109697,1,0,0:0:0:0:
448,192,109776,1,0,0:0:0:0:
320,192,109854,1,0,0:0:0:0:
448,192,109933,1,0,0:0:0:0:
64,192,110012,1,0,0:0:0:0:
320,192,110091,1,0,0:0:0:0:
192,192,110170,1,0,0:0:0:0:
64,192,110249,1,0,0:0:0:0:
320,192,110328,1,0,0:0:0:0:
192,192,110407,128,0,110486:0:0:0:0:
448,192,110407,128,0,110486:0:0:0:0:
64,192,110486,1,0,0:0:0:0:
448,192,110565,1,0,0:0:0:0:
64,192,110644,1,0,0:0:0:0:
192,192,110723,1,0,0:0:0:0:
448,192,110802,1,0,0:0:0:0:
64,192,110881,1,0,0:0:0:0:
320,192,110960,1,0,0:0:0:0:
448,192,111039,1,0,0:0:0:0:
64,192,111118,1,0,0:0:0:0:
448,192,111197,1,0,0:0:0:0:
192,192,111276,1,0,0:0:0:0:
320,192,111354,1,0,0:0:0:0:
64,192,111433,1,0,0:0:0:0:
192,192,111512,1,0,0:0:0:0:
448,192,111591,1,0,0:0:0:0:
64,192,111670,1,0,0:0:0:0:
192,192,111749,1,0,0:0:0:0:
64,192,111828,1,0,0:0:0:0:
192,192,111907,1,0,0:0:0:0:
320,192,111986,1,0,0:0:0:0:
448,192,112065,1,0,0:0:0:0:
192,192,112144,1,0,0:0:0:0:
320,192,112223,1,0,0:0:0:0:
64,192,112302,1,0,0:0:0:0:
192,192,112381,1,0,0:0:0:0:
64,192,112460,1,0,0:0:0:0:
448,192,112539,1,0,0:0:0:0:
192,192,112618,1,0,0:0:0:0:
320,192,112697,1,0,0:0:0:0:
64,192,112776,1,0,0:0:0:0:
192,192,112854,1,0,0:0:0:0:
320,192,112933,1,0,0:0:0:0:
448,192,113012,1,0,0:0:0:0:
320,192,113091,1,0,0:0:0:0:
448,192,113170,1,0,0:0:0:0:
192,192,113249,1,0,0:0:0:0:
320,192,113328,1,0,0:0:0:0:
64,192,113407,1,0,0:0:0:0:
192,192,113486,1,0,0:0:0:0:
320,192,113565,1,0,0:0:0:0:
448,192,113644,1,0,0:0:0:0:
320,192,113723,1,0,0:0:0:0:
64,192,113802,1,0,0:0:0:0:
192,192,113881,1,0,0:0:0:0:
320,192,113960,1,0,0:0:0:0:
64,192,114039,1,0,0:0:0:0:
448,192,114118,1,0,0:0:0:0:
192,192,114197,1,0,0:0:0:0:
320,192,114276,1,0,0:0:0:0:
192,192,114354,1,0,0:0:0:0:
320,192,114433,1,0,0:0:0:0:
64,192,114512,1,0,0:0:0:0:
192,192,114591,1,0,0:0:0:0:
320,192,114670,1,0,0:0:0:0:
448,192,114749,1,0,0:0:0:0:
192,192,114828,1,0,0:0:0:0:
320,192,114907,1,0,0:0:0:0:
192,192,114986,1,0,0:0:0:0:
448,192,115065,1,0,0:0:0:0:
64,192,115144,1,0,0:0:0:0:
192,192,115223,1,0,0:0:0:0:
320,192,115302,1,0,0:0:0:0:
448,192,115381,1,0,0:0:0:0:
64,192,115460,128,0,115539:0:0:0:0:
192,192,115460,128,0,115539:0:0:0:0:
320,192,115539,1,0,0:0:0:0:
64,192,115618,1,0,0:0:0:0:
320,192,115697,1,0,0:0:0:0:
448,192,115776,1,0,0:0:0:0:
64,192,115854,1,0,0:0:0:0:
320,192,115933,1,0,0:0:0:0:
192,192,116012,1,0,0:0:0:0:
64,192,116091,1,0,0:0:0:0:
320,192,116170,1,0,0:0:0:0:
64,192,116249,1,0,0:0:0:0:
448,192,116328,1,0,0:0:0:0:
320,192,116407,1,0,0:0:0:0:
192,192,116486,1,0,0:0:0:0:
64,192,116565,1,0,0:0:0:0:
448,192,116644,1,0,0:0:0:0:
192,192,116723,1,0,0:0:0:0:
320,192,116802,1,0,0:0:0:0:
192,192,116881,1,0,0:0:0:0:
320,192,116960,1,0,0:0:0:0:
64,192,117039,1,0,0:0:0:0:
448,192,117118,1,0,0:0:0:0:
320,192,117197,1,0,0:0:0:0:
64,192,117276,1,0,0:0:0:0:
192,192,117354,1,0,0:0:0:0:
320,192,117433,1,0,0:0:0:0:
192,192,117512,1,0,0:0:0:0:
448,192,117591,1,0,0:0:0:0:
320,192,117670,1,0,0:0:0:0:
64,192,117749,1,0,0:0:0:0:
448,192,117828,1,0,0:0:0:0:
320,192,117907,1,0,0:0:0:0:
192,192,117986,1,0,0:0:0:0:
448,192,118065,1,0,0:0:0:0:
192,192,118144,1,0,0:0:0:0:
448,192,118223,1,0,0:0:0:0:
320,192,118302,1,0,0:0:0:0:
64,192,118381,1,0,0:0:0:0:
448,192,118460,1,0,0:0:0:0:
320,192,118539,1,0,0:0:0:0:
192,192,118618,1,0,0:0:0:0:
448,192,118697,1,0,0:0:0:0:
192,192,118776,1,0,0:0:0:0:
64,192,118854,1,0,0:0:0:0:
448,192,118933,1,0,0:0:0:0:
320,192,119012,1,0,0:0:0:0:
192,192,119091,1,0,0:0:0:0:
448,192,119170,1,0,0:0:0:0:
64,192,119249,1,0,0:0:0:0:
320,192,119328,1,0,0:0:0:0:
64,192,119407,1,0,0:0:0:0:
320,192,119486,1,0,0:0:0:0:
192,192,119565,1,0,0:0:0:0:
448,192,119644,1,0,0:0:0:0:
320,192,119723,1,0,0:0:0:0:
192,192,119802,1,0,0:0:0:0:
64,192,119881,1,0,0:0:0:0:
320,192,119960,1,0,0:0:0:0:
64,192,120039,1,0,0:0:0:0:
448,192,120118,1,0,0:0:0:0:
320,192,120197,1,0,0:0:0:0:
192,192,120276,1,0,0:0:0:0:
64,192,120354,1,0,0:0:0:0:
320,192,120433,1,0,0:0:0:0:
64,192,120512,128,0,120591:0:0:0:0:
192,192,120512,128,0,120591:0:0:0:0:
448,192,120591,1,0,0:0:0:0:
64,192,120670,1,0,0:0:0:0:
448,192,120749,1,0,0:0:0:0:
320,192,120828,1,0,0:0:0:0:
64,192,120907,1,0,0:0:0:0:
192,192,120986,1,0,0:0:0:0:
320,192,121065,1,0,0:0:0:0:
64,192,121144,1,0,0:0:0:0:
448,192,121223,1,0,0:0:0:0:
64,192,121302,1,0,0:0:0:0:
192,192,121381,1,0,0:0:0:0:
320,192,121460,1,0,0:0:0:0:
448,192,121539,1,0,0:0:0:0:
64,192,121618,1,0,0:0:0:0:
320,192,121697,1,0,0:0:0:0:
192,192,121776,1,0,0:0:0:0:
448,192,121854,1,0,0:0:0:0:
192,192,121933,1,0,0:0:0:0:
448,192,122012,1,0,0:0:0:0:
64,192,122091,1,0,0:0:0:0:
320,192,122170,1,0,0:0:0:0:
448,192,122249,1,0,0:0:0:0:
64,192,122328,1,0,0:0:0:0:
192,192,122407,1,0,0:0:0:0:
448,192,122486,1,0,0:0:0:0:
192,192,122565,1,0,0:0:0:0:
320,192,122644,1,0,0:0:0:0:
448,192,122723,1,0,0:0:0:0:
64,192,122802,1,0,0:0:0:0:
192,192,122881,1,0,0:0:0:0:
448,192,122960,1,0,0:0:0:0:
320,192,123039,1,0,0:0:0:0:
64,192,123118,1,0,0:0:0:0:
320,192,123197,1,0,0:0:0:0:
64,192,123276,1,0,0:0:0:0:
192,192,123354,1,0,0:0:0:0:
448,192,123433,1,0,0:0:0:0:
64,192,123512,1,0,0:0:0:0:
192,192,123591,1,0,0:0:0:0:
320,192,123670,1,0,0:0:0:0:
64,192,123749,1,0,0:0:0:0:
320,192,123828,1,0,0:0:0:0:
192,192,123907,1,0,0:0:0:0:
448,192,123986,1,0,0:0:0:0:
64,192,124065,1,0,0:0:0:0:
192,192,124144,1,0,0:0:0:0:
448,192,124223,1,0,0:0:0:0:
320,192,124302,1,0,0:0:0:0:
192,192,124381,1,0,0:0:0:0:
320,192,124460,1,0,0:0:0:0:
192,192,124539,1,0,0:0:0:0:
64,192,124618,1,0,0:0:0:0:
320,192,124697,1,0,0:0:0:0:
192,192,124776,1,0,0:0:0:0:
448,192,124854,1,0,0:0:0:0:
320,192,124933,1,0,0:0:0:0:
64,192,124986,1,0,0:0:0:0:
192,192,125039,1,0,0:0:0:0:
320,192,125091,1,0,0:0:0:0:
64,192,125144,1,0,0:0:0:0:
448,192,125197,1,0,0:0:0:0:
192,192,125249,1,0,0:0:0:0:
320,192,125302,1,0,0:0:0:0:
448,192,125354,1,0,0:0:0:0:
64,192,125407,1,0,0:0:0:0:
192,192,125460,1,0,0:0:0:0:
320,192,125512,1,0,0:0:0:0:
64,192,125565,128,0,125644:0:0:0:0:
448,192,125565,128,0,126670:0:0:0:0:
320,192,125644,1,0,0:0:0:0:
64,192,125723,1,0,0:0:0:0:
320,192,125802,1,0,0:0:0:0:
192,192,125881,1,0,0:0:0:0:
64,192,125960,1,0,0:0:0:0:
320,192,126039,1,0,0:0:0:0:
192,192,126118,1,0,0:0:0:0:
64,192,126197,1,0,0:0:0:0:
320,192,126276,1,0,0:0:0:0:
64,192,126354,1,0,0:0:0:0:
192,192,126433,1,0,0:0:0:0:
320,192,126512,1,0,0:0:0:0:
64,192,126591,1,0,0:0:0:0:
192,192,126670,1,0,0:0:0:0:
320,192,126749,1,0,0:0:0:0:
64,192,126828,128,0,127933:0:0:0:0:
192,192,126907,1,0,0:0:0:0:
320,192,126986,1,0,0:0:0:0:
192,192,127065,1,0,0:0:0:0:
320,192,127144,1,0,0:0:0:0:
448,192,127223,1,0,0:0:0:0:
192,192,127302,1,0,0:0:0:0:
320,192,127381,1,0,0:0:0:0:
448,192,127460,1,0,0:0:0:0:
192,192,127539,1,0,0:0:0:0:
320,192,127618,1,0,0:0:0:0:
192,192,127697,1,0,0:0:0:0:
448,192,127776,1,0,0:0:0:0:
320,192,127854,1,0,0:0:0:0:
192,192,127933,1,0,0:0:0:0:
448,192,128012,1,0,0:0:0:0:
320,192,128091,1,0,0:0:0:0:
192,192,128170,1,0,0:0:0:0:
320,192,128249,1,0,0:0:0:0:
192,192,128328,1,0,0:0:0:0:
64,192,128407,1,0,0:0:0:0:
320,192,128486,1,0,0:0:0:0:
192,192,128565,1,0,0:0:0:0:
448,192,128644,1,0,0:0:0:0:
320,192,128723,1,0,0:0:0:0:
192,192,128802,1,0,0:0:0:0:
320,192,128881,1,0,0:0:0:0:
448,192,128960,1,0,0:0:0:0:
192,192,129039,1,0,0:0:0:0:
320,192,129118,1,0,0:0:0:0:
64,192,129197,1,0,0:0:0:0:
448,192,129276,1,0,0:0:0:0:
320,192,129354,1,0,0:0:0:0:
192,192,129433,1,0,0:0:0:0:
320,192,129512,1,0,0:0:0:0:
192,192,129591,1,0,0:0:0:0:
64,192,129670,1,0,0:0:0:0:
320,192,129749,1,0,0:0:0:0:
192,192,129828,1,0,0:0:0:0:
448,192,129907,1,0,0:0:0:0:
320,192,129986,1,0,0:0:0:0:
192,192,130065,1,0,0:0:0:0:
320,192,130144,1,0,0:0:0:0:
448,192,130223,1,0,0:0:0:0:
192,192,130302,1,0,0:0:0:0:
320,192,130381,1,0,0:0:0:0:
64,192,130460,1,0,0:0:0:0:
320,192,130539,1,0,0:0:0:0:
192,192,130618,1,0,0:0:0:0:
448,192,130618,128,0,131723:0:0:0:0:
64,192,130697,1,0,0:0:0:0:
192,192,130776,1,0,0:0:0:0:
64,192,130854,1,0,0:0:0:0:
320,192,130933,1,0,0:0:0:0:
192,192,131012,1,0,0:0:0:0:
64,192,131091,1,0,0:0:0:0:
320,192,131170,1,0,0:0:0:0:
192,192,131249,1,0,0:0:0:0:
64,192,131328,1,0,0:0:0:0:
192,192,131407,1,0,0:0:0:0:
320,192,131486,1,0,0:0:0:0:
64,192,131565,1,0,0:0:0:0:
192,192,131644,1,0,0:0:0:0:
320,192,131723,1,0,0:0:0:0:
448,192,131802,1,0,0:0:0:0:
64,192,131881,128,0,132986:0:0:0:0:
192,192,131960,1,0,0:0:0:0:
448,192,132039,1,0,0:0:0:0:
192,192,132118,1,0,0:0:0:0:
448,192,132197,1,0,0:0:0:0:
320,192,132276,1,0,0:0:0:0:
192,192,132354,1,0,0:0:0:0:
448,192,132433,1,0,0:0:0:0:
320,192,132512,1,0,0:0:0:0:
192,192,132591,1,0,0:0:0:0:
448,192,132670,1,0,0:0:0:0:
192,192,132749,1,0,0:0:0:0:
320,192,132828,1,0,0:0:0:0:
448,192,132907,1,0,0:0:0:0:
192,192,132986,1,0,0:0:0:0:
64,192,133065,1,0,0:0:0:0:
320,192,133144,128,0,134881:0:0:0:0:
448,192,133223,1,0,0:0:0:0:
192,192,133302,1,0,0:0:0:0:
448,192,133381,1,0,0:0:0:0:
192,192,133460,1,0,0:0:0:0:
64,192,133539,1,0,0:0:0:0:
448,192,133618,1,0,0:0:0:0:
192,192,133697,1,0,0:0:0:0:
64,192,133776,1,0,0:0:0:0:
448,192,133854,1,0,0:0:0:0:
192,192,133933,1,0,0:0:0:0:
448,192,134012,1,0,0:0:0:0:
64,192,134091,1,0,0:0:0:0:
192,192,134170,1,0,0:0:0:0:
448,192,134249,1,0,0:0:0:0:
64,192,134328,1,0,0:0:0:0:
192,192,134407,1,0,0:0:0:0:
448,192,134486,1,0,0:0:0:0:
64,192,134565,1,0,0:0:0:0:
448,192,134644,1,0,0:0:0:0:
64,192,134723,1,0,0:0:0:0:
192,192,134802,1,0,0:0:0:0:
448,192,134881,1,0,0:0:0:0:
64,192,134960,1,0,0:0:0:0:
192,192,135039,1,0,0:0:0:0:
448,192,135118,1,0,0:0:0:0:
320,192,135197,1,0,0:0:0:0:
448,192,135276,1,0,0:0:0:0:
192,192,135354,1,0,0:0:0:0:
64,192,135433,1,0,0:0:0:0:
448,192,135512,1,0,0:0:0:0:
320,192,135591,1,0,0:0:0:0:
64,192,135670,128,0,135749:0:0:0:0:
448,192,135670,128,0,136776:0:0:0:0:
192,192,135749,1,0,0:0:0:0:
64,192,135828,1,0,0:0:0:0:
192,192,135907,1,0,0:0:0:0:
320,192,135986,1,0,0:0:0:0:
64,192,136065,1,0,0:0:0:0:
192,192,136144,1,0,0:0:0:0:
320,192,136223,1,0,0:0:0:0:
64,192,136302,1,0,0:0:0:0:
192,192,136381,1,0,0:0:0:0:
64,192,136460,1,0,0:0:0:0:
320,192,136539,1,0,0:0:0:0:
192,192,136618,1,0,0:0:0:0:
64,192,136697,1,0,0:0:0:0:
320,192,136776,1,0,0:0:0:0:
192,192,136854,1,0,0:0:0:0:
64,192,136933,128,0,138039:0:0:0:0:
448,192,137012,1,0,0:0:0:0:
192,192,137091,1,0,0:0:0:0:
448,192,137170,1,0,0:0:0:0:
192,192,137249,1,0,0:0:0:0:
320,192,137328,1,0,0:0:0:0:
448,192,137407,1,0,0:0:0:0:
192,192,137486,1,0,0:0:0:0:
320,192,137565,1,0,0:0:0:0:
448,192,137644,1,0,0:0:0:0:
192,192,137723,1,0,0:0:0:0:
448,192,137802,1,0,0:0:0:0:
320,192,137881,1,0,0:0:0:0:
192,192,137960,1,0,0:0:0:0:
448,192,138039,1,0,0:0:0:0:
320,192,138118,1,0,0:0:0:0:
64,192,138197,1,0,0:0:0:0:
448,192,138276,1,0,0:0:0:0:
192,192,138354,1,0,0:0:0:0:
448,192,138433,1,0,0:0:0:0:
192,192,138512,1,0,0:0:0:0:
64,192,138591,1,0,0:0:0:0:
448,192,138670,1,0,0:0:0:0:
320,192,138749,1,0,0:0:0:0:
64,192,138828,1,0,0:0:0:0:
448,192,138907,1,0,0:0:0:0:
192,192,138986,1,0,0:0:0:0:
448,192,139065,1,0,0:0:0:0:
64,192,139144,1,0,0:0:0:0:
320,192,139223,1,0,0:0:0:0:
448,192,139302,1,0,0:0:0:0:
192,192,139381,1,0,0:0:0:0:
64,192,139460,1,0,0:0:0:0:
448,192,139539,1,0,0:0:0:0:
192,192,139618,1,0,0:0:0:0:
448,192,139697,1,0,0:0:0:0:
192,192,139776,1,0,0:0:0:0:
64,192,139854,1,0,0:0:0:0:
448,192,139933,1,0,0:0:0:0:
320,192,140012,1,0,0:0:0:0:
64,192,140091,1,0,0:0:0:0:
448,192,140170,1,0,0:0:0:0:
192,192,140249,1,0,0:0:0:0:
448,192,140328,1,0,0:0:0:0:
64,192,140407,1,0,0:0:0:0:
320,192,140486,1,0,0:0:0:0:
448,192,140565,1,0,0:0:0:0:
192,192,140644,1,0,0:0:0:0:
320,192,140723,1,0,0:0:0:0:
448,192,140723,128,0,141828:0:0:0:0:
64,192,140802,1,0,0:0:0:0:
192,192,140881,1,0,0:0:0:0:
320,192,140960,1,0,0:0:0:0:
192,192,141039,1,0,0:0:0:0:
320,192,141118,1,0,0:0:0:0:
64,192,141197,1,0,0:0:0:0:
192,192,141276,1,0,0:0:0:0:
320,192,141354,1,0,0:0:0:0:
64,192,141433,1,0,0:0:0:0:
192,192,141512,1,0,0:0:0:0:
320,192,141591,1,0,0:0:0:0:
192,192,141670,1,0,0:0:0:0:
64,192,141749,1,0,0:0:0:0:
320,192,141828,1,0,0:0:0:0:
192,192,141907,1,0,0:0:0:0:
64,192,141986,128,0,143091:0:0:0:0:
448,192,142065,1,0,0:0:0:0:
320,192,142144,1,0,0:0:0:0:
192,192,142223,1,0,0:0:0:0:
320,192,142302,1,0,0:0:0:0:
192,192,142381,1,0,0:0:0:0:
448,192,142460,1,0,0:0:0:0:
320,192,142539,1,0,0:0:0:0:
192,192,142618,1,0,0:0:0:0:
448,192,142697,1,0,0:0:0:0:
320,192,142776,1,0,0:0:0:0:
192,192,142854,1,0,0:0:0:0:
320,192,142933,1,0,0:0:0:0:
448,192,143012,1,0,0:0:0:0:
192,192,143091,1,0,0:0:0:0:
320,192,143170,1,0,0:0:0:0:
192,192,143249,128,0,144670:0:0:0:0:
448,192,143328,1,0,0:0:0:0:
320,192,143407,1,0,0:0:0:0:
448,192,143486,1,0,0:0:0:0:
320,192,143565,1,0,0:0:0:0:
64,192,143644,1,0,0:0:0:0:
448,192,143723,1,0,0:0:0:0:
320,192,143802,1,0,0:0:0:0:
64,192,143881,1,0,0:0:0:0:
448,192,143960,1,0,0:0:0:0:
320,192,144039,1,0,0:0:0:0:
448,192,144118,1,0,0:0:0:0:
64,192,144197,1,0,0:0:0:0:
320,192,144276,1,0,0:0:0:0:
448,192,144354,1,0,0:0:0:0:
64,192,144433,1,0,0:0:0:0:
320,192,144512,1,0,0:0:0:0:
448,192,144591,1,0,0:0:0:0:
320,192,144670,1,0,0:0:0:0:
64,192,144749,1,0,0:0:0:0:
448,192,144828,1,0,0:0:0:0:
320,192,144907,1,0,0:0:0:0:
192,192,144986,1,0,0:0:0:0:
448,192,145065,1,0,0:0:0:0:
64,192,145144,1,0,0:0:0:0:
448,192,145223,1,0,0:0:0:0:
192,192,145302,1,0,0:0:0:0:
320,192,145381,1,0,0:0:0:0:
448,192,145460,1,0,0:0:0:0:
64,192,145539,1,0,0:0:0:0:
192,192,145618,1,0,0:0:0:0:
320,192,145697,1,0,0:0:0:0:
64,192,145776,128,0,145854:0:0:0:0:
448,192,145776,128,0,147039:0:0:0:0:
192,192,145854,1,0,0:0:0:0:
64,192,145933,1,0,0:0:0:0:
320,192,146012,1,0,0:0:0:0:
192,192,146091,1,0,0:0:0:0:
64,192,146170,1,0,0:0:0:0:
64,192,147039,128,0,148302:0:0:0:0:
448,192,150828,128,0,152091:0:0:0:0:
64,192,152091,128,0,153354:0:0:0:0:
192,192,153354,128,0,154618:0:0:0:0:
448,192,155881,128,0,157144:0:0:0:0:
64,192,157144,128,0,158407:0:0:0:0:
448,192,160933,128,0,162197:0:0:0:0:
64,192,162197,128,0,165670:0:0:0:0:
192,192,163460,128,0,165670:0:0:0:0:
64,192,165986,5,0,0:0:0:0:
192,192,165986,1,0,0:0:0:0:
320,192,166065,1,0,0:0:0:0:
64,192,166144,1,0,0:0:0:0:
192,192,166144,1,0,0:0:0:0:
320,192,166302,1,0,0:0:0:0:
448,192,166302,1,0,0:0:0:0:
192,192,166302,1,0,0:0:0:0:
64,192,166460,1,0,0:0:0:0:
192,192,166539,1,0,0:0:0:0:
320,192,166539,1,0,0:0:0:0:
448,192,166618,1,0,0:0:0:0:
192,192,166697,1,0,0:0:0:0:
320,192,166697,1,0,0:0:0:0:
64,192,166776,1,0,0:0:0:0:
448,192,166776,1,0,0:0:0:0:
64,192,166933,1,0,0:0:0:0:
192,192,166933,1,0,0:0:0:0:
320,192,166933,1,0,0:0:0:0:
448,192,167091,1,0,0:0:0:0:
320,192,167170,1,0,0:0:0:0:
64,192,167249,1,0,0:0:0:0:
192,192,167249,1,0,0:0:0:0:
320,192,167328,1,0,0:0:0:0:
64,192,167407,1,0,0:0:0:0:
192,192,167407,1,0,0:0:0:0:
320,192,167565,1,0,0:0:0:0:
448,192,167565,1,0,0:0:0:0:
192,192,167565,1,0,0:0:0:0:
64,192,167723,1,0,0:0:0:0:
192,192,167802,1,0,0:0:0:0:
320,192,167802,1,0,0:0:0:0:
448,192,167881,1,0,0:0:0:0:
192,192,167960,1,0,0:0:0:0:
320,192,167960,1,0,0:0:0:0:
64,192,168039,1,0,0:0:0:0:
448,192,168039,1,0,0:0:0:0:
64,192,168197,1,0,0:0:0:0:
192,192,168197,1,0,0:0:0:0:
320,192,168197,1,0,0:0:0:0:
64,192,168354,1,0,0:0:0:0:
192,192,168433,1,0,0:0:0:0:
320,192,168512,1,0,0:0:0:0:
448,192,168512,1,0,0:0:0:0:
192,192,168591,1,0,0:0:0:0:
320,192,168670,1,0,0:0:0:0:
448,192,168670,1,0,0:0:0:0:
64,192,168828,1,0,0:0:0:0:
192,192,168828,1,0,0:0:0:0:
320,192,168828,1,0,0:0:0:0:
448,192,168986,1,0,0:0:0:0:
192,192,169065,1,0,0:0:0:0:
320,192,169065,1,0,0:0:0:0:
64,192,169144,1,0,0:0:0:0:
192,192,169223,1,0,0:0:0:0:
320,192,169223,1,0,0:0:0:0:
64,192,169302,1,0,0:0:0:0:
448,192,169302,1,0,0:0:0:0:
320,192,169460,1,0,0:0:0:0:
448,192,169460,1,0,0:0:0:0:
192,192,169460,1,0,0:0:0:0:
64,192,169618,1,0,0:0:0:0:
192,192,169697,1,0,0:0:0:0:
320,192,169776,1,0,0:0:0:0:
448,192,169776,1,0,0:0:0:0:
192,192,169854,1,0,0:0:0:0:
320,192,169933,1,0,0:0:0:0:
448,192,169933,1,0,0:0:0:0:
64,192,170091,1,0,0:0:0:0:
192,192,170091,1,0,0:0:0:0:
320,192,170091,1,0,0:0:0:0:
448,192,170249,1,0,0:0:0:0:
192,192,170328,1,0,0:0:0:0:
320,192,170328,1,0,0:0:0:0:
64,192,170407,1,0,0:0:0:0:
192,192,170486,1,0,0:0:0:0:
320,192,170486,1,0,0:0:0:0:
64,192,170565,1,0,0:0:0:0:
448,192,170565,1,0,0:0:0:0:
320,192,170723,1,0,0:0:0:0:
448,192,170723,1,0,0:0:0:0:
192,192,170723,1,0,0:0:0:0:
320,192,170881,1,0,0:0:0:0:
448,192,170960,1,0,0:0:0:0:
64,192,171039,1,0,0:0:0:0:
192,192,171039,1,0,0:0:0:0:
448,192,171118,1,0,0:0:0:0:
64,192,171197,1,0,0:0:0:0:
192,192,171197,1,0,0:0:0:0:
320,192,171354,1,0,0:0:0:0:
448,192,171354,1,0,0:0:0:0:
64,192,171354,1,0,0:0:0:0:
192,192,171512,1,0,0:0:0:0:
64,192,171591,1,0,0:0:0:0:
320,192,171591,1,0,0:0:0:0:
448,192,171670,1,0,0:0:0:0:
64,192,171749,1,0,0:0:0:0:
320,192,171749,1,0,0:0:0:0:
192,192,171828,1,0,0:0:0:0:
448,192,171828,1,0,0:0:0:0:
64,192,171986,1,0,0:0:0:0:
192,192,171986,1,0,0:0:0:0:
320,192,171986,1,0,0:0:0:0:
320,192,172144,1,0,0:0:0:0:
448,192,172223,1,0,0:0:0:0:
64,192,172302,1,0,0:0:0:0:
192,192,172302,1,0,0:0:0:0:
448,192,172381,1,0,0:0:0:0:
64,192,172460,1,0,0:0:0:0:
192,192,172460,1,0,0:0:0:0:
320,192,172618,1,0,0:0:0:0:
448,192,172618,1,0,0:0:0:0:
64,192,172618,1,0,0:0:0:0:
192,192,172776,1,0,0:0:0:0:
64,192,172854,1,0,0:0:0:0:
320,192,172854,1,0,0:0:0:0:
448,192,172933,1,0,0:0:0:0:
64,192,173012,1,0,0:0:0:0:
320,192,173012,1,0,0:0:0:0:
192,192,173091,1,0,0:0:0:0:
448,192,173091,1,0,0:0:0:0:
64,192,173249,1,0,0:0:0:0:
192,192,173249,1,0,0:0:0:0:
320,192,173249,1,0,0:0:0:0:
192,192,173407,1,0,0:0:0:0:
64,192,173486,1,0,0:0:0:0:
320,192,173565,1,0,0:0:0:0:
448,192,173565,1,0,0:0:0:0:
64,192,173644,1,0,0:0:0:0:
320,192,173723,1,0,0:0:0:0:
448,192,173723,1,0,0:0:0:0:
64,192,173881,1,0,0:0:0:0:
192,192,173881,1,0,0:0:0:0:
448,192,173881,1,0,0:0:0:0:
320,192,174039,1,0,0:0:0:0:
192,192,174118,1,0,0:0:0:0:
448,192,174118,1,0,0:0:0:0:
64,192,174197,1,0,0:0:0:0:
192,192,174276,1,0,0:0:0:0:
448,192,174276,1,0,0:0:0:0:
64,192,174354,1,0,0:0:0:0:
320,192,174354,1,0,0:0:0:0:
320,192,174512,1,0,0:0:0:0:
448,192,174512,1,0,0:0:0:0:
192,192,174512,1,0,0:0:0:0:
192,192,174670,1,0,0:0:0:0:
64,192,174749,1,0,0:0:0:0:
320,192,174828,1,0,0:0:0:0:
448,192,174828,1,0,0:0:0:0:
64,192,174907,1,0,0:0:0:0:
320,192,174986,1,0,0:0:0:0:
448,192,174986,1,0,0:0:0:0:
64,192,175144,1,0,0:0:0:0:
192,192,175144,1,0,0:0:0:0:
448,192,175144,1,0,0:0:0:0:
320,192,175302,1,0,0:0:0:0:
192,192,175381,1,0,0:0:0:0:
448,192,175381,1,0,0:0:0:0:
64,192,175460,1,0,0:0:0:0:
192,192,175539,1,0,0:0:0:0:
448,192,175539,1,0,0:0:0:0:
64,192,175618,1,0,0:0:0:0:
320,192,175618,1,0,0:0:0:0:
320,192,175776,1,0,0:0:0:0:
448,192,175776,1,0,0:0:0:0:
192,192,175776,1,0,0:0:0:0:
448,192,175933,1,0,0:0:0:0:
320,192,176012,1,0,0:0:0:0:
64,192,176091,1,0,0:0:0:0:
192,192,176091,1,0,0:0:0:0:
320,192,176170,1,0,0:0:0:0:
64,192,176249,1,0,0:0:0:0:
192,192,176249,1,0,0:0:0:0:
320,192,176407,1,0,0:0:0:0:
448,192,176407,1,0,0:0:0:0:
64,192,176407,1,0,0:0:0:0:
192,192,176565,1,0,0:0:0:0:
64,192,176644,1,0,0:0:0:0:
448,192,176644,1,0,0:0:0:0:
320,192,176723,1,0,0:0:0:0:
64,192,176802,1,0,0:0:0:0:
448,192,176802,1,0,0:0:0:0:
192,192,176881,1,0,0:0:0:0:
320,192,176881,1,0,0:0:0:0:
64,192,177039,1,0,0:0:0:0:
192,192,177039,1,0,0:0:0:0:
448,192,177039,1,0,0:0:0:0:
448,192,177197,1,0,0:0:0:0:
320,192,177276,1,0,0:0:0:0:
64,192,177354,1,0,0:0:0:0:
192,192,177354,1,0,0:0:0:0:
320,192,177433,1,0,0:0:0:0:
64,192,177512,1,0,0:0:0:0:
192,192,177512,1,0,0:0:0:0:
320,192,177670,1,0,0:0:0:0:
448,192,177670,1,0,0:0:0:0:
64,192,177670,1,0,0:0:0:0:
192,192,177828,1,0,0:0:0:0:
64,192,177907,1,0,0:0:0:0:
448,192,177907,1,0,0:0:0:0:
320,192,177986,1,0,0:0:0:0:
64,192,178065,1,0,0:0:0:0:
448,192,178065,1,0,0:0:0:0:
192,192,178144,1,0,0:0:0:0:
320,192,178144,1,0,0:0:0:0:
64,192,178302,1,0,0:0:0:0:
192,192,178302,1,0,0:0:0:0:
448,192,178302,1,0,0:0:0:0:
64,192,178460,1,0,0:0:0:0:
192,192,178539,1,0,0:0:0:0:
320,192,178618,1,0,0:0:0:0:
448,192,178618,1,0,0:0:0:0:
192,192,178697,1,0,0:0:0:0:
320,192,178776,1,0,0:0:0:0:
448,192,178776,1,0,0:0:0:0:
64,192,178933,1,0,0:0:0:0:
192,192,178933,1,0,0:0:0:0:
448,192,178933,1,0,0:0:0:0:
320,192,179091,1,0,0:0:0:0:
64,192,179170,1,0,0:0:0:0:
448,192,179170,1,0,0:0:0:0:
192,192,179249,1,0,0:0:0:0:
64,192,179328,1,0,0:0:0:0:
448,192,179328,1,0,0:0:0:0:
192,192,179407,1,0,0:0:0:0:
320,192,179407,1,0,0:0:0:0:
64,192,179565,1,0,0:0:0:0:
192,192,179565,1,0,0:0:0:0:
448,192,179565,1,0,0:0:0:0:
64,192,179723,1,0,0:0:0:0:
192,192,179802,1,0,0:0:0:0:
320,192,179881,1,0,0:0:0:0:
448,192,179881,1,0,0:0:0:0:
192,192,179960,1,0,0:0:0:0:
320,192,180039,1,0,0:0:0:0:
448,192,180039,1,0,0:0:0:0:
64,192,180197,1,0,0:0:0:0:
192,192,180197,1,0,0:0:0:0:
448,192,180197,1,0,0:0:0:0:
320,192,180354,1,0,0:0:0:0:
64,192,180433,1,0,0:0:0:0:
448,192,180433,1,0,0:0:0:0:
192,192,180512,1,0,0:0:0:0:
64,192,180591,1,0,0:0:0:0:
448,192,180591,1,0,0:0:0:0:
192,192,180670,1,0,0:0:0:0:
320,192,180670,1,0,0:0:0:0:
320,192,180828,1,0,0:0:0:0:
448,192,180828,1,0,0:0:0:0:
64,192,180828,1,0,0:0:0:0:
320,192,180986,1,0,0:0:0:0:
448,192,181065,1,0,0:0:0:0:
64,192,181144,1,0,0:0:0:0:
192,192,181144,1,0,0:0:0:0:
448,192,181223,1,0,0:0:0:0:
64,192,181302,1,0,0:0:0:0:
192,192,181302,1,0,0:0:0:0:
320,192,181460,1,0,0:0:0:0:
448,192,181460,1,0,0:0:0:0:
192,192,181460,1,0,0:0:0:0:
64,192,181618,1,0,0:0:0:0:
192,192,181697,1,0,0:0:0:0:
448,192,181697,1,0,0:0:0:0:
320,192,181776,1,0,0:0:0:0:
192,192,181854,1,0,0:0:0:0:
448,192,181854,1,0,0:0:0:0:
64,192,181933,1,0,0:0:0:0:
320,192,181933,1,0,0:0:0:0:
64,192,182091,1,0,0:0:0:0:
192,192,182091,1,0,0:0:0:0:
448,192,182091,1,0,0:0:0:0:
320,192,182249,1,0,0:0:0:0:
448,192,182328,1,0,0:0:0:0:
64,192,182407,1,0,0:0:0:0:
192,192,182407,1,0,0:0:0:0:
448,192,182486,1,0,0:0:0:0:
64,192,182565,1,0,0:0:0:0:
192,192,182565,1,0,0:0:0:0:
320,192,182723,1,0,0:0:0:0:
448,192,182723,1,0,0:0:0:0:
64,192,182723,1,0,0:0:0:0:
192,192,182881,1,0,0:0:0:0:
64,192,182960,1,0,0:0:0:0:
320,192,182960,1,0,0:0:0:0:
448,192,183039,1,0,0:0:0:0:
64,192,183118,1,0,0:0:0:0:
320,192,183118,1,0,0:0:0:0:
192,192,183197,1,0,0:0:0:0:
448,192,183197,1,0,0:0:0:0:
64,192,183354,1,0,0:0:0:0:
192,192,183354,1,0,0:0:0:0:
320,192,183354,1,0,0:0:0:0:
192,192,183512,1,0,0:0:0:0:
64,192,183591,1,0,0:0:0:0:
320,192,183670,1,0,0:0:0:0:
448,192,183670,1,0,0:0:0:0:
64,192,183749,1,0,0:0:0:0:
320,192,183828,1,0,0:0:0:0:
448,192,183828,1,0,0:0:0:0:
64,192,183986,1,0,0:0:0:0:
192,192,183986,1,0,0:0:0:0:
448,192,183986,1,0,0:0:0:0:
320,192,184144,1,0,0:0:0:0:
192,192,184223,1,0,0:0:0:0:
448,192,184223,1,0,0:0:0:0:
64,192,184302,1,0,0:0:0:0:
192,192,184381,1,0,0:0:0:0:
448,192,184381,1,0,0:0:0:0:
64,192,184460,1,0,0:0:0:0:
320,192,184460,1,0,0:0:0:0:
320,192,184618,1,0,0:0:0:0:
448,192,184618,1,0,0:0:0:0:
192,192,184618,1,0,0:0:0:0:
192,192,184776,1,0,0:0:0:0:
64,192,184854,1,0,0:0:0:0:
320,192,184933,1,0,0:0:0:0:
448,192,184933,1,0,0:0:0:0:
64,192,185012,1,0,0:0:0:0:
320,192,185091,1,0,0:0:0:0:
448,192,185091,1,0,0:0:0:0:
64,192,185249,1,0,0:0:0:0:
192,192,185249,1,0,0:0:0:0:
320,192,185249,1,0,0:0:0:0:
448,192,185407,1,0,0:0:0:0:
64,192,185486,1,0,0:0:0:0:
320,192,185486,1,0,0:0:0:0:
192,192,185565,1,0,0:0:0:0:
64,192,185644,1,0,0:0:0:0:
320,192,185644,1,0,0:0:0:0:
192,192,185723,1,0,0:0:0:0:
448,192,185723,1,0,0:0:0:0:
320,192,185881,1,0,0:0:0:0:
448,192,185881,1,0,0:0:0:0:
64,192,185881,1,0,0:0:0:0:
192,192,185960,1,0,0:0:0:0:
320,192,186039,1,0,0:0:0:0:
448,192,186039,1,0,0:0:0:0:
192,192,186118,1,0,0:0:0:0:
448,192,186197,1,0,0:0:0:0:
320,192,186197,1,0,0:0:0:0:
64,192,186197,1,0,0:0:0:0:
192,192,186276,1,0,0:0:0:0:
320,192,186354,1,0,0:0:0:0:
448,192,186354,1,0,0:0:0:0:
192,192,186512,1,0,0:0:0:0:
320,192,186512,1,0,0:0:0:0:
64,192,186512,1,0,0:0:0:0:
448,192,186670,1,0,0:0:0:0:
192,192,186749,1,0,0:0:0:0:
320,192,186749,1,0,0:0:0:0:
64,192,186828,1,0,0:0:0:0:
192,192,186907,1,0,0:0:0:0:
320,192,186907,1,0,0:0:0:0:
448,192,186986,1,0,0:0:0:0:
64,192,186986,1,0,0:0:0:0:
320,192,187144,1,0,0:0:0:0:
448,192,187144,1,0,0:0:0:0:
192,192,187144,1,0,0:0:0:0:
64,192,187302,1,0,0:0:0:0:
192,192,187381,1,0,0:0:0:0:
64,192,187460,1,0,0:0:0:0:
320,192,187460,1,0,0:0:0:0:
448,192,187460,1,0,0:0:0:0:
192,192,187539,1,0,0:0:0:0:
320,192,187618,1,0,0:0:0:0:
448,192,187618,1,0,0:0:0:0:
192,192,187776,1,0,0:0:0:0:
320,192,187776,1,0,0:0:0:0:
64,192,187776,1,0,0:0:0:0:
448,192,187933,1,0,0:0:0:0:
192,192,188012,1,0,0:0:0:0:
320,192,188012,1,0,0:0:0:0:
64,192,188091,1,0,0:0:0:0:
192,192,188170,1,0,0:0:0:0:
320,192,188170,1,0,0:0:0:0:
64,192,188249,1,0,0:0:0:0:
448,192,188249,1,0,0:0:0:0:
320,192,188407,1,0,0:0:0:0:
448,192,188407,1,0,0:0:0:0:
192,192,188407,1,0,0:0:0:0:
448,192,188565,1,0,0:0:0:0:
320,192,188644,1,0,0:0:0:0:
64,192,188723,1,0,0:0:0:0:
192,192,188723,1,0,0:0:0:0:
448,192,188723,1,0,0:0:0:0:
320,192,188802,1,0,0:0:0:0:
64,192,188881,1,0,0:0:0:0:
192,192,188881,1,0,0:0:0:0:
192,192,189039,1,0,0:0:0:0:
320,192,189039,1,0,0:0:0:0:
448,192,189039,1,0,0:0:0:0:
64,192,189197,1,0,0:0:0:0:
192,192,189276,1,0,0:0:0:0:
320,192,189276,1,0,0:0:0:0:
448,192,189354,1,0,0:0:0:0:
192,192,189433,1,0,0:0:0:0:
320,192,189433,1,0,0:0:0:0:
64,192,189512,1,0,0:0:0:0:
448,192,189512,1,0,0:0:0:0:
64,192,189670,1,0,0:0:0:0:
192,192,189670,1,0,0:0:0:0:
320,192,189670,1,0,0:0:0:0:
448,192,189828,1,0,0:0:0:0:
320,192,189907,1,0,0:0:0:0:
64,192,189986,1,0,0:0:0:0:
192,192,189986,1,0,0:0:0:0:
448,192,189986,1,0,0:0:0:0:
320,192,190065,1,0,0:0:0:0:
64,192,190144,1,0,0:0:0:0:
192,192,190144,1,0,0:0:0:0:
192,192,190302,1,0,0:0:0:0:
320,192,190302,1,0,0:0:0:0:
448,192,190302,1,0,0:0:0:0:
64,192,190460,1,0,0:0:0:0:
192,192,190539,1,0,0:0:0:0:
320,192,190539,1,0,0:0:0:0:
448,192,190618,1,0,0:0:0:0:
192,192,190697,1,0,0:0:0:0:
320,192,190697,1,0,0:0:0:0:
64,192,190776,1,0,0:0:0:0:
448,192,190776,1,0,0:0:0:0:
64,192,190933,1,0,0:0:0:0:
192,192,190933,1,0,0:0:0:0:
320,192,190933,1,0,0:0:0:0:
64,192,191091,1,0,0:0:0:0:
192,192,191170,1,0,0:0:0:0:
64,192,191249,1,0,0:0:0:0:
320,192,191249,1,0,0:0:0:0:
448,192,191249,1,0,0:0:0:0:
192,192,191328,1,0,0:0:0:0:
320,192,191407,1,0,0:0:0:0:
448,192,191407,1,0,0:0:0:0:
192,192,191565,1,0,0:0:0:0:
448,192,191565,1,0,0:0:0:0:
64,192,191565,1,0,0:0:0:0:
320,192,191723,1,0,0:0:0:0:
192,192,191802,1,0,0:0:0:0:
448,192,191802,1,0,0:0:0:0:
64,192,191881,1,0,0:0:0:0:
192,192,191960,1,0,0:0:0:0:
448,192,191960,1,0,0:0:0:0:
64,192,192039,1,0,0:0:0:0:
320,192,192039,1,0,0:0:0:0:
320,192,192197,1,0,0:0:0:0:
448,192,192197,1,0,0:0:0:0:
192,192,192197,1,0,0:0:0:0:
64,192,192354,1,0,0:0:0:0:
192,192,192433,1,0,0:0:0:0:
64,192,192512,1,0,0:0:0:0:
320,192,192512,1,0,0:0:0:0:
448,192,192512,1,0,0:0:0:0:
192,192,192591,1,0,0:0:0:0:
320,192,192670,1,0,0:0:0:0:
448,192,192670,1,0,0:0:0:0:
192,192,192828,1,0,0:0:0:0:
448,192,192828,1,0,0:0:0:0:
64,192,192828,1,0,0:0:0:0:
320,192,192986,1,0,0:0:0:0:
192,192,193065,1,0,0:0:0:0:
448,192,193065,1,0,0:0:0:0:
64,192,193144,1,0,0:0:0:0:
192,192,193223,1,0,0:0:0:0:
448,192,193223,1,0,0:0:0:0:
64,192,193302,1,0,0:0:0:0:
320,192,193302,1,0,0:0:0:0:
320,192,193460,1,0,0:0:0:0:
448,192,193460,1,0,0:0:0:0:
192,192,193460,1,0,0:0:0:0:
448,192,193618,1,0,0:0:0:0:
320,192,193697,1,0,0:0:0:0:
64,192,193776,1,0,0:0:0:0:
192,192,193776,1,0,0:0:0:0:
448,192,193776,1,0,0:0:0:0:
320,192,193854,1,0,0:0:0:0:
64,192,193933,1,0,0:0:0:0:
192,192,193933,1,0,0:0:0:0:
64,192,194091,1,0,0:0:0:0:
320,192,194091,1,0,0:0:0:0:
448,192,194091,1,0,0:0:0:0:
192,192,194249,1,0,0:0:0:0:
64,192,194328,1,0,0:0:0:0:
320,192,194328,1,0,0:0:0:0:
448,192,194407,1,0,0:0:0:0:
64,192,194486,1,0,0:0:0:0:
320,192,194486,1,0,0:0:0:0:
192,192,194565,1,0,0:0:0:0:
448,192,194565,1,0,0:0:0:0:
64,192,194723,1,0,0:0:0:0:
192,192,194723,1,0,0:0:0:0:
320,192,194723,1,0,0:0:0:0:
448,192,194881,1,0,0:0:0:0:
320,192,194960,1,0,0:0:0:0:
64,192,195039,1,0,0:0:0:0:
192,192,195039,1,0,0:0:0:0:
448,192,195039,1,0,0:0:0:0:
320,192,195118,1,0,0:0:0:0:
192,192,195197,1,0,0:0:0:0:
64,192,195197,1,0,0:0:0:0:
64,192,195354,1,0,0:0:0:0:
320,192,195354,1,0,0:0:0:0:
448,192,195354,1,0,0:0:0:0:
192,192,195512,1,0,0:0:0:0:
64,192,195591,1,0,0:0:0:0:
320,192,195591,1,0,0:0:0:0:
448,192,195670,1,0,0:0:0:0:
64,192,195749,1,0,0:0:0:0:
320,192,195749,1,0,0:0:0:0:
192,192,195828,1,0,0:0:0:0:
448,192,195828,1,0,0:0:0:0:
64,192,195986,1,0,0:0:0:0:
448,192,195986,1,0,0:0:0:0:
192,192,195986,1,0,0:0:0:0:
320,192,196065,1,0,0:0:0:0:
320,192,196223,1,0,0:0:0:0:
64,192,196302,1,0,0:0:0:0:
192,192,196302,1,0,0:0:0:0:
448,192,196302,1,0,0:0:0:0:
320,192,196381,1,0,0:0:0:0:
64,192,196460,1,0,0:0:0:0:
192,192,196460,1,0,0:0:0:0:
64,192,196618,1,0,0:0:0:0:
448,192,196618,1,0,0:0:0:0:
320,192,196618,1,0,0:0:0:0:
192,192,196776,1,0,0:0:0:0:
64,192,196854,1,0,0:0:0:0:
448,192,196854,1,0,0:0:0:0:
320,192,196933,1,0,0:0:0:0:
64,192,197012,1,0,0:0:0:0:
448,192,197012,1,0,0:0:0:0:
192,192,197091,1,0,0:0:0:0:
320,192,197091,1,0,0:0:0:0:
64,192,197249,1,0,0:0:0:0:
192,192,197249,1,0,0:0:0:0:
448,192,197249,1,0,0:0:0:0:
448,192,197407,1,0,0:0:0:0:
320,192,197486,1,0,0:0:0:0:
64,192,197565,1,0,0:0:0:0:
192,192,197565,1,0,0:0:0:0:
448,192,197565,1,0,0:0:0:0:
320,192,197644,1,0,0:0:0:0:
64,192,197723,1,0,0:0:0:0:
192,192,197723,1,0,0:0:0:0:
64,192,197881,1,0,0:0:0:0:
448,192,197881,1,0,0:0:0:0:
320,192,197881,1,0,0:0:0:0:
192,192,198039,1,0,0:0:0:0:
64,192,198118,1,0,0:0:0:0:
448,192,198118,1,0,0:0:0:0:
320,192,198197,1,0,0:0:0:0:
64,192,198276,1,0,0:0:0:0:
448,192,198276,1,0,0:0:0:0:
192,192,198354,1,0,0:0:0:0:
320,192,198354,1,0,0:0:0:0:
64,192,198512,1,0,0:0:0:0:
192,192,198512,1,0,0:0:0:0:
448,192,198512,1,0,0:0:0:0:
64,192,198670,1,0,0:0:0:0:
192,192,198749,1,0,0:0:0:0:
64,192,198828,1,0,0:0:0:0:
320,192,198828,1,0,0:0:0:0:
448,192,198828,1,0,0:0:0:0:
192,192,198907,1,0,0:0:0:0:
320,192,198986,1,0,0:0:0:0:
448,192,198986,1,0,0:0:0:0:
64,192,199144,1,0,0:0:0:0:
448,192,199144,1,0,0:0:0:0:
192,192,199144,1,0,0:0:0:0:
320,192,199302,1,0,0:0:0:0:
64,192,199381,1,0,0:0:0:0:
448,192,199381,1,0,0:0:0:0:
192,192,199460,1,0,0:0:0:0:
64,192,199539,1,0,0:0:0:0:
448,192,199539,1,0,0:0:0:0:
192,192,199618,1,0,0:0:0:0:
320,192,199618,1,0,0:0:0:0:
320,192,199776,1,0,0:0:0:0:
448,192,199776,1,0,0:0:0:0:
64,192,199776,1,0,0:0:0:0:
64,192,199933,1,0,0:0:0:0:
192,192,200012,1,0,0:0:0:0:
64,192,200091,1,0,0:0:0:0:
320,192,200091,1,0,0:0:0:0:
448,192,200091,1,0,0:0:0:0:
192,192,200170,1,0,0:0:0:0:
448,192,200249,1,0,0:0:0:0:
320,192,200249,1,0,0:0:0:0:
64,192,200407,1,0,0:0:0:0:
448,192,200407,1,0,0:0:0:0:
192,192,200407,1,0,0:0:0:0:
320,192,200565,1,0,0:0:0:0:
64,192,200644,1,0,0:0:0:0:
448,192,200644,1,0,0:0:0:0:
192,192,200723,1,0,0:0:0:0:
64,192,200802,1,0,0:0:0:0:
448,192,200802,1,0,0:0:0:0:
192,192,200881,1,0,0:0:0:0:
320,192,200881,1,0,0:0:0:0:
320,192,201039,1,0,0:0:0:0:
448,192,201039,1,0,0:0:0:0:
64,192,201039,1,0,0:0:0:0:
64,192,201197,1,0,0:0:0:0:
192,192,201276,1,0,0:0:0:0:
64,192,201354,1,0,0:0:0:0:
320,192,201354,1,0,0:0:0:0:
448,192,201354,1,0,0:0:0:0:
192,192,201433,1,0,0:0:0:0:
64,192,201512,1,0,0:0:0:0:
320,192,201512,1,0,0:0:0:0:
448,192,201591,1,0,0:0:0:0:
64,192,201670,1,0,0:0:0:0:
192,192,201670,1,0,0:0:0:0:
320,192,201749,1,0,0:0:0:0:
64,192,201828,1,0,0:0:0:0:
320,192,201907,1,0,0:0:0:0:
448,192,201907,1,0,0:0:0:0:
192,192,201986,1,0,0:0:0:0:
64,192,202065,1,0,0:0:0:0:
448,192,202065,1,0,0:0:0:0:
192,192,202144,1,0,0:0:0:0:
320,192,202144,1,0,0:0:0:0:
64,192,202223,1,0,0:0:0:0:
320,192,202302,1,0,0:0:0:0:
448,192,202302,1,0,0:0:0:0:
192,192,202381,1,0,0:0:0:0:
448,192,202460,1,0,0:0:0:0:
320,192,202539,1,0,0:0:0:0:
64,192,202618,1,0,0:0:0:0:
192,192,202618,1,0,0:0:0:0:
448,192,202618,1,0,0:0:0:0:
320,192,202697,1,0,0:0:0:0:
192,192,202776,1,0,0:0:0:0:
448,192,202776,1,0,0:0:0:0:
64,192,202854,1,0,0:0:0:0:
320,192,202933,1,0,0:0:0:0:
448,192,202933,1,0,0:0:0:0:
192,192,203012,1,0,0:0:0:0:
448,192,203091,1,0,0:0:0:0:
64,192,203170,1,0,0:0:0:0:
192,192,203170,1,0,0:0:0:0:
320,192,203249,1,0,0:0:0:0:
64,192,203328,1,0,0:0:0:0:
448,192,203328,1,0,0:0:0:0:
192,192,203407,1,0,0:0:0:0:
320,192,203407,1,0,0:0:0:0:
448,192,203486,1,0,0:0:0:0:
64,192,203565,1,0,0:0:0:0:
192,192,203565,1,0,0:0:0:0:
320,192,203644,1,0,0:0:0:0:
64,192,203723,1,0,0:0:0:0:
192,192,203802,1,0,0:0:0:0:
64,192,203881,1,0,0:0:0:0:
320,192,203881,1,0,0:0:0:0:
448,192,203881,1,0,0:0:0:0:
192,192,203960,1,0,0:0:0:0:
64,192,204039,1,0,0:0:0:0:
320,192,204039,1,0,0:0:0:0:
448,192,204118,1,0,0:0:0:0:
64,192,204197,1,0,0:0:0:0:
192,192,204197,1,0,0:0:0:0:
320,192,204276,1,0,0:0:0:0:
64,192,204354,1,0,0:0:0:0:
320,192,204433,1,0,0:0:0:0:
448,192,204433,1,0,0:0:0:0:
192,192,204512,1,0,0:0:0:0:
64,192,204591,1,0,0:0:0:0:
448,192,204591,1,0,0:0:0:0:
192,192,204670,1,0,0:0:0:0:
320,192,204670,1,0,0:0:0:0:
64,192,204749,1,0,0:0:0:0:
320,192,204828,1,0,0:0:0:0:
448,192,204828,1,0,0:0:0:0:
192,192,204907,1,0,0:0:0:0:
448,192,204986,1,0,0:0:0:0:
320,192,205065,1,0,0:0:0:0:
64,192,205144,1,0,0:0:0:0:
192,192,205144,1,0,0:0:0:0:
448,192,205197,1,0,0:0:0:0:
320,192,205249,1,0,0:0:0:0:
64,192,205302,1,0,0:0:0:0:
192,192,205302,1,0,0:0:0:0:
448,192,205354,1,0,0:0:0:0:
320,192,205407,1,0,0:0:0:0:
192,192,205460,1,0,0:0:0:0:
448,192,205512,1,0,0:0:0:0:
64,192,205565,1,0,0:0:0:0:
320,192,205618,1,0,0:0:0:0:
192,192,205670,1,0,0:0:0:0:
64,192,205723,1,0,0:0:0:0:
448,192,205776,1,0,0:0:0:0:
320,192,205828,1,0,0:0:0:0:
192,192,205881,1,0,0:0:0:0:
64,192,205933,1,0,0:0:0:0:
448,192,205933,1,0,0:0:0:0:
320,192,205986,1,0,0:0:0:0:
192,192,206039,1,0,0:0:0:0:
64,192,206091,1,0,0:0:0:0:
320,192,206144,1,0,0:0:0:0:
192,192,206197,1,0,0:0:0:0:
448,192,206249,1,0,0:0:0:0:
320,192,206302,1,0,0:0:0:0:
192,192,206354,1,0,0:0:0:0:
448,192,206407,1,0,0:0:0:0:
64,192,206407,1,0,0:0:0:0:
320,192,206486,1,0,0:0:0:0:
448,192,206565,1,0,0:0:0:0:
320,192,206644,1,0,0:0:0:0:
192,192,206723,1,0,0:0:0:0:
64,192,206723,1,0,0:0:0:0:
448,192,206802,1,0,0:0:0:0:
192,192,206881,1,0,0:0:0:0:
320,192,206960,1,0,0:0:0:0:
448,192,207039,1,0,0:0:0:0:
64,192,207039,1,0,0:0:0:0:
192,192,207118,1,0,0:0:0:0:
448,192,207197,1,0,0:0:0:0:
64,192,207276,1,0,0:0:0:0:
448,192,207354,1,0,0:0:0:0:
320,192,207354,1,0,0:0:0:0:
192,192,207433,1,0,0:0:0:0:
64,192,207512,1,0,0:0:0:0:
320,192,207591,1,0,0:0:0:0:
192,192,207670,1,0,0:0:0:0:
64,192,207670,1,0,0:0:0:0:
448,192,207749,1,0,0:0:0:0:
192,192,207828,1,0,0:0:0:0:
320,192,207907,1,0,0:0:0:0:
448,192,207986,1,0,0:0:0:0:
64,192,207986,1,0,0:0:0:0:
192,192,208065,1,0,0:0:0:0:
448,192,208144,1,0,0:0:0:0:
64,192,208223,1,0,0:0:0:0:
320,192,208302,1,0,0:0:0:0:
448,192,208302,1,0,0:0:0:0:
192,192,208381,1,0,0:0:0:0:
64,192,208460,1,0,0:0:0:0:
320,192,208539,1,0,0:0:0:0:
192,192,208618,1,0,0:0:0:0:
64,192,208618,1,0,0:0:0:0:
448,192,208697,1,0,0:0:0:0:
192,192,208776,1,0,0:0:0:0:
320,192,208854,1,0,0:0:0:0:
448,192,208933,1,0,0:0:0:0:
64,192,208933,1,0,0:0:0:0:
192,192,209012,1,0,0:0:0:0:
448,192,209091,1,0,0:0:0:0:
64,192,209170,1,0,0:0:0:0:
448,192,209249,1,0,0:0:0:0:
320,192,209249,1,0,0:0:0:0:
192,192,209328,1,0,0:0:0:0:
64,192,209407,1,0,0:0:0:0:
320,192,209486,1,0,0:0:0:0:
192,192,209565,1,0,0:0:0:0:
64,192,209565,1,0,0:0:0:0:
448,192,209644,1,0,0:0:0:0:
192,192,209723,1,0,0:0:0:0:
320,192,209802,1,0,0:0:0:0:
448,192,209881,1,0,0:0:0:0:
64,192,209881,1,0,0:0:0:0:
192,192,209960,1,0,0:0:0:0:
448,192,210039,1,0,0:0:0:0:
64,192,210118,1,0,0:0:0:0:
320,192,210197,1,0,0:0:0:0:
448,192,210197,1,0,0:0:0:0:
192,192,210276,1,0,0:0:0:0:
64,192,210354,1,0,0:0:0:0:
320,192,210433,1,0,0:0:0:0:
192,192,210512,1,0,0:0:0:0:
64,192,210512,1,0,0:0:0:0:
448,192,210591,1,0,0:0:0:0:
192,192,210670,1,0,0:0:0:0:
320,192,210749,1,0,0:0:0:0:
448,192,210828,1,0,0:0:0:0:
64,192,210828,1,0,0:0:0:0:
192,192,210907,1,0,0:0:0:0:
448,192,210986,1,0,0:0:0:0:
64,192,211065,1,0,0:0:0:0:
448,192,211144,1,0,0:0:0:0:
320,192,211144,1,0,0:0:0:0:
192,192,211223,1,0,0:0:0:0:
64,192,211302,1,0,0:0:0:0:
448,192,211302,1,0,0:0:0:0:
320,192,211381,1,0,0:0:0:0:
192,192,211460,1,0,0:0:0:0:
64,192,211460,1,0,0:0:0:0:
448,192,211539,1,0,0:0:0:0:
192,192,211618,1,0,0:0:0:0:
320,192,211697,1,0,0:0:0:0:
448,192,211776,1,0,0:0:0:0:
64,192,211776,1,0,0:0:0:0:
192,192,211854,1,0,0:0:0:0:
448,192,211933,1,0,0:0:0:0:
64,192,212012,1,0,0:0:0:0:
320,192,212091,1,0,0:0:0:0:
448,192,212091,1,0,0:0:0:0:
192,192,212170,1,0,0:0:0:0:
64,192,212249,1,0,0:0:0:0:
320,192,212328,1,0,0:0:0:0:
192,192,212407,1,0,0:0:0:0:
64,192,212407,1,0,0:0:0:0:
448,192,212486,1,0,0:0:0:0:
192,192,212565,1,0,0:0:0:0:
320,192,212644,1,0,0:0:0:0:
448,192,212723,1,0,0:0:0:0:
64,192,212723,1,0,0:0:0:0:
192,192,212802,1,0,0:0:0:0:
448,192,212881,1,0,0:0:0:0:
64,192,212960,1,0,0:0:0:0:
448,192,213039,1,0,0:0:0:0:
320,192,213039,1,0,0:0:0:0:
192,192,213118,1,0,0:0:0:0:
64,192,213197,1,0,0:0:0:0:
320,192,213276,1,0,0:0:0:0:
192,192,213354,1,0,0:0:0:0:
64,192,213354,1,0,0:0:0:0:
448,192,213433,1,0,0:0:0:0:
192,192,213512,1,0,0:0:0:0:
320,192,213591,1,0,0:0:0:0:
448,192,213670,1,0,0:0:0:0:
64,192,213670,1,0,0:0:0:0:
192,192,213749,1,0,0:0:0:0:
448,192,213828,1,0,0:0:0:0:
64,192,213907,1,0,0:0:0:0:
320,192,213986,1,0,0:0:0:0:
448,192,213986,1,0,0:0:0:0:
192,192,214065,1,0,0:0:0:0:
64,192,214144,1,0,0:0:0:0:
320,192,214223,1,0,0:0:0:0:
192,192,214302,1,0,0:0:0:0:
64,192,214302,1,0,0:0:0:0:
448,192,214381,1,0,0:0:0:0:
192,192,214460,1,0,0:0:0:0:
320,192,214539,1,0,0:0:0:0:
448,192,214618,1,0,0:0:0:0:
64,192,214618,1,0,0:0:0:0:
192,192,214697,1,0,0:0:0:0:
448,192,214776,1,0,0:0:0:0:
64,192,214854,1,0,0:0:0:0:
448,192,214933,1,0,0:0:0:0:
320,192,214933,1,0,0:0:0:0:
192,192,215012,1,0,0:0:0:0:
64,192,215091,1,0,0:0:0:0:
320,192,215170,1,0,0:0:0:0:
192,192,215249,1,0,0:0:0:0:
64,192,215249,1,0,0:0:0:0:
448,192,215328,1,0,0:0:0:0:
192,192,215407,1,0,0:0:0:0:
320,192,215486,1,0,0:0:0:0:
448,192,215565,1,0,0:0:0:0:
64,192,215565,1,0,0:0:0:0:
192,192,215644,1,0,0:0:0:0:
448,192,215723,1,0,0:0:0:0:
64,192,215802,1,0,0:0:0:0:
320,192,215881,1,0,0:0:0:0:
448,192,215881,1,0,0:0:0:0:
192,192,215960,1,0,0:0:0:0:
64,192,216039,1,0,0:0:0:0:
320,192,216118,1,0,0:0:0:0:
448,192,216118,1,0,0:0:0:0:
192,192,216197,1,0,0:0:0:0:
64,192,216197,128,0,216276:0:0:0:0:
448,192,216276,1,0,0:0:0:0:
192,192,216354,1,0,0:0:0:0:
320,192,216354,128,0,216433:0:0:0:0:
448,192,216433,1,0,0:0:0:0:
192,192,216512,1,0,0:0:0:0:
64,192,216512,1,0,0:0:0:0:
320,192,216591,1,0,0:0:0:0:
64,192,216670,1,0,0:0:0:0:
320,192,216749,1,0,0:0:0:0:
192,192,216828,1,0,0:0:0:0:
64,192,216828,1,0,0:0:0:0:
448,192,216907,1,0,0:0:0:0:
192,192,216986,1,0,0:0:0:0:
320,192,217065,1,0,0:0:0:0:
448,192,217144,1,0,0:0:0:0:
64,192,217144,1,0,0:0:0:0:
192,192,217223,1,0,0:0:0:0:
448,192,217302,1,0,0:0:0:0:
64,192,217381,1,0,0:0:0:0:
448,192,217460,1,0,0:0:0:0:
320,192,217460,1,0,0:0:0:0:
192,192,217539,1,0,0:0:0:0:
64,192,217618,1,0,0:0:0:0:
320,192,217697,1,0,0:0:0:0:
192,192,217776,1,0,0:0:0:0:
64,192,217776,1,0,0:0:0:0:
448,192,217854,1,0,0:0:0:0:
192,192,217933,1,0,0:0:0:0:
320,192,218012,1,0,0:0:0:0:
448,192,218091,1,0,0:0:0:0:
64,192,218091,1,0,0:0:0:0:
192,192,218170,1,0,0:0:0:0:
448,192,218249,1,0,0:0:0:0:
64,192,218328,1,0,0:0:0:0:
320,192,218407,1,0,0:0:0:0:
448,192,218407,1,0,0:0:0:0:
192,192,218486,1,0,0:0:0:0:
64,192,218565,1,0,0:0:0:0:
320,192,218644,1,0,0:0:0:0:
192,192,218723,1,0,0:0:0:0:
64,192,218723,1,0,0:0:0:0:
448,192,218802,1,0,0:0:0:0:
192,192,218881,1,0,0:0:0:0:
320,192,218960,1,0,0:0:0:0:
448,192,219039,1,0,0:0:0:0:
64,192,219039,1,0,0:0:0:0:
192,192,219118,1,0,0:0:0:0:
448,192,219197,1,0,0:0:0:0:
64,192,219276,1,0,0:0:0:0:
448,192,219354,1,0,0:0:0:0:
320,192,219354,1,0,0:0:0:0:
192,192,219433,1,0,0:0:0:0:
64,192,219512,1,0,0:0:0:0:
320,192,219591,1,0,0:0:0:0:
192,192,219670,1,0,0:0:0:0:
64,192,219670,1,0,0:0:0:0:
448,192,219749,1,0,0:0:0:0:
192,192,219828,1,0,0:0:0:0:
320,192,219907,1,0,0:0:0:0:
448,192,219986,1,0,0:0:0:0:
64,192,219986,1,0,0:0:0:0:
192,192,220065,1,0,0:0:0:0:
448,192,220144,1,0,0:0:0:0:
64,192,220223,1,0,0:0:0:0:
320,192,220302,1,0,0:0:0:0:
448,192,220302,1,0,0:0:0:0:
192,192,220381,1,0,0:0:0:0:
64,192,220460,1,0,0:0:0:0:
320,192,220539,1,0,0:0:0:0:
192,192,220618,1,0,0:0:0:0:
64,192,220618,1,0,0:0:0:0:
448,192,220697,1,0,0:0:0:0:
192,192,220776,1,0,0:0:0:0:
320,192,220854,1,0,0:0:0:0:
448,192,220933,1,0,0:0:0:0:
64,192,220933,1,0,0:0:0:0:
192,192,221012,1,0,0:0:0:0:
448,192,221091,1,0,0:0:0:0:
64,192,221170,1,0,0:0:0:0:
448,192,221249,1,0,0:0:0:0:
320,192,221249,1,0,0:0:0:0:
192,192,221328,1,0,0:0:0:0:
64,192,221407,1,0,0:0:0:0:
448,192,221407,1,0,0:0:0:0:
320,192,221486,1,0,0:0:0:0:
192,192,221565,1,0,0:0:0:0:
64,192,221565,1,0,0:0:0:0:
448,192,221644,1,0,0:0:0:0:
192,192,221723,1,0,0:0:0:0:
320,192,221802,1,0,0:0:0:0:
448,192,221881,1,0,0:0:0:0:
64,192,221881,1,0,0:0:0:0:
192,192,221960,1,0,0:0:0:0:
448,192,222039,1,0,0:0:0:0:
64,192,222118,1,0,0:0:0:0:
320,192,222197,1,0,0:0:0:0:
448,192,222197,1,0,0:0:0:0:
192,192,222276,1,0,0:0:0:0:
64,192,222354,1,0,0:0:0:0:
320,192,222433,1,0,0:0:0:0:
192,192,222512,1,0,0:0:0:0:
64,192,222512,1,0,0:0:0:0:
448,192,222591,1,0,0:0:0:0:
192,192,222670,1,0,0:0:0:0:
320,192,222749,1,0,0:0:0:0:
448,192,222828,1,0,0:0:0:0:
64,192,222828,1,0,0:0:0:0:
192,192,222907,1,0,0:0:0:0:
448,192,222986,1,0,0:0:0:0:
64,192,223065,1,0,0:0:0:0:
448,192,223144,1,0,0:0:0:0:
320,192,223144,1,0,0:0:0:0:
192,192,223223,1,0,0:0:0:0:
64,192,223302,1,0,0:0:0:0:
320,192,223381,1,0,0:0:0:0:
192,192,223460,1,0,0:0:0:0:
64,192,223460,1,0,0:0:0:0:
448,192,223539,1,0,0:0:0:0:
192,192,223618,5,0,0:0:0:0:
320,192,223697,1,0,0:0:0:0:
448,192,223776,1,0,0:0:0:0:
64,192,223776,1,0,0:0:0:0:
192,192,223854,1,0,0:0:0:0:
448,192,223933,1,0,0:0:0:0:
64,192,224012,1,0,0:0:0:0:
320,192,224091,1,0,0:0:0:0:
448,192,224091,1,0,0:0:0:0:
192,192,224170,1,0,0:0:0:0:
64,192,224249,1,0,0:0:0:0:
320,192,224328,1,0,0:0:0:0:
192,192,224407,1,0,0:0:0:0:
64,192,224407,1,0,0:0:0:0:
448,192,224486,1,0,0:0:0:0:
192,192,224565,1,0,0:0:0:0:
320,192,224644,1,0,0:0:0:0:
448,192,224723,1,0,0:0:0:0:
64,192,224723,1,0,0:0:0:0:
192,192,224802,1,0,0:0:0:0:
320,192,224841,5,0,0:0:0:0:
448,192,224881,1,0,0:0:0:0:
64,192,224920,1,0,0:0:0:0:
192,192,224960,1,0,0:0:0:0:
320,192,224999,1,0,0:0:0:0:
448,192,225039,1,0,0:0:0:0:
64,192,225078,1,0,0:0:0:0:
192,192,225118,1,0,0:0:0:0:
320,192,225157,1,0,0:0:0:0:
448,192,225197,1,0,0:0:0:0:
64,192,225236,1,0,0:0:0:0:
192,192,225276,1,0,0:0:0:0:
320,192,225315,1,0,0:0:0:0:
64,192,225354,128,0,225433:0:0:0:0:
448,192,225354,128,0,225433:0:0:0:0:
192,192,225433,1,0,0:0:0:0:
320,192,225512,1,0,0:0:0:0:
64,192,225591,1,0,0:0:0:0:
192,192,225670,1,0,0:0:0:0:
320,192,225670,1,0,0:0:0:0:
448,192,225749,1,0,0:0:0:0:
320,192,225828,1,0,0:0:0:0:
192,192,225907,1,0,0:0:0:0:
64,192,225986,1,0,0:0:0:0:
448,192,225986,1,0,0:0:0:0:
320,192,226065,1,0,0:0:0:0:
192,192,226065,1,0,0:0:0:0:
448,192,226144,1,0,0:0:0:0:
64,192,226144,1,0,0:0:0:0:
192,192,226223,1,0,0:0:0:0:
320,192,226223,1,0,0:0:0:0:
64,192,226302,1,0,0:0:0:0:
448,192,226302,1,0,0:0:0:0:
192,192,226381,128,0,226539:0:0:0:0:
320,192,226381,128,0,226539:0:0:0:0:
64,192,226618,1,0,0:0:0:0:
448,192,226618,1,0,0:0:0:0:
320,192,226697,1,0,0:0:0:0:
192,192,226776,1,0,0:0:0:0:
448,192,226776,1,0,0:0:0:0:
320,192,226854,1,0,0:0:0:0:
64,192,226933,1,0,0:0:0:0:
448,192,226933,1,0,0:0:0:0:
192,192,227012,1,0,0:0:0:0:
64,192,227091,1,0,0:0:0:0:
320,192,227091,1,0,0:0:0:0:
192,192,227170,1,0,0:0:0:0:
320,192,227249,1,0,0:0:0:0:
448,192,227249,1,0,0:0:0:0:
64,192,227328,1,0,0:0:0:0:
192,192,227407,1,0,0:0:0:0:
448,192,227407,1,0,0:0:0:0:
64,192,227486,1,0,0:0:0:0:
192,192,227565,1,0,0:0:0:0:
320,192,227565,1,0,0:0:0:0:
448,192,227644,1,0,0:0:0:0:
64,192,227723,1,0,0:0:0:0:
320,192,227723,1,0,0:0:0:0:
448,192,227802,1,0,0:0:0:0:
64,192,227881,1,0,0:0:0:0:
192,192,227881,1,0,0:0:0:0:
320,192,227960,1,0,0:0:0:0:
192,192,228039,1,0,0:0:0:0:
448,192,228039,1,0,0:0:0:0:
320,192,228118,1,0,0:0:0:0:
64,192,228197,1,0,0:0:0:0:
448,192,228197,1,0,0:0:0:0:
192,192,228276,1,0,0:0:0:0:
64,192,228354,1,0,0:0:0:0:
320,192,228354,1,0,0:0:0:0:
192,192,228433,1,0,0:0:0:0:
320,192,228512,1,0,0:0:0:0:
448,192,228512,1,0,0:0:0:0:
64,192,228591,1,0,0:0:0:0:
192,192,228670,1,0,0:0:0:0:
448,192,228670,1,0,0:0:0:0:
64,192,228749,1,0,0:0:0:0:
192,192,228828,1,0,0:0:0:0:
320,192,228828,1,0,0:0:0:0:
448,192,228907,1,0,0:0:0:0:
64,192,228986,1,0,0:0:0:0:
192,192,228986,1,0,0:0:0:0:
448,192,229065,1,0,0:0:0:0:
192,192,229144,1,0,0:0:0:0:
320,192,229144,1,0,0:0:0:0:
64,192,229223,1,0,0:0:0:0:
320,192,229302,1,0,0:0:0:0:
448,192,229302,1,0,0:0:0:0:
64,192,229381,1,0,0:0:0:0:
192,192,229460,1,0,0:0:0:0:
448,192,229460,1,0,0:0:0:0:
320,192,229539,1,0,0:0:0:0:
64,192,229618,1,0,0:0:0:0:
192,192,229618,1,0,0:0:0:0:
320,192,229697,1,0,0:0:0:0:
64,192,229776,1,0,0:0:0:0:
448,192,229776,1,0,0:0:0:0:
192,192,229854,1,0,0:0:0:0:
320,192,229933,1,0,0:0:0:0:
448,192,229933,1,0,0:0:0:0:
192,192,230012,1,0,0:0:0:0:
64,192,230091,1,0,0:0:0:0:
320,192,230091,1,0,0:0:0:0:
448,192,230170,1,0,0:0:0:0:
64,192,230249,1,0,0:0:0:0:
192,192,230249,1,0,0:0:0:0:
448,192,230328,1,0,0:0:0:0:
192,192,230407,1,0,0:0:0:0:
320,192,230407,1,0,0:0:0:0:
64,192,230486,1,0,0:0:0:0:
192,192,230565,1,0,0:0:0:0:
448,192,230565,1,0,0:0:0:0:
64,192,230644,1,0,0:0:0:0:
320,192,230723,1,0,0:0:0:0:
448,192,230723,1,0,0:0:0:0:
192,192,230802,1,0,0:0:0:0:
64,192,230881,1,0,0:0:0:0:
320,192,230881,1,0,0:0:0:0:
192,192,230960,1,0,0:0:0:0:
64,192,231039,1,0,0:0:0:0:
448,192,231039,1,0,0:0:0:0:
320,192,231118,1,0,0:0:0:0:
192,192,231197,1,0,0:0:0:0:
448,192,231197,1,0,0:0:0:0:
320,192,231276,1,0,0:0:0:0:
64,192,231354,1,0,0:0:0:0:
192,192,231354,1,0,0:0:0:0:
448,192,231433,1,0,0:0:0:0:
64,192,231512,1,0,0:0:0:0:
192,192,231512,1,0,0:0:0:0:
448,192,231591,1,0,0:0:0:0:
64,192,231670,1,0,0:0:0:0:
192,192,231670,1,0,0:0:0:0:
320,192,231749,1,0,0:0:0:0:
64,192,231828,1,0,0:0:0:0:
448,192,231828,1,0,0:0:0:0:
320,192,231907,1,0,0:0:0:0:
192,192,231986,1,0,0:0:0:0:
448,192,231986,1,0,0:0:0:0:
64,192,232065,1,0,0:0:0:0:
320,192,232144,1,0,0:0:0:0:
448,192,232144,1,0,0:0:0:0:
64,192,232223,1,0,0:0:0:0:
192,192,232302,1,0,0:0:0:0:
320,192,232302,1,0,0:0:0:0:
448,192,232381,1,0,0:0:0:0:
64,192,232460,1,0,0:0:0:0:
192,192,232460,1,0,0:0:0:0:
448,192,232539,1,0,0:0:0:0:
64,192,232618,1,0,0:0:0:0:
320,192,232618,1,0,0:0:0:0:
192,192,232697,1,0,0:0:0:0:
320,192,232776,1,0,0:0:0:0:
448,192,232776,1,0,0:0:0:0:
192,192,232854,1,0,0:0:0:0:
64,192,232933,1,0,0:0:0:0:
448,192,232933,1,0,0:0:0:0:
320,192,233012,1,0,0:0:0:0:
192,192,233091,1,0,0:0:0:0:
448,192,233091,1,0,0:0:0:0:
320,192,233170,1,0,0:0:0:0:
64,192,233249,1,0,0:0:0:0:
192,192,233249,1,0,0:0:0:0:
448,192,233328,1,0,0:0:0:0:
64,192,233407,1,0,0:0:0:0:
320,192,233407,1,0,0:0:0:0:
448,192,233486,1,0,0:0:0:0:
192,192,233565,1,0,0:0:0:0:
320,192,233565,1,0,0:0:0:0:
64,192,233644,1,0,0:0:0:0:
192,192,233723,1,0,0:0:0:0:
448,192,233723,1,0,0:0:0:0:
64,192,233802,1,0,0:0:0:0:
320,192,233881,1,0,0:0:0:0:
448,192,233881,1,0,0:0:0:0:
192,192,233960,1,0,0:0:0:0:
64,192,234039,1,0,0:0:0:0:
320,192,234039,1,0,0:0:0:0:
192,192,234118,1,0,0:0:0:0:
64,192,234197,1,0,0:0:0:0:
448,192,234197,1,0,0:0:0:0:
320,192,234276,1,0,0:0:0:0:
192,192,234354,1,0,0:0:0:0:
448,192,234354,1,0,0:0:0:0:
320,192,234433,1,0,0:0:0:0:
64,192,234512,1,0,0:0:0:0:
192,192,234512,1,0,0:0:0:0:
448,192,234591,1,0,0:0:0:0:
192,192,234670,1,0,0:0:0:0:
320,192,234670,1,0,0:0:0:0:
448,192,234749,1,0,0:0:0:0:
64,192,234828,1,0,0:0:0:0:
320,192,234828,1,0,0:0:0:0:
192,192,234907,1,0,0:0:0:0:
64,192,234986,1,0,0:0:0:0:
448,192,234986,1,0,0:0:0:0:
192,192,235065,1,0,0:0:0:0:
320,192,235144,1,0,0:0:0:0:
448,192,235144,1,0,0:0:0:0:
64,192,235223,1,0,0:0:0:0:
192,192,235302,1,0,0:0:0:0:
320,192,235302,1,0,0:0:0:0:
64,192,235381,1,0,0:0:0:0:
192,192,235460,1,0,0:0:0:0:
448,192,235460,1,0,0:0:0:0:
320,192,235539,1,0,0:0:0:0:
64,192,235618,1,0,0:0:0:0:
192,192,235618,1,0,0:0:0:0:
320,192,235697,1,0,0:0:0:0:
448,192,235776,1,0,0:0:0:0:
64,192,235776,1,0,0:0:0:0:
192,192,235854,1,0,0:0:0:0:
320,192,235933,1,0,0:0:0:0:
448,192,235933,1,0,0:0:0:0:
192,192,236012,1,0,0:0:0:0:
64,192,236091,1,0,0:0:0:0:
448,192,236091,1,0,0:0:0:0:
320,192,236170,1,0,0:0:0:0:
64,192,236249,1,0,0:0:0:0:
192,192,236249,1,0,0:0:0:0:
320,192,236328,1,0,0:0:0:0:
448,192,236328,1,0,0:0:0:0:
64,192,236407,1,0,0:0:0:0:
192,192,236407,128,0,236486:0:0:0:0:
320,192,236486,1,0,0:0:0:0:
64,192,236565,1,0,0:0:0:0:
448,192,236565,128,0,236644:0:0:0:0:
320,192,236644,1,0,0:0:0:0:
64,192,236723,1,0,0:0:0:0:
192,192,236723,1,0,0:0:0:0:
448,192,236802,1,0,0:0:0:0:
192,192,236881,1,0,0:0:0:0:
320,192,236881,1,0,0:0:0:0:
448,192,236960,1,0,0:0:0:0:
64,192,237039,1,0,0:0:0:0:
192,192,237039,1,0,0:0:0:0:
320,192,237118,1,0,0:0:0:0:
64,192,237197,1,0,0:0:0:0:
448,192,237197,1,0,0:0:0:0:
192,192,237276,1,0,0:0:0:0:
320,192,237276,1,0,0:0:0:0:
64,192,237354,1,0,0:0:0:0:
448,192,237354,1,0,0:0:0:0:
192,192,237433,1,0,0:0:0:0:
320,192,237512,1,0,0:0:0:0:
448,192,237512,1,0,0:0:0:0:
192,192,237591,1,0,0:0:0:0:
64,192,237670,1,0,0:0:0:0:
448,192,237670,1,0,0:0:0:0:
320,192,237749,1,0,0:0:0:0:
192,192,237828,1,0,0:0:0:0:
448,192,237828,1,0,0:0:0:0:
320,192,237907,1,0,0:0:0:0:
64,192,237986,1,0,0:0:0:0:
192,192,237986,1,0,0:0:0:0:
448,192,238065,1,0,0:0:0:0:
192,192,238144,1,0,0:0:0:0:
320,192,238144,1,0,0:0:0:0:
448,192,238223,1,0,0:0:0:0:
64,192,238302,1,0,0:0:0:0:
192,192,238302,1,0,0:0:0:0:
320,192,238381,1,0,0:0:0:0:
64,192,238460,1,0,0:0:0:0:
448,192,238460,1,0,0:0:0:0:
320,192,238539,1,0,0:0:0:0:
192,192,238539,1,0,0:0:0:0:
64,192,238618,1,0,0:0:0:0:
448,192,238618,1,0,0:0:0:0:
192,192,238697,1,0,0:0:0:0:
320,192,238776,1,0,0:0:0:0:
448,192,238776,1,0,0:0:0:0:
192,192,238854,1,0,0:0:0:0:
64,192,238933,1,0,0:0:0:0:
448,192,238933,1,0,0:0:0:0:
320,192,239012,1,0,0:0:0:0:
192,192,239091,1,0,0:0:0:0:
448,192,239091,1,0,0:0:0:0:
320,192,239170,1,0,0:0:0:0:
64,192,239249,1,0,0:0:0:0:
192,192,239249,1,0,0:0:0:0:
448,192,239328,1,0,0:0:0:0:
64,192,239407,1,0,0:0:0:0:
320,192,239407,1,0,0:0:0:0:
448,192,239486,1,0,0:0:0:0:
64,192,239565,1,0,0:0:0:0:
192,192,239565,1,0,0:0:0:0:
320,192,239644,1,0,0:0:0:0:
192,192,239723,1,0,0:0:0:0:
448,192,239723,1,0,0:0:0:0:
64,192,239802,1,0,0:0:0:0:
320,192,239802,1,0,0:0:0:0:
192,192,239881,1,0,0:0:0:0:
448,192,239881,1,0,0:0:0:0:
64,192,239960,1,0,0:0:0:0:
320,192,240039,1,0,0:0:0:0:
448,192,240039,1,0,0:0:0:0:
64,192,240118,1,0,0:0:0:0:
192,192,240197,1,0,0:0:0:0:
448,192,240197,1,0,0:0:0:0:
320,192,240276,1,0,0:0:0:0:
64,192,240354,1,0,0:0:0:0:
448,192,240354,1,0,0:0:0:0:
320,192,240433,1,0,0:0:0:0:
64,192,240512,1,0,0:0:0:0:
192,192,240512,1,0,0:0:0:0:
448,192,240591,1,0,0:0:0:0:
64,192,240670,1,0,0:0:0:0:
320,192,240670,1,0,0:0:0:0:
448,192,240749,1,0,0:0:0:0:
64,192,240828,1,0,0:0:0:0:
192,192,240828,1,0,0:0:0:0:
320,192,240907,1,0,0:0:0:0:
192,192,240986,1,0,0:0:0:0:
448,192,240986,1,0,0:0:0:0:
320,192,241065,1,0,0:0:0:0:
64,192,241065,1,0,0:0:0:0:
192,192,241144,1,0,0:0:0:0:
448,192,241144,1,0,0:0:0:0:
64,192,241223,1,0,0:0:0:0:
320,192,241302,1,0,0:0:0:0:
448,192,241302,1,0,0:0:0:0:
64,192,241381,1,0,0:0:0:0:
192,192,241460,1,0,0:0:0:0:
320,192,241460,1,0,0:0:0:0:
448,192,241539,1,0,0:0:0:0:
192,192,241618,1,0,0:0:0:0:
320,192,241618,1,0,0:0:0:0:
448,192,241697,1,0,0:0:0:0:
192,192,241776,1,0,0:0:0:0:
320,192,241776,1,0,0:0:0:0:
64,192,241854,1,0,0:0:0:0:
448,192,241933,1,0,0:0:0:0:
192,192,241933,1,0,0:0:0:0:
64,192,242012,1,0,0:0:0:0:
448,192,242091,1,0,0:0:0:0:
320,192,242091,1,0,0:0:0:0:
192,192,242170,1,0,0:0:0:0:
320,192,242249,1,0,0:0:0:0:
64,192,242249,1,0,0:0:0:0:
448,192,242328,1,0,0:0:0:0:
192,192,242328,1,0,0:0:0:0:
320,192,242407,1,0,0:0:0:0:
64,192,242407,1,0,0:0:0:0:
448,192,242486,1,0,0:0:0:0:
192,192,242565,1,0,0:0:0:0:
64,192,242565,1,0,0:0:0:0:
448,192,242644,1,0,0:0:0:0:
320,192,242723,1,0,0:0:0:0:
64,192,242723,1,0,0:0:0:0:
192,192,242802,1,0,0:0:0:0:
448,192,242881,1,0,0:0:0:0:
64,192,242881,1,0,0:0:0:0:
192,192,242960,1,0,0:0:0:0:
448,192,243039,1,0,0:0:0:0:
320,192,243039,1,0,0:0:0:0:
64,192,243118,1,0,0:0:0:0:
448,192,243197,1,0,0:0:0:0:
192,192,243197,1,0,0:0:0:0:
64,192,243276,1,0,0:0:0:0:
448,192,243354,1,0,0:0:0:0:
320,192,243354,1,0,0:0:0:0:
192,192,243433,1,0,0:0:0:0:
320,192,243512,1,0,0:0:0:0:
64,192,243512,1,0,0:0:0:0:
192,192,243591,1,0,0:0:0:0:
448,192,243591,1,0,0:0:0:0:
320,192,243670,1,0,0:0:0:0:
64,192,243670,1,0,0:0:0:0:
448,192,243749,1,0,0:0:0:0:
192,192,243828,1,0,0:0:0:0:
64,192,243828,1,0,0:0:0:0:
448,192,243907,1,0,0:0:0:0:
320,192,243986,1,0,0:0:0:0:
64,192,243986,1,0,0:0:0:0:
192,192,244065,1,0,0:0:0:0:
64,192,244144,1,0,0:0:0:0:
448,192,244144,1,0,0:0:0:0:
192,192,244223,1,0,0:0:0:0:
320,192,244302,1,0,0:0:0:0:
448,192,244302,1,0,0:0:0:0:
64,192,244381,1,0,0:0:0:0:
192,192,244460,1,0,0:0:0:0:
320,192,244460,1,0,0:0:0:0:
64,192,244539,1,0,0:0:0:0:
320,192,244618,1,0,0:0:0:0:
448,192,244618,1,0,0:0:0:0:
192,192,244697,1,0,0:0:0:0:
64,192,244776,1,0,0:0:0:0:
448,192,244776,1,0,0:0:0:0:
192,192,244854,1,0,0:0:0:0:
320,192,244854,1,0,0:0:0:0:
64,192,244933,1,0,0:0:0:0:
448,192,244933,1,0,0:0:0:0:
320,192,245012,1,0,0:0:0:0:
192,192,245091,1,0,0:0:0:0:
64,192,245091,1,0,0:0:0:0:
320,192,245170,1,0,0:0:0:0:
64,192,245249,1,0,0:0:0:0:
448,192,245249,1,0,0:0:0:0:
192,192,245328,1,0,0:0:0:0:
64,192,245407,1,0,0:0:0:0:
320,192,245407,1,0,0:0:0:0:
192,192,245486,1,0,0:0:0:0:
320,192,245565,128,0,245644:0:0:0:0:
448,192,245565,128,0,245644:0:0:0:0:
64,192,245644,1,0,0:0:0:0:
192,192,245723,1,0,0:0:0:0:
320,192,245723,1,0,0:0:0:0:
64,192,245802,1,0,0:0:0:0:
448,192,245881,1,0,0:0:0:0:
320,192,245881,1,0,0:0:0:0:
192,192,245960,1,0,0:0:0:0:
64,192,246039,1,0,0:0:0:0:
448,192,246039,1,0,0:0:0:0:
320,192,246118,1,0,0:0:0:0:
192,192,246118,1,0,0:0:0:0:
64,192,246197,1,0,0:0:0:0:
448,192,246197,1,0,0:0:0:0:
192,192,246276,1,0,0:0:0:0:
320,192,246276,1,0,0:0:0:0:
64,192,246354,1,0,0:0:0:0:
448,192,246354,1,0,0:0:0:0:
192,192,246433,1,0,0:0:0:0:
320,192,246433,1,0,0:0:0:0:
64,192,246512,1,0,0:0:0:0:
448,192,246512,1,0,0:0:0:0:
192,192,246591,128,0,246749:0:0:0:0:
320,192,246591,128,0,246749:0:0:0:0:
64,192,246828,1,0,0:0:0:0:
448,192,246828,1,0,0:0:0:0:
192,192,246907,1,0,0:0:0:0:
64,192,246986,1,0,0:0:0:0:
320,192,247065,1,0,0:0:0:0:
64,192,247144,1,0,0:0:0:0:
448,192,247223,1,0,0:0:0:0:
64,192,247302,1,0,0:0:0:0:
192,192,247381,1,0,0:0:0:0:
320,192,247381,1,0,0:0:0:0:
64,192,247460,1,0,0:0:0:0:
192,192,247539,1,0,0:0:0:0:
64,192,247618,1,0,0:0:0:0:
320,192,247697,1,0,0:0:0:0:
448,192,247776,1,0,0:0:0:0:
320,192,247854,1,0,0:0:0:0:
64,192,247933,1,0,0:0:0:0:
192,192,248012,1,0,0:0:0:0:
448,192,248091,1,0,0:0:0:0:
320,192,248170,1,0,0:0:0:0:
192,192,248249,1,0,0:0:0:0:
64,192,248328,1,0,0:0:0:0:
192,192,248407,1,0,0:0:0:0:
320,192,248486,1,0,0:0:0:0:
192,192,248565,1,0,0:0:0:0:
448,192,248644,1,0,0:0:0:0:
64,192,248644,1,0,0:0:0:0:
192,192,248723,1,0,0:0:0:0:
448,192,248802,1,0,0:0:0:0:
192,192,248881,1,0,0:0:0:0:
320,192,248960,1,0,0:0:0:0:
448,192,249039,1,0,0:0:0:0:
64,192,249118,1,0,0:0:0:0:
192,192,249197,1,0,0:0:0:0:
320,192,249276,1,0,0:0:0:0:
192,192,249354,1,0,0:0:0:0:
64,192,249433,1,0,0:0:0:0:
320,192,249512,1,0,0:0:0:0:
448,192,249591,1,0,0:0:0:0:
320,192,249670,1,0,0:0:0:0:
192,192,249749,1,0,0:0:0:0:
320,192,249828,1,0,0:0:0:0:
448,192,249907,1,0,0:0:0:0:
64,192,249907,1,0,0:0:0:0:
320,192,249986,1,0,0:0:0:0:
64,192,250065,1,0,0:0:0:0:
320,192,250144,1,0,0:0:0:0:
448,192,250223,1,0,0:0:0:0:
192,192,250302,1,0,0:0:0:0:
320,192,250381,1,0,0:0:0:0:
64,192,250460,1,0,0:0:0:0:
192,192,250539,1,0,0:0:0:0:
64,192,250618,1,0,0:0:0:0:
320,192,250697,1,0,0:0:0:0:
448,192,250776,1,0,0:0:0:0:
192,192,250854,1,0,0:0:0:0:
448,192,250933,1,0,0:0:0:0:
64,192,251012,1,0,0:0:0:0:
448,192,251091,1,0,0:0:0:0:
192,192,251170,1,0,0:0:0:0:
320,192,251170,1,0,0:0:0:0:
448,192,251249,1,0,0:0:0:0:
320,192,251328,1,0,0:0:0:0:
448,192,251407,1,0,0:0:0:0:
192,192,251486,1,0,0:0:0:0:
320,192,251565,1,0,0:0:0:0:
64,192,251644,1,0,0:0:0:0:
192,192,251723,1,0,0:0:0:0:
64,192,251802,1,0,0:0:0:0:
320,192,251881,1,0,0:0:0:0:
448,192,251960,1,0,0:0:0:0:
320,192,252039,1,0,0:0:0:0:
448,192,252118,1,0,0:0:0:0:
192,192,252197,1,0,0:0:0:0:
448,192,252276,1,0,0:0:0:0:
64,192,252354,1,0,0:0:0:0:
192,192,252433,1,0,0:0:0:0:
448,192,252433,1,0,0:0:0:0:
320,192,252512,1,0,0:0:0:0:
448,192,252591,1,0,0:0:0:0:
320,192,252670,1,0,0:0:0:0:
192,192,252749,1,0,0:0:0:0:
64,192,252828,1,0,0:0:0:0:
448,192,252907,1,0,0:0:0:0:
192,192,252986,1,0,0:0:0:0:
448,192,253065,1,0,0:0:0:0:
64,192,253144,1,0,0:0:0:0:
320,192,253223,1,0,0:0:0:0:
192,192,253302,1,0,0:0:0:0:
320,192,253381,1,0,0:0:0:0:
64,192,253460,1,0,0:0:0:0:
320,192,253539,1,0,0:0:0:0:
448,192,253618,1,0,0:0:0:0:
64,192,253697,1,0,0:0:0:0:
320,192,253697,1,0,0:0:0:0:
192,192,253776,1,0,0:0:0:0:
320,192,253854,1,0,0:0:0:0:
192,192,253933,1,0,0:0:0:0:
64,192,254012,1,0,0:0:0:0:
448,192,254091,1,0,0:0:0:0:
192,192,254170,1,0,0:0:0:0:
448,192,254249,1,0,0:0:0:0:
320,192,254328,1,0,0:0:0:0:
64,192,254407,1,0,0:0:0:0:
192,192,254486,1,0,0:0:0:0:
448,192,254565,1,0,0:0:0:0:
192,192,254644,1,0,0:0:0:0:
320,192,254723,1,0,0:0:0:0:
192,192,254802,1,0,0:0:0:0:
64,192,254881,1,0,0:0:0:0:
448,192,254960,1,0,0:0:0:0:
192,192,254960,1,0,0:0:0:0:
320,192,255039,1,0,0:0:0:0:
192,192,255118,1,0,0:0:0:0:
320,192,255197,1,0,0:0:0:0:
448,192,255276,1,0,0:0:0:0:
192,192,255354,1,0,0:0:0:0:
320,192,255433,1,0,0:0:0:0:
64,192,255512,1,0,0:0:0:0:
320,192,255591,1,0,0:0:0:0:
448,192,255670,1,0,0:0:0:0:
64,192,255749,1,0,0:0:0:0:
192,192,255828,1,0,0:0:0:0:
64,192,255907,1,0,0:0:0:0:
320,192,255986,1,0,0:0:0:0:
64,192,256065,1,0,0:0:0:0:
448,192,256144,1,0,0:0:0:0:
64,192,256223,1,0,0:0:0:0:
320,192,256223,1,0,0:0:0:0:
192,192,256302,1,0,0:0:0:0:
64,192,256381,1,0,0:0:0:0:
192,192,256460,1,0,0:0:0:0:
320,192,256539,1,0,0:0:0:0:
448,192,256618,128,0,256697:0:0:0:0:
64,192,256697,1,0,0:0:0:0:
320,192,256776,128,0,256854:0:0:0:0:
192,192,256854,1,0,0:0:0:0:
448,192,256933,1,0,0:0:0:0:
320,192,257012,1,0,0:0:0:0:
448,192,257091,1,0,0:0:0:0:
320,192,257170,1,0,0:0:0:0:
448,192,257249,1,0,0:0:0:0:
192,192,257328,1,0,0:0:0:0:
448,192,257407,1,0,0:0:0:0:
64,192,257486,1,0,0:0:0:0:
320,192,257486,1,0,0:0:0:0:
192,192,257565,1,0,0:0:0:0:
64,192,257644,1,0,0:0:0:0:
320,192,257723,1,0,0:0:0:0:
64,192,257802,1,0,0:0:0:0:
192,192,257881,1,0,0:0:0:0:
64,192,257960,1,0,0:0:0:0:
448,192,258039,1,0,0:0:0:0:
320,192,258118,1,0,0:0:0:0:
192,192,258197,1,0,0:0:0:0:
64,192,258276,1,0,0:0:0:0:
192,192,258354,1,0,0:0:0:0:
320,192,258433,1,0,0:0:0:0:
192,192,258512,1,0,0:0:0:0:
448,192,258591,1,0,0:0:0:0:
192,192,258670,1,0,0:0:0:0:
64,192,258749,1,0,0:0:0:0:
320,192,258749,1,0,0:0:0:0:
448,192,258828,1,0,0:0:0:0:
320,192,258907,1,0,0:0:0:0:
192,192,258986,1,0,0:0:0:0:
320,192,259065,1,0,0:0:0:0:
64,192,259144,1,0,0:0:0:0:
320,192,259223,1,0,0:0:0:0:
192,192,259302,1,0,0:0:0:0:
64,192,259381,1,0,0:0:0:0:
192,192,259460,1,0,0:0:0:0:
448,192,259460,1,0,0:0:0:0:
320,192,259539,1,0,0:0:0:0:
448,192,259618,1,0,0:0:0:0:
192,192,259697,1,0,0:0:0:0:
448,192,259776,1,0,0:0:0:0:
64,192,259776,1,0,0:0:0:0:
320,192,259854,1,0,0:0:0:0:
448,192,259933,1,0,0:0:0:0:
64,192,260012,1,0,0:0:0:0:
192,192,260012,1,0,0:0:0:0:
448,192,260091,1,0,0:0:0:0:
320,192,260091,1,0,0:0:0:0:
64,192,260170,1,0,0:0:0:0:
448,192,260249,1,0,0:0:0:0:
192,192,260328,1,0,0:0:0:0:
448,192,260407,1,0,0:0:0:0:
64,192,260407,1,0,0:0:0:0:
320,192,260486,1,0,0:0:0:0:
192,192,260565,1,0,0:0:0:0:
64,192,260604,1,0,0:0:0:0:
448,192,260644,1,0,0:0:0:0:
320,192,260683,1,0,0:0:0:0:
64,192,260723,1,0,0:0:0:0:
192,192,260723,1,0,0:0:0:0:
448,192,260802,1,0,0:0:0:0:
64,192,260881,1,0,0:0:0:0:
192,192,260960,1,0,0:0:0:0:
320,192,261039,1,0,0:0:0:0:
64,192,261039,1,0,0:0:0:0:
448,192,261118,1,0,0:0:0:0:
64,192,261197,1,0,0:0:0:0:
320,192,261276,1,0,0:0:0:0:
448,192,261276,1,0,0:0:0:0:
64,192,261354,1,0,0:0:0:0:
192,192,261354,1,0,0:0:0:0:
448,192,261433,1,0,0:0:0:0:
64,192,261512,1,0,0:0:0:0:
320,192,261591,1,0,0:0:0:0:
64,192,261670,1,0,0:0:0:0:
192,192,261710,1,0,0:0:0:0:
320,192,261749,1,0,0:0:0:0:
64,192,261789,1,0,0:0:0:0:
448,192,261828,1,0,0:0:0:0:
192,192,261868,1,0,0:0:0:0:
320,192,261907,1,0,0:0:0:0:
448,192,261947,1,0,0:0:0:0:
192,192,261986,1,0,0:0:0:0:
64,192,261986,1,0,0:0:0:0:
320,192,262065,1,0,0:0:0:0:
64,192,262144,1,0,0:0:0:0:
448,192,262144,1,0,0:0:0:0:
192,192,262223,1,0,0:0:0:0:
320,192,262302,1,0,0:0:0:0:
448,192,262302,1,0,0:0:0:0:
192,192,262381,1,0,0:0:0:0:
64,192,262460,1,0,0:0:0:0:
448,192,262460,1,0,0:0:0:0:
192,192,262539,1,0,0:0:0:0:
320,192,262539,1,0,0:0:0:0:
64,192,262618,1,0,0:0:0:0:
448,192,262618,1,0,0:0:0:0:
320,192,262697,1,0,0:0:0:0:
64,192,262776,1,0,0:0:0:0:
192,192,262776,1,0,0:0:0:0:
320,192,262854,1,0,0:0:0:0:
64,192,262933,1,0,0:0:0:0:
448,192,262933,1,0,0:0:0:0:
192,192,263012,1,0,0:0:0:0:
320,192,263091,1,0,0:0:0:0:
448,192,263131,1,0,0:0:0:0:
64,192,263170,1,0,0:0:0:0:
192,192,263210,1,0,0:0:0:0:
448,192,263249,1,0,0:0:0:0:
320,192,263249,1,0,0:0:0:0:
64,192,263328,1,0,0:0:0:0:
192,192,263407,1,0,0:0:0:0:
320,192,263407,1,0,0:0:0:0:
448,192,263486,1,0,0:0:0:0:
64,192,263565,1,0,0:0:0:0:
192,192,263565,1,0,0:0:0:0:
448,192,263644,1,0,0:0:0:0:
320,192,263723,1,0,0:0:0:0:
192,192,263723,1,0,0:0:0:0:
64,192,263802,1,0,0:0:0:0:
448,192,263802,1,0,0:0:0:0:
320,192,263881,1,0,0:0:0:0:
192,192,263881,1,0,0:0:0:0:
64,192,263960,1,0,0:0:0:0:
320,192,264039,1,0,0:0:0:0:
448,192,264039,1,0,0:0:0:0:
64,192,264118,1,0,0:0:0:0:
448,192,264197,1,0,0:0:0:0:
320,192,264236,1,0,0:0:0:0:
192,192,264276,1,0,0:0:0:0:
448,192,264315,1,0,0:0:0:0:
64,192,264354,1,0,0:0:0:0:
320,192,264394,1,0,0:0:0:0:
192,192,264433,1,0,0:0:0:0:
64,192,264473,1,0,0:0:0:0:
320,192,264512,1,0,0:0:0:0:
448,192,264512,1,0,0:0:0:0:
192,192,264591,1,0,0:0:0:0:
320,192,264670,1,0,0:0:0:0:
448,192,264670,1,0,0:0:0:0:
64,192,264749,1,0,0:0:0:0:
192,192,264828,1,0,0:0:0:0:
320,192,264828,1,0,0:0:0:0:
448,192,264907,1,0,0:0:0:0:
192,192,264986,1,0,0:0:0:0:
64,192,264986,1,0,0:0:0:0:
320,192,265065,1,0,0:0:0:0:
448,192,265065,1,0,0:0:0:0:
192,192,265144,1,0,0:0:0:0:
64,192,265144,1,0,0:0:0:0:
448,192,265223,1,0,0:0:0:0:
192,192,265302,1,0,0:0:0:0:
320,192,265302,1,0,0:0:0:0:
64,192,265381,1,0,0:0:0:0:
320,192,265460,1,0,0:0:0:0:
448,192,265460,1,0,0:0:0:0:
192,192,265539,1,0,0:0:0:0:
448,192,265618,1,0,0:0:0:0:
320,192,265657,1,0,0:0:0:0:
192,192,265697,1,0,0:0:0:0:
64,192,265736,1,0,0:0:0:0:
448,192,265776,1,0,0:0:0:0:
320,192,265776,1,0,0:0:0:0:
192,192,265854,1,0,0:0:0:0:
448,192,265933,1,0,0:0:0:0:
64,192,265933,1,0,0:0:0:0:
320,192,266012,1,0,0:0:0:0:
192,192,266091,1,0,0:0:0:0:
64,192,266091,1,0,0:0:0:0:
320,192,266170,1,0,0:0:0:0:
64,192,266249,1,0,0:0:0:0:
448,192,266249,1,0,0:0:0:0:
320,192,266328,1,0,0:0:0:0:
192,192,266328,1,0,0:0:0:0:
64,192,266407,1,0,0:0:0:0:
448,192,266407,1,0,0:0:0:0:
192,192,266486,1,0,0:0:0:0:
320,192,266565,1,0,0:0:0:0:
448,192,266565,1,0,0:0:0:0:
192,192,266644,1,0,0:0:0:0:
448,192,266723,1,0,0:0:0:0:
320,192,266762,1,0,0:0:0:0:
192,192,266802,1,0,0:0:0:0:
448,192,266841,1,0,0:0:0:0:
64,192,266881,1,0,0:0:0:0:
320,192,266920,1,0,0:0:0:0:
192,192,266960,1,0,0:0:0:0:
64,192,266999,1,0,0:0:0:0:
320,192,267039,1,0,0:0:0:0:
448,192,267039,1,0,0:0:0:0:
64,192,272091,5,0,0:0:0:0:
192,192,272091,1,0,0:0:0:0:
448,192,272091,1,0,0:0:0:0:
320,192,272170,1,0,0:0:0:0:
192,192,272249,1,0,0:0:0:0:
448,192,272249,1,0,0:0:0:0:
64,192,272328,1,0,0:0:0:0:
320,192,272407,1,0,0:0:0:0:
448,192,272407,1,0,0:0:0:0:
192,192,272486,1,0,0:0:0:0:
64,192,272565,1,0,0:0:0:0:
320,192,272565,1,0,0:0:0:0:
448,192,272644,1,0,0:0:0:0:
64,192,272723,1,0,0:0:0:0:
192,192,272723,1,0,0:0:0:0:
320,192,272802,1,0,0:0:0:0:
448,192,272802,1,0,0:0:0:0:
64,192,272881,1,0,0:0:0:0:
448,192,272960,1,0,0:0:0:0:
192,192,273039,1,0,0:0:0:0:
320,192,273039,1,0,0:0:0:0:
64,192,273118,1,0,0:0:0:0:
320,192,273197,1,0,0:0:0:0:
448,192,273197,1,0,0:0:0:0:
64,192,273276,1,0,0:0:0:0:
192,192,273276,1,0,0:0:0:0:
448,192,273354,1,0,0:0:0:0:
64,192,273433,1,0,0:0:0:0:
192,192,273433,1,0,0:0:0:0:
448,192,273512,1,0,0:0:0:0:
64,192,273591,1,0,0:0:0:0:
192,192,273670,1,0,0:0:0:0:
320,192,273670,1,0,0:0:0:0:
448,192,273749,1,0,0:0:0:0:
64,192,273828,1,0,0:0:0:0:
192,192,273828,1,0,0:0:0:0:
320,192,273907,1,0,0:0:0:0:
448,192,273907,1,0,0:0:0:0:
64,192,273986,1,0,0:0:0:0:
448,192,274065,1,0,0:0:0:0:
64,192,274144,1,0,0:0:0:0:
320,192,274144,1,0,0:0:0:0:
192,192,274223,1,0,0:0:0:0:
320,192,274302,1,0,0:0:0:0:
448,192,274302,1,0,0:0:0:0:
64,192,274381,1,0,0:0:0:0:
192,192,274460,1,0,0:0:0:0:
320,192,274460,1,0,0:0:0:0:
64,192,274539,1,0,0:0:0:0:
320,192,274618,1,0,0:0:0:0:
448,192,274618,1,0,0:0:0:0:
192,192,274697,1,0,0:0:0:0:
64,192,274776,1,0,0:0:0:0:
448,192,274776,1,0,0:0:0:0:
320,192,274854,1,0,0:0:0:0:
64,192,274933,1,0,0:0:0:0:
192,192,274933,1,0,0:0:0:0:
448,192,275012,1,0,0:0:0:0:
192,192,275091,1,0,0:0:0:0:
320,192,275091,1,0,0:0:0:0:
64,192,275170,1,0,0:0:0:0:
320,192,275249,1,0,0:0:0:0:
448,192,275249,1,0,0:0:0:0:
64,192,275328,1,0,0:0:0:0:
192,192,275328,1,0,0:0:0:0:
320,192,275407,1,0,0:0:0:0:
64,192,275486,1,0,0:0:0:0:
192,192,275565,1,0,0:0:0:0:
448,192,275565,1,0,0:0:0:0:
320,192,275644,1,0,0:0:0:0:
64,192,275723,1,0,0:0:0:0:
192,192,275723,1,0,0:0:0:0:
320,192,275802,1,0,0:0:0:0:
448,192,275802,1,0,0:0:0:0:
64,192,275881,1,0,0:0:0:0:
320,192,275960,1,0,0:0:0:0:
448,192,275960,1,0,0:0:0:0:
64,192,276039,1,0,0:0:0:0:
320,192,276118,1,0,0:0:0:0:
192,192,276197,1,0,0:0:0:0:
448,192,276197,1,0,0:0:0:0:
64,192,276276,1,0,0:0:0:0:
320,192,276354,1,0,0:0:0:0:
448,192,276354,1,0,0:0:0:0:
64,192,276433,1,0,0:0:0:0:
192,192,276433,1,0,0:0:0:0:
448,192,276512,1,0,0:0:0:0:
64,192,276591,1,0,0:0:0:0:
192,192,276670,1,0,0:0:0:0:
320,192,276670,1,0,0:0:0:0:
448,192,276749,1,0,0:0:0:0:
64,192,276828,1,0,0:0:0:0:
192,192,276828,1,0,0:0:0:0:
320,192,276907,1,0,0:0:0:0:
64,192,276986,1,0,0:0:0:0:
448,192,276986,1,0,0:0:0:0:
192,192,277065,1,0,0:0:0:0:
64,192,277144,1,0,0:0:0:0:
320,192,277144,1,0,0:0:0:0:
192,192,277223,1,0,0:0:0:0:
320,192,277302,1,0,0:0:0:0:
448,192,277302,1,0,0:0:0:0:
64,192,277381,1,0,0:0:0:0:
192,192,277460,1,0,0:0:0:0:
320,192,277460,1,0,0:0:0:0:
448,192,277539,1,0,0:0:0:0:
64,192,277618,1,0,0:0:0:0:
192,192,277618,1,0,0:0:0:0:
448,192,277697,1,0,0:0:0:0:
64,192,277776,1,0,0:0:0:0:
320,192,277776,1,0,0:0:0:0:
192,192,277854,1,0,0:0:0:0:
448,192,277854,1,0,0:0:0:0:
64,192,277933,1,0,0:0:0:0:
448,192,278012,1,0,0:0:0:0:
192,192,278091,1,0,0:0:0:0:
320,192,278091,1,0,0:0:0:0:
64,192,278170,1,0,0:0:0:0:
192,192,278249,1,0,0:0:0:0:
448,192,278249,1,0,0:0:0:0:
64,192,278328,1,0,0:0:0:0:
320,192,278328,1,0,0:0:0:0:
448,192,278407,1,0,0:0:0:0:
64,192,278486,1,0,0:0:0:0:
320,192,278486,1,0,0:0:0:0:
448,192,278565,1,0,0:0:0:0:
64,192,278644,1,0,0:0:0:0:
192,192,278723,1,0,0:0:0:0:
320,192,278723,1,0,0:0:0:0:
448,192,278802,1,0,0:0:0:0:
64,192,278881,1,0,0:0:0:0:
192,192,278881,1,0,0:0:0:0:
320,192,278960,1,0,0:0:0:0:
448,192,278960,1,0,0:0:0:0:
64,192,279039,1,0,0:0:0:0:
448,192,279118,1,0,0:0:0:0:
64,192,279197,1,0,0:0:0:0:
192,192,279197,1,0,0:0:0:0:
320,192,279276,1,0,0:0:0:0:
64,192,279354,1,0,0:0:0:0:
448,192,279354,1,0,0:0:0:0:
192,192,279433,1,0,0:0:0:0:
320,192,279512,1,0,0:0:0:0:
448,192,279512,1,0,0:0:0:0:
192,192,279591,1,0,0:0:0:0:
64,192,279670,1,0,0:0:0:0:
448,192,279670,1,0,0:0:0:0:
192,192,279749,1,0,0:0:0:0:
320,192,279749,1,0,0:0:0:0:
64,192,279828,1,0,0:0:0:0:
448,192,279828,1,0,0:0:0:0:
320,192,279907,1,0,0:0:0:0:
64,192,279986,1,0,0:0:0:0:
192,192,279986,1,0,0:0:0:0:
320,192,280065,1,0,0:0:0:0:
192,192,280144,1,0,0:0:0:0:
448,192,280144,1,0,0:0:0:0:
64,192,280223,1,0,0:0:0:0:
320,192,280223,1,0,0:0:0:0:
192,192,280302,1,0,0:0:0:0:
64,192,280381,1,0,0:0:0:0:
320,192,280381,1,0,0:0:0:0:
448,192,280460,1,0,0:0:0:0:
192,192,280539,1,0,0:0:0:0:
64,192,280618,1,0,0:0:0:0:
448,192,280618,1,0,0:0:0:0:
320,192,280697,1,0,0:0:0:0:
192,192,280776,1,0,0:0:0:0:
64,192,280776,1,0,0:0:0:0:
448,192,280854,1,0,0:0:0:0:
320,192,280854,1,0,0:0:0:0:
192,192,280933,1,0,0:0:0:0:
448,192,281012,1,0,0:0:0:0:
320,192,281012,1,0,0:0:0:0:
192,192,281091,1,0,0:0:0:0:
320,192,281170,1,0,0:0:0:0:
64,192,281249,1,0,0:0:0:0:
448,192,281249,1,0,0:0:0:0:
192,192,281328,1,0,0:0:0:0:
320,192,281407,1,0,0:0:0:0:
448,192,281407,1,0,0:0:0:0:
64,192,281486,1,0,0:0:0:0:
192,192,281486,1,0,0:0:0:0:
320,192,281565,1,0,0:0:0:0:
192,192,281644,1,0,0:0:0:0:
448,192,281644,1,0,0:0:0:0:
64,192,281723,1,0,0:0:0:0:
320,192,281723,1,0,0:0:0:0:
448,192,281802,1,0,0:0:0:0:
64,192,281881,1,0,0:0:0:0:
192,192,281881,1,0,0:0:0:0:
320,192,281960,1,0,0:0:0:0:
64,192,282039,1,0,0:0:0:0:
448,192,282039,1,0,0:0:0:0:
192,192,282118,1,0,0:0:0:0:
320,192,282197,1,0,0:0:0:0:
448,192,282197,1,0,0:0:0:0:
192,192,282276,1,0,0:0:0:0:
64,192,282354,1,0,0:0:0:0:
320,192,282354,1,0,0:0:0:0:
448,192,282433,1,0,0:0:0:0:
192,192,282512,1,0,0:0:0:0:
320,192,282512,1,0,0:0:0:0:
448,192,282591,1,0,0:0:0:0:
64,192,282670,1,0,0:0:0:0:
192,192,282670,1,0,0:0:0:0:
320,192,282749,1,0,0:0:0:0:
64,192,282828,1,0,0:0:0:0:
448,192,282828,1,0,0:0:0:0:
192,192,282907,1,0,0:0:0:0:
320,192,282907,1,0,0:0:0:0:
64,192,282986,1,0,0:0:0:0:
320,192,283065,1,0,0:0:0:0:
192,192,283144,1,0,0:0:0:0:
448,192,283144,1,0,0:0:0:0:
64,192,283223,1,0,0:0:0:0:
192,192,283302,1,0,0:0:0:0:
320,192,283302,1,0,0:0:0:0:
64,192,283381,1,0,0:0:0:0:
448,192,283381,1,0,0:0:0:0:
320,192,283460,1,0,0:0:0:0:
64,192,283539,1,0,0:0:0:0:
448,192,283539,1,0,0:0:0:0:
320,192,283618,1,0,0:0:0:0:
64,192,283697,1,0,0:0:0:0:
192,192,283776,1,0,0:0:0:0:
448,192,283776,1,0,0:0:0:0:
320,192,283854,1,0,0:0:0:0:
64,192,283933,1,0,0:0:0:0:
448,192,283933,1,0,0:0:0:0:
192,192,284012,1,0,0:0:0:0:
320,192,284012,1,0,0:0:0:0:
64,192,284091,1,0,0:0:0:0:
320,192,284170,1,0,0:0:0:0:
448,192,284170,1,0,0:0:0:0:
64,192,284249,1,0,0:0:0:0:
192,192,284249,1,0,0:0:0:0:
448,192,284328,1,0,0:0:0:0:
192,192,284407,1,0,0:0:0:0:
320,192,284407,1,0,0:0:0:0:
64,192,284486,1,0,0:0:0:0:
192,192,284565,1,0,0:0:0:0:
448,192,284565,1,0,0:0:0:0:
320,192,284644,1,0,0:0:0:0:
64,192,284723,1,0,0:0:0:0:
448,192,284723,1,0,0:0:0:0:
192,192,284802,1,0,0:0:0:0:
64,192,284881,1,0,0:0:0:0:
320,192,284881,1,0,0:0:0:0:
448,192,284960,1,0,0:0:0:0:
192,192,285039,1,0,0:0:0:0:
320,192,285039,1,0,0:0:0:0:
64,192,285118,1,0,0:0:0:0:
320,192,285197,1,0,0:0:0:0:
448,192,285197,1,0,0:0:0:0:
192,192,285276,1,0,0:0:0:0:
64,192,285354,1,0,0:0:0:0:
448,192,285354,1,0,0:0:0:0:
192,192,285433,1,0,0:0:0:0:
320,192,285433,1,0,0:0:0:0:
448,192,285512,1,0,0:0:0:0:
192,192,285591,1,0,0:0:0:0:
64,192,285670,1,0,0:0:0:0:
320,192,285670,1,0,0:0:0:0:
448,192,285749,1,0,0:0:0:0:
64,192,285828,1,0,0:0:0:0:
192,192,285828,1,0,0:0:0:0:
320,192,285907,1,0,0:0:0:0:
448,192,285907,1,0,0:0:0:0:
192,192,285986,1,0,0:0:0:0:
320,192,286065,1,0,0:0:0:0:
448,192,286065,1,0,0:0:0:0:
192,192,286144,1,0,0:0:0:0:
448,192,286223,1,0,0:0:0:0:
64,192,286302,1,0,0:0:0:0:
320,192,286302,1,0,0:0:0:0:
192,192,286381,1,0,0:0:0:0:
64,192,286460,1,0,0:0:0:0:
448,192,286460,1,0,0:0:0:0:
192,192,286539,1,0,0:0:0:0:
320,192,286539,1,0,0:0:0:0:
448,192,286618,1,0,0:0:0:0:
64,192,286697,1,0,0:0:0:0:
192,192,286697,1,0,0:0:0:0:
320,192,286776,1,0,0:0:0:0:
448,192,286776,1,0,0:0:0:0:
64,192,286854,1,0,0:0:0:0:
192,192,286933,1,0,0:0:0:0:
320,192,286933,1,0,0:0:0:0:
448,192,287012,1,0,0:0:0:0:
64,192,287091,1,0,0:0:0:0:
192,192,287091,1,0,0:0:0:0:
320,192,287170,1,0,0:0:0:0:
64,192,287249,1,0,0:0:0:0:
448,192,287249,1,0,0:0:0:0:
192,192,287328,1,0,0:0:0:0:
320,192,287407,1,0,0:0:0:0:
448,192,287407,1,0,0:0:0:0:
64,192,287486,1,0,0:0:0:0:
192,192,287565,1,0,0:0:0:0:
320,192,287644,1,0,0:0:0:0:
448,192,287644,1,0,0:0:0:0:
64,192,287723,1,0,0:0:0:0:
192,192,287723,1,0,0:0:0:0:
320,192,287802,1,0,0:0:0:0:
192,192,287881,1,0,0:0:0:0:
448,192,287881,1,0,0:0:0:0:
64,192,287960,1,0,0:0:0:0:
320,192,287960,1,0,0:0:0:0:
192,192,288039,1,0,0:0:0:0:
448,192,288039,1,0,0:0:0:0:
320,192,288118,1,0,0:0:0:0:
64,192,288197,1,0,0:0:0:0:
448,192,288197,1,0,0:0:0:0:
192,192,288276,1,0,0:0:0:0:
320,192,288354,1,0,0:0:0:0:
448,192,288354,1,0,0:0:0:0:
64,192,288433,1,0,0:0:0:0:
192,192,288433,1,0,0:0:0:0:
320,192,288512,1,0,0:0:0:0:
64,192,288591,1,0,0:0:0:0:
192,192,288591,1,0,0:0:0:0:
320,192,288670,1,0,0:0:0:0:
448,192,288670,1,0,0:0:0:0:
192,192,288749,1,0,0:0:0:0:
64,192,288828,1,0,0:0:0:0:
448,192,288828,1,0,0:0:0:0:
320,192,288907,1,0,0:0:0:0:
64,192,288986,1,0,0:0:0:0:
192,192,288986,1,0,0:0:0:0:
320,192,289065,1,0,0:0:0:0:
448,192,289065,1,0,0:0:0:0:
192,192,289144,1,0,0:0:0:0:
64,192,289223,1,0,0:0:0:0:
320,192,289223,1,0,0:0:0:0:
192,192,289302,1,0,0:0:0:0:
448,192,289302,1,0,0:0:0:0:
320,192,289381,1,0,0:0:0:0:
64,192,289460,1,0,0:0:0:0:
192,192,289460,1,0,0:0:0:0:
448,192,289539,1,0,0:0:0:0:
64,192,289618,1,0,0:0:0:0:
320,192,289618,1,0,0:0:0:0:
192,192,289697,1,0,0:0:0:0:
64,192,289776,1,0,0:0:0:0:
448,192,289776,1,0,0:0:0:0:
192,192,289854,1,0,0:0:0:0:
320,192,289854,1,0,0:0:0:0:
64,192,289933,1,0,0:0:0:0:
448,192,289933,1,0,0:0:0:0:
320,192,290012,1,0,0:0:0:0:
64,192,290091,1,0,0:0:0:0:
192,192,290091,1,0,0:0:0:0:
448,192,290170,1,0,0:0:0:0:
192,192,290249,1,0,0:0:0:0:
320,192,290249,1,0,0:0:0:0:
64,192,290328,1,0,0:0:0:0:
448,192,290328,1,0,0:0:0:0:
320,192,290407,1,0,0:0:0:0:
192,192,290486,1,0,0:0:0:0:
448,192,290486,1,0,0:0:0:0:
64,192,290565,1,0,0:0:0:0:
320,192,290565,1,0,0:0:0:0:
192,192,290644,1,0,0:0:0:0:
64,192,290723,1,0,0:0:0:0:
448,192,290723,1,0,0:0:0:0:
320,192,290802,1,0,0:0:0:0:
64,192,290881,1,0,0:0:0:0:
192,192,290881,1,0,0:0:0:0:
320,192,290960,1,0,0:0:0:0:
448,192,290960,1,0,0:0:0:0:
64,192,291039,1,0,0:0:0:0:
192,192,291039,1,0,0:0:0:0:
320,192,291118,1,0,0:0:0:0:
448,192,291118,1,0,0:0:0:0:
192,192,291197,1,0,0:0:0:0:
64,192,291276,1,0,0:0:0:0:
320,192,291354,1,0,0:0:0:0:
448,192,291354,1,0,0:0:0:0:
192,192,291433,1,0,0:0:0:0:
320,192,291512,1,0,0:0:0:0:
192,192,291591,1,0,0:0:0:0:
64,192,291591,1,0,0:0:0:0:
448,192,291670,1,0,0:0:0:0:
320,192,291710,1,0,0:0:0:0:
192,192,291749,1,0,0:0:0:0:
448,192,291789,1,0,0:0:0:0:
64,192,291828,1,0,0:0:0:0:
320,192,291868,1,0,0:0:0:0:
192,192,291907,1,0,0:0:0:0:
64,192,291947,1,0,0:0:0:0:
448,192,291986,1,0,0:0:0:0:
320,192,292026,1,0,0:0:0:0:
192,192,292065,1,0,0:0:0:0:
448,192,292104,1,0,0:0:0:0:
64,192,292144,1,0,0:0:0:0:
320,192,292183,1,0,0:0:0:0:
192,192,292223,1,0,0:0:0:0:
64,192,292262,1,0,0:0:0:0:
320,192,292302,1,0,0:0:0:0:
448,192,292302,1,0,0:0:0:0:
192,192,292381,1,0,0:0:0:0:
64,192,292460,1,0,0:0:0:0:
320,192,292460,1,0,0:0:0:0:
448,192,292539,1,0,0:0:0:0:
64,192,292618,1,0,0:0:0:0:
192,192,292618,1,0,0:0:0:0:
320,192,292697,1,0,0:0:0:0:
192,192,292776,1,0,0:0:0:0:
448,192,292776,1,0,0:0:0:0:
64,192,292854,1,0,0:0:0:0:
320,192,292933,1,0,0:0:0:0:
448,192,292933,1,0,0:0:0:0:
64,192,293012,1,0,0:0:0:0:
192,192,293012,1,0,0:0:0:0:
320,192,293091,1,0,0:0:0:0:
448,192,293091,1,0,0:0:0:0:
64,192,293170,1,0,0:0:0:0:
192,192,293249,1,0,0:0:0:0:
320,192,293249,1,0,0:0:0:0:
448,192,293328,1,0,0:0:0:0:
64,192,293407,1,0,0:0:0:0:
192,192,293407,1,0,0:0:0:0:
320,192,293486,1,0,0:0:0:0:
448,192,293486,1,0,0:0:0:0:
64,192,293565,1,0,0:0:0:0:
192,192,293565,1,0,0:0:0:0:
320,192,293644,1,0,0:0:0:0:
448,192,293644,1,0,0:0:0:0:
64,192,293723,1,0,0:0:0:0:
448,192,293802,1,0,0:0:0:0:
192,192,293881,1,0,0:0:0:0:
320,192,293881,1,0,0:0:0:0:
64,192,293960,1,0,0:0:0:0:
320,192,294039,1,0,0:0:0:0:
448,192,294039,1,0,0:0:0:0:
64,192,294118,1,0,0:0:0:0:
192,192,294118,1,0,0:0:0:0:
448,192,294197,1,0,0:0:0:0:
320,192,294197,1,0,0:0:0:0:
64,192,294276,1,0,0:0:0:0:
192,192,294354,1,0,0:0:0:0:
448,192,294354,1,0,0:0:0:0:
320,192,294433,1,0,0:0:0:0:
448,192,294512,1,0,0:0:0:0:
192,192,294512,1,0,0:0:0:0:
64,192,294591,1,0,0:0:0:0:
192,192,294670,1,0,0:0:0:0:
320,192,294670,1,0,0:0:0:0:
448,192,294749,1,0,0:0:0:0:
64,192,294828,1,0,0:0:0:0:
192,192,294828,1,0,0:0:0:0:
320,192,294907,1,0,0:0:0:0:
64,192,294986,1,0,0:0:0:0:
448,192,294986,1,0,0:0:0:0:
192,192,295065,1,0,0:0:0:0:
320,192,295144,1,0,0:0:0:0:
448,192,295144,1,0,0:0:0:0:
64,192,295223,1,0,0:0:0:0:
192,192,295302,1,0,0:0:0:0:
320,192,295302,1,0,0:0:0:0:
448,192,295381,1,0,0:0:0:0:
64,192,295460,1,0,0:0:0:0:
192,192,295460,1,0,0:0:0:0:
320,192,295539,1,0,0:0:0:0:
448,192,295539,1,0,0:0:0:0:
64,192,295618,1,0,0:0:0:0:
192,192,295618,1,0,0:0:0:0:
448,192,295697,1,0,0:0:0:0:
64,192,295776,1,0,0:0:0:0:
320,192,295776,1,0,0:0:0:0:
192,192,295854,1,0,0:0:0:0:
320,192,295933,1,0,0:0:0:0:
448,192,295933,1,0,0:0:0:0:
64,192,296012,1,0,0:0:0:0:
192,192,296012,1,0,0:0:0:0:
320,192,296091,1,0,0:0:0:0:
448,192,296091,1,0,0:0:0:0:
64,192,296170,1,0,0:0:0:0:
192,192,296170,1,0,0:0:0:0:
448,192,296249,1,0,0:0:0:0:
192,192,296328,1,0,0:0:0:0:
64,192,296407,1,0,0:0:0:0:
320,192,296407,1,0,0:0:0:0:
448,192,296486,1,0,0:0:0:0:
64,192,296565,1,0,0:0:0:0:
192,192,296565,1,0,0:0:0:0:
320,192,296644,1,0,0:0:0:0:
448,192,296644,1,0,0:0:0:0:
192,192,296723,1,0,0:0:0:0:
64,192,296723,1,0,0:0:0:0:
448,192,296802,1,0,0:0:0:0:
64,192,296881,1,0,0:0:0:0:
320,192,296881,1,0,0:0:0:0:
192,192,296960,1,0,0:0:0:0:
320,192,297039,1,0,0:0:0:0:
64,192,297039,1,0,0:0:0:0:
448,192,297118,1,0,0:0:0:0:
320,192,297197,1,0,0:0:0:0:
192,192,297197,1,0,0:0:0:0:
64,192,297276,1,0,0:0:0:0:
192,192,297354,1,0,0:0:0:0:
448,192,297354,1,0,0:0:0:0:
320,192,297433,1,0,0:0:0:0:
64,192,297512,1,0,0:0:0:0:
448,192,297512,1,0,0:0:0:0:
192,192,297591,1,0,0:0:0:0:
64,192,297670,1,0,0:0:0:0:
320,192,297670,1,0,0:0:0:0:
448,192,297749,1,0,0:0:0:0:
192,192,297828,1,0,0:0:0:0:
320,192,297828,1,0,0:0:0:0:
448,192,297907,1,0,0:0:0:0:
64,192,297986,1,0,0:0:0:0:
192,192,297986,1,0,0:0:0:0:
320,192,298065,1,0,0:0:0:0:
448,192,298065,1,0,0:0:0:0:
192,192,298144,1,0,0:0:0:0:
64,192,298144,1,0,0:0:0:0:
320,192,298223,1,0,0:0:0:0:
448,192,298302,1,0,0:0:0:0:
64,192,298302,1,0,0:0:0:0:
192,192,298381,1,0,0:0:0:0:
64,192,298460,1,0,0:0:0:0:
320,192,298460,1,0,0:0:0:0:
192,192,298539,1,0,0:0:0:0:
448,192,298539,1,0,0:0:0:0:
320,192,298618,1,0,0:0:0:0:
64,192,298618,1,0,0:0:0:0:
192,192,298697,1,0,0:0:0:0:
448,192,298697,1,0,0:0:0:0:
320,192,298776,1,0,0:0:0:0:
192,192,298854,1,0,0:0:0:0:
64,192,298933,1,0,0:0:0:0:
448,192,298933,1,0,0:0:0:0:
320,192,299012,1,0,0:0:0:0:
192,192,299091,1,0,0:0:0:0:
64,192,299091,1,0,0:0:0:0:
448,192,299170,1,0,0:0:0:0:
320,192,299170,1,0,0:0:0:0:
64,192,299249,1,0,0:0:0:0:
192,192,299249,1,0,0:0:0:0:
320,192,299328,1,0,0:0:0:0:
192,192,299407,1,0,0:0:0:0:
448,192,299407,1,0,0:0:0:0:
64,192,299486,1,0,0:0:0:0:
192,192,299565,1,0,0:0:0:0:
448,192,299565,1,0,0:0:0:0:
320,192,299644,1,0,0:0:0:0:
64,192,299723,1,0,0:0:0:0:
192,192,299723,1,0,0:0:0:0:
320,192,299802,1,0,0:0:0:0:
64,192,299881,1,0,0:0:0:0:
448,192,299881,1,0,0:0:0:0:
320,192,299960,1,0,0:0:0:0:
192,192,299960,1,0,0:0:0:0:
64,192,300039,1,0,0:0:0:0:
448,192,300039,1,0,0:0:0:0:
320,192,300118,1,0,0:0:0:0:
192,192,300197,1,0,0:0:0:0:
448,192,300197,1,0,0:0:0:0:
64,192,300276,1,0,0:0:0:0:
320,192,300354,1,0,0:0:0:0:
448,192,300354,1,0,0:0:0:0:
64,192,300433,1,0,0:0:0:0:
192,192,300433,1,0,0:0:0:0:
320,192,300512,1,0,0:0:0:0:
448,192,300512,1,0,0:0:0:0:
64,192,300591,1,0,0:0:0:0:
192,192,300591,1,0,0:0:0:0:
320,192,300670,1,0,0:0:0:0:
192,192,300749,1,0,0:0:0:0:
64,192,300828,1,0,0:0:0:0:
448,192,300828,1,0,0:0:0:0:
320,192,300907,1,0,0:0:0:0:
192,192,300986,1,0,0:0:0:0:
448,192,300986,1,0,0:0:0:0:
64,192,301065,1,0,0:0:0:0:
320,192,301065,1,0,0:0:0:0:
448,192,301144,1,0,0:0:0:0:
192,192,301144,1,0,0:0:0:0:
320,192,301223,1,0,0:0:0:0:
64,192,301223,1,0,0:0:0:0:
192,192,301302,1,0,0:0:0:0:
320,192,301381,1,0,0:0:0:0:
64,192,301460,1,0,0:0:0:0:
448,192,301460,1,0,0:0:0:0:
192,192,301539,1,0,0:0:0:0:
448,192,301618,1,0,0:0:0:0:
320,192,301618,1,0,0:0:0:0:
192,192,301697,1,0,0:0:0:0:
64,192,301697,1,0,0:0:0:0:
320,192,301776,1,0,0:0:0:0:
448,192,301776,1,0,0:0:0:0:
64,192,301854,1,0,0:0:0:0:
320,192,301933,1,0,0:0:0:0:
192,192,301933,1,0,0:0:0:0:
448,192,302012,1,0,0:0:0:0:
192,192,302091,1,0,0:0:0:0:
320,192,302091,1,0,0:0:0:0:
64,192,302170,1,0,0:0:0:0:
192,192,302249,1,0,0:0:0:0:
448,192,302249,1,0,0:0:0:0:
320,192,302328,1,0,0:0:0:0:
64,192,302407,1,0,0:0:0:0:
192,192,302407,1,0,0:0:0:0:
320,192,302486,1,0,0:0:0:0:
64,192,302565,1,0,0:0:0:0:
448,192,302565,1,0,0:0:0:0:
320,192,302644,1,0,0:0:0:0:
192,192,302723,1,0,0:0:0:0:
448,192,302723,1,0,0:0:0:0:
64,192,302802,1,0,0:0:0:0:
320,192,302881,1,0,0:0:0:0:
448,192,302881,1,0,0:0:0:0:
192,192,302960,1,0,0:0:0:0:
64,192,303039,1,0,0:0:0:0:
320,192,303039,1,0,0:0:0:0:
192,192,303118,1,0,0:0:0:0:
448,192,303118,1,0,0:0:0:0:
64,192,303197,1,0,0:0:0:0:
320,192,303197,1,0,0:0:0:0:
192,192,303276,1,0,0:0:0:0:
64,192,303354,1,0,0:0:0:0:
448,192,303354,1,0,0:0:0:0:
320,192,303433,1,0,0:0:0:0:
64,192,303512,1,0,0:0:0:0:
192,192,303512,1,0,0:0:0:0:
320,192,303591,1,0,0:0:0:0:
448,192,303591,1,0,0:0:0:0:
64,192,303670,1,0,0:0:0:0:
192,192,303670,1,0,0:0:0:0:
320,192,303749,1,0,0:0:0:0:
448,192,303749,1,0,0:0:0:0:
64,192,303828,1,0,0:0:0:0:
448,192,303907,1,0,0:0:0:0:
192,192,303986,1,0,0:0:0:0:
320,192,303986,1,0,0:0:0:0:
64,192,304065,1,0,0:0:0:0:
192,192,304144,1,0,0:0:0:0:
448,192,304144,1,0,0:0:0:0:
64,192,304223,1,0,0:0:0:0:
320,192,304223,1,0,0:0:0:0:
192,192,304302,1,0,0:0:0:0:
448,192,304302,1,0,0:0:0:0:
64,192,304381,1,0,0:0:0:0:
320,192,304460,1,0,0:0:0:0:
448,192,304460,1,0,0:0:0:0:
192,192,304539,1,0,0:0:0:0:
448,192,304618,1,0,0:0:0:0:
320,192,304618,1,0,0:0:0:0:
64,192,304697,1,0,0:0:0:0:
192,192,304776,1,0,0:0:0:0:
448,192,304776,1,0,0:0:0:0:
320,192,304854,1,0,0:0:0:0:
64,192,304933,1,0,0:0:0:0:
192,192,304933,1,0,0:0:0:0:
320,192,305012,1,0,0:0:0:0:
192,192,305091,1,0,0:0:0:0:
448,192,305091,1,0,0:0:0:0:
64,192,305170,1,0,0:0:0:0:
192,192,305249,1,0,0:0:0:0:
320,192,305249,1,0,0:0:0:0:
448,192,305328,1,0,0:0:0:0:
64,192,305407,1,0,0:0:0:0:
192,192,305407,1,0,0:0:0:0:
320,192,305486,1,0,0:0:0:0:
64,192,305565,1,0,0:0:0:0:
448,192,305565,1,0,0:0:0:0:
192,192,305644,1,0,0:0:0:0:
320,192,305644,1,0,0:0:0:0:
64,192,305723,1,0,0:0:0:0:
448,192,305723,1,0,0:0:0:0:
320,192,305802,1,0,0:0:0:0:
192,192,305881,1,0,0:0:0:0:
448,192,305881,1,0,0:0:0:0:
64,192,305960,1,0,0:0:0:0:
320,192,306039,1,0,0:0:0:0:
448,192,306039,1,0,0:0:0:0:
64,192,306118,1,0,0:0:0:0:
192,192,306118,1,0,0:0:0:0:
320,192,306197,1,0,0:0:0:0:
448,192,306197,1,0,0:0:0:0:
64,192,306276,1,0,0:0:0:0:
192,192,306276,1,0,0:0:0:0:
448,192,306354,1,0,0:0:0:0:
64,192,306433,1,0,0:0:0:0:
192,192,306512,1,0,0:0:0:0:
320,192,306512,1,0,0:0:0:0:
448,192,306591,1,0,0:0:0:0:
64,192,306670,1,0,0:0:0:0:
320,192,306670,1,0,0:0:0:0:
192,192,306749,1,0,0:0:0:0:
448,192,306749,1,0,0:0:0:0:
64,192,306828,1,0,0:0:0:0:
320,192,306828,1,0,0:0:0:0:
192,192,306907,1,0,0:0:0:0:
64,192,306986,1,0,0:0:0:0:
448,192,306986,1,0,0:0:0:0:
320,192,307065,1,0,0:0:0:0:
448,192,307144,1,0,0:0:0:0:
64,192,307144,1,0,0:0:0:0:
192,192,307223,1,0,0:0:0:0:
448,192,307302,1,0,0:0:0:0:
320,192,307302,1,0,0:0:0:0:
192,192,307381,1,0,0:0:0:0:
64,192,307460,1,0,0:0:0:0:
448,192,307460,1,0,0:0:0:0:
320,192,307539,1,0,0:0:0:0:
64,192,307618,1,0,0:0:0:0:
192,192,307618,1,0,0:0:0:0:
448,192,307697,1,0,0:0:0:0:
192,192,307776,1,0,0:0:0:0:
64,192,307854,1,0,0:0:0:0:
320,192,307933,1,0,0:0:0:0:
448,192,307933,1,0,0:0:0:0:
192,192,308012,1,0,0:0:0:0:
448,192,308091,1,0,0:0:0:0:
64,192,308170,1,0,0:0:0:0:
320,192,308170,1,0,0:0:0:0:
448,192,308249,1,0,0:0:0:0:
192,192,308328,1,0,0:0:0:0:
64,192,308407,1,0,0:0:0:0:
320,192,308407,1,0,0:0:0:0:
448,192,308486,1,0,0:0:0:0:
192,192,308565,1,0,0:0:0:0:
64,192,308644,1,0,0:0:0:0:
448,192,308644,1,0,0:0:0:0:
320,192,308723,1,0,0:0:0:0:
192,192,308802,1,0,0:0:0:0:
448,192,308802,1,0,0:0:0:0:
64,192,308881,1,0,0:0:0:0:
448,192,308960,1,0,0:0:0:0:
192,192,309039,1,0,0:0:0:0:
320,192,309039,1,0,0:0:0:0:
448,192,309118,1,0,0:0:0:0:
64,192,309197,1,0,0:0:0:0:
192,192,309276,1,0,0:0:0:0:
320,192,309276,1,0,0:0:0:0:
64,192,309354,1,0,0:0:0:0:
448,192,309433,1,0,0:0:0:0:
64,192,309512,1,0,0:0:0:0:
320,192,309512,1,0,0:0:0:0:
192,192,309591,1,0,0:0:0:0:
64,192,309670,1,0,0:0:0:0:
320,192,309749,1,0,0:0:0:0:
192,192,309828,1,0,0:0:0:0:
448,192,309828,1,0,0:0:0:0:
64,192,309907,1,0,0:0:0:0:
320,192,309986,1,0,0:0:0:0:
448,192,309986,1,0,0:0:0:0:
192,192,310065,1,0,0:0:0:0:
64,192,310065,1,0,0:0:0:0:
448,192,310144,1,0,0:0:0:0:
320,192,310223,1,0,0:0:0:0:
192,192,310223,1,0,0:0:0:0:
64,192,310302,1,0,0:0:0:0:
448,192,310302,1,0,0:0:0:0:
320,192,310381,1,0,0:0:0:0:
192,192,310460,1,0,0:0:0:0:
64,192,310460,1,0,0:0:0:0:
320,192,310539,1,0,0:0:0:0:
448,192,310539,1,0,0:0:0:0:
192,192,310618,1,0,0:0:0:0:
448,192,310697,1,0,0:0:0:0:
64,192,310697,1,0,0:0:0:0:
320,192,310776,1,0,0:0:0:0:
192,192,310854,1,0,0:0:0:0:
320,192,310933,1,0,0:0:0:0:
448,192,310933,1,0,0:0:0:0:
192,192,311012,1,0,0:0:0:0:
64,192,311091,1,0,0:0:0:0:
320,192,311170,1,0,0:0:0:0:
448,192,311170,1,0,0:0:0:0:
64,192,311249,1,0,0:0:0:0:
192,192,311249,1,0,0:0:0:0:
320,192,311328,1,0,0:0:0:0:
448,192,311328,1,0,0:0:0:0:
64,192,311407,1,0,0:0:0:0:
192,192,311407,1,0,0:0:0:0:
320,192,311486,1,0,0:0:0:0:
448,192,311486,1,0,0:0:0:0:
64,192,311565,1,0,0:0:0:0:
192,192,311565,1,0,0:0:0:0:
320,192,311644,1,0,0:0:0:0:
448,192,311644,1,0,0:0:0:0:
64,192,311723,1,0,0:0:0:0:
192,192,311723,1,0,0:0:0:0:
320,192,311802,1,0,0:0:0:0:
448,192,311802,1,0,0:0:0:0:
64,192,311881,1,0,0:0:0:0:
192,192,311881,1,0,0:0:0:0:
320,192,311960,1,0,0:0:0:0:
448,192,311960,1,0,0:0:0:0:
64,192,312039,1,0,0:0:0:0:
192,192,312039,1,0,0:0:0:0:
320,192,312118,1,0,0:0:0:0:
448,192,312118,1,0,0:0:0:0:
64,192,312197,1,0,0:0:0:0:
192,192,312197,1,0,0:0:0:0:
320,192,312276,1,0,0:0:0:0:
448,192,312276,1,0,0:0:0:0:
64,192,312354,1,0,0:0:0:0:
192,192,312354,1,0,0:0:0:0:
320,192,312433,1,0,0:0:0:0:
448,192,312433,1,0,0:0:0:0:
64,192,312512,1,0,0:0:0:0:
192,192,312512,1,0,0:0:0:0:
320,192,312591,1,0,0:0:0:0:
192,192,312670,1,0,0:0:0:0:
448,192,312670,1,0,0:0:0:0:
64,192,312749,1,0,0:0:0:0:
192,192,312828,1,0,0:0:0:0:
320,192,312828,1,0,0:0:0:0:
448,192,312907,1,0,0:0:0:0:
192,192,312986,1,0,0:0:0:0:
320,192,312986,1,0,0:0:0:0:
64,192,313065,1,0,0:0:0:0:
320,192,313144,1,0,0:0:0:0:
448,192,313144,1,0,0:0:0:0:
64,192,313223,1,0,0:0:0:0:
192,192,313223,1,0,0:0:0:0:
320,192,313302,1,0,0:0:0:0:
448,192,313302,1,0,0:0:0:0:
64,192,313381,1,0,0:0:0:0:
192,192,313460,1,0,0:0:0:0:
320,192,313460,1,0,0:0:0:0:
448,192,313539,1,0,0:0:0:0:
64,192,313618,1,0,0:0:0:0:
192,192,313618,1,0,0:0:0:0:
320,192,313697,1,0,0:0:0:0:
448,192,313697,1,0,0:0:0:0:
64,192,313776,1,0,0:0:0:0:
192,192,313776,1,0,0:0:0:0:
320,192,313854,1,0,0:0:0:0:
448,192,313854,1,0,0:0:0:0:
64,192,313933,1,0,0:0:0:0:
448,192,314012,1,0,0:0:0:0:
192,192,314091,1,0,0:0:0:0:
320,192,314091,1,0,0:0:0:0:
64,192,314170,1,0,0:0:0:0:
448,192,314249,1,0,0:0:0:0:
192,192,314249,1,0,0:0:0:0:
320,192,314328,1,0,0:0:0:0:
64,192,314328,1,0,0:0:0:0:
448,192,314407,1,0,0:0:0:0:
192,192,314407,1,0,0:0:0:0:
320,192,314486,1,0,0:0:0:0:
64,192,314565,1,0,0:0:0:0:
448,192,314565,1,0,0:0:0:0:
192,192,314644,1,0,0:0:0:0:
64,192,314723,1,0,0:0:0:0:
448,192,314723,1,0,0:0:0:0:
192,192,314802,1,0,0:0:0:0:
320,192,314881,1,0,0:0:0:0:
448,192,314881,1,0,0:0:0:0:
64,192,314960,1,0,0:0:0:0:
192,192,315039,1,0,0:0:0:0:
448,192,315039,1,0,0:0:0:0:
320,192,315118,1,0,0:0:0:0:
64,192,315197,1,0,0:0:0:0:
192,192,315197,1,0,0:0:0:0:
320,192,315276,1,0,0:0:0:0:
192,192,315354,1,0,0:0:0:0:
448,192,315354,1,0,0:0:0:0:
64,192,315433,1,0,0:0:0:0:
320,192,315512,1,0,0:0:0:0:
448,192,315512,1,0,0:0:0:0:
192,192,315591,1,0,0:0:0:0:
64,192,315670,1,0,0:0:0:0:
448,192,315670,1,0,0:0:0:0:
192,192,315749,1,0,0:0:0:0:
320,192,315749,1,0,0:0:0:0:
64,192,315828,1,0,0:0:0:0:
448,192,315828,1,0,0:0:0:0:
192,192,315907,1,0,0:0:0:0:
64,192,315986,1,0,0:0:0:0:
320,192,315986,1,0,0:0:0:0:
448,192,316065,1,0,0:0:0:0:
192,192,316144,1,0,0:0:0:0:
64,192,316144,1,0,0:0:0:0:
448,192,316223,1,0,0:0:0:0:
320,192,316223,1,0,0:0:0:0:
192,192,316302,1,0,0:0:0:0:
64,192,316302,1,0,0:0:0:0:
448,192,316381,1,0,0:0:0:0:
320,192,316381,1,0,0:0:0:0:
64,192,316460,1,0,0:0:0:0:
448,192,316539,1,0,0:0:0:0:
320,192,316618,1,0,0:0:0:0:
192,192,316618,1,0,0:0:0:0:
64,192,316697,1,0,0:0:0:0:
320,192,316776,1,0,0:0:0:0:
448,192,316776,1,0,0:0:0:0:
192,192,316854,1,0,0:0:0:0:
64,192,316854,1,0,0:0:0:0:
320,192,316933,1,0,0:0:0:0:
448,192,316933,1,0,0:0:0:0:
64,192,317012,1,0,0:0:0:0:
320,192,317091,1,0,0:0:0:0:
192,192,317091,1,0,0:0:0:0:
448,192,317170,1,0,0:0:0:0:
320,192,317249,1,0,0:0:0:0:
192,192,317249,1,0,0:0:0:0:
64,192,317328,1,0,0:0:0:0:
192,192,317407,1,0,0:0:0:0:
448,192,317407,1,0,0:0:0:0:
320,192,317486,1,0,0:0:0:0:
64,192,317565,1,0,0:0:0:0:
192,192,317565,1,0,0:0:0:0:
320,192,317644,1,0,0:0:0:0:
64,192,317723,1,0,0:0:0:0:
448,192,317723,1,0,0:0:0:0:
192,192,317802,1,0,0:0:0:0:
320,192,317881,1,0,0:0:0:0:
448,192,317881,1,0,0:0:0:0:
64,192,317960,1,0,0:0:0:0:
192,192,318039,1,0,0:0:0:0:
448,192,318039,1,0,0:0:0:0:
320,192,318118,1,0,0:0:0:0:
64,192,318197,1,0,0:0:0:0:
448,192,318197,1,0,0:0:0:0:
192,192,318276,1,0,0:0:0:0:
320,192,318276,1,0,0:0:0:0:
64,192,318354,1,0,0:0:0:0:
448,192,318354,1,0,0:0:0:0:
192,192,318433,1,0,0:0:0:0:
64,192,318512,1,0,0:0:0:0:
320,192,318512,1,0,0:0:0:0:
448,192,318591,1,0,0:0:0:0:
64,192,318670,1,0,0:0:0:0:
192,192,318670,1,0,0:0:0:0:
320,192,318749,1,0,0:0:0:0:
448,192,318749,1,0,0:0:0:0:
64,192,318828,1,0,0:0:0:0:
192,192,318828,1,0,0:0:0:0:
320,192,318907,1,0,0:0:0:0:
448,192,318907,1,0,0:0:0:0:
64,192,318986,1,0,0:0:0:0:
448,192,319065,1,0,0:0:0:0:
192,192,319144,1,0,0:0:0:0:
320,192,319144,1,0,0:0:0:0:
64,192,319223,1,0,0:0:0:0:
192,192,319302,1,0,0:0:0:0:
448,192,319302,1,0,0:0:0:0:
64,192,319381,1,0,0:0:0:0:
320,192,319381,1,0,0:0:0:0:
448,192,319460,1,0,0:0:0:0:
192,192,319460,1,0,0:0:0:0:
320,192,319539,1,0,0:0:0:0:
64,192,319618,1,0,0:0:0:0:
448,192,319618,1,0,0:0:0:0:
192,192,319697,1,0,0:0:0:0:
64,192,319776,1,0,0:0:0:0:
448,192,319776,1,0,0:0:0:0:
320,192,319854,1,0,0:0:0:0:
64,192,319933,1,0,0:0:0:0:
192,192,319933,1,0,0:0:0:0:
448,192,320012,1,0,0:0:0:0:
64,192,320091,1,0,0:0:0:0:
192,192,320091,1,0,0:0:0:0:
320,192,320170,1,0,0:0:0:0:
448,192,320170,1,0,0:0:0:0:
64,192,320249,1,0,0:0:0:0:
192,192,320249,1,0,0:0:0:0:
448,192,320328,1,0,0:0:0:0:
320,192,320407,1,0,0:0:0:0:
192,192,320407,1,0,0:0:0:0:
64,192,320486,1,0,0:0:0:0:
320,192,320565,1,0,0:0:0:0:
448,192,320565,1,0,0:0:0:0:
64,192,320644,1,0,0:0:0:0:
192,192,320644,1,0,0:0:0:0:
320,192,320723,1,0,0:0:0:0:
448,192,320723,1,0,0:0:0:0:
64,192,320802,1,0,0:0:0:0:
192,192,320802,1,0,0:0:0:0:
320,192,320881,1,0,0:0:0:0:
192,192,320960,1,0,0:0:0:0:
64,192,321039,1,0,0:0:0:0:
448,192,321039,1,0,0:0:0:0:
320,192,321118,1,0,0:0:0:0:
192,192,321197,1,0,0:0:0:0:
448,192,321197,1,0,0:0:0:0:
320,192,321276,1,0,0:0:0:0:
64,192,321276,1,0,0:0:0:0:
192,192,321354,1,0,0:0:0:0:
448,192,321354,1,0,0:0:0:0:
64,192,321433,1,0,0:0:0:0:
320,192,321433,1,0,0:0:0:0:
192,192,321512,1,0,0:0:0:0:
320,192,321591,1,0,0:0:0:0:
448,192,321670,1,0,0:0:0:0:
64,192,321670,1,0,0:0:0:0:
192,192,321749,1,0,0:0:0:0:
320,192,321828,1,0,0:0:0:0:
448,192,321828,1,0,0:0:0:0:
64,192,321907,1,0,0:0:0:0:
192,192,321907,1,0,0:0:0:0:
448,192,321986,1,0,0:0:0:0:
320,192,321986,1,0,0:0:0:0:
192,192,322065,1,0,0:0:0:0:
448,192,322144,1,0,0:0:0:0:
64,192,322144,1,0,0:0:0:0:
320,192,322223,1,0,0:0:0:0:
448,192,322302,1,0,0:0:0:0:
64,192,322302,1,0,0:0:0:0:
192,192,322381,1,0,0:0:0:0:
448,192,322460,1,0,0:0:0:0:
320,192,322460,1,0,0:0:0:0:
192,192,322539,1,0,0:0:0:0:
64,192,322618,1,0,0:0:0:0:
448,192,322618,1,0,0:0:0:0:
192,192,322697,1,0,0:0:0:0:
64,192,322776,1,0,0:0:0:0:
320,192,322776,1,0,0:0:0:0:
192,192,322854,1,0,0:0:0:0:
320,192,322933,1,0,0:0:0:0:
448,192,322933,1,0,0:0:0:0:
64,192,323012,1,0,0:0:0:0:
192,192,323091,1,0,0:0:0:0:
448,192,323091,1,0,0:0:0:0:
320,192,323170,1,0,0:0:0:0:
64,192,323249,1,0,0:0:0:0:
448,192,323249,1,0,0:0:0:0:
192,192,323328,1,0,0:0:0:0:
320,192,323328,1,0,0:0:0:0:
64,192,323407,1,0,0:0:0:0:
448,192,323407,1,0,0:0:0:0:
192,192,323486,1,0,0:0:0:0:
64,192,323565,1,0,0:0:0:0:
320,192,323565,1,0,0:0:0:0:
448,192,323644,1,0,0:0:0:0:
64,192,323723,1,0,0:0:0:0:
192,192,323723,1,0,0:0:0:0:
320,192,323802,1,0,0:0:0:0:
448,192,323802,1,0,0:0:0:0:
64,192,323881,1,0,0:0:0:0:
192,192,323881,1,0,0:0:0:0:
320,192,323960,1,0,0:0:0:0:
448,192,323960,1,0,0:0:0:0:
64,192,324039,1,0,0:0:0:0:
448,192,324118,1,0,0:0:0:0:
192,192,324197,1,0,0:0:0:0:
320,192,324197,1,0,0:0:0:0:
64,192,324276,1,0,0:0:0:0:
192,192,324354,1,0,0:0:0:0:
448,192,324354,1,0,0:0:0:0:
64,192,324433,1,0,0:0:0:0:
320,192,324433,1,0,0:0:0:0:
448,192,324512,1,0,0:0:0:0:
192,192,324512,1,0,0:0:0:0:
320,192,324591,1,0,0:0:0:0:
64,192,324670,1,0,0:0:0:0:
448,192,324670,1,0,0:0:0:0:
192,192,324749,1,0,0:0:0:0:
64,192,324828,1,0,0:0:0:0:
448,192,324828,1,0,0:0:0:0:
320,192,324907,1,0,0:0:0:0:
64,192,324986,1,0,0:0:0:0:
192,192,324986,1,0,0:0:0:0:
448,192,325065,1,0,0:0:0:0:
192,192,325144,1,0,0:0:0:0:
320,192,325144,1,0,0:0:0:0:
64,192,325223,1,0,0:0:0:0:
192,192,325302,1,0,0:0:0:0:
448,192,325302,1,0,0:0:0:0:
320,192,325381,1,0,0:0:0:0:
64,192,325460,1,0,0:0:0:0:
448,192,325460,1,0,0:0:0:0:
320,192,325539,1,0,0:0:0:0:
64,192,325618,1,0,0:0:0:0:
192,192,325618,1,0,0:0:0:0:
448,192,325697,1,0,0:0:0:0:
192,192,325776,1,0,0:0:0:0:
320,192,325776,1,0,0:0:0:0:
64,192,325854,1,0,0:0:0:0:
448,192,325854,1,0,0:0:0:0:
192,192,325933,1,0,0:0:0:0:
320,192,325933,1,0,0:0:0:0:
64,192,326012,1,0,0:0:0:0:
320,192,326091,1,0,0:0:0:0:
448,192,326091,1,0,0:0:0:0:
192,192,326170,1,0,0:0:0:0:
64,192,326249,1,0,0:0:0:0:
448,192,326249,1,0,0:0:0:0:
192,192,326328,1,0,0:0:0:0:
320,192,326328,1,0,0:0:0:0:
64,192,326407,1,0,0:0:0:0:
448,192,326407,1,0,0:0:0:0:
192,192,326486,1,0,0:0:0:0:
320,192,326486,1,0,0:0:0:0:
448,192,326565,1,0,0:0:0:0:
192,192,326644,1,0,0:0:0:0:
64,192,326723,1,0,0:0:0:0:
448,192,326723,1,0,0:0:0:0:
320,192,326802,1,0,0:0:0:0:
192,192,326881,1,0,0:0:0:0:
64,192,326881,1,0,0:0:0:0:
320,192,326960,1,0,0:0:0:0:
448,192,326960,1,0,0:0:0:0:
192,192,327039,1,0,0:0:0:0:
64,192,327039,1,0,0:0:0:0:
320,192,327118,1,0,0:0:0:0:
64,192,327197,1,0,0:0:0:0:
448,192,327197,1,0,0:0:0:0:
192,192,327276,1,0,0:0:0:0:
64,192,327354,1,0,0:0:0:0:
448,192,327354,1,0,0:0:0:0:
320,192,327433,1,0,0:0:0:0:
448,192,327512,1,0,0:0:0:0:
192,192,327512,1,0,0:0:0:0:
320,192,327591,1,0,0:0:0:0:
64,192,327670,1,0,0:0:0:0:
448,192,327670,1,0,0:0:0:0:
192,192,327749,1,0,0:0:0:0:
64,192,327828,1,0,0:0:0:0:
320,192,327828,1,0,0:0:0:0:
448,192,327907,1,0,0:0:0:0:
320,192,327986,1,0,0:0:0:0:
64,192,328065,1,0,0:0:0:0:
192,192,328144,1,0,0:0:0:0:
448,192,328144,1,0,0:0:0:0:
320,192,328223,1,0,0:0:0:0:
448,192,328302,1,0,0:0:0:0:
64,192,328381,1,0,0:0:0:0:
192,192,328381,1,0,0:0:0:0:
448,192,328460,1,0,0:0:0:0:
320,192,328539,1,0,0:0:0:0:
64,192,328618,1,0,0:0:0:0:
192,192,328618,1,0,0:0:0:0:
448,192,328697,1,0,0:0:0:0:
320,192,328776,1,0,0:0:0:0:
64,192,328854,1,0,0:0:0:0:
448,192,328854,1,0,0:0:0:0:
192,192,328933,1,0,0:0:0:0:
320,192,329012,1,0,0:0:0:0:
448,192,329012,1,0,0:0:0:0:
64,192,329091,1,0,0:0:0:0:
448,192,329170,1,0,0:0:0:0:
192,192,329249,1,0,0:0:0:0:
320,192,329249,1,0,0:0:0:0:
448,192,329328,1,0,0:0:0:0:
64,192,329407,1,0,0:0:0:0:
192,192,329486,1,0,0:0:0:0:
320,192,329486,1,0,0:0:0:0:
64,192,329565,1,0,0:0:0:0:
448,192,329644,1,0,0:0:0:0:
64,192,329723,1,0,0:0:0:0:
192,192,329723,1,0,0:0:0:0:
320,192,329802,1,0,0:0:0:0:
64,192,329881,1,0,0:0:0:0:
448,192,329960,1,0,0:0:0:0:
64,192,330039,1,0,0:0:0:0:
320,192,330039,1,0,0:0:0:0:
192,192,330118,1,0,0:0:0:0:
448,192,330197,1,0,0:0:0:0:
320,192,330197,1,0,0:0:0:0:
192,192,330276,1,0,0:0:0:0:
64,192,330276,1,0,0:0:0:0:
448,192,330354,1,0,0:0:0:0:
192,192,330433,1,0,0:0:0:0:
320,192,330433,1,0,0:0:0:0:
64,192,330512,1,0,0:0:0:0:
448,192,330512,1,0,0:0:0:0:
320,192,330591,1,0,0:0:0:0:
64,192,330670,1,0,0:0:0:0:
192,192,330670,1,0,0:0:0:0:
320,192,330749,1,0,0:0:0:0:
448,192,330749,1,0,0:0:0:0:
192,192,330828,1,0,0:0:0:0:
64,192,330907,1,0,0:0:0:0:
448,192,330907,1,0,0:0:0:0:
320,192,330986,1,0,0:0:0:0:
192,192,331065,1,0,0:0:0:0:
448,192,331144,1,0,0:0:0:0:
320,192,331144,1,0,0:0:0:0:
192,192,331223,1,0,0:0:0:0:
64,192,331302,1,0,0:0:0:0:
320,192,331381,1,0,0:0:0:0:
448,192,331381,1,0,0:0:0:0:
64,192,331460,1,0,0:0:0:0:
192,192,331460,1,0,0:0:0:0:
320,192,331539,1,0,0:0:0:0:
448,192,331539,1,0,0:0:0:0:
64,192,331618,1,0,0:0:0:0:
192,192,331618,1,0,0:0:0:0:
320,192,331697,1,0,0:0:0:0:
448,192,331697,1,0,0:0:0:0:
64,192,331776,1,0,0:0:0:0:
192,192,331776,1,0,0:0:0:0:
320,192,331854,1,0,0:0:0:0:
448,192,331854,1,0,0:0:0:0:
64,192,331933,1,0,0:0:0:0:
192,192,331933,1,0,0:0:0:0:
320,192,332012,1,0,0:0:0:0:
448,192,332012,1,0,0:0:0:0:
64,192,332091,1,0,0:0:0:0:
192,192,332091,1,0,0:0:0:0:
320,192,332170,1,0,0:0:0:0:
448,192,332170,1,0,0:0:0:0:
64,192,332249,1,0,0:0:0:0:
192,192,332249,1,0,0:0:0:0:
320,192,332328,1,0,0:0:0:0:
448,192,332328,1,0,0:0:0:0:
64,192,332407,1,0,0:0:0:0:
192,192,332407,1,0,0:0:0:0:
320,192,332486,1,0,0:0:0:0:
448,192,332486,1,0,0:0:0:0:
64,192,332565,1,0,0:0:0:0:
192,192,332565,1,0,0:0:0:0:
320,192,332644,1,0,0:0:0:0:
448,192,332644,1,0,0:0:0:0:
64,192,332723,1,0,0:0:0:0:
192,192,332723,1,0,0:0:0:0:
320,192,332802,1,0,0:0:0:0:
448,192,332881,1,0,0:0:0:0:
320,192,332960,1,0,0:0:0:0:
192,192,333039,1,0,0:0:0:0:
448,192,333039,1,0,0:0:0:0:
64,192,333118,1,0,0:0:0:0:
320,192,333197,1,0,0:0:0:0:
448,192,333276,1,0,0:0:0:0:
192,192,333354,1,0,0:0:0:0:
320,192,333354,1,0,0:0:0:0:
64,192,333433,1,0,0:0:0:0:
448,192,333512,1,0,0:0:0:0:
192,192,333591,1,0,0:0:0:0:
64,192,333670,1,0,0:0:0:0:
320,192,333670,1,0,0:0:0:0:
448,192,333749,1,0,0:0:0:0:
320,192,333828,1,0,0:0:0:0:
448,192,333907,1,0,0:0:0:0:
192,192,333986,1,0,0:0:0:0:
320,192,333986,1,0,0:0:0:0:
64,192,334065,1,0,0:0:0:0:
448,192,334144,1,0,0:0:0:0:
192,192,334223,1,0,0:0:0:0:
320,192,334302,1,0,0:0:0:0:
448,192,334302,1,0,0:0:0:0:
64,192,334381,1,0,0:0:0:0:
192,192,334460,1,0,0:0:0:0:
448,192,334539,1,0,0:0:0:0:
64,192,334618,1,0,0:0:0:0:
320,192,334618,1,0,0:0:0:0:
192,192,334697,1,0,0:0:0:0:
64,192,334776,1,0,0:0:0:0:
448,192,334854,1,0,0:0:0:0:
192,192,334933,1,0,0:0:0:0:
320,192,334933,1,0,0:0:0:0:
64,192,335012,1,0,0:0:0:0:
448,192,335091,1,0,0:0:0:0:
192,192,335170,1,0,0:0:0:0:
64,192,335249,1,0,0:0:0:0:
320,192,335249,1,0,0:0:0:0:
448,192,335328,1,0,0:0:0:0:
320,192,335407,1,0,0:0:0:0:
192,192,335486,1,0,0:0:0:0:
64,192,335565,1,0,0:0:0:0:
448,192,335565,1,0,0:0:0:0:
320,192,335644,1,0,0:0:0:0:
192,192,335723,1,0,0:0:0:0:
448,192,335802,1,0,0:0:0:0:
64,192,335881,1,0,0:0:0:0:
192,192,335881,1,0,0:0:0:0:
448,192,335960,1,0,0:0:0:0:
192,192,336039,1,0,0:0:0:0:
448,192,336118,1,0,0:0:0:0:
64,192,336197,1,0,0:0:0:0:
320,192,336197,1,0,0:0:0:0:
448,192,336276,1,0,0:0:0:0:
192,192,336354,1,0,0:0:0:0:
448,192,336433,1,0,0:0:0:0:
64,192,336512,1,0,0:0:0:0:
192,192,336512,1,0,0:0:0:0:
448,192,336591,1,0,0:0:0:0:
192,192,336670,1,0,0:0:0:0:
64,192,336749,1,0,0:0:0:0:
320,192,336828,1,0,0:0:0:0:
448,192,336828,1,0,0:0:0:0:
192,192,336907,1,0,0:0:0:0:
64,192,336986,1,0,0:0:0:0:
448,192,337065,1,0,0:0:0:0:
320,192,337104,1,0,0:0:0:0:
64,192,337144,1,0,0:0:0:0:
192,192,337144,1,0,0:0:0:0:
448,192,337183,1,0,0:0:0:0:
320,192,337223,1,0,0:0:0:0:
192,192,337262,1,0,0:0:0:0:
64,192,337302,1,0,0:0:0:0:
448,192,337381,1,0,0:0:0:0:
192,192,337460,1,0,0:0:0:0:
320,192,337460,1,0,0:0:0:0:
448,192,337539,1,0,0:0:0:0:
64,192,337618,1,0,0:0:0:0:
192,192,337697,1,0,0:0:0:0:
64,192,337776,1,0,0:0:0:0:
320,192,337776,1,0,0:0:0:0:
448,192,337854,1,0,0:0:0:0:
320,192,337933,1,0,0:0:0:0:
448,192,338012,1,0,0:0:0:0:
64,192,338091,1,0,0:0:0:0:
192,192,338091,1,0,0:0:0:0:
448,192,338170,1,0,0:0:0:0:
320,192,338249,1,0,0:0:0:0:
64,192,338328,1,0,0:0:0:0:
192,192,338407,1,0,0:0:0:0:
320,192,338407,1,0,0:0:0:0:
448,192,338486,1,0,0:0:0:0:
64,192,338565,1,0,0:0:0:0:
192,192,338644,1,0,0:0:0:0:
64,192,338723,1,0,0:0:0:0:
448,192,338723,1,0,0:0:0:0:
320,192,338802,1,0,0:0:0:0:
192,192,338881,1,0,0:0:0:0:
448,192,338960,1,0,0:0:0:0:
192,192,339039,1,0,0:0:0:0:
320,192,339039,1,0,0:0:0:0:
64,192,339118,1,0,0:0:0:0:
448,192,339197,1,0,0:0:0:0:
320,192,339276,1,0,0:0:0:0:
192,192,339354,1,0,0:0:0:0:
448,192,339354,1,0,0:0:0:0:
320,192,339433,1,0,0:0:0:0:
448,192,339512,1,0,0:0:0:0:
192,192,339591,1,0,0:0:0:0:
64,192,339670,1,0,0:0:0:0:
448,192,339670,1,0,0:0:0:0:
320,192,339710,1,0,0:0:0:0:
192,192,339749,1,0,0:0:0:0:
448,192,339789,1,0,0:0:0:0:
64,192,339828,1,0,0:0:0:0:
192,192,339907,1,0,0:0:0:0:
320,192,339947,1,0,0:0:0:0:
64,192,339986,1,0,0:0:0:0:
448,192,339986,1,0,0:0:0:0:
192,192,340065,1,0,0:0:0:0:
320,192,340144,1,0,0:0:0:0:
448,192,340223,1,0,0:0:0:0:
64,192,340302,1,0,0:0:0:0:
192,192,340302,1,0,0:0:0:0:
448,192,340381,1,0,0:0:0:0:
64,192,340460,1,0,0:0:0:0:
192,192,340539,1,0,0:0:0:0:
320,192,340618,1,0,0:0:0:0:
448,192,340618,1,0,0:0:0:0:
64,192,340697,1,0,0:0:0:0:
320,192,340776,1,0,0:0:0:0:
192,192,340854,1,0,0:0:0:0:
64,192,340933,1,0,0:0:0:0:
320,192,340933,1,0,0:0:0:0:
448,192,341012,1,0,0:0:0:0:
192,192,341091,1,0,0:0:0:0:
448,192,341170,1,0,0:0:0:0:
192,192,341249,1,0,0:0:0:0:
320,192,341249,1,0,0:0:0:0:
64,192,341328,1,0,0:0:0:0:
448,192,341407,1,0,0:0:0:0:
192,192,341486,1,0,0:0:0:0:
64,192,341565,1,0,0:0:0:0:
320,192,341565,1,0,0:0:0:0:
192,192,341644,1,0,0:0:0:0:
448,192,341723,1,0,0:0:0:0:
320,192,341802,1,0,0:0:0:0:
64,192,341881,1,0,0:0:0:0:
448,192,341881,1,0,0:0:0:0:
192,192,341960,1,0,0:0:0:0:
320,192,342039,1,0,0:0:0:0:
64,192,342118,1,0,0:0:0:0:
192,192,342157,1,0,0:0:0:0:
320,192,342197,1,0,0:0:0:0:
448,192,342197,1,0,0:0:0:0:
64,192,342236,1,0,0:0:0:0:
192,192,342276,1,0,0:0:0:0:
320,192,342315,1,0,0:0:0:0:
448,192,342354,1,0,0:0:0:0:
64,192,342433,1,0,0:0:0:0:
192,192,342512,1,0,0:0:0:0:
448,192,342512,1,0,0:0:0:0:
320,192,342591,1,0,0:0:0:0:
64,192,342670,1,0,0:0:0:0:
320,192,342749,1,0,0:0:0:0:
64,192,342828,1,0,0:0:0:0:
192,192,342828,1,0,0:0:0:0:
320,192,342907,1,0,0:0:0:0:
448,192,342986,1,0,0:0:0:0:
64,192,343065,1,0,0:0:0:0:
192,192,343144,1,0,0:0:0:0:
320,192,343144,1,0,0:0:0:0:
64,192,343223,1,0,0:0:0:0:
448,192,343302,1,0,0:0:0:0:
320,192,343381,1,0,0:0:0:0:
64,192,343460,1,0,0:0:0:0:
448,192,343460,1,0,0:0:0:0:
192,192,343539,1,0,0:0:0:0:
320,192,343618,1,0,0:0:0:0:
64,192,343697,1,0,0:0:0:0:
192,192,343776,1,0,0:0:0:0:
448,192,343776,1,0,0:0:0:0:
320,192,343854,1,0,0:0:0:0:
448,192,343933,1,0,0:0:0:0:
320,192,344012,1,0,0:0:0:0:
64,192,344091,1,0,0:0:0:0:
448,192,344091,1,0,0:0:0:0:
192,192,344170,1,0,0:0:0:0:
320,192,344249,1,0,0:0:0:0:
64,192,344328,1,0,0:0:0:0:
320,192,344407,1,0,0:0:0:0:
448,192,344407,1,0,0:0:0:0:
192,192,344486,1,0,0:0:0:0:
64,192,344565,1,0,0:0:0:0:
448,192,344644,1,0,0:0:0:0:
192,192,344723,1,0,0:0:0:0:
320,192,344723,1,0,0:0:0:0:
64,192,344802,1,0,0:0:0:0:
192,192,344881,1,0,0:0:0:0:
448,192,344960,1,0,0:0:0:0:
64,192,345039,1,0,0:0:0:0:
320,192,345039,1,0,0:0:0:0:
192,192,345118,1,0,0:0:0:0:
448,192,345197,1,0,0:0:0:0:
192,192,345276,1,0,0:0:0:0:
64,192,345354,1,0,0:0:0:0:
320,192,345354,1,0,0:0:0:0:
448,192,345433,1,0,0:0:0:0:
320,192,345512,1,0,0:0:0:0:
192,192,345591,1,0,0:0:0:0:
64,192,345670,1,0,0:0:0:0:
448,192,345670,1,0,0:0:0:0:
320,192,345749,1,0,0:0:0:0:
192,192,345828,1,0,0:0:0:0:
448,192,345907,1,0,0:0:0:0:
64,192,345986,1,0,0:0:0:0:
192,192,345986,1,0,0:0:0:0:
448,192,346065,1,0,0:0:0:0:
192,192,346144,1,0,0:0:0:0:
448,192,346223,1,0,0:0:0:0:
64,192,346302,1,0,0:0:0:0:
320,192,346302,1,0,0:0:0:0:
448,192,346381,1,0,0:0:0:0:
192,192,346460,1,0,0:0:0:0:
448,192,346539,1,0,0:0:0:0:
64,192,346618,1,0,0:0:0:0:
192,192,346618,1,0,0:0:0:0:
448,192,346697,1,0,0:0:0:0:
192,192,346776,1,0,0:0:0:0:
64,192,346854,1,0,0:0:0:0:
320,192,346933,1,0,0:0:0:0:
448,192,346933,1,0,0:0:0:0:
192,192,347012,1,0,0:0:0:0:
64,192,347091,1,0,0:0:0:0:
448,192,347170,1,0,0:0:0:0:
320,192,347210,1,0,0:0:0:0:
64,192,347249,1,0,0:0:0:0:
192,192,347249,1,0,0:0:0:0:
448,192,347289,1,0,0:0:0:0:
320,192,347328,1,0,0:0:0:0:
192,192,347368,1,0,0:0:0:0:
64,192,347407,1,0,0:0:0:0:
320,192,347486,1,0,0:0:0:0:
64,192,347565,1,0,0:0:0:0:
448,192,347565,1,0,0:0:0:0:
192,192,347644,1,0,0:0:0:0:
448,192,347723,1,0,0:0:0:0:
320,192,347802,1,0,0:0:0:0:
64,192,347881,1,0,0:0:0:0:
192,192,347881,1,0,0:0:0:0:
448,192,347960,1,0,0:0:0:0:
320,192,348039,1,0,0:0:0:0:
448,192,348118,1,0,0:0:0:0:
192,192,348197,1,0,0:0:0:0:
448,192,348276,1,0,0:0:0:0:
320,192,348354,1,0,0:0:0:0:
64,192,348433,1,0,0:0:0:0:
192,192,348512,1,0,0:0:0:0:
64,192,348591,1,0,0:0:0:0:
320,192,348670,1,0,0:0:0:0:
192,192,348749,1,0,0:0:0:0:
448,192,348828,1,0,0:0:0:0:
64,192,348907,1,0,0:0:0:0:
192,192,348986,1,0,0:0:0:0:
448,192,349065,1,0,0:0:0:0:
64,192,349144,1,0,0:0:0:0:
192,192,349223,1,0,0:0:0:0:
448,192,349302,1,0,0:0:0:0:
64,192,349381,1,0,0:0:0:0:
448,192,349460,1,0,0:0:0:0:
192,192,349539,1,0,0:0:0:0:
448,192,349618,1,0,0:0:0:0:
64,192,349697,1,0,0:0:0:0:
448,192,349776,1,0,0:0:0:0:
320,192,349815,1,0,0:0:0:0:
192,192,349854,1,0,0:0:0:0:
64,192,349894,1,0,0:0:0:0:
448,192,349933,1,0,0:0:0:0:
192,192,350012,1,0,0:0:0:0:
320,192,350052,1,0,0:0:0:0:
448,192,350091,1,0,0:0:0:0:
64,192,350170,1,0,0:0:0:0:
192,192,350249,1,0,0:0:0:0:
448,192,350328,1,0,0:0:0:0:
192,192,350407,1,0,0:0:0:0:
64,192,350407,1,0,0:0:0:0:
320,192,350486,1,0,0:0:0:0:
64,192,350565,1,0,0:0:0:0:
320,192,350644,1,0,0:0:0:0:
192,192,350644,1,0,0:0:0:0:
448,192,350723,1,0,0:0:0:0:
192,192,350802,1,0,0:0:0:0:
64,192,350881,1,0,0:0:0:0:
448,192,350881,1,0,0:0:0:0:
320,192,350960,1,0,0:0:0:0:
64,192,351039,1,0,0:0:0:0:
320,192,351118,1,0,0:0:0:0:
448,192,351118,1,0,0:0:0:0:
192,192,351197,1,0,0:0:0:0:
448,192,351276,1,0,0:0:0:0:
320,192,351354,1,0,0:0:0:0:
192,192,351354,1,0,0:0:0:0:
64,192,351433,1,0,0:0:0:0:
320,192,351512,1,0,0:0:0:0:
64,192,351591,1,0,0:0:0:0:
192,192,351591,1,0,0:0:0:0:
320,192,351670,128,0,351749:0:0:0:0:
448,192,351670,128,0,351749:0:0:0:0:
64,192,351749,1,0,0:0:0:0:
192,192,351749,1,0,0:0:0:0:
320,192,351828,1,0,0:0:0:0:
448,192,351828,1,0,0:0:0:0:
64,192,351907,1,0,0:0:0:0:
192,192,351907,1,0,0:0:0:0:
320,192,351986,1,0,0:0:0:0:
448,192,351986,1,0,0:0:0:0:
64,192,352065,1,0,0:0:0:0:
192,192,352065,1,0,0:0:0:0:
320,192,352144,1,0,0:0:0:0:
448,192,352144,1,0,0:0:0:0:
64,192,352223,1,0,0:0:0:0:
192,192,352262,1,0,0:0:0:0:
320,192,352302,1,0,0:0:0:0:
448,192,352302,1,0,0:0:0:0:
64,192,352341,1,0,0:0:0:0:
192,192,352381,1,0,0:0:0:0:
320,192,352420,1,0,0:0:0:0:
448,192,352460,1,0,0:0:0:0:
64,192,352539,1,0,0:0:0:0:
192,192,352539,1,0,0:0:0:0:
320,192,352618,1,0,0:0:0:0:
448,192,352618,1,0,0:0:0:0:
64,192,352697,1,0,0:0:0:0:
192,192,352697,1,0,0:0:0:0:
320,192,352776,1,0,0:0:0:0:
448,192,352776,1,0,0:0:0:0:
192,192,352854,1,0,0:0:0:0:
64,192,352854,1,0,0:0:0:0:
320,192,352933,1,0,0:0:0:0:
448,192,352933,1,0,0:0:0:0:
192,192,353012,1,0,0:0:0:0:
64,192,353091,1,0,0:0:0:0:
320,192,353170,1,0,0:0:0:0:
64,192,353249,1,0,0:0:0:0:
448,192,353249,1,0,0:0:0:0:
192,192,353328,1,0,0:0:0:0:
320,192,353407,1,0,0:0:0:0:
192,192,353486,1,0,0:0:0:0:
320,192,353565,1,0,0:0:0:0:
448,192,353644,1,0,0:0:0:0:
64,192,353723,1,0,0:0:0:0:
192,192,353723,1,0,0:0:0:0:
320,192,353802,1,0,0:0:0:0:
64,192,353881,1,0,0:0:0:0:
448,192,353881,1,0,0:0:0:0:
192,192,353960,1,0,0:0:0:0:
320,192,354039,1,0,0:0:0:0:
192,192,354118,1,0,0:0:0:0:
320,192,354197,1,0,0:0:0:0:
448,192,354197,1,0,0:0:0:0:
192,192,354276,1,0,0:0:0:0:
64,192,354354,1,0,0:0:0:0:
320,192,354433,1,0,0:0:0:0:
64,192,354512,1,0,0:0:0:0:
448,192,354512,1,0,0:0:0:0:
192,192,354591,1,0,0:0:0:0:
448,192,354670,1,0,0:0:0:0:
192,192,354749,1,0,0:0:0:0:
320,192,354828,1,0,0:0:0:0:
448,192,354907,1,0,0:0:0:0:
64,192,354986,1,0,0:0:0:0:
192,192,354986,1,0,0:0:0:0:
320,192,355065,1,0,0:0:0:0:
64,192,355144,1,0,0:0:0:0:
448,192,355144,1,0,0:0:0:0:
192,192,355223,1,0,0:0:0:0:
448,192,355302,1,0,0:0:0:0:
320,192,355381,1,0,0:0:0:0:
64,192,355460,1,0,0:0:0:0:
192,192,355460,1,0,0:0:0:0:
320,192,355539,1,0,0:0:0:0:
192,192,355618,1,0,0:0:0:0:
320,192,355697,1,0,0:0:0:0:
64,192,355776,1,0,0:0:0:0:
448,192,355776,1,0,0:0:0:0:
192,192,355854,1,0,0:0:0:0:
64,192,355933,1,0,0:0:0:0:
192,192,356012,1,0,0:0:0:0:
320,192,356091,1,0,0:0:0:0:
64,192,356170,1,0,0:0:0:0:
320,192,356249,1,0,0:0:0:0:
448,192,356249,1,0,0:0:0:0:
192,192,356328,1,0,0:0:0:0:
64,192,356407,1,0,0:0:0:0:
448,192,356407,1,0,0:0:0:0:
320,192,356486,1,0,0:0:0:0:
448,192,356565,1,0,0:0:0:0:
320,192,356644,1,0,0:0:0:0:
64,192,356723,1,0,0:0:0:0:
192,192,356723,1,0,0:0:0:0:
320,192,356802,1,0,0:0:0:0:
64,192,356881,1,0,0:0:0:0:
192,192,356881,1,0,0:0:0:0:
320,192,356960,1,0,0:0:0:0:
64,192,357039,1,0,0:0:0:0:
448,192,357039,1,0,0:0:0:0:
192,192,357118,1,0,0:0:0:0:
64,192,357197,1,0,0:0:0:0:
192,192,357276,1,0,0:0:0:0:
448,192,357354,1,0,0:0:0:0:
64,192,357433,1,0,0:0:0:0:
320,192,357512,1,0,0:0:0:0:
448,192,357512,1,0,0:0:0:0:
192,192,357591,1,0,0:0:0:0:
64,192,357670,1,0,0:0:0:0:
448,192,357670,1,0,0:0:0:0:
320,192,357749,1,0,0:0:0:0:
64,192,357828,1,0,0:0:0:0:
192,192,357907,1,0,0:0:0:0:
320,192,357986,1,0,0:0:0:0:
448,192,357986,1,0,0:0:0:0:
192,192,358065,1,0,0:0:0:0:
320,192,358144,1,0,0:0:0:0:
192,192,358223,1,0,0:0:0:0:
64,192,358302,1,0,0:0:0:0:
448,192,358302,1,0,0:0:0:0:
320,192,358381,1,0,0:0:0:0:
448,192,358460,1,0,0:0:0:0:
320,192,358539,1,0,0:0:0:0:
64,192,358618,1,0,0:0:0:0:
448,192,358697,1,0,0:0:0:0:
64,192,358776,1,0,0:0:0:0:
192,192,358776,1,0,0:0:0:0:
320,192,358854,1,0,0:0:0:0:
64,192,358933,1,0,0:0:0:0:
448,192,358933,1,0,0:0:0:0:
192,192,359012,1,0,0:0:0:0:
320,192,359091,1,0,0:0:0:0:
64,192,359170,1,0,0:0:0:0:
320,192,359249,1,0,0:0:0:0:
448,192,359249,1,0,0:0:0:0:
64,192,359328,1,0,0:0:0:0:
320,192,359407,1,0,0:0:0:0:
192,192,359486,1,0,0:0:0:0:
64,192,359565,1,0,0:0:0:0:
448,192,359565,1,0,0:0:0:0:
320,192,359644,1,0,0:0:0:0:
64,192,359723,1,0,0:0:0:0:
320,192,359802,1,0,0:0:0:0:
192,192,359881,1,0,0:0:0:0:
448,192,359960,1,0,0:0:0:0:
64,192,360039,1,0,0:0:0:0:
192,192,360039,1,0,0:0:0:0:
320,192,360118,1,0,0:0:0:0:
64,192,360197,1,0,0:0:0:0:
448,192,360197,1,0,0:0:0:0:
320,192,360276,1,0,0:0:0:0:
192,192,360354,1,0,0:0:0:0:
448,192,360433,1,0,0:0:0:0:
64,192,360512,1,0,0:0:0:0:
192,192,360512,1,0,0:0:0:0:
448,192,360591,1,0,0:0:0:0:
192,192,360670,1,0,0:0:0:0:
320,192,360749,1,0,0:0:0:0:
64,192,360828,1,0,0:0:0:0:
448,192,360828,1,0,0:0:0:0:
192,192,360907,1,0,0:0:0:0:
448,192,360986,1,0,0:0:0:0:
192,192,361065,1,0,0:0:0:0:
320,192,361144,1,0,0:0:0:0:
64,192,361223,1,0,0:0:0:0:
320,192,361302,1,0,0:0:0:0:
448,192,361302,1,0,0:0:0:0:
192,192,361381,1,0,0:0:0:0:
64,192,361460,1,0,0:0:0:0:
448,192,361460,1,0,0:0:0:0:
320,192,361539,1,0,0:0:0:0:
192,192,361618,1,0,0:0:0:0:
448,192,361697,1,0,0:0:0:0:
64,192,361776,1,0,0:0:0:0:
192,192,361776,1,0,0:0:0:0:
448,192,361854,1,0,0:0:0:0:
64,192,361933,1,0,0:0:0:0:
192,192,361933,1,0,0:0:0:0:
320,192,362012,1,0,0:0:0:0:
64,192,362091,1,0,0:0:0:0:
448,192,362091,1,0,0:0:0:0:
192,192,362170,1,0,0:0:0:0:
64,192,362249,1,0,0:0:0:0:
192,192,362328,1,0,0:0:0:0:
320,192,362407,1,0,0:0:0:0:
64,192,362486,1,0,0:0:0:0:
320,192,362565,1,0,0:0:0:0:
448,192,362565,1,0,0:0:0:0:
192,192,362644,1,0,0:0:0:0:
64,192,362723,1,0,0:0:0:0:
448,192,362723,1,0,0:0:0:0:
192,192,362802,1,0,0:0:0:0:
64,192,362960,1,0,0:0:0:0:
192,192,362960,1,0,0:0:0:0:
320,192,363039,1,0,0:0:0:0:
448,192,363039,1,0,0:0:0:0:
192,192,363118,1,0,0:0:0:0:
64,192,363197,1,0,0:0:0:0:
320,192,363276,1,0,0:0:0:0:
64,192,363354,1,0,0:0:0:0:
448,192,363354,1,0,0:0:0:0:
192,192,363433,1,0,0:0:0:0:
448,192,363512,1,0,0:0:0:0:
192,192,363591,1,0,0:0:0:0:
64,192,363670,1,0,0:0:0:0:
448,192,363749,1,0,0:0:0:0:
64,192,363828,1,0,0:0:0:0:
192,192,363828,1,0,0:0:0:0:
320,192,363907,1,0,0:0:0:0:
64,192,363986,1,0,0:0:0:0:
448,192,363986,1,0,0:0:0:0:
320,192,364065,1,0,0:0:0:0:
448,192,364144,1,0,0:0:0:0:
192,192,364223,1,0,0:0:0:0:
320,192,364302,1,0,0:0:0:0:
448,192,364302,1,0,0:0:0:0:
192,192,364381,1,0,0:0:0:0:
64,192,364460,1,0,0:0:0:0:
320,192,364539,1,0,0:0:0:0:
64,192,364618,1,0,0:0:0:0:
448,192,364618,1,0,0:0:0:0:
192,192,364697,1,0,0:0:0:0:
448,192,364776,1,0,0:0:0:0:
192,192,364854,1,0,0:0:0:0:
64,192,364933,1,0,0:0:0:0:
448,192,365012,1,0,0:0:0:0:
64,192,365091,1,0,0:0:0:0:
192,192,365091,1,0,0:0:0:0:
320,192,365170,1,0,0:0:0:0:
64,192,365249,1,0,0:0:0:0:
448,192,365249,1,0,0:0:0:0:
192,192,365328,1,0,0:0:0:0:
448,192,365407,1,0,0:0:0:0:
320,192,365486,1,0,0:0:0:0:
64,192,365565,1,0,0:0:0:0:
192,192,365565,1,0,0:0:0:0:
320,192,365644,1,0,0:0:0:0:
64,192,365723,1,0,0:0:0:0:
192,192,365802,1,0,0:0:0:0:
64,192,365881,1,0,0:0:0:0:
448,192,365881,1,0,0:0:0:0:
320,192,365960,1,0,0:0:0:0:
448,192,366039,1,0,0:0:0:0:
320,192,366118,1,0,0:0:0:0:
192,192,366197,1,0,0:0:0:0:
64,192,366276,1,0,0:0:0:0:
320,192,366354,1,0,0:0:0:0:
448,192,366354,1,0,0:0:0:0:
192,192,366433,1,0,0:0:0:0:
64,192,366512,1,0,0:0:0:0:
448,192,366512,1,0,0:0:0:0:
192,192,366591,1,0,0:0:0:0:
448,192,366670,1,0,0:0:0:0:
320,192,366749,1,0,0:0:0:0:
64,192,366828,1,0,0:0:0:0:
192,192,366828,1,0,0:0:0:0:
320,192,366907,1,0,0:0:0:0:
64,192,366986,1,0,0:0:0:0:
192,192,366986,1,0,0:0:0:0:
320,192,367065,1,0,0:0:0:0:
64,192,367144,1,0,0:0:0:0:
448,192,367144,1,0,0:0:0:0:
192,192,367223,1,0,0:0:0:0:
448,192,367302,1,0,0:0:0:0:
192,192,367381,1,0,0:0:0:0:
320,192,367460,1,0,0:0:0:0:
64,192,367539,1,0,0:0:0:0:
320,192,367618,1,0,0:0:0:0:
448,192,367618,1,0,0:0:0:0:
192,192,367697,1,0,0:0:0:0:
64,192,367776,1,0,0:0:0:0:
448,192,367776,1,0,0:0:0:0:
320,192,367854,1,0,0:0:0:0:
64,192,367933,1,0,0:0:0:0:
192,192,368012,1,0,0:0:0:0:
320,192,368091,1,0,0:0:0:0:
448,192,368091,1,0,0:0:0:0:
192,192,368170,1,0,0:0:0:0:
448,192,368249,1,0,0:0:0:0:
320,192,368328,1,0,0:0:0:0:
64,192,368407,1,0,0:0:0:0:
448,192,368407,1,0,0:0:0:0:
320,192,368486,1,0,0:0:0:0:
192,192,368565,1,0,0:0:0:0:
448,192,368644,1,0,0:0:0:0:
320,192,368723,1,0,0:0:0:0:
64,192,368802,1,0,0:0:0:0:
320,192,368881,1,0,0:0:0:0:
448,192,368881,1,0,0:0:0:0:
192,192,368960,1,0,0:0:0:0:
64,192,369039,1,0,0:0:0:0:
448,192,369039,1,0,0:0:0:0:
320,192,369118,1,0,0:0:0:0:
192,192,369197,1,0,0:0:0:0:
448,192,369276,1,0,0:0:0:0:
64,192,369354,1,0,0:0:0:0:
192,192,369354,1,0,0:0:0:0:
448,192,369433,1,0,0:0:0:0:
192,192,369512,1,0,0:0:0:0:
320,192,369591,1,0,0:0:0:0:
64,192,369670,1,0,0:0:0:0:
448,192,369670,1,0,0:0:0:0:
192,192,369749,1,0,0:0:0:0:
64,192,369828,1,0,0:0:0:0:
192,192,369907,1,0,0:0:0:0:
320,192,369986,1,0,0:0:0:0:
448,192,370065,1,0,0:0:0:0:
64,192,370144,1,0,0:0:0:0:
192,192,370144,1,0,0:0:0:0:
320,192,370223,1,0,0:0:0:0:
64,192,370302,1,0,0:0:0:0:
448,192,370302,1,0,0:0:0:0:
192,192,370381,1,0,0:0:0:0:
320,192,370460,1,0,0:0:0:0:
64,192,370539,1,0,0:0:0:0:
320,192,370618,1,0,0:0:0:0:
448,192,370618,1,0,0:0:0:0:
64,192,370697,1,0,0:0:0:0:
320,192,370776,1,0,0:0:0:0:
192,192,370854,1,0,0:0:0:0:
64,192,370933,1,0,0:0:0:0:
448,192,370933,1,0,0:0:0:0:
192,192,371012,1,0,0:0:0:0:
448,192,371091,1,0,0:0:0:0:
320,192,371170,1,0,0:0:0:0:
64,192,371249,1,0,0:0:0:0:
192,192,371328,1,0,0:0:0:0:
320,192,371407,1,0,0:0:0:0:
448,192,371407,1,0,0:0:0:0:
64,192,371486,1,0,0:0:0:0:
192,192,371526,1,0,0:0:0:0:
320,192,371565,1,0,0:0:0:0:
448,192,371604,1,0,0:0:0:0:
64,192,371644,1,0,0:0:0:0:
192,192,371683,1,0,0:0:0:0:
320,192,371723,1,0,0:0:0:0:
448,192,371762,1,0,0:0:0:0:
64,192,371802,1,0,0:0:0:0:
192,192,371841,1,0,0:0:0:0:
320,192,371881,128,0,371960:0:0:0:0:
448,192,371881,128,0,371960:0:0:0:0:
64,192,371960,1,0,0:0:0:0:
320,192,372039,1,0,0:0:0:0:
448,192,372039,1,0,0:0:0:0:
192,192,372118,1,0,0:0:0:0:
64,192,372197,1,0,0:0:0:0:
448,192,372197,1,0,0:0:0:0:
320,192,372276,1,0,0:0:0:0:
448,192,372354,1,0,0:0:0:0:
320,192,372433,1,0,0:0:0:0:
192,192,372512,1,0,0:0:0:0:
64,192,372591,1,0,0:0:0:0:
448,192,372670,1,0,0:0:0:0:
320,192,372670,1,0,0:0:0:0:
192,192,372749,1,0,0:0:0:0:
448,192,372828,1,0,0:0:0:0:
64,192,372828,1,0,0:0:0:0:
320,192,372907,1,0,0:0:0:0:
64,192,372986,1,0,0:0:0:0:
192,192,373065,1,0,0:0:0:0:
448,192,373144,1,0,0:0:0:0:
320,192,373144,1,0,0:0:0:0:
64,192,373223,1,0,0:0:0:0:
192,192,373302,1,0,0:0:0:0:
448,192,373381,1,0,0:0:0:0:
192,192,373460,1,0,0:0:0:0:
320,192,373539,1,0,0:0:0:0:
