osu file format v14

[General]
AudioFilename: audio.mp3
AudioLeadIn: 0
PreviewTime: 226334
Countdown: 0
SampleSet: Soft
StackLeniency: 0.7
Mode: 3
LetterboxInBreaks: 0
SpecialStyle: 0
WidescreenStoryboard: 0

[Editor]
Bookmarks: 23362,45305,67248,89191,111134,133077,135820,157762,179705,182448,204391,226334,248277,270220,275705,297648
DistanceSpacing: 0.8
BeatDivisor: 4
GridSize: 16
TimelineZoom: 1.2

[Metadata]
Title:I Think We Can Go to the Moon
TitleUnicode:I Think We Can Go to the Moon
Artist:Betwixt & Between
ArtistUnicode:Betwixt & Between
Creator:semyon422
Version:Eclipse
Source:東方Project
Tags:touhou mountain of faith mof game over players player score ALiCE'S EMOTiON Sphere Caliber
BeatmapID:1787015
BeatmapSetID:855198

[Difficulty]
HPDrainRate:8
CircleSize:4
OverallDifficulty:8
ApproachRate:5
SliderMultiplier:1.4
SliderTickRate:1

[Events]
//Background and Video events
0,0,"background.jpg",0,0
//Break Periods
//Storyboard Layer 0 (Background)
//Storyboard Layer 1 (Fail)
//Storyboard Layer 2 (Pass)
//Storyboard Layer 3 (Foreground)
//Storyboard Sound Samples

[TimingPoints]
1420,342.857142857143,4,2,0,10,1,0
89191,-100,4,2,0,10,0,1
109762,-100,4,2,0,10,0,0
111134,-100,4,2,0,10,0,1
133077,-100,4,2,0,10,0,0
204391,-100,4,2,0,10,0,1
224962,-100,4,2,0,10,0,0
226334,-100,4,2,0,10,0,1
226434,-100,4,2,0,10,0,1
270220,-100,4,2,0,10,0,0

[HitObjects]
64,192,1420,5,0,0:0:0:0:
192,192,1420,1,0,0:0:0:0:
448,192,1420,1,0,0:0:0:0:
320,192,1505,1,0,0:0:0:0:
192,192,1591,1,0,0:0:0:0:
448,192,1591,1,0,0:0:0:0:
64,192,1762,1,0,0:0:0:0:
448,192,1762,1,0,0:0:0:0:
320,192,1762,1,0,0:0:0:0:
192,192,1848,1,0,0:0:0:0:
320,192,1934,1,0,0:0:0:0:
64,192,1934,1,0,0:0:0:0:
448,192,2105,1,0,0:0:0:0:
64,192,2105,1,0,0:0:0:0:
192,192,2105,1,0,0:0:0:0:
320,192,2191,1,0,0:0:0:0:
448,192,2277,1,0,0:0:0:0:
64,192,2277,1,0,0:0:0:0:
320,192,2448,1,0,0:0:0:0:
64,192,2448,1,0,0:0:0:0:
192,192,2448,1,0,0:0:0:0:
448,192,2534,1,0,0:0:0:0:
320,192,2620,1,0,0:0:0:0:
448,192,2791,1,0,0:0:0:0:
192,192,2791,1,0,0:0:0:0:
64,192,2877,1,0,0:0:0:0:
192,192,2962,1,0,0:0:0:0:
320,192,3134,1,0,0:0:0:0:
64,192,3134,1,0,0:0:0:0:
448,192,3220,1,0,0:0:0:0:
64,192,3305,1,0,0:0:0:0:
448,192,3477,1,0,0:0:0:0:
320,192,3477,1,0,0:0:0:0:
192,192,3562,1,0,0:0:0:0:
448,192,3648,1,0,0:0:0:0:
64,192,3820,1,0,0:0:0:0:
320,192,3820,1,0,0:0:0:0:
192,192,3905,1,0,0:0:0:0:
448,192,3991,1,0,0:0:0:0:
64,192,4162,1,0,0:0:0:0:
192,192,4162,1,0,0:0:0:0:
320,192,4248,1,0,0:0:0:0:
64,192,4334,1,0,0:0:0:0:
192,192,4334,1,0,0:0:0:0:
320,192,4505,1,0,0:0:0:0:
64,192,4505,1,0,0:0:0:0:
448,192,4505,1,0,0:0:0:0:
192,192,4591,1,0,0:0:0:0:
320,192,4677,1,0,0:0:0:0:
448,192,4677,1,0,0:0:0:0:
64,192,4848,1,0,0:0:0:0:
320,192,4848,1,0,0:0:0:0:
192,192,4848,1,0,0:0:0:0:
448,192,4934,1,0,0:0:0:0:
320,192,5020,1,0,0:0:0:0:
192,192,5020,1,0,0:0:0:0:
448,192,5191,1,0,0:0:0:0:
64,192,5191,1,0,0:0:0:0:
192,192,5277,1,0,0:0:0:0:
448,192,5362,1,0,0:0:0:0:
192,192,5534,1,0,0:0:0:0:
320,192,5534,1,0,0:0:0:0:
64,192,5620,1,0,0:0:0:0:
448,192,5705,1,0,0:0:0:0:
320,192,5877,1,0,0:0:0:0:
64,192,5877,1,0,0:0:0:0:
448,192,5962,1,0,0:0:0:0:
192,192,6048,1,0,0:0:0:0:
320,192,6220,1,0,0:0:0:0:
448,192,6220,1,0,0:0:0:0:
64,192,6305,1,0,0:0:0:0:
192,192,6391,1,0,0:0:0:0:
448,192,6562,1,0,0:0:0:0:
64,192,6562,1,0,0:0:0:0:
320,192,6648,1,0,0:0:0:0:
192,192,6734,1,0,0:0:0:0:
448,192,6905,1,0,0:0:0:0:
64,192,6905,1,0,0:0:0:0:
192,192,6991,1,0,0:0:0:0:
448,192,7077,1,0,0:0:0:0:
320,192,7077,1,0,0:0:0:0:
320,192,7248,1,0,0:0:0:0:
192,192,7248,1,0,0:0:0:0:
64,192,7248,1,0,0:0:0:0:
448,192,7334,1,0,0:0:0:0:
64,192,7420,1,0,0:0:0:0:
192,192,7420,1,0,0:0:0:0:
192,192,7591,1,0,0:0:0:0:
64,192,7591,1,0,0:0:0:0:
320,192,7591,1,0,0:0:0:0:
448,192,7677,1,0,0:0:0:0:
64,192,7762,1,0,0:0:0:0:
192,192,7762,1,0,0:0:0:0:
320,192,7934,1,0,0:0:0:0:
64,192,7934,1,0,0:0:0:0:
448,192,7934,1,0,0:0:0:0:
192,192,8020,1,0,0:0:0:0:
448,192,8105,1,0,0:0:0:0:
320,192,8277,1,0,0:0:0:0:
64,192,8277,1,0,0:0:0:0:
448,192,8362,1,0,0:0:0:0:
192,192,8448,1,0,0:0:0:0:
320,192,8620,1,0,0:0:0:0:
64,192,8620,1,0,0:0:0:0:
448,192,8705,1,0,0:0:0:0:
320,192,8791,1,0,0:0:0:0:
192,192,8962,1,0,0:0:0:0:
64,192,8962,1,0,0:0:0:0:
448,192,9048,1,0,0:0:0:0:
320,192,9134,1,0,0:0:0:0:
192,192,9305,1,0,0:0:0:0:
64,192,9305,1,0,0:0:0:0:
448,192,9391,1,0,0:0:0:0:
64,192,9477,1,0,0:0:0:0:
192,192,9648,1,0,0:0:0:0:
448,192,9648,1,0,0:0:0:0:
320,192,9734,1,0,0:0:0:0:
448,192,9820,1,0,0:0:0:0:
192,192,9820,1,0,0:0:0:0:
320,192,9991,1,0,0:0:0:0:
192,192,9991,1,0,0:0:0:0:
64,192,9991,1,0,0:0:0:0:
448,192,10077,1,0,0:0:0:0:
320,192,10162,1,0,0:0:0:0:
192,192,10162,1,0,0:0:0:0:
64,192,10334,1,0,0:0:0:0:
320,192,10334,1,0,0:0:0:0:
448,192,10334,1,0,0:0:0:0:
192,192,10420,1,0,0:0:0:0:
448,192,10505,1,0,0:0:0:0:
320,192,10505,1,0,0:0:0:0:
64,192,10677,1,0,0:0:0:0:
192,192,10677,1,0,0:0:0:0:
320,192,10762,1,0,0:0:0:0:
64,192,10848,1,0,0:0:0:0:
192,192,11020,1,0,0:0:0:0:
448,192,11020,1,0,0:0:0:0:
320,192,11105,1,0,0:0:0:0:
448,192,11191,1,0,0:0:0:0:
64,192,11362,1,0,0:0:0:0:
320,192,11362,1,0,0:0:0:0:
192,192,11448,1,0,0:0:0:0:
64,192,11534,1,0,0:0:0:0:
448,192,11705,1,0,0:0:0:0:
192,192,11705,1,0,0:0:0:0:
320,192,11791,1,0,0:0:0:0:
448,192,11877,1,0,0:0:0:0:
192,192,12048,1,0,0:0:0:0:
64,192,12048,1,0,0:0:0:0:
320,192,12134,1,0,0:0:0:0:
64,192,12220,1,0,0:0:0:0:
192,192,12220,1,0,0:0:0:0:
320,192,12391,1,0,0:0:0:0:
448,192,12391,1,0,0:0:0:0:
192,192,12477,1,0,0:0:0:0:
320,192,12562,1,0,0:0:0:0:
448,192,12562,1,0,0:0:0:0:
64,192,12562,1,0,0:0:0:0:
192,192,12734,1,0,0:0:0:0:
64,192,12734,1,0,0:0:0:0:
320,192,12734,1,0,0:0:0:0:
448,192,12820,1,0,0:0:0:0:
320,192,12905,1,0,0:0:0:0:
64,192,12905,1,0,0:0:0:0:
192,192,12905,1,0,0:0:0:0:
320,192,13077,1,0,0:0:0:0:
448,192,13077,1,0,0:0:0:0:
192,192,13077,1,0,0:0:0:0:
64,192,13162,1,0,0:0:0:0:
320,192,13248,1,0,0:0:0:0:
192,192,13248,1,0,0:0:0:0:
448,192,13248,1,0,0:0:0:0:
320,192,13420,1,0,0:0:0:0:
64,192,13420,1,0,0:0:0:0:
448,192,13420,1,0,0:0:0:0:
192,192,13505,1,0,0:0:0:0:
64,192,13591,1,0,0:0:0:0:
320,192,13591,1,0,0:0:0:0:
192,192,13762,1,0,0:0:0:0:
448,192,13762,1,0,0:0:0:0:
320,192,13848,1,0,0:0:0:0:
192,192,13934,1,0,0:0:0:0:
64,192,13934,1,0,0:0:0:0:
64,192,14105,1,0,0:0:0:0:
320,192,14105,1,0,0:0:0:0:
448,192,14191,1,0,0:0:0:0:
320,192,14277,1,0,0:0:0:0:
64,192,14277,1,0,0:0:0:0:
448,192,14448,1,0,0:0:0:0:
192,192,14448,1,0,0:0:0:0:
320,192,14534,1,0,0:0:0:0:
192,192,14620,1,0,0:0:0:0:
64,192,14620,1,0,0:0:0:0:
448,192,14791,1,0,0:0:0:0:
320,192,14791,1,0,0:0:0:0:
192,192,14877,1,0,0:0:0:0:
448,192,14962,1,0,0:0:0:0:
64,192,14962,1,0,0:0:0:0:
448,192,15134,1,0,0:0:0:0:
320,192,15134,1,0,0:0:0:0:
192,192,15220,1,0,0:0:0:0:
64,192,15305,1,0,0:0:0:0:
448,192,15305,1,0,0:0:0:0:
320,192,15305,1,0,0:0:0:0:
320,192,15477,1,0,0:0:0:0:
64,192,15477,1,0,0:0:0:0:
192,192,15477,1,0,0:0:0:0:
448,192,15562,1,0,0:0:0:0:
64,192,15648,1,0,0:0:0:0:
320,192,15648,1,0,0:0:0:0:
192,192,15648,1,0,0:0:0:0:
64,192,15820,1,0,0:0:0:0:
448,192,15820,1,0,0:0:0:0:
192,192,15820,1,0,0:0:0:0:
320,192,15905,1,0,0:0:0:0:
192,192,15991,1,0,0:0:0:0:
448,192,15991,1,0,0:0:0:0:
64,192,15991,1,0,0:0:0:0:
64,192,16162,1,0,0:0:0:0:
448,192,16162,1,0,0:0:0:0:
320,192,16248,1,0,0:0:0:0:
192,192,16334,1,0,0:0:0:0:
448,192,16334,1,0,0:0:0:0:
320,192,16505,1,0,0:0:0:0:
64,192,16505,1,0,0:0:0:0:
448,192,16591,1,0,0:0:0:0:
64,192,16677,1,0,0:0:0:0:
192,192,16677,1,0,0:0:0:0:
192,192,16848,1,0,0:0:0:0:
320,192,16848,1,0,0:0:0:0:
64,192,16934,1,0,0:0:0:0:
192,192,17020,1,0,0:0:0:0:
448,192,17020,1,0,0:0:0:0:
320,192,17191,1,0,0:0:0:0:
64,192,17191,1,0,0:0:0:0:
448,192,17277,1,0,0:0:0:0:
320,192,17362,1,0,0:0:0:0:
192,192,17362,1,0,0:0:0:0:
192,192,17534,1,0,0:0:0:0:
64,192,17534,1,0,0:0:0:0:
448,192,17620,1,0,0:0:0:0:
64,192,17705,1,0,0:0:0:0:
192,192,17705,1,0,0:0:0:0:
448,192,17877,1,0,0:0:0:0:
320,192,17877,1,0,0:0:0:0:
192,192,17962,1,0,0:0:0:0:
448,192,18048,1,0,0:0:0:0:
320,192,18048,1,0,0:0:0:0:
64,192,18048,1,0,0:0:0:0:
320,192,18220,1,0,0:0:0:0:
448,192,18220,1,0,0:0:0:0:
64,192,18220,1,0,0:0:0:0:
192,192,18305,1,0,0:0:0:0:
448,192,18391,1,0,0:0:0:0:
64,192,18391,1,0,0:0:0:0:
320,192,18391,1,0,0:0:0:0:
192,192,18562,1,0,0:0:0:0:
320,192,18562,1,0,0:0:0:0:
64,192,18562,1,0,0:0:0:0:
448,192,18648,1,0,0:0:0:0:
192,192,18734,1,0,0:0:0:0:
64,192,18734,1,0,0:0:0:0:
320,192,18734,1,0,0:0:0:0:
192,192,18905,1,0,0:0:0:0:
320,192,18905,1,0,0:0:0:0:
64,192,18905,1,0,0:0:0:0:
448,192,18991,1,0,0:0:0:0:
320,192,19077,1,0,0:0:0:0:
192,192,19077,1,0,0:0:0:0:
448,192,19248,1,0,0:0:0:0:
64,192,19248,1,0,0:0:0:0:
192,192,19334,1,0,0:0:0:0:
320,192,19420,1,0,0:0:0:0:
64,192,19420,1,0,0:0:0:0:
448,192,19591,1,0,0:0:0:0:
64,192,19591,1,0,0:0:0:0:
192,192,19677,1,0,0:0:0:0:
320,192,19762,1,0,0:0:0:0:
448,192,19762,1,0,0:0:0:0:
64,192,19934,1,0,0:0:0:0:
448,192,19934,1,0,0:0:0:0:
320,192,20020,1,0,0:0:0:0:
64,192,20105,1,0,0:0:0:0:
192,192,20105,1,0,0:0:0:0:
192,192,20277,1,0,0:0:0:0:
320,192,20277,1,0,0:0:0:0:
448,192,20362,1,0,0:0:0:0:
64,192,20448,1,0,0:0:0:0:
320,192,20448,1,0,0:0:0:0:
448,192,20620,1,0,0:0:0:0:
192,192,20620,1,0,0:0:0:0:
64,192,20705,1,0,0:0:0:0:
192,192,20791,1,0,0:0:0:0:
448,192,20791,1,0,0:0:0:0:
320,192,20791,1,0,0:0:0:0:
64,192,20962,1,0,0:0:0:0:
192,192,20962,1,0,0:0:0:0:
320,192,20962,1,0,0:0:0:0:
448,192,21048,1,0,0:0:0:0:
192,192,21134,1,0,0:0:0:0:
320,192,21134,1,0,0:0:0:0:
64,192,21134,1,0,0:0:0:0:
320,192,21305,1,0,0:0:0:0:
448,192,21305,1,0,0:0:0:0:
192,192,21305,1,0,0:0:0:0:
64,192,21391,1,0,0:0:0:0:
320,192,21477,1,0,0:0:0:0:
192,192,21477,1,0,0:0:0:0:
448,192,21477,1,0,0:0:0:0:
320,192,21648,1,0,0:0:0:0:
64,192,21648,1,0,0:0:0:0:
448,192,21734,1,0,0:0:0:0:
64,192,21820,1,0,0:0:0:0:
192,192,21820,1,0,0:0:0:0:
448,192,21905,1,0,0:0:0:0:
64,192,21991,1,0,0:0:0:0:
320,192,21991,1,0,0:0:0:0:
192,192,22034,1,0,0:0:0:0:
448,192,22077,1,0,0:0:0:0:
320,192,22120,1,0,0:0:0:0:
192,192,22162,1,0,0:0:0:0:
64,192,22162,1,0,0:0:0:0:
320,192,22248,1,0,0:0:0:0:
448,192,22334,1,0,0:0:0:0:
192,192,22334,1,0,0:0:0:0:
320,192,22377,1,0,0:0:0:0:
64,192,22420,1,0,0:0:0:0:
192,192,22462,1,0,0:0:0:0:
320,192,22505,1,0,0:0:0:0:
448,192,22505,1,0,0:0:0:0:
192,192,22591,1,0,0:0:0:0:
64,192,22677,1,0,0:0:0:0:
320,192,22677,1,0,0:0:0:0:
192,192,22720,1,0,0:0:0:0:
448,192,22762,1,0,0:0:0:0:
320,192,22805,1,0,0:0:0:0:
64,192,22848,1,0,0:0:0:0:
192,192,22848,1,0,0:0:0:0:
448,192,22934,1,0,0:0:0:0:
320,192,23020,1,0,0:0:0:0:
192,192,23020,1,0,0:0:0:0:
64,192,23105,1,0,0:0:0:0:
192,192,23191,1,0,0:0:0:0:
448,192,23191,1,0,0:0:0:0:
320,192,23277,1,0,0:0:0:0:
64,192,23362,1,0,0:0:0:0:
192,192,23362,1,0,0:0:0:0:
448,192,23362,1,0,0:0:0:0:
320,192,23448,1,0,0:0:0:0:
448,192,23534,1,0,0:0:0:0:
64,192,23534,1,0,0:0:0:0:
192,192,23534,1,0,0:0:0:0:
320,192,23705,1,0,0:0:0:0:
448,192,23705,1,0,0:0:0:0:
192,192,23705,1,0,0:0:0:0:
64,192,23791,1,0,0:0:0:0:
448,192,23877,1,0,0:0:0:0:
320,192,23877,1,0,0:0:0:0:
192,192,23877,1,0,0:0:0:0:
320,192,24048,1,0,0:0:0:0:
448,192,24048,1,0,0:0:0:0:
192,192,24048,1,0,0:0:0:0:
64,192,24134,1,0,0:0:0:0:
320,192,24220,1,0,0:0:0:0:
448,192,24220,1,0,0:0:0:0:
192,192,24220,1,0,0:0:0:0:
64,192,24391,1,0,0:0:0:0:
448,192,24391,1,0,0:0:0:0:
320,192,24391,1,0,0:0:0:0:
192,192,24477,1,0,0:0:0:0:
448,192,24562,1,0,0:0:0:0:
64,192,24562,1,0,0:0:0:0:
320,192,24734,1,0,0:0:0:0:
192,192,24734,1,0,0:0:0:0:
448,192,24820,1,0,0:0:0:0:
192,192,24905,1,0,0:0:0:0:
320,192,24905,1,0,0:0:0:0:
64,192,25077,1,0,0:0:0:0:
320,192,25077,1,0,0:0:0:0:
448,192,25162,1,0,0:0:0:0:
64,192,25248,1,0,0:0:0:0:
192,192,25248,1,0,0:0:0:0:
448,192,25420,1,0,0:0:0:0:
320,192,25420,1,0,0:0:0:0:
192,192,25505,1,0,0:0:0:0:
320,192,25591,1,0,0:0:0:0:
64,192,25591,1,0,0:0:0:0:
192,192,25762,1,0,0:0:0:0:
448,192,25762,1,0,0:0:0:0:
320,192,25848,1,0,0:0:0:0:
64,192,25934,1,0,0:0:0:0:
448,192,25934,1,0,0:0:0:0:
320,192,26105,1,0,0:0:0:0:
192,192,26105,1,0,0:0:0:0:
448,192,26191,1,0,0:0:0:0:
64,192,26277,1,0,0:0:0:0:
192,192,26277,1,0,0:0:0:0:
320,192,26277,1,0,0:0:0:0:
192,192,26448,1,0,0:0:0:0:
320,192,26448,1,0,0:0:0:0:
64,192,26448,1,0,0:0:0:0:
448,192,26534,1,0,0:0:0:0:
64,192,26620,1,0,0:0:0:0:
320,192,26620,1,0,0:0:0:0:
192,192,26620,1,0,0:0:0:0:
320,192,26791,1,0,0:0:0:0:
448,192,26791,1,0,0:0:0:0:
192,192,26791,1,0,0:0:0:0:
64,192,26877,1,0,0:0:0:0:
320,192,26962,1,0,0:0:0:0:
448,192,26962,1,0,0:0:0:0:
192,192,26962,1,0,0:0:0:0:
64,192,27134,1,0,0:0:0:0:
448,192,27134,1,0,0:0:0:0:
320,192,27220,1,0,0:0:0:0:
192,192,27305,1,0,0:0:0:0:
448,192,27305,1,0,0:0:0:0:
320,192,27477,1,0,0:0:0:0:
64,192,27477,1,0,0:0:0:0:
448,192,27562,1,0,0:0:0:0:
192,192,27648,1,0,0:0:0:0:
320,192,27648,1,0,0:0:0:0:
64,192,27820,1,0,0:0:0:0:
448,192,27820,1,0,0:0:0:0:
320,192,27905,1,0,0:0:0:0:
192,192,27991,1,0,0:0:0:0:
64,192,27991,1,0,0:0:0:0:
64,192,28162,1,0,0:0:0:0:
448,192,28162,1,0,0:0:0:0:
320,192,28248,1,0,0:0:0:0:
192,192,28334,1,0,0:0:0:0:
448,192,28334,1,0,0:0:0:0:
64,192,28505,1,0,0:0:0:0:
192,192,28505,1,0,0:0:0:0:
320,192,28591,1,0,0:0:0:0:
64,192,28677,1,0,0:0:0:0:
192,192,28677,1,0,0:0:0:0:
448,192,28848,1,0,0:0:0:0:
320,192,28848,1,0,0:0:0:0:
64,192,28934,1,0,0:0:0:0:
448,192,29020,1,0,0:0:0:0:
192,192,29020,1,0,0:0:0:0:
320,192,29020,1,0,0:0:0:0:
448,192,29191,1,0,0:0:0:0:
320,192,29191,1,0,0:0:0:0:
192,192,29191,1,0,0:0:0:0:
64,192,29277,1,0,0:0:0:0:
320,192,29362,1,0,0:0:0:0:
192,192,29362,1,0,0:0:0:0:
448,192,29362,1,0,0:0:0:0:
64,192,29534,1,0,0:0:0:0:
192,192,29534,1,0,0:0:0:0:
320,192,29534,1,0,0:0:0:0:
448,192,29620,1,0,0:0:0:0:
64,192,29705,1,0,0:0:0:0:
192,192,29705,1,0,0:0:0:0:
320,192,29705,1,0,0:0:0:0:
448,192,29877,1,0,0:0:0:0:
64,192,29877,1,0,0:0:0:0:
320,192,29877,1,0,0:0:0:0:
192,192,29962,1,0,0:0:0:0:
320,192,30048,1,0,0:0:0:0:
448,192,30048,1,0,0:0:0:0:
448,192,30220,1,0,0:0:0:0:
192,192,30220,1,0,0:0:0:0:
64,192,30305,1,0,0:0:0:0:
192,192,30391,1,0,0:0:0:0:
320,192,30391,1,0,0:0:0:0:
320,192,30562,1,0,0:0:0:0:
64,192,30562,1,0,0:0:0:0:
448,192,30648,1,0,0:0:0:0:
64,192,30734,1,0,0:0:0:0:
320,192,30734,1,0,0:0:0:0:
192,192,30905,1,0,0:0:0:0:
448,192,30905,1,0,0:0:0:0:
320,192,30991,1,0,0:0:0:0:
192,192,31077,1,0,0:0:0:0:
448,192,31077,1,0,0:0:0:0:
64,192,31248,1,0,0:0:0:0:
448,192,31248,1,0,0:0:0:0:
192,192,31334,1,0,0:0:0:0:
320,192,31420,1,0,0:0:0:0:
64,192,31420,1,0,0:0:0:0:
64,192,31591,1,0,0:0:0:0:
448,192,31591,1,0,0:0:0:0:
320,192,31677,1,0,0:0:0:0:
448,192,31762,1,0,0:0:0:0:
64,192,31762,1,0,0:0:0:0:
192,192,31762,1,0,0:0:0:0:
192,192,31934,1,0,0:0:0:0:
448,192,31934,1,0,0:0:0:0:
320,192,31934,1,0,0:0:0:0:
64,192,32020,1,0,0:0:0:0:
192,192,32105,1,0,0:0:0:0:
448,192,32105,1,0,0:0:0:0:
320,192,32105,1,0,0:0:0:0:
192,192,32277,1,0,0:0:0:0:
448,192,32277,1,0,0:0:0:0:
320,192,32277,1,0,0:0:0:0:
64,192,32362,1,0,0:0:0:0:
320,192,32448,1,0,0:0:0:0:
448,192,32448,1,0,0:0:0:0:
192,192,32448,1,0,0:0:0:0:
320,192,32620,1,0,0:0:0:0:
64,192,32620,1,0,0:0:0:0:
448,192,32705,1,0,0:0:0:0:
192,192,32791,1,0,0:0:0:0:
64,192,32791,1,0,0:0:0:0:
448,192,32962,1,0,0:0:0:0:
64,192,32962,1,0,0:0:0:0:
320,192,33048,1,0,0:0:0:0:
192,192,33134,1,0,0:0:0:0:
64,192,33134,1,0,0:0:0:0:
448,192,33305,1,0,0:0:0:0:
192,192,33305,1,0,0:0:0:0:
320,192,33391,1,0,0:0:0:0:
192,192,33477,1,0,0:0:0:0:
64,192,33477,1,0,0:0:0:0:
448,192,33648,1,0,0:0:0:0:
320,192,33648,1,0,0:0:0:0:
64,192,33734,1,0,0:0:0:0:
192,192,33820,1,0,0:0:0:0:
448,192,33820,1,0,0:0:0:0:
64,192,33991,1,0,0:0:0:0:
320,192,33991,1,0,0:0:0:0:
448,192,34077,1,0,0:0:0:0:
320,192,34162,1,0,0:0:0:0:
64,192,34162,1,0,0:0:0:0:
192,192,34162,1,0,0:0:0:0:
448,192,34334,1,0,0:0:0:0:
320,192,34334,1,0,0:0:0:0:
192,192,34420,1,0,0:0:0:0:
320,192,34505,1,0,0:0:0:0:
64,192,34505,1,0,0:0:0:0:
448,192,34505,1,0,0:0:0:0:
192,192,34677,1,0,0:0:0:0:
320,192,34677,1,0,0:0:0:0:
448,192,34677,1,0,0:0:0:0:
64,192,34762,1,0,0:0:0:0:
192,192,34848,1,0,0:0:0:0:
448,192,34848,1,0,0:0:0:0:
320,192,34848,1,0,0:0:0:0:
448,192,35020,1,0,0:0:0:0:
64,192,35020,1,0,0:0:0:0:
192,192,35020,1,0,0:0:0:0:
320,192,35105,1,0,0:0:0:0:
192,192,35191,1,0,0:0:0:0:
448,192,35191,1,0,0:0:0:0:
64,192,35191,1,0,0:0:0:0:
64,192,35362,1,0,0:0:0:0:
320,192,35362,1,0,0:0:0:0:
448,192,35362,1,0,0:0:0:0:
192,192,35448,1,0,0:0:0:0:
64,192,35534,1,0,0:0:0:0:
320,192,35534,1,0,0:0:0:0:
448,192,35705,1,0,0:0:0:0:
320,192,35705,1,0,0:0:0:0:
192,192,35791,1,0,0:0:0:0:
64,192,35877,1,0,0:0:0:0:
320,192,35877,1,0,0:0:0:0:
192,192,36048,1,0,0:0:0:0:
448,192,36048,1,0,0:0:0:0:
320,192,36134,1,0,0:0:0:0:
448,192,36220,1,0,0:0:0:0:
192,192,36220,1,0,0:0:0:0:
192,192,36391,1,0,0:0:0:0:
64,192,36391,1,0,0:0:0:0:
448,192,36477,1,0,0:0:0:0:
320,192,36562,1,0,0:0:0:0:
64,192,36562,1,0,0:0:0:0:
448,192,36734,1,0,0:0:0:0:
64,192,36734,1,0,0:0:0:0:
192,192,36820,1,0,0:0:0:0:
448,192,36905,1,0,0:0:0:0:
320,192,36905,1,0,0:0:0:0:
320,192,37077,1,0,0:0:0:0:
192,192,37077,1,0,0:0:0:0:
64,192,37162,1,0,0:0:0:0:
192,192,37248,1,0,0:0:0:0:
320,192,37248,1,0,0:0:0:0:
448,192,37248,1,0,0:0:0:0:
320,192,37420,1,0,0:0:0:0:
192,192,37420,1,0,0:0:0:0:
64,192,37420,1,0,0:0:0:0:
448,192,37505,1,0,0:0:0:0:
320,192,37591,1,0,0:0:0:0:
64,192,37591,1,0,0:0:0:0:
192,192,37591,1,0,0:0:0:0:
192,192,37762,1,0,0:0:0:0:
448,192,37762,1,0,0:0:0:0:
64,192,37762,1,0,0:0:0:0:
320,192,37848,1,0,0:0:0:0:
192,192,37934,1,0,0:0:0:0:
448,192,37934,1,0,0:0:0:0:
64,192,37934,1,0,0:0:0:0:
64,192,38105,1,0,0:0:0:0:
320,192,38105,1,0,0:0:0:0:
192,192,38191,1,0,0:0:0:0:
448,192,38277,1,0,0:0:0:0:
64,192,38277,1,0,0:0:0:0:
192,192,38448,1,0,0:0:0:0:
448,192,38448,1,0,0:0:0:0:
320,192,38534,1,0,0:0:0:0:
448,192,38620,1,0,0:0:0:0:
64,192,38620,1,0,0:0:0:0:
320,192,38791,1,0,0:0:0:0:
448,192,38791,1,0,0:0:0:0:
64,192,38877,1,0,0:0:0:0:
448,192,38962,1,0,0:0:0:0:
192,192,38962,1,0,0:0:0:0:
320,192,39134,1,0,0:0:0:0:
64,192,39134,1,0,0:0:0:0:
192,192,39220,1,0,0:0:0:0:
448,192,39305,1,0,0:0:0:0:
320,192,39305,1,0,0:0:0:0:
64,192,39477,1,0,0:0:0:0:
192,192,39477,1,0,0:0:0:0:
448,192,39562,1,0,0:0:0:0:
64,192,39648,1,0,0:0:0:0:
192,192,39648,1,0,0:0:0:0:
320,192,39820,1,0,0:0:0:0:
448,192,39820,1,0,0:0:0:0:
192,192,39905,1,0,0:0:0:0:
320,192,39991,1,0,0:0:0:0:
64,192,39991,1,0,0:0:0:0:
448,192,39991,1,0,0:0:0:0:
192,192,40162,1,0,0:0:0:0:
448,192,40162,1,0,0:0:0:0:
64,192,40162,1,0,0:0:0:0:
320,192,40248,1,0,0:0:0:0:
448,192,40334,1,0,0:0:0:0:
64,192,40334,1,0,0:0:0:0:
192,192,40334,1,0,0:0:0:0:
448,192,40505,1,0,0:0:0:0:
64,192,40505,1,0,0:0:0:0:
320,192,40505,1,0,0:0:0:0:
192,192,40591,1,0,0:0:0:0:
64,192,40677,1,0,0:0:0:0:
320,192,40677,1,0,0:0:0:0:
448,192,40677,1,0,0:0:0:0:
320,192,40848,1,0,0:0:0:0:
448,192,40848,1,0,0:0:0:0:
64,192,40848,1,0,0:0:0:0:
192,192,40934,1,0,0:0:0:0:
64,192,41020,1,0,0:0:0:0:
320,192,41020,1,0,0:0:0:0:
448,192,41191,1,0,0:0:0:0:
192,192,41191,1,0,0:0:0:0:
320,192,41277,1,0,0:0:0:0:
64,192,41362,1,0,0:0:0:0:
448,192,41362,1,0,0:0:0:0:
192,192,41534,1,0,0:0:0:0:
64,192,41534,1,0,0:0:0:0:
448,192,41620,1,0,0:0:0:0:
192,192,41705,1,0,0:0:0:0:
320,192,41705,1,0,0:0:0:0:
64,192,41877,1,0,0:0:0:0:
192,192,41877,1,0,0:0:0:0:
448,192,41962,1,0,0:0:0:0:
192,192,42048,1,0,0:0:0:0:
320,192,42048,1,0,0:0:0:0:
64,192,42220,1,0,0:0:0:0:
448,192,42220,1,0,0:0:0:0:
320,192,42305,1,0,0:0:0:0:
192,192,42391,1,0,0:0:0:0:
448,192,42391,1,0,0:0:0:0:
320,192,42562,1,0,0:0:0:0:
64,192,42562,1,0,0:0:0:0:
448,192,42648,1,0,0:0:0:0:
320,192,42734,1,0,0:0:0:0:
192,192,42734,1,0,0:0:0:0:
64,192,42734,1,0,0:0:0:0:
448,192,42905,1,0,0:0:0:0:
320,192,42905,1,0,0:0:0:0:
192,192,42905,1,0,0:0:0:0:
64,192,42991,1,0,0:0:0:0:
320,192,43077,1,0,0:0:0:0:
448,192,43077,1,0,0:0:0:0:
192,192,43077,1,0,0:0:0:0:
320,192,43248,1,0,0:0:0:0:
64,192,43248,1,0,0:0:0:0:
192,192,43248,1,0,0:0:0:0:
448,192,43334,1,0,0:0:0:0:
64,192,43420,1,0,0:0:0:0:
192,192,43420,1,0,0:0:0:0:
320,192,43420,1,0,0:0:0:0:
320,192,43591,1,0,0:0:0:0:
192,192,43591,1,0,0:0:0:0:
64,192,43677,1,0,0:0:0:0:
320,192,43762,1,0,0:0:0:0:
192,192,43762,1,0,0:0:0:0:
448,192,43762,1,0,0:0:0:0:
64,192,43848,1,0,0:0:0:0:
320,192,43934,1,0,0:0:0:0:
448,192,43934,1,0,0:0:0:0:
64,192,44020,1,0,0:0:0:0:
192,192,44105,1,0,0:0:0:0:
448,192,44105,1,0,0:0:0:0:
320,192,44105,1,0,0:0:0:0:
64,192,44277,1,0,0:0:0:0:
448,192,44277,1,0,0:0:0:0:
320,192,44362,1,0,0:0:0:0:
192,192,44362,1,0,0:0:0:0:
64,192,44448,1,0,0:0:0:0:
448,192,44448,1,0,0:0:0:0:
320,192,44534,1,0,0:0:0:0:
64,192,44620,1,0,0:0:0:0:
192,192,44705,1,0,0:0:0:0:
448,192,44705,1,0,0:0:0:0:
320,192,44791,1,0,0:0:0:0:
64,192,44791,1,0,0:0:0:0:
448,192,44877,1,0,0:0:0:0:
192,192,44962,1,0,0:0:0:0:
320,192,45048,1,0,0:0:0:0:
64,192,45048,1,0,0:0:0:0:
448,192,45134,1,0,0:0:0:0:
192,192,45134,1,0,0:0:0:0:
64,192,45220,1,0,0:0:0:0:
192,192,45305,1,0,0:0:0:0:
320,192,45305,1,0,0:0:0:0:
448,192,45305,1,0,0:0:0:0:
64,192,45391,1,0,0:0:0:0:
192,192,45477,1,0,0:0:0:0:
448,192,45477,1,0,0:0:0:0:
64,192,45562,1,0,0:0:0:0:
320,192,45648,1,0,0:0:0:0:
192,192,45648,1,0,0:0:0:0:
64,192,45734,1,0,0:0:0:0:
320,192,45820,1,0,0:0:0:0:
448,192,45820,1,0,0:0:0:0:
192,192,45905,1,0,0:0:0:0:
64,192,45991,1,0,0:0:0:0:
320,192,45991,1,0,0:0:0:0:
448,192,45991,1,0,0:0:0:0:
192,192,46077,1,0,0:0:0:0:
320,192,46162,1,0,0:0:0:0:
64,192,46162,1,0,0:0:0:0:
448,192,46248,1,0,0:0:0:0:
320,192,46334,1,0,0:0:0:0:
64,192,46334,1,0,0:0:0:0:
448,192,46420,1,0,0:0:0:0:
320,192,46505,1,0,0:0:0:0:
192,192,46505,1,0,0:0:0:0:
64,192,46591,1,0,0:0:0:0:
320,192,46677,1,0,0:0:0:0:
192,192,46677,1,0,0:0:0:0:
448,192,46677,1,0,0:0:0:0:
64,192,46762,1,0,0:0:0:0:
320,192,46848,1,0,0:0:0:0:
192,192,46848,1,0,0:0:0:0:
448,192,46934,1,0,0:0:0:0:
64,192,47020,1,0,0:0:0:0:
320,192,47020,1,0,0:0:0:0:
448,192,47105,1,0,0:0:0:0:
64,192,47191,1,0,0:0:0:0:
192,192,47191,1,0,0:0:0:0:
448,192,47277,1,0,0:0:0:0:
320,192,47362,1,0,0:0:0:0:
192,192,47362,1,0,0:0:0:0:
64,192,47362,1,0,0:0:0:0:
448,192,47448,1,0,0:0:0:0:
64,192,47534,1,0,0:0:0:0:
320,192,47534,1,0,0:0:0:0:
448,192,47620,1,0,0:0:0:0:
320,192,47705,1,0,0:0:0:0:
192,192,47705,1,0,0:0:0:0:
64,192,47791,1,0,0:0:0:0:
192,192,47877,1,0,0:0:0:0:
448,192,47877,1,0,0:0:0:0:
64,192,47962,1,0,0:0:0:0:
320,192,48048,1,0,0:0:0:0:
448,192,48048,1,0,0:0:0:0:
192,192,48048,1,0,0:0:0:0:
64,192,48134,1,0,0:0:0:0:
320,192,48220,1,0,0:0:0:0:
192,192,48220,1,0,0:0:0:0:
64,192,48305,1,0,0:0:0:0:
448,192,48391,1,0,0:0:0:0:
192,192,48391,1,0,0:0:0:0:
64,192,48477,1,0,0:0:0:0:
320,192,48562,1,0,0:0:0:0:
192,192,48562,1,0,0:0:0:0:
448,192,48648,1,0,0:0:0:0:
64,192,48734,1,0,0:0:0:0:
320,192,48734,1,0,0:0:0:0:
192,192,48734,1,0,0:0:0:0:
448,192,48820,1,0,0:0:0:0:
64,192,48905,1,0,0:0:0:0:
320,192,48905,1,0,0:0:0:0:
192,192,48991,1,0,0:0:0:0:
64,192,49077,1,0,0:0:0:0:
448,192,49077,1,0,0:0:0:0:
192,192,49162,1,0,0:0:0:0:
64,192,49248,1,0,0:0:0:0:
320,192,49248,1,0,0:0:0:0:
192,192,49334,1,0,0:0:0:0:
448,192,49420,1,0,0:0:0:0:
64,192,49420,1,0,0:0:0:0:
320,192,49420,1,0,0:0:0:0:
192,192,49505,1,0,0:0:0:0:
320,192,49591,1,0,0:0:0:0:
64,192,49591,1,0,0:0:0:0:
448,192,49677,1,0,0:0:0:0:
192,192,49762,1,0,0:0:0:0:
320,192,49762,1,0,0:0:0:0:
64,192,49848,1,0,0:0:0:0:
448,192,49934,1,0,0:0:0:0:
320,192,49934,1,0,0:0:0:0:
64,192,50020,1,0,0:0:0:0:
448,192,50105,1,0,0:0:0:0:
192,192,50105,1,0,0:0:0:0:
320,192,50105,1,0,0:0:0:0:
64,192,50191,1,0,0:0:0:0:
320,192,50277,1,0,0:0:0:0:
192,192,50277,1,0,0:0:0:0:
64,192,50362,1,0,0:0:0:0:
192,192,50448,1,0,0:0:0:0:
448,192,50448,1,0,0:0:0:0:
64,192,50534,1,0,0:0:0:0:
192,192,50620,1,0,0:0:0:0:
320,192,50620,1,0,0:0:0:0:
448,192,50705,1,0,0:0:0:0:
64,192,50791,1,0,0:0:0:0:
320,192,50791,1,0,0:0:0:0:
192,192,50791,1,0,0:0:0:0:
448,192,50877,1,0,0:0:0:0:
320,192,50962,1,0,0:0:0:0:
64,192,50962,1,0,0:0:0:0:
192,192,51048,1,0,0:0:0:0:
448,192,51048,1,0,0:0:0:0:
64,192,51134,1,0,0:0:0:0:
320,192,51134,1,0,0:0:0:0:
192,192,51220,1,0,0:0:0:0:
448,192,51305,1,0,0:0:0:0:
320,192,51305,1,0,0:0:0:0:
64,192,51305,1,0,0:0:0:0:
192,192,51391,1,0,0:0:0:0:
448,192,51477,1,0,0:0:0:0:
64,192,51477,1,0,0:0:0:0:
320,192,51477,1,0,0:0:0:0:
192,192,51562,1,0,0:0:0:0:
64,192,51648,1,0,0:0:0:0:
320,192,51648,1,0,0:0:0:0:
192,192,51734,1,0,0:0:0:0:
448,192,51734,1,0,0:0:0:0:
64,192,51820,1,0,0:0:0:0:
320,192,51820,1,0,0:0:0:0:
448,192,51905,1,0,0:0:0:0:
192,192,51991,1,0,0:0:0:0:
64,192,51991,1,0,0:0:0:0:
320,192,51991,1,0,0:0:0:0:
448,192,52077,1,0,0:0:0:0:
320,192,52162,1,0,0:0:0:0:
64,192,52162,1,0,0:0:0:0:
192,192,52162,1,0,0:0:0:0:
448,192,52248,1,0,0:0:0:0:
192,192,52334,1,0,0:0:0:0:
64,192,52334,1,0,0:0:0:0:
448,192,52420,1,0,0:0:0:0:
320,192,52420,1,0,0:0:0:0:
192,192,52505,1,0,0:0:0:0:
64,192,52505,1,0,0:0:0:0:
320,192,52591,1,0,0:0:0:0:
448,192,52677,1,0,0:0:0:0:
64,192,52677,1,0,0:0:0:0:
192,192,52677,1,0,0:0:0:0:
320,192,52762,1,0,0:0:0:0:
192,192,52848,1,0,0:0:0:0:
448,192,52848,1,0,0:0:0:0:
64,192,52848,1,0,0:0:0:0:
320,192,52934,1,0,0:0:0:0:
64,192,53020,1,0,0:0:0:0:
448,192,53020,1,0,0:0:0:0:
192,192,53105,1,0,0:0:0:0:
320,192,53105,1,0,0:0:0:0:
64,192,53191,1,0,0:0:0:0:
448,192,53191,1,0,0:0:0:0:
320,192,53277,1,0,0:0:0:0:
448,192,53362,1,0,0:0:0:0:
192,192,53362,1,0,0:0:0:0:
64,192,53362,1,0,0:0:0:0:
320,192,53448,1,0,0:0:0:0:
64,192,53534,1,0,0:0:0:0:
448,192,53534,1,0,0:0:0:0:
192,192,53534,1,0,0:0:0:0:
320,192,53620,1,0,0:0:0:0:
448,192,53705,1,0,0:0:0:0:
64,192,53705,1,0,0:0:0:0:
192,192,53791,1,0,0:0:0:0:
320,192,53791,1,0,0:0:0:0:
64,192,53877,1,0,0:0:0:0:
448,192,53877,1,0,0:0:0:0:
192,192,53962,1,0,0:0:0:0:
64,192,54048,1,0,0:0:0:0:
320,192,54048,1,0,0:0:0:0:
448,192,54048,1,0,0:0:0:0:
192,192,54134,1,0,0:0:0:0:
448,192,54220,1,0,0:0:0:0:
64,192,54220,1,0,0:0:0:0:
320,192,54220,1,0,0:0:0:0:
192,192,54305,1,0,0:0:0:0:
320,192,54391,1,0,0:0:0:0:
64,192,54391,1,0,0:0:0:0:
448,192,54477,1,0,0:0:0:0:
192,192,54477,1,0,0:0:0:0:
320,192,54562,1,0,0:0:0:0:
64,192,54562,1,0,0:0:0:0:
192,192,54648,1,0,0:0:0:0:
448,192,54734,1,0,0:0:0:0:
320,192,54734,1,0,0:0:0:0:
64,192,54734,1,0,0:0:0:0:
192,192,54820,1,0,0:0:0:0:
320,192,54905,1,0,0:0:0:0:
64,192,54905,1,0,0:0:0:0:
448,192,54905,1,0,0:0:0:0:
192,192,54991,1,0,0:0:0:0:
64,192,55077,1,0,0:0:0:0:
448,192,55077,1,0,0:0:0:0:
192,192,55162,1,0,0:0:0:0:
320,192,55162,1,0,0:0:0:0:
448,192,55248,1,0,0:0:0:0:
64,192,55248,1,0,0:0:0:0:
320,192,55334,1,0,0:0:0:0:
192,192,55420,1,0,0:0:0:0:
64,192,55420,1,0,0:0:0:0:
448,192,55420,1,0,0:0:0:0:
320,192,55505,1,0,0:0:0:0:
192,192,55591,1,0,0:0:0:0:
448,192,55591,1,0,0:0:0:0:
64,192,55591,1,0,0:0:0:0:
320,192,55677,1,0,0:0:0:0:
64,192,55762,1,0,0:0:0:0:
448,192,55762,1,0,0:0:0:0:
192,192,55848,1,0,0:0:0:0:
320,192,55848,1,0,0:0:0:0:
64,192,55934,1,0,0:0:0:0:
448,192,55934,1,0,0:0:0:0:
320,192,56020,1,0,0:0:0:0:
448,192,56105,1,0,0:0:0:0:
64,192,56105,1,0,0:0:0:0:
192,192,56105,1,0,0:0:0:0:
320,192,56191,1,0,0:0:0:0:
64,192,56277,1,0,0:0:0:0:
448,192,56277,1,0,0:0:0:0:
192,192,56277,1,0,0:0:0:0:
320,192,56362,1,0,0:0:0:0:
192,192,56448,1,0,0:0:0:0:
64,192,56448,1,0,0:0:0:0:
448,192,56534,1,0,0:0:0:0:
320,192,56534,1,0,0:0:0:0:
64,192,56620,1,0,0:0:0:0:
192,192,56620,1,0,0:0:0:0:
320,192,56705,1,0,0:0:0:0:
64,192,56791,1,0,0:0:0:0:
192,192,56791,1,0,0:0:0:0:
448,192,56791,1,0,0:0:0:0:
320,192,56877,1,0,0:0:0:0:
448,192,56962,1,0,0:0:0:0:
64,192,56962,1,0,0:0:0:0:
192,192,56962,1,0,0:0:0:0:
320,192,57048,1,0,0:0:0:0:
448,192,57134,1,0,0:0:0:0:
64,192,57134,1,0,0:0:0:0:
320,192,57220,1,0,0:0:0:0:
192,192,57220,1,0,0:0:0:0:
448,192,57305,1,0,0:0:0:0:
64,192,57305,1,0,0:0:0:0:
320,192,57391,1,0,0:0:0:0:
64,192,57477,1,0,0:0:0:0:
448,192,57477,1,0,0:0:0:0:
192,192,57477,1,0,0:0:0:0:
320,192,57562,1,0,0:0:0:0:
64,192,57648,1,0,0:0:0:0:
192,192,57648,1,0,0:0:0:0:
448,192,57648,1,0,0:0:0:0:
320,192,57734,1,0,0:0:0:0:
64,192,57820,1,0,0:0:0:0:
448,192,57820,1,0,0:0:0:0:
320,192,57905,1,0,0:0:0:0:
192,192,57905,1,0,0:0:0:0:
64,192,57991,1,0,0:0:0:0:
448,192,57991,1,0,0:0:0:0:
192,192,58077,1,0,0:0:0:0:
64,192,58162,1,0,0:0:0:0:
448,192,58162,1,0,0:0:0:0:
320,192,58162,1,0,0:0:0:0:
192,192,58248,1,0,0:0:0:0:
448,192,58334,1,0,0:0:0:0:
320,192,58334,1,0,0:0:0:0:
64,192,58334,1,0,0:0:0:0:
192,192,58420,1,0,0:0:0:0:
320,192,58505,1,0,0:0:0:0:
448,192,58505,1,0,0:0:0:0:
192,192,58591,1,0,0:0:0:0:
64,192,58591,1,0,0:0:0:0:
320,192,58677,1,0,0:0:0:0:
448,192,58677,1,0,0:0:0:0:
192,192,58762,1,0,0:0:0:0:
448,192,58848,1,0,0:0:0:0:
64,192,58848,1,0,0:0:0:0:
320,192,58848,1,0,0:0:0:0:
192,192,58934,1,0,0:0:0:0:
320,192,59020,1,0,0:0:0:0:
64,192,59020,1,0,0:0:0:0:
448,192,59020,1,0,0:0:0:0:
192,192,59105,1,0,0:0:0:0:
448,192,59191,1,0,0:0:0:0:
64,192,59191,1,0,0:0:0:0:
192,192,59277,1,0,0:0:0:0:
320,192,59277,1,0,0:0:0:0:
64,192,59362,1,0,0:0:0:0:
448,192,59362,1,0,0:0:0:0:
320,192,59448,1,0,0:0:0:0:
64,192,59534,1,0,0:0:0:0:
448,192,59534,1,0,0:0:0:0:
192,192,59534,1,0,0:0:0:0:
320,192,59620,1,0,0:0:0:0:
64,192,59705,1,0,0:0:0:0:
192,192,59705,1,0,0:0:0:0:
448,192,59705,1,0,0:0:0:0:
320,192,59791,1,0,0:0:0:0:
64,192,59877,1,0,0:0:0:0:
448,192,59877,1,0,0:0:0:0:
192,192,59962,1,0,0:0:0:0:
320,192,59962,1,0,0:0:0:0:
64,192,60048,1,0,0:0:0:0:
448,192,60048,1,0,0:0:0:0:
192,192,60134,1,0,0:0:0:0:
64,192,60220,1,0,0:0:0:0:
320,192,60220,1,0,0:0:0:0:
448,192,60220,1,0,0:0:0:0:
192,192,60305,1,0,0:0:0:0:
64,192,60391,1,0,0:0:0:0:
448,192,60391,1,0,0:0:0:0:
320,192,60391,1,0,0:0:0:0:
192,192,60477,1,0,0:0:0:0:
320,192,60562,1,0,0:0:0:0:
64,192,60562,1,0,0:0:0:0:
448,192,60648,1,0,0:0:0:0:
192,192,60648,1,0,0:0:0:0:
320,192,60734,1,0,0:0:0:0:
64,192,60734,1,0,0:0:0:0:
448,192,60820,1,0,0:0:0:0:
192,192,60905,1,0,0:0:0:0:
320,192,60905,1,0,0:0:0:0:
64,192,60905,1,0,0:0:0:0:
448,192,60991,1,0,0:0:0:0:
64,192,61077,1,0,0:0:0:0:
192,192,61077,1,0,0:0:0:0:
320,192,61077,1,0,0:0:0:0:
448,192,61162,1,0,0:0:0:0:
192,192,61248,1,0,0:0:0:0:
320,192,61248,1,0,0:0:0:0:
64,192,61334,1,0,0:0:0:0:
448,192,61334,1,0,0:0:0:0:
320,192,61420,1,0,0:0:0:0:
192,192,61420,1,0,0:0:0:0:
448,192,61505,1,0,0:0:0:0:
320,192,61591,1,0,0:0:0:0:
64,192,61591,1,0,0:0:0:0:
192,192,61591,1,0,0:0:0:0:
448,192,61677,1,0,0:0:0:0:
320,192,61762,1,0,0:0:0:0:
192,192,61762,1,0,0:0:0:0:
64,192,61762,1,0,0:0:0:0:
448,192,61848,1,0,0:0:0:0:
192,192,61934,1,0,0:0:0:0:
320,192,61934,1,0,0:0:0:0:
64,192,62020,1,0,0:0:0:0:
448,192,62020,1,0,0:0:0:0:
320,192,62105,1,0,0:0:0:0:
192,192,62105,1,0,0:0:0:0:
448,192,62191,1,0,0:0:0:0:
192,192,62277,1,0,0:0:0:0:
64,192,62277,1,0,0:0:0:0:
320,192,62277,1,0,0:0:0:0:
448,192,62362,1,0,0:0:0:0:
192,192,62448,1,0,0:0:0:0:
320,192,62448,1,0,0:0:0:0:
64,192,62448,1,0,0:0:0:0:
448,192,62534,1,0,0:0:0:0:
192,192,62620,1,0,0:0:0:0:
320,192,62620,1,0,0:0:0:0:
64,192,62705,1,0,0:0:0:0:
448,192,62705,1,0,0:0:0:0:
320,192,62791,1,0,0:0:0:0:
192,192,62791,1,0,0:0:0:0:
64,192,62877,1,0,0:0:0:0:
448,192,62962,1,0,0:0:0:0:
192,192,62962,1,0,0:0:0:0:
320,192,62962,1,0,0:0:0:0:
64,192,63048,1,0,0:0:0:0:
192,192,63134,1,0,0:0:0:0:
320,192,63134,1,0,0:0:0:0:
448,192,63134,1,0,0:0:0:0:
64,192,63220,1,0,0:0:0:0:
448,192,63305,1,0,0:0:0:0:
320,192,63305,1,0,0:0:0:0:
192,192,63391,1,0,0:0:0:0:
64,192,63391,1,0,0:0:0:0:
320,192,63477,1,0,0:0:0:0:
448,192,63477,1,0,0:0:0:0:
192,192,63562,1,0,0:0:0:0:
64,192,63648,1,0,0:0:0:0:
448,192,63648,1,0,0:0:0:0:
320,192,63648,1,0,0:0:0:0:
192,192,63734,1,0,0:0:0:0:
64,192,63820,1,0,0:0:0:0:
320,192,63820,1,0,0:0:0:0:
448,192,63820,1,0,0:0:0:0:
192,192,63905,1,0,0:0:0:0:
448,192,63991,1,0,0:0:0:0:
320,192,63991,1,0,0:0:0:0:
192,192,64077,1,0,0:0:0:0:
64,192,64077,1,0,0:0:0:0:
448,192,64162,1,0,0:0:0:0:
320,192,64162,1,0,0:0:0:0:
64,192,64248,1,0,0:0:0:0:
192,192,64334,1,0,0:0:0:0:
448,192,64334,1,0,0:0:0:0:
320,192,64334,1,0,0:0:0:0:
64,192,64420,1,0,0:0:0:0:
448,192,64505,1,0,0:0:0:0:
320,192,64505,1,0,0:0:0:0:
192,192,64505,1,0,0:0:0:0:
320,192,64677,1,0,0:0:0:0:
64,192,64762,1,0,0:0:0:0:
192,192,64848,1,0,0:0:0:0:
448,192,65020,1,0,0:0:0:0:
64,192,65020,1,0,0:0:0:0:
192,192,65191,1,0,0:0:0:0:
448,192,65191,1,0,0:0:0:0:
320,192,65362,1,0,0:0:0:0:
192,192,65448,1,0,0:0:0:0:
448,192,65534,1,0,0:0:0:0:
448,192,65705,1,0,0:0:0:0:
320,192,65705,1,0,0:0:0:0:
64,192,65705,1,0,0:0:0:0:
192,192,65791,1,0,0:0:0:0:
320,192,65877,1,0,0:0:0:0:
64,192,65877,1,0,0:0:0:0:
192,192,65962,1,0,0:0:0:0:
448,192,66048,1,0,0:0:0:0:
64,192,66048,1,0,0:0:0:0:
320,192,66134,1,0,0:0:0:0:
64,192,66220,1,0,0:0:0:0:
448,192,66305,1,0,0:0:0:0:
320,192,66391,1,0,0:0:0:0:
192,192,66391,1,0,0:0:0:0:
64,192,66477,1,0,0:0:0:0:
320,192,66562,1,0,0:0:0:0:
192,192,66648,1,0,0:0:0:0:
448,192,66734,1,0,0:0:0:0:
64,192,66820,1,0,0:0:0:0:
192,192,66820,1,0,0:0:0:0:
448,192,66991,1,0,0:0:0:0:
192,192,67077,1,0,0:0:0:0:
320,192,67077,1,0,0:0:0:0:
64,192,67162,1,0,0:0:0:0:
192,192,67248,1,0,0:0:0:0:
448,192,67248,1,0,0:0:0:0:
320,192,67248,1,0,0:0:0:0:
64,192,67334,5,0,0:0:0:0:
192,192,67420,5,0,0:0:0:0:
448,192,67505,1,0,0:0:0:0:
320,192,67505,1,0,0:0:0:0:
64,192,67591,1,0,0:0:0:0:
448,192,67677,1,0,0:0:0:0:
192,192,67762,1,0,0:0:0:0:
320,192,67762,1,0,0:0:0:0:
448,192,67848,1,0,0:0:0:0:
320,192,67934,1,0,0:0:0:0:
192,192,68020,1,0,0:0:0:0:
64,192,68105,1,0,0:0:0:0:
192,192,68191,1,0,0:0:0:0:
448,192,68191,1,0,0:0:0:0:
320,192,68277,1,0,0:0:0:0:
64,192,68362,1,0,0:0:0:0:
192,192,68448,1,0,0:0:0:0:
320,192,68448,1,0,0:0:0:0:
448,192,68534,1,0,0:0:0:0:
64,192,68620,1,0,0:0:0:0:
448,192,68705,5,0,0:0:0:0:
192,192,68791,5,0,0:0:0:0:
320,192,68877,1,0,0:0:0:0:
64,192,68877,1,0,0:0:0:0:
192,192,68962,1,0,0:0:0:0:
64,192,69048,1,0,0:0:0:0:
320,192,69134,1,0,0:0:0:0:
448,192,69134,1,0,0:0:0:0:
192,192,69220,1,0,0:0:0:0:
448,192,69305,1,0,0:0:0:0:
64,192,69391,1,0,0:0:0:0:
320,192,69477,1,0,0:0:0:0:
448,192,69562,1,0,0:0:0:0:
64,192,69562,1,0,0:0:0:0:
320,192,69648,1,0,0:0:0:0:
192,192,69734,1,0,0:0:0:0:
320,192,69820,1,0,0:0:0:0:
64,192,69820,1,0,0:0:0:0:
192,192,69905,1,0,0:0:0:0:
448,192,69991,1,0,0:0:0:0:
64,192,70077,5,0,0:0:0:0:
448,192,70162,5,0,0:0:0:0:
320,192,70248,1,0,0:0:0:0:
192,192,70248,1,0,0:0:0:0:
448,192,70334,1,0,0:0:0:0:
192,192,70420,1,0,0:0:0:0:
320,192,70505,1,0,0:0:0:0:
64,192,70505,1,0,0:0:0:0:
192,192,70591,1,0,0:0:0:0:
64,192,70677,1,0,0:0:0:0:
448,192,70762,1,0,0:0:0:0:
320,192,70848,1,0,0:0:0:0:
448,192,70934,1,0,0:0:0:0:
192,192,70934,1,0,0:0:0:0:
320,192,71020,1,0,0:0:0:0:
64,192,71105,1,0,0:0:0:0:
320,192,71191,1,0,0:0:0:0:
192,192,71191,1,0,0:0:0:0:
448,192,71277,1,0,0:0:0:0:
64,192,71362,1,0,0:0:0:0:
448,192,71448,5,0,0:0:0:0:
320,192,71534,5,0,0:0:0:0:
192,192,71620,1,0,0:0:0:0:
64,192,71620,1,0,0:0:0:0:
320,192,71705,1,0,0:0:0:0:
192,192,71791,1,0,0:0:0:0:
448,192,71877,1,0,0:0:0:0:
64,192,71877,1,0,0:0:0:0:
320,192,71962,1,0,0:0:0:0:
64,192,72048,1,0,0:0:0:0:
448,192,72134,1,0,0:0:0:0:
192,192,72220,1,0,0:0:0:0:
64,192,72305,1,0,0:0:0:0:
320,192,72305,1,0,0:0:0:0:
192,192,72391,1,0,0:0:0:0:
448,192,72477,1,0,0:0:0:0:
320,192,72562,1,0,0:0:0:0:
192,192,72562,1,0,0:0:0:0:
448,192,72648,1,0,0:0:0:0:
64,192,72734,1,0,0:0:0:0:
448,192,72820,5,0,0:0:0:0:
320,192,72905,5,0,0:0:0:0:
64,192,72991,1,0,0:0:0:0:
192,192,72991,1,0,0:0:0:0:
448,192,73077,1,0,0:0:0:0:
64,192,73162,1,0,0:0:0:0:
320,192,73248,1,0,0:0:0:0:
192,192,73248,1,0,0:0:0:0:
64,192,73334,1,0,0:0:0:0:
192,192,73420,1,0,0:0:0:0:
320,192,73505,1,0,0:0:0:0:
448,192,73591,1,0,0:0:0:0:
64,192,73677,1,0,0:0:0:0:
192,192,73677,1,0,0:0:0:0:
448,192,73762,1,0,0:0:0:0:
320,192,73848,1,0,0:0:0:0:
448,192,73934,1,0,0:0:0:0:
64,192,73934,1,0,0:0:0:0:
320,192,74020,1,0,0:0:0:0:
192,192,74105,1,0,0:0:0:0:
448,192,74191,5,0,0:0:0:0:
64,192,74277,5,0,0:0:0:0:
320,192,74362,1,0,0:0:0:0:
192,192,74362,1,0,0:0:0:0:
448,192,74448,1,0,0:0:0:0:
64,192,74534,1,0,0:0:0:0:
192,192,74620,1,0,0:0:0:0:
448,192,74620,1,0,0:0:0:0:
64,192,74705,1,0,0:0:0:0:
320,192,74791,1,0,0:0:0:0:
192,192,74877,1,0,0:0:0:0:
448,192,74962,1,0,0:0:0:0:
320,192,75048,1,0,0:0:0:0:
192,192,75048,1,0,0:0:0:0:
64,192,75134,1,0,0:0:0:0:
192,192,75220,1,0,0:0:0:0:
320,192,75305,1,0,0:0:0:0:
448,192,75305,1,0,0:0:0:0:
64,192,75391,1,0,0:0:0:0:
320,192,75477,1,0,0:0:0:0:
448,192,75562,5,0,0:0:0:0:
64,192,75648,5,0,0:0:0:0:
192,192,75734,1,0,0:0:0:0:
448,192,75734,1,0,0:0:0:0:
64,192,75820,1,0,0:0:0:0:
320,192,75905,1,0,0:0:0:0:
64,192,75991,1,0,0:0:0:0:
192,192,75991,1,0,0:0:0:0:
320,192,76077,1,0,0:0:0:0:
192,192,76162,1,0,0:0:0:0:
448,192,76248,1,0,0:0:0:0:
64,192,76334,1,0,0:0:0:0:
320,192,76420,1,0,0:0:0:0:
448,192,76420,1,0,0:0:0:0:
192,192,76505,1,0,0:0:0:0:
320,192,76591,1,0,0:0:0:0:
64,192,76677,1,0,0:0:0:0:
192,192,76677,1,0,0:0:0:0:
448,192,76762,1,0,0:0:0:0:
64,192,76848,1,0,0:0:0:0:
448,192,76934,5,0,0:0:0:0:
192,192,77020,5,0,0:0:0:0:
64,192,77105,1,0,0:0:0:0:
320,192,77105,1,0,0:0:0:0:
448,192,77191,1,0,0:0:0:0:
192,192,77277,1,0,0:0:0:0:
448,192,77362,1,0,0:0:0:0:
320,192,77362,1,0,0:0:0:0:
64,192,77448,1,0,0:0:0:0:
192,192,77534,1,0,0:0:0:0:
320,192,77620,1,0,0:0:0:0:
64,192,77705,1,0,0:0:0:0:
320,192,77791,1,0,0:0:0:0:
448,192,77791,1,0,0:0:0:0:
192,192,77877,1,0,0:0:0:0:
320,192,77962,1,0,0:0:0:0:
192,192,78048,5,0,0:0:0:0:
64,192,78048,1,0,0:0:0:0:
448,192,78048,1,0,0:0:0:0:
320,192,78134,1,0,0:0:0:0:
192,192,78220,1,0,0:0:0:0:
64,192,78220,1,0,0:0:0:0:
448,192,78305,5,0,0:0:0:0:
320,192,78391,1,0,0:0:0:0:
64,192,78477,1,0,0:0:0:0:
192,192,78562,1,0,0:0:0:0:
448,192,78648,1,0,0:0:0:0:
192,192,78734,1,0,0:0:0:0:
64,192,78820,1,0,0:0:0:0:
320,192,78905,1,0,0:0:0:0:
448,192,78991,1,0,0:0:0:0:
320,192,79077,1,0,0:0:0:0:
192,192,79162,1,0,0:0:0:0:
64,192,79248,1,0,0:0:0:0:
448,192,79334,1,0,0:0:0:0:
64,192,79420,1,0,0:0:0:0:
448,192,79505,1,0,0:0:0:0:
192,192,79591,1,0,0:0:0:0:
320,192,79677,5,0,0:0:0:0:
64,192,79762,1,0,0:0:0:0:
320,192,79848,1,0,0:0:0:0:
192,192,79934,1,0,0:0:0:0:
448,192,80020,1,0,0:0:0:0:
320,192,80105,1,0,0:0:0:0:
448,192,80191,1,0,0:0:0:0:
192,192,80277,1,0,0:0:0:0:
64,192,80362,1,0,0:0:0:0:
448,192,80448,1,0,0:0:0:0:
64,192,80534,1,0,0:0:0:0:
320,192,80620,1,0,0:0:0:0:
192,192,80705,1,0,0:0:0:0:
320,192,80791,1,0,0:0:0:0:
448,192,80877,1,0,0:0:0:0:
64,192,80962,1,0,0:0:0:0:
192,192,81048,5,0,0:0:0:0:
448,192,81134,1,0,0:0:0:0:
192,192,81220,1,0,0:0:0:0:
320,192,81305,1,0,0:0:0:0:
64,192,81391,1,0,0:0:0:0:
320,192,81477,1,0,0:0:0:0:
448,192,81562,1,0,0:0:0:0:
192,192,81648,1,0,0:0:0:0:
64,192,81734,1,0,0:0:0:0:
320,192,81820,1,0,0:0:0:0:
192,192,81905,1,0,0:0:0:0:
448,192,81991,1,0,0:0:0:0:
64,192,82077,1,0,0:0:0:0:
320,192,82162,1,0,0:0:0:0:
192,192,82248,1,0,0:0:0:0:
448,192,82334,1,0,0:0:0:0:
320,192,82420,5,0,0:0:0:0:
64,192,82505,1,0,0:0:0:0:
448,192,82591,1,0,0:0:0:0:
192,192,82677,1,0,0:0:0:0:
320,192,82762,1,0,0:0:0:0:
448,192,82848,1,0,0:0:0:0:
192,192,82934,1,0,0:0:0:0:
64,192,83020,1,0,0:0:0:0:
192,192,83105,1,0,0:0:0:0:
64,192,83191,1,0,0:0:0:0:
448,192,83277,1,0,0:0:0:0:
320,192,83362,1,0,0:0:0:0:
448,192,83448,1,0,0:0:0:0:
320,192,83534,1,0,0:0:0:0:
64,192,83620,1,0,0:0:0:0:
192,192,83705,5,0,0:0:0:0:
320,192,83705,1,0,0:0:0:0:
64,192,83791,5,0,0:0:0:0:
192,192,83877,1,0,0:0:0:0:
448,192,83962,1,0,0:0:0:0:
192,192,84048,1,0,0:0:0:0:
448,192,84134,1,0,0:0:0:0:
320,192,84220,1,0,0:0:0:0:
64,192,84305,1,0,0:0:0:0:
448,192,84391,1,0,0:0:0:0:
64,192,84477,1,0,0:0:0:0:
192,192,84562,1,0,0:0:0:0:
320,192,84648,1,0,0:0:0:0:
64,192,84734,1,0,0:0:0:0:
448,192,84820,1,0,0:0:0:0:
192,192,84905,1,0,0:0:0:0:
320,192,84991,1,0,0:0:0:0:
192,192,85077,1,0,0:0:0:0:
64,192,85077,1,0,0:0:0:0:
448,192,85162,5,0,0:0:0:0:
320,192,85248,1,0,0:0:0:0:
192,192,85334,1,0,0:0:0:0:
64,192,85420,1,0,0:0:0:0:
448,192,85505,1,0,0:0:0:0:
320,192,85591,1,0,0:0:0:0:
192,192,85677,1,0,0:0:0:0:
448,192,85762,1,0,0:0:0:0:
320,192,85848,1,0,0:0:0:0:
64,192,85934,1,0,0:0:0:0:
448,192,86020,1,0,0:0:0:0:
64,192,86105,1,0,0:0:0:0:
192,192,86191,1,0,0:0:0:0:
320,192,86277,1,0,0:0:0:0:
64,192,86362,1,0,0:0:0:0:
448,192,86448,1,0,0:0:0:0:
192,192,86448,1,0,0:0:0:0:
320,192,86534,5,0,0:0:0:0:
64,192,86620,1,0,0:0:0:0:
192,192,86705,1,0,0:0:0:0:
320,192,86791,1,0,0:0:0:0:
448,192,86877,1,0,0:0:0:0:
320,192,86962,1,0,0:0:0:0:
192,192,87048,1,0,0:0:0:0:
64,192,87134,1,0,0:0:0:0:
448,192,87134,1,0,0:0:0:0:
320,192,87220,1,0,0:0:0:0:
64,192,87305,1,0,0:0:0:0:
448,192,87391,1,0,0:0:0:0:
192,192,87477,1,0,0:0:0:0:
64,192,87562,1,0,0:0:0:0:
320,192,87648,1,0,0:0:0:0:
448,192,87734,1,0,0:0:0:0:
192,192,87820,1,0,0:0:0:0:
64,192,87820,1,0,0:0:0:0:
320,192,87862,1,0,0:0:0:0:
448,192,87905,1,0,0:0:0:0:
64,192,87948,1,0,0:0:0:0:
192,192,87991,1,0,0:0:0:0:
320,192,88077,1,0,0:0:0:0:
64,192,88162,1,0,0:0:0:0:
448,192,88162,1,0,0:0:0:0:
320,192,88248,1,0,0:0:0:0:
192,192,88334,1,0,0:0:0:0:
448,192,88420,1,0,0:0:0:0:
64,192,88420,1,0,0:0:0:0:
320,192,88505,1,0,0:0:0:0:
448,192,88591,1,0,0:0:0:0:
192,192,88591,1,0,0:0:0:0:
320,192,88677,1,0,0:0:0:0:
448,192,88762,1,0,0:0:0:0:
64,192,88762,1,0,0:0:0:0:
192,192,88848,1,0,0:0:0:0:
320,192,88848,1,0,0:0:0:0:
448,192,88934,1,0,0:0:0:0:
64,192,88934,1,0,0:0:0:0:
320,192,89020,1,0,0:0:0:0:
192,192,89020,1,0,0:0:0:0:
448,192,89105,1,0,0:0:0:0:
64,192,89105,1,0,0:0:0:0:
320,192,89191,1,0,0:0:0:0:
192,192,89191,1,0,0:0:0:0:
448,192,89277,5,0,0:0:0:0:
320,192,89362,1,0,0:0:0:0:
192,192,89362,1,0,0:0:0:0:
64,192,89448,1,0,0:0:0:0:
192,192,89534,1,0,0:0:0:0:
320,192,89534,1,0,0:0:0:0:
448,192,89620,1,0,0:0:0:0:
64,192,89705,1,0,0:0:0:0:
192,192,89705,1,0,0:0:0:0:
320,192,89791,1,0,0:0:0:0:
192,192,89877,1,0,0:0:0:0:
64,192,89877,1,0,0:0:0:0:
448,192,89962,1,0,0:0:0:0:
192,192,90048,1,0,0:0:0:0:
64,192,90048,1,0,0:0:0:0:
448,192,90134,1,0,0:0:0:0:
320,192,90220,1,0,0:0:0:0:
64,192,90220,1,0,0:0:0:0:
448,192,90305,1,0,0:0:0:0:
192,192,90391,1,0,0:0:0:0:
64,192,90391,1,0,0:0:0:0:
320,192,90477,1,0,0:0:0:0:
448,192,90562,1,0,0:0:0:0:
64,192,90562,1,0,0:0:0:0:
320,192,90648,5,0,0:0:0:0:
192,192,90734,1,0,0:0:0:0:
64,192,90734,1,0,0:0:0:0:
448,192,90820,1,0,0:0:0:0:
64,192,90905,1,0,0:0:0:0:
320,192,90905,1,0,0:0:0:0:
192,192,90991,1,0,0:0:0:0:
320,192,91077,1,0,0:0:0:0:
448,192,91077,1,0,0:0:0:0:
64,192,91162,1,0,0:0:0:0:
448,192,91248,1,0,0:0:0:0:
192,192,91248,1,0,0:0:0:0:
64,192,91334,1,0,0:0:0:0:
448,192,91420,1,0,0:0:0:0:
192,192,91420,1,0,0:0:0:0:
320,192,91505,1,0,0:0:0:0:
448,192,91591,1,0,0:0:0:0:
192,192,91591,1,0,0:0:0:0:
320,192,91677,1,0,0:0:0:0:
448,192,91762,1,0,0:0:0:0:
64,192,91762,1,0,0:0:0:0:
192,192,91848,1,0,0:0:0:0:
64,192,91934,1,0,0:0:0:0:
320,192,91934,1,0,0:0:0:0:
448,192,91934,1,0,0:0:0:0:
192,192,92020,5,0,0:0:0:0:
64,192,92105,1,0,0:0:0:0:
448,192,92105,1,0,0:0:0:0:
320,192,92191,1,0,0:0:0:0:
448,192,92277,1,0,0:0:0:0:
192,192,92277,1,0,0:0:0:0:
64,192,92362,1,0,0:0:0:0:
192,192,92448,1,0,0:0:0:0:
320,192,92448,1,0,0:0:0:0:
448,192,92534,1,0,0:0:0:0:
64,192,92620,1,0,0:0:0:0:
192,192,92620,1,0,0:0:0:0:
320,192,92705,1,0,0:0:0:0:
64,192,92791,1,0,0:0:0:0:
448,192,92791,1,0,0:0:0:0:
320,192,92877,1,0,0:0:0:0:
448,192,92962,1,0,0:0:0:0:
64,192,92962,1,0,0:0:0:0:
192,192,93048,1,0,0:0:0:0:
320,192,93134,1,0,0:0:0:0:
64,192,93134,1,0,0:0:0:0:
448,192,93220,1,0,0:0:0:0:
320,192,93305,1,0,0:0:0:0:
192,192,93305,1,0,0:0:0:0:
448,192,93391,5,0,0:0:0:0:
64,192,93477,1,0,0:0:0:0:
192,192,93477,1,0,0:0:0:0:
320,192,93562,1,0,0:0:0:0:
448,192,93648,1,0,0:0:0:0:
192,192,93648,1,0,0:0:0:0:
64,192,93734,1,0,0:0:0:0:
192,192,93820,1,0,0:0:0:0:
320,192,93820,1,0,0:0:0:0:
64,192,93905,1,0,0:0:0:0:
320,192,93991,1,0,0:0:0:0:
192,192,93991,1,0,0:0:0:0:
448,192,94077,1,0,0:0:0:0:
192,192,94162,1,0,0:0:0:0:
64,192,94162,1,0,0:0:0:0:
320,192,94248,1,0,0:0:0:0:
448,192,94334,1,0,0:0:0:0:
64,192,94334,1,0,0:0:0:0:
192,192,94420,1,0,0:0:0:0:
64,192,94505,1,0,0:0:0:0:
448,192,94505,1,0,0:0:0:0:
320,192,94505,1,0,0:0:0:0:
192,192,94591,1,0,0:0:0:0:
320,192,94677,1,0,0:0:0:0:
448,192,94677,1,0,0:0:0:0:
64,192,94677,1,0,0:0:0:0:
192,192,94762,5,0,0:0:0:0:
448,192,94848,1,0,0:0:0:0:
64,192,94848,1,0,0:0:0:0:
320,192,94934,1,0,0:0:0:0:
448,192,95020,1,0,0:0:0:0:
64,192,95020,1,0,0:0:0:0:
320,192,95105,1,0,0:0:0:0:
192,192,95191,1,0,0:0:0:0:
64,192,95191,1,0,0:0:0:0:
320,192,95277,1,0,0:0:0:0:
448,192,95362,1,0,0:0:0:0:
192,192,95362,1,0,0:0:0:0:
320,192,95448,1,0,0:0:0:0:
64,192,95534,1,0,0:0:0:0:
448,192,95534,1,0,0:0:0:0:
320,192,95620,1,0,0:0:0:0:
448,192,95705,1,0,0:0:0:0:
64,192,95705,1,0,0:0:0:0:
192,192,95791,1,0,0:0:0:0:
320,192,95877,1,0,0:0:0:0:
64,192,95877,1,0,0:0:0:0:
192,192,95962,1,0,0:0:0:0:
448,192,96048,1,0,0:0:0:0:
320,192,96048,1,0,0:0:0:0:
64,192,96134,5,0,0:0:0:0:
448,192,96220,1,0,0:0:0:0:
192,192,96220,1,0,0:0:0:0:
320,192,96305,1,0,0:0:0:0:
448,192,96391,1,0,0:0:0:0:
64,192,96391,1,0,0:0:0:0:
320,192,96477,1,0,0:0:0:0:
64,192,96562,1,0,0:0:0:0:
192,192,96562,1,0,0:0:0:0:
320,192,96648,1,0,0:0:0:0:
448,192,96734,1,0,0:0:0:0:
192,192,96734,1,0,0:0:0:0:
64,192,96820,1,0,0:0:0:0:
448,192,96905,1,0,0:0:0:0:
320,192,96905,1,0,0:0:0:0:
192,192,96991,1,0,0:0:0:0:
64,192,97077,1,0,0:0:0:0:
320,192,97077,1,0,0:0:0:0:
192,192,97162,1,0,0:0:0:0:
448,192,97248,1,0,0:0:0:0:
64,192,97248,1,0,0:0:0:0:
192,192,97334,1,0,0:0:0:0:
320,192,97420,1,0,0:0:0:0:
64,192,97420,1,0,0:0:0:0:
448,192,97420,1,0,0:0:0:0:
192,192,97505,5,0,0:0:0:0:
320,192,97591,1,0,0:0:0:0:
64,192,97591,1,0,0:0:0:0:
192,192,97677,1,0,0:0:0:0:
448,192,97762,1,0,0:0:0:0:
320,192,97762,1,0,0:0:0:0:
64,192,97848,1,0,0:0:0:0:
192,192,97934,1,0,0:0:0:0:
448,192,97934,1,0,0:0:0:0:
64,192,98020,1,0,0:0:0:0:
192,192,98105,1,0,0:0:0:0:
320,192,98105,1,0,0:0:0:0:
64,192,98191,1,0,0:0:0:0:
320,192,98277,1,0,0:0:0:0:
448,192,98277,1,0,0:0:0:0:
64,192,98362,1,0,0:0:0:0:
320,192,98448,1,0,0:0:0:0:
192,192,98448,1,0,0:0:0:0:
448,192,98534,1,0,0:0:0:0:
64,192,98620,1,0,0:0:0:0:
320,192,98620,1,0,0:0:0:0:
192,192,98620,1,0,0:0:0:0:
448,192,98705,1,0,0:0:0:0:
64,192,98791,1,0,0:0:0:0:
192,192,98791,1,0,0:0:0:0:
320,192,98877,5,0,0:0:0:0:
192,192,98962,1,0,0:0:0:0:
448,192,98962,1,0,0:0:0:0:
64,192,99048,1,0,0:0:0:0:
320,192,99048,1,0,0:0:0:0:
192,192,99134,1,0,0:0:0:0:
320,192,99220,1,0,0:0:0:0:
192,192,99305,1,0,0:0:0:0:
64,192,99305,1,0,0:0:0:0:
448,192,99305,1,0,0:0:0:0:
320,192,99391,1,0,0:0:0:0:
192,192,99477,1,0,0:0:0:0:
448,192,99562,1,0,0:0:0:0:
64,192,99562,1,0,0:0:0:0:
192,192,99648,1,0,0:0:0:0:
320,192,99648,1,0,0:0:0:0:
448,192,99734,1,0,0:0:0:0:
320,192,99820,1,0,0:0:0:0:
192,192,99820,1,0,0:0:0:0:
448,192,99905,1,0,0:0:0:0:
320,192,99991,1,0,0:0:0:0:
64,192,99991,1,0,0:0:0:0:
192,192,100034,1,0,0:0:0:0:
448,192,100077,1,0,0:0:0:0:
320,192,100120,1,0,0:0:0:0:
192,192,100162,1,0,0:0:0:0:
64,192,100162,1,0,0:0:0:0:
320,192,100248,5,0,0:0:0:0:
448,192,100334,1,0,0:0:0:0:
64,192,100334,1,0,0:0:0:0:
320,192,100420,1,0,0:0:0:0:
448,192,100505,1,0,0:0:0:0:
64,192,100505,1,0,0:0:0:0:
192,192,100505,1,0,0:0:0:0:
320,192,100591,1,0,0:0:0:0:
192,192,100677,1,0,0:0:0:0:
64,192,100677,1,0,0:0:0:0:
448,192,100762,1,0,0:0:0:0:
320,192,100848,1,0,0:0:0:0:
64,192,100848,1,0,0:0:0:0:
192,192,100934,1,0,0:0:0:0:
448,192,101020,1,0,0:0:0:0:
64,192,101020,1,0,0:0:0:0:
320,192,101105,1,0,0:0:0:0:
448,192,101191,1,0,0:0:0:0:
64,192,101191,1,0,0:0:0:0:
192,192,101191,1,0,0:0:0:0:
320,192,101277,1,0,0:0:0:0:
448,192,101362,1,0,0:0:0:0:
192,192,101362,1,0,0:0:0:0:
64,192,101448,1,0,0:0:0:0:
320,192,101534,1,0,0:0:0:0:
448,192,101534,1,0,0:0:0:0:
64,192,101620,5,0,0:0:0:0:
192,192,101705,1,0,0:0:0:0:
320,192,101705,1,0,0:0:0:0:
448,192,101791,1,0,0:0:0:0:
320,192,101877,1,0,0:0:0:0:
192,192,101877,1,0,0:0:0:0:
64,192,101877,1,0,0:0:0:0:
448,192,101962,1,0,0:0:0:0:
64,192,102048,1,0,0:0:0:0:
192,192,102048,1,0,0:0:0:0:
448,192,102134,1,0,0:0:0:0:
320,192,102220,1,0,0:0:0:0:
192,192,102220,1,0,0:0:0:0:
448,192,102305,1,0,0:0:0:0:
192,192,102391,1,0,0:0:0:0:
64,192,102391,1,0,0:0:0:0:
320,192,102477,1,0,0:0:0:0:
448,192,102562,1,0,0:0:0:0:
192,192,102562,1,0,0:0:0:0:
64,192,102562,1,0,0:0:0:0:
320,192,102648,1,0,0:0:0:0:
448,192,102734,1,0,0:0:0:0:
64,192,102734,1,0,0:0:0:0:
320,192,102820,1,0,0:0:0:0:
448,192,102905,1,0,0:0:0:0:
64,192,102905,1,0,0:0:0:0:
192,192,102991,5,0,0:0:0:0:
448,192,103077,1,0,0:0:0:0:
320,192,103077,1,0,0:0:0:0:
64,192,103162,1,0,0:0:0:0:
320,192,103248,1,0,0:0:0:0:
192,192,103248,1,0,0:0:0:0:
448,192,103248,1,0,0:0:0:0:
64,192,103334,1,0,0:0:0:0:
192,192,103420,1,0,0:0:0:0:
320,192,103420,1,0,0:0:0:0:
64,192,103505,1,0,0:0:0:0:
192,192,103591,1,0,0:0:0:0:
448,192,103591,1,0,0:0:0:0:
320,192,103677,1,0,0:0:0:0:
64,192,103762,1,0,0:0:0:0:
448,192,103762,1,0,0:0:0:0:
320,192,103848,1,0,0:0:0:0:
192,192,103934,1,0,0:0:0:0:
448,192,103934,1,0,0:0:0:0:
64,192,103934,1,0,0:0:0:0:
320,192,104020,1,0,0:0:0:0:
192,192,104105,1,0,0:0:0:0:
64,192,104105,1,0,0:0:0:0:
320,192,104191,1,0,0:0:0:0:
448,192,104277,1,0,0:0:0:0:
192,192,104277,1,0,0:0:0:0:
64,192,104362,5,0,0:0:0:0:
448,192,104448,1,0,0:0:0:0:
192,192,104448,1,0,0:0:0:0:
64,192,104534,1,0,0:0:0:0:
448,192,104620,1,0,0:0:0:0:
320,192,104620,1,0,0:0:0:0:
192,192,104620,1,0,0:0:0:0:
64,192,104705,1,0,0:0:0:0:
320,192,104791,1,0,0:0:0:0:
448,192,104791,1,0,0:0:0:0:
192,192,104877,1,0,0:0:0:0:
64,192,104962,1,0,0:0:0:0:
320,192,104962,1,0,0:0:0:0:
192,192,105048,1,0,0:0:0:0:
320,192,105134,1,0,0:0:0:0:
64,192,105134,1,0,0:0:0:0:
448,192,105220,1,0,0:0:0:0:
192,192,105305,1,0,0:0:0:0:
64,192,105305,1,0,0:0:0:0:
320,192,105305,1,0,0:0:0:0:
448,192,105391,1,0,0:0:0:0:
192,192,105477,1,0,0:0:0:0:
320,192,105477,1,0,0:0:0:0:
448,192,105562,1,0,0:0:0:0:
320,192,105648,1,0,0:0:0:0:
64,192,105648,1,0,0:0:0:0:
448,192,105734,5,0,0:0:0:0:
192,192,105820,1,0,0:0:0:0:
64,192,105820,1,0,0:0:0:0:
320,192,105905,1,0,0:0:0:0:
192,192,105991,1,0,0:0:0:0:
448,192,105991,1,0,0:0:0:0:
64,192,105991,1,0,0:0:0:0:
320,192,106077,1,0,0:0:0:0:
192,192,106162,1,0,0:0:0:0:
448,192,106162,1,0,0:0:0:0:
64,192,106248,1,0,0:0:0:0:
320,192,106334,1,0,0:0:0:0:
192,192,106334,1,0,0:0:0:0:
448,192,106420,1,0,0:0:0:0:
64,192,106505,1,0,0:0:0:0:
320,192,106505,1,0,0:0:0:0:
192,192,106591,1,0,0:0:0:0:
320,192,106677,1,0,0:0:0:0:
448,192,106677,1,0,0:0:0:0:
64,192,106677,1,0,0:0:0:0:
192,192,106762,1,0,0:0:0:0:
448,192,106848,1,0,0:0:0:0:
320,192,106848,1,0,0:0:0:0:
192,192,106934,1,0,0:0:0:0:
320,192,107020,1,0,0:0:0:0:
64,192,107020,1,0,0:0:0:0:
448,192,107105,5,0,0:0:0:0:
192,192,107191,1,0,0:0:0:0:
64,192,107191,1,0,0:0:0:0:
448,192,107277,1,0,0:0:0:0:
192,192,107362,1,0,0:0:0:0:
64,192,107362,1,0,0:0:0:0:
320,192,107362,1,0,0:0:0:0:
448,192,107448,1,0,0:0:0:0:
320,192,107534,1,0,0:0:0:0:
64,192,107534,1,0,0:0:0:0:
192,192,107620,1,0,0:0:0:0:
448,192,107705,1,0,0:0:0:0:
64,192,107705,1,0,0:0:0:0:
192,192,107791,1,0,0:0:0:0:
448,192,107877,1,0,0:0:0:0:
320,192,107877,1,0,0:0:0:0:
64,192,107962,1,0,0:0:0:0:
320,192,108048,1,0,0:0:0:0:
192,192,108048,1,0,0:0:0:0:
448,192,108048,1,0,0:0:0:0:
64,192,108134,1,0,0:0:0:0:
448,192,108220,1,0,0:0:0:0:
320,192,108220,1,0,0:0:0:0:
192,192,108305,1,0,0:0:0:0:
64,192,108391,1,0,0:0:0:0:
320,192,108391,1,0,0:0:0:0:
192,192,108477,5,0,0:0:0:0:
64,192,108562,1,0,0:0:0:0:
448,192,108562,1,0,0:0:0:0:
320,192,108648,1,0,0:0:0:0:
64,192,108734,1,0,0:0:0:0:
448,192,108734,1,0,0:0:0:0:
192,192,108734,1,0,0:0:0:0:
320,192,108820,1,0,0:0:0:0:
448,192,108905,1,0,0:0:0:0:
64,192,108905,1,0,0:0:0:0:
320,192,108991,1,0,0:0:0:0:
192,192,109077,1,0,0:0:0:0:
448,192,109077,1,0,0:0:0:0:
320,192,109162,1,0,0:0:0:0:
64,192,109248,1,0,0:0:0:0:
192,192,109248,1,0,0:0:0:0:
448,192,109334,1,0,0:0:0:0:
64,192,109420,1,0,0:0:0:0:
192,192,109420,1,0,0:0:0:0:
320,192,109420,1,0,0:0:0:0:
448,192,109505,1,0,0:0:0:0:
320,192,109591,1,0,0:0:0:0:
64,192,109591,1,0,0:0:0:0:
448,192,109677,1,0,0:0:0:0:
64,192,109762,1,0,0:0:0:0:
192,192,109762,1,0,0:0:0:0:
320,192,109848,5,0,0:0:0:0:
448,192,109934,1,0,0:0:0:0:
64,192,109934,1,0,0:0:0:0:
320,192,110105,1,0,0:0:0:0:
192,192,110105,1,0,0:0:0:0:
64,192,110105,1,0,0:0:0:0:
448,192,110191,1,0,0:0:0:0:
64,192,110277,1,0,0:0:0:0:
320,192,110362,1,0,0:0:0:0:
192,192,110448,1,0,0:0:0:0:
64,192,110534,1,0,0:0:0:0:
448,192,110620,1,0,0:0:0:0:
192,192,110620,1,0,0:0:0:0:
64,192,110791,1,0,0:0:0:0:
320,192,110791,1,0,0:0:0:0:
448,192,110791,1,0,0:0:0:0:
192,192,110877,1,0,0:0:0:0:
320,192,110962,1,0,0:0:0:0:
448,192,110962,1,0,0:0:0:0:
192,192,111005,1,0,0:0:0:0:
64,192,111048,1,0,0:0:0:0:
448,192,111091,1,0,0:0:0:0:
192,192,111134,1,0,0:0:0:0:
320,192,111134,1,0,0:0:0:0:
64,192,111220,5,0,0:0:0:0:
192,192,111305,1,0,0:0:0:0:
448,192,111305,1,0,0:0:0:0:
64,192,111391,1,0,0:0:0:0:
448,192,111477,1,0,0:0:0:0:
192,192,111477,1,0,0:0:0:0:
320,192,111477,1,0,0:0:0:0:
64,192,111562,1,0,0:0:0:0:
320,192,111648,1,0,0:0:0:0:
192,192,111648,1,0,0:0:0:0:
64,192,111734,1,0,0:0:0:0:
320,192,111820,1,0,0:0:0:0:
448,192,111820,1,0,0:0:0:0:
192,192,111905,1,0,0:0:0:0:
448,192,111991,1,0,0:0:0:0:
64,192,111991,1,0,0:0:0:0:
320,192,112077,1,0,0:0:0:0:
192,192,112162,1,0,0:0:0:0:
64,192,112162,1,0,0:0:0:0:
448,192,112162,1,0,0:0:0:0:
320,192,112248,1,0,0:0:0:0:
64,192,112334,1,0,0:0:0:0:
448,192,112334,1,0,0:0:0:0:
192,192,112420,1,0,0:0:0:0:
448,192,112505,1,0,0:0:0:0:
64,192,112505,1,0,0:0:0:0:
320,192,112591,5,0,0:0:0:0:
64,192,112677,1,0,0:0:0:0:
448,192,112677,1,0,0:0:0:0:
320,192,112762,1,0,0:0:0:0:
448,192,112848,1,0,0:0:0:0:
64,192,112848,1,0,0:0:0:0:
192,192,112848,1,0,0:0:0:0:
320,192,112934,1,0,0:0:0:0:
448,192,113020,1,0,0:0:0:0:
192,192,113020,1,0,0:0:0:0:
64,192,113105,1,0,0:0:0:0:
448,192,113191,1,0,0:0:0:0:
320,192,113191,1,0,0:0:0:0:
192,192,113277,1,0,0:0:0:0:
320,192,113362,1,0,0:0:0:0:
64,192,113362,1,0,0:0:0:0:
448,192,113448,1,0,0:0:0:0:
320,192,113534,1,0,0:0:0:0:
64,192,113534,1,0,0:0:0:0:
192,192,113534,1,0,0:0:0:0:
448,192,113620,1,0,0:0:0:0:
64,192,113705,1,0,0:0:0:0:
320,192,113705,1,0,0:0:0:0:
192,192,113791,1,0,0:0:0:0:
448,192,113877,1,0,0:0:0:0:
320,192,113877,1,0,0:0:0:0:
192,192,113962,5,0,0:0:0:0:
320,192,114048,1,0,0:0:0:0:
64,192,114048,1,0,0:0:0:0:
192,192,114134,1,0,0:0:0:0:
320,192,114220,1,0,0:0:0:0:
64,192,114220,1,0,0:0:0:0:
448,192,114220,1,0,0:0:0:0:
192,192,114305,1,0,0:0:0:0:
448,192,114391,1,0,0:0:0:0:
320,192,114391,1,0,0:0:0:0:
64,192,114477,1,0,0:0:0:0:
192,192,114562,1,0,0:0:0:0:
320,192,114562,1,0,0:0:0:0:
64,192,114648,1,0,0:0:0:0:
320,192,114734,1,0,0:0:0:0:
448,192,114734,1,0,0:0:0:0:
64,192,114820,1,0,0:0:0:0:
448,192,114905,1,0,0:0:0:0:
320,192,114905,1,0,0:0:0:0:
192,192,114905,1,0,0:0:0:0:
64,192,114991,1,0,0:0:0:0:
320,192,115077,1,0,0:0:0:0:
192,192,115077,1,0,0:0:0:0:
64,192,115162,1,0,0:0:0:0:
192,192,115248,1,0,0:0:0:0:
448,192,115248,1,0,0:0:0:0:
64,192,115334,5,0,0:0:0:0:
192,192,115420,1,0,0:0:0:0:
448,192,115420,1,0,0:0:0:0:
320,192,115505,1,0,0:0:0:0:
448,192,115591,1,0,0:0:0:0:
64,192,115591,1,0,0:0:0:0:
192,192,115591,1,0,0:0:0:0:
320,192,115677,1,0,0:0:0:0:
448,192,115762,1,0,0:0:0:0:
64,192,115762,1,0,0:0:0:0:
192,192,115848,1,0,0:0:0:0:
448,192,115934,1,0,0:0:0:0:
64,192,115934,1,0,0:0:0:0:
320,192,116020,1,0,0:0:0:0:
192,192,116105,1,0,0:0:0:0:
64,192,116105,1,0,0:0:0:0:
448,192,116191,1,0,0:0:0:0:
192,192,116277,1,0,0:0:0:0:
64,192,116277,1,0,0:0:0:0:
320,192,116277,1,0,0:0:0:0:
448,192,116362,1,0,0:0:0:0:
192,192,116448,1,0,0:0:0:0:
320,192,116448,1,0,0:0:0:0:
448,192,116534,1,0,0:0:0:0:
192,192,116620,1,0,0:0:0:0:
320,192,116620,1,0,0:0:0:0:
64,192,116705,5,0,0:0:0:0:
192,192,116791,1,0,0:0:0:0:
448,192,116791,1,0,0:0:0:0:
64,192,116877,1,0,0:0:0:0:
448,192,116962,1,0,0:0:0:0:
320,192,116962,1,0,0:0:0:0:
192,192,116962,1,0,0:0:0:0:
64,192,117048,1,0,0:0:0:0:
320,192,117134,1,0,0:0:0:0:
448,192,117134,1,0,0:0:0:0:
192,192,117220,1,0,0:0:0:0:
448,192,117305,1,0,0:0:0:0:
64,192,117305,1,0,0:0:0:0:
320,192,117391,1,0,0:0:0:0:
64,192,117477,1,0,0:0:0:0:
192,192,117477,1,0,0:0:0:0:
320,192,117562,1,0,0:0:0:0:
448,192,117648,1,0,0:0:0:0:
64,192,117648,1,0,0:0:0:0:
192,192,117648,1,0,0:0:0:0:
320,192,117734,1,0,0:0:0:0:
64,192,117820,1,0,0:0:0:0:
192,192,117820,1,0,0:0:0:0:
448,192,117905,1,0,0:0:0:0:
64,192,117991,1,0,0:0:0:0:
320,192,117991,1,0,0:0:0:0:
192,192,118077,5,0,0:0:0:0:
448,192,118162,1,0,0:0:0:0:
320,192,118162,1,0,0:0:0:0:
64,192,118248,1,0,0:0:0:0:
448,192,118334,1,0,0:0:0:0:
192,192,118334,1,0,0:0:0:0:
320,192,118334,1,0,0:0:0:0:
64,192,118420,1,0,0:0:0:0:
192,192,118505,1,0,0:0:0:0:
320,192,118505,1,0,0:0:0:0:
448,192,118591,1,0,0:0:0:0:
192,192,118677,1,0,0:0:0:0:
320,192,118677,1,0,0:0:0:0:
448,192,118762,1,0,0:0:0:0:
320,192,118848,1,0,0:0:0:0:
64,192,118848,1,0,0:0:0:0:
448,192,118934,1,0,0:0:0:0:
320,192,119020,1,0,0:0:0:0:
192,192,119020,1,0,0:0:0:0:
64,192,119020,1,0,0:0:0:0:
448,192,119105,1,0,0:0:0:0:
64,192,119191,1,0,0:0:0:0:
320,192,119191,1,0,0:0:0:0:
192,192,119277,1,0,0:0:0:0:
64,192,119362,1,0,0:0:0:0:
320,192,119362,1,0,0:0:0:0:
192,192,119448,5,0,0:0:0:0:
64,192,119534,1,0,0:0:0:0:
448,192,119534,1,0,0:0:0:0:
320,192,119620,1,0,0:0:0:0:
448,192,119705,1,0,0:0:0:0:
192,192,119705,1,0,0:0:0:0:
64,192,119705,1,0,0:0:0:0:
320,192,119791,1,0,0:0:0:0:
64,192,119877,1,0,0:0:0:0:
192,192,119877,1,0,0:0:0:0:
320,192,119962,1,0,0:0:0:0:
448,192,120048,1,0,0:0:0:0:
64,192,120048,1,0,0:0:0:0:
320,192,120134,1,0,0:0:0:0:
64,192,120220,1,0,0:0:0:0:
192,192,120220,1,0,0:0:0:0:
448,192,120305,1,0,0:0:0:0:
192,192,120391,1,0,0:0:0:0:
320,192,120391,1,0,0:0:0:0:
64,192,120391,1,0,0:0:0:0:
448,192,120477,1,0,0:0:0:0:
192,192,120562,1,0,0:0:0:0:
64,192,120562,1,0,0:0:0:0:
448,192,120648,1,0,0:0:0:0:
320,192,120734,1,0,0:0:0:0:
192,192,120734,1,0,0:0:0:0:
448,192,120820,5,0,0:0:0:0:
64,192,120905,1,0,0:0:0:0:
192,192,120905,1,0,0:0:0:0:
320,192,120991,1,0,0:0:0:0:
192,192,121077,1,0,0:0:0:0:
448,192,121077,1,0,0:0:0:0:
64,192,121077,1,0,0:0:0:0:
320,192,121162,1,0,0:0:0:0:
64,192,121248,1,0,0:0:0:0:
192,192,121248,1,0,0:0:0:0:
320,192,121334,1,0,0:0:0:0:
64,192,121420,1,0,0:0:0:0:
448,192,121420,1,0,0:0:0:0:
192,192,121505,1,0,0:0:0:0:
448,192,121591,1,0,0:0:0:0:
320,192,121591,1,0,0:0:0:0:
192,192,121677,1,0,0:0:0:0:
64,192,121762,1,0,0:0:0:0:
320,192,121762,1,0,0:0:0:0:
448,192,121762,1,0,0:0:0:0:
192,192,121848,1,0,0:0:0:0:
64,192,121934,1,0,0:0:0:0:
448,192,121934,1,0,0:0:0:0:
192,192,122020,1,0,0:0:0:0:
448,192,122105,1,0,0:0:0:0:
320,192,122105,1,0,0:0:0:0:
192,192,122191,5,0,0:0:0:0:
320,192,122277,1,0,0:0:0:0:
64,192,122277,1,0,0:0:0:0:
192,192,122362,1,0,0:0:0:0:
448,192,122448,1,0,0:0:0:0:
320,192,122448,1,0,0:0:0:0:
64,192,122448,1,0,0:0:0:0:
192,192,122534,1,0,0:0:0:0:
448,192,122620,1,0,0:0:0:0:
320,192,122620,1,0,0:0:0:0:
64,192,122705,1,0,0:0:0:0:
448,192,122791,1,0,0:0:0:0:
320,192,122791,1,0,0:0:0:0:
64,192,122877,1,0,0:0:0:0:
192,192,122962,1,0,0:0:0:0:
448,192,122962,1,0,0:0:0:0:
64,192,123048,1,0,0:0:0:0:
192,192,123134,1,0,0:0:0:0:
320,192,123134,1,0,0:0:0:0:
448,192,123134,1,0,0:0:0:0:
64,192,123220,1,0,0:0:0:0:
448,192,123305,1,0,0:0:0:0:
320,192,123305,1,0,0:0:0:0:
192,192,123391,1,0,0:0:0:0:
448,192,123477,1,0,0:0:0:0:
64,192,123477,1,0,0:0:0:0:
192,192,123562,5,0,0:0:0:0:
64,192,123648,1,0,0:0:0:0:
320,192,123648,1,0,0:0:0:0:
448,192,123734,1,0,0:0:0:0:
64,192,123820,1,0,0:0:0:0:
320,192,123820,1,0,0:0:0:0:
192,192,123820,1,0,0:0:0:0:
448,192,123905,1,0,0:0:0:0:
64,192,123991,1,0,0:0:0:0:
320,192,123991,1,0,0:0:0:0:
192,192,124077,1,0,0:0:0:0:
320,192,124162,1,0,0:0:0:0:
448,192,124162,1,0,0:0:0:0:
64,192,124248,1,0,0:0:0:0:
320,192,124334,1,0,0:0:0:0:
448,192,124334,1,0,0:0:0:0:
192,192,124420,1,0,0:0:0:0:
64,192,124505,1,0,0:0:0:0:
448,192,124505,1,0,0:0:0:0:
320,192,124505,1,0,0:0:0:0:
192,192,124591,1,0,0:0:0:0:
448,192,124677,1,0,0:0:0:0:
64,192,124677,1,0,0:0:0:0:
192,192,124762,1,0,0:0:0:0:
64,192,124848,1,0,0:0:0:0:
320,192,124848,1,0,0:0:0:0:
192,192,124934,5,0,0:0:0:0:
64,192,125020,1,0,0:0:0:0:
448,192,125020,1,0,0:0:0:0:
320,192,125105,1,0,0:0:0:0:
448,192,125191,1,0,0:0:0:0:
192,192,125191,1,0,0:0:0:0:
64,192,125191,1,0,0:0:0:0:
320,192,125277,1,0,0:0:0:0:
64,192,125362,1,0,0:0:0:0:
192,192,125362,1,0,0:0:0:0:
448,192,125448,1,0,0:0:0:0:
64,192,125534,1,0,0:0:0:0:
320,192,125534,1,0,0:0:0:0:
448,192,125620,1,0,0:0:0:0:
320,192,125705,1,0,0:0:0:0:
192,192,125705,1,0,0:0:0:0:
448,192,125791,1,0,0:0:0:0:
320,192,125877,1,0,0:0:0:0:
192,192,125877,1,0,0:0:0:0:
64,192,125877,1,0,0:0:0:0:
448,192,125962,1,0,0:0:0:0:
320,192,126048,1,0,0:0:0:0:
192,192,126048,1,0,0:0:0:0:
448,192,126134,1,0,0:0:0:0:
64,192,126220,1,0,0:0:0:0:
320,192,126220,1,0,0:0:0:0:
192,192,126305,5,0,0:0:0:0:
448,192,126391,1,0,0:0:0:0:
320,192,126391,1,0,0:0:0:0:
64,192,126477,1,0,0:0:0:0:
320,192,126562,1,0,0:0:0:0:
448,192,126562,1,0,0:0:0:0:
192,192,126562,1,0,0:0:0:0:
64,192,126648,1,0,0:0:0:0:
320,192,126734,1,0,0:0:0:0:
448,192,126734,1,0,0:0:0:0:
64,192,126820,1,0,0:0:0:0:
192,192,126905,1,0,0:0:0:0:
320,192,126905,1,0,0:0:0:0:
64,192,126991,1,0,0:0:0:0:
192,192,127077,1,0,0:0:0:0:
448,192,127077,1,0,0:0:0:0:
320,192,127162,1,0,0:0:0:0:
64,192,127248,1,0,0:0:0:0:
192,192,127248,1,0,0:0:0:0:
448,192,127248,1,0,0:0:0:0:
320,192,127334,1,0,0:0:0:0:
192,192,127420,1,0,0:0:0:0:
64,192,127420,1,0,0:0:0:0:
320,192,127505,1,0,0:0:0:0:
448,192,127591,1,0,0:0:0:0:
192,192,127591,1,0,0:0:0:0:
64,192,127677,5,0,0:0:0:0:
448,192,127762,1,0,0:0:0:0:
192,192,127762,1,0,0:0:0:0:
320,192,127848,1,0,0:0:0:0:
64,192,127934,1,0,0:0:0:0:
448,192,127934,1,0,0:0:0:0:
192,192,127934,1,0,0:0:0:0:
320,192,128020,1,0,0:0:0:0:
64,192,128105,1,0,0:0:0:0:
192,192,128105,1,0,0:0:0:0:
448,192,128191,1,0,0:0:0:0:
320,192,128277,1,0,0:0:0:0:
64,192,128277,1,0,0:0:0:0:
448,192,128362,1,0,0:0:0:0:
192,192,128448,1,0,0:0:0:0:
64,192,128448,1,0,0:0:0:0:
320,192,128534,1,0,0:0:0:0:
192,192,128620,1,0,0:0:0:0:
448,192,128620,1,0,0:0:0:0:
64,192,128620,1,0,0:0:0:0:
320,192,128705,1,0,0:0:0:0:
192,192,128791,1,0,0:0:0:0:
448,192,128791,1,0,0:0:0:0:
64,192,128877,1,0,0:0:0:0:
320,192,128962,1,0,0:0:0:0:
192,192,128962,1,0,0:0:0:0:
64,192,129048,5,0,0:0:0:0:
448,192,129134,1,0,0:0:0:0:
320,192,129134,1,0,0:0:0:0:
192,192,129220,1,0,0:0:0:0:
320,192,129305,1,0,0:0:0:0:
64,192,129305,1,0,0:0:0:0:
448,192,129305,1,0,0:0:0:0:
192,192,129391,1,0,0:0:0:0:
320,192,129477,1,0,0:0:0:0:
64,192,129477,1,0,0:0:0:0:
448,192,129562,1,0,0:0:0:0:
64,192,129648,1,0,0:0:0:0:
192,192,129648,1,0,0:0:0:0:
320,192,129734,1,0,0:0:0:0:
448,192,129820,1,0,0:0:0:0:
192,192,129820,1,0,0:0:0:0:
64,192,129905,1,0,0:0:0:0:
448,192,129991,1,0,0:0:0:0:
192,192,129991,1,0,0:0:0:0:
320,192,129991,1,0,0:0:0:0:
64,192,130077,1,0,0:0:0:0:
448,192,130162,1,0,0:0:0:0:
320,192,130162,1,0,0:0:0:0:
64,192,130248,1,0,0:0:0:0:
448,192,130334,1,0,0:0:0:0:
192,192,130334,1,0,0:0:0:0:
64,192,130420,5,0,0:0:0:0:
192,192,130505,1,0,0:0:0:0:
320,192,130505,1,0,0:0:0:0:
64,192,130591,1,0,0:0:0:0:
448,192,130677,1,0,0:0:0:0:
320,192,130677,1,0,0:0:0:0:
192,192,130677,1,0,0:0:0:0:
64,192,130762,1,0,0:0:0:0:
192,192,130848,1,0,0:0:0:0:
448,192,130848,1,0,0:0:0:0:
320,192,130934,1,0,0:0:0:0:
448,192,131020,1,0,0:0:0:0:
64,192,131020,1,0,0:0:0:0:
192,192,131105,1,0,0:0:0:0:
64,192,131191,1,0,0:0:0:0:
320,192,131191,1,0,0:0:0:0:
192,192,131277,1,0,0:0:0:0:
64,192,131362,1,0,0:0:0:0:
448,192,131362,1,0,0:0:0:0:
320,192,131362,1,0,0:0:0:0:
192,192,131448,1,0,0:0:0:0:
448,192,131534,1,0,0:0:0:0:
320,192,131534,1,0,0:0:0:0:
192,192,131620,1,0,0:0:0:0:
448,192,131705,1,0,0:0:0:0:
320,192,131705,1,0,0:0:0:0:
64,192,131791,5,0,0:0:0:0:
320,192,131877,1,0,0:0:0:0:
448,192,131877,1,0,0:0:0:0:
192,192,131962,1,0,0:0:0:0:
320,192,132048,1,0,0:0:0:0:
448,192,132048,1,0,0:0:0:0:
64,192,132048,1,0,0:0:0:0:
192,192,132134,1,0,0:0:0:0:
64,192,132220,1,0,0:0:0:0:
320,192,132220,1,0,0:0:0:0:
192,192,132305,1,0,0:0:0:0:
448,192,132391,1,0,0:0:0:0:
64,192,132391,1,0,0:0:0:0:
320,192,132434,1,0,0:0:0:0:
192,192,132477,1,0,0:0:0:0:
64,192,132520,1,0,0:0:0:0:
448,192,132562,1,0,0:0:0:0:
320,192,132648,1,0,0:0:0:0:
192,192,132734,1,0,0:0:0:0:
448,192,132777,1,0,0:0:0:0:
64,192,132820,1,0,0:0:0:0:
448,192,132905,1,0,0:0:0:0:
192,192,132905,1,0,0:0:0:0:
64,192,132991,1,0,0:0:0:0:
320,192,132991,1,0,0:0:0:0:
448,192,133077,1,0,0:0:0:0:
192,192,133077,1,0,0:0:0:0:
192,192,133248,1,0,0:0:0:0:
448,192,133420,1,0,0:0:0:0:
64,192,133420,1,0,0:0:0:0:
320,192,133420,1,0,0:0:0:0:
448,192,133591,1,0,0:0:0:0:
320,192,133762,1,0,0:0:0:0:
64,192,133762,1,0,0:0:0:0:
64,192,133934,1,0,0:0:0:0:
192,192,134105,1,0,0:0:0:0:
448,192,134105,1,0,0:0:0:0:
320,192,134105,1,0,0:0:0:0:
320,192,134277,1,0,0:0:0:0:
64,192,134448,1,0,0:0:0:0:
192,192,134448,1,0,0:0:0:0:
448,192,134448,1,0,0:0:0:0:
320,192,134534,1,0,0:0:0:0:
192,192,134620,1,0,0:0:0:0:
448,192,134620,1,0,0:0:0:0:
64,192,134705,1,0,0:0:0:0:
320,192,134791,1,0,0:0:0:0:
192,192,134791,1,0,0:0:0:0:
448,192,134877,1,0,0:0:0:0:
64,192,134962,1,0,0:0:0:0:
192,192,134962,1,0,0:0:0:0:
320,192,135048,1,0,0:0:0:0:
64,192,135134,1,0,0:0:0:0:
448,192,135134,1,0,0:0:0:0:
320,192,135220,1,0,0:0:0:0:
64,192,135305,1,0,0:0:0:0:
192,192,135305,1,0,0:0:0:0:
448,192,135391,1,0,0:0:0:0:
64,192,135477,1,0,0:0:0:0:
320,192,135477,1,0,0:0:0:0:
448,192,135562,1,0,0:0:0:0:
320,192,135648,1,0,0:0:0:0:
192,192,135734,1,0,0:0:0:0:
64,192,135777,1,0,0:0:0:0:
320,192,135820,1,0,0:0:0:0:
448,192,135820,1,0,0:0:0:0:
192,192,136162,1,0,0:0:0:0:
64,192,136162,1,0,0:0:0:0:
448,192,136334,1,0,0:0:0:0:
320,192,136505,1,0,0:0:0:0:
192,192,136505,1,0,0:0:0:0:
320,192,136848,1,0,0:0:0:0:
448,192,136848,1,0,0:0:0:0:
64,192,137020,1,0,0:0:0:0:
448,192,137191,1,0,0:0:0:0:
192,192,137191,1,0,0:0:0:0:
320,192,137534,1,0,0:0:0:0:
192,192,137534,1,0,0:0:0:0:
64,192,137705,1,0,0:0:0:0:
192,192,137877,1,0,0:0:0:0:
448,192,137877,1,0,0:0:0:0:
64,192,138220,1,0,0:0:0:0:
320,192,138220,1,0,0:0:0:0:
448,192,138391,1,0,0:0:0:0:
192,192,138562,1,0,0:0:0:0:
64,192,138562,1,0,0:0:0:0:
448,192,138905,1,0,0:0:0:0:
320,192,138905,1,0,0:0:0:0:
64,192,139077,1,0,0:0:0:0:
192,192,139248,1,0,0:0:0:0:
448,192,139248,1,0,0:0:0:0:
64,192,139591,1,0,0:0:0:0:
320,192,139591,1,0,0:0:0:0:
192,192,139762,1,0,0:0:0:0:
320,192,139934,1,0,0:0:0:0:
64,192,139934,1,0,0:0:0:0:
192,192,140277,1,0,0:0:0:0:
448,192,140277,1,0,0:0:0:0:
64,192,140448,1,0,0:0:0:0:
192,192,140620,1,0,0:0:0:0:
448,192,140620,1,0,0:0:0:0:
320,192,140962,1,0,0:0:0:0:
64,192,140962,1,0,0:0:0:0:
448,192,141134,1,0,0:0:0:0:
192,192,141305,1,0,0:0:0:0:
64,192,141305,1,0,0:0:0:0:
320,192,141477,1,0,0:0:0:0:
64,192,141648,1,0,0:0:0:0:
448,192,141648,1,0,0:0:0:0:
320,192,141820,1,0,0:0:0:0:
192,192,141820,1,0,0:0:0:0:
448,192,141991,1,0,0:0:0:0:
64,192,141991,1,0,0:0:0:0:
320,192,142162,1,0,0:0:0:0:
192,192,142334,1,0,0:0:0:0:
448,192,142334,1,0,0:0:0:0:
320,192,142505,1,0,0:0:0:0:
64,192,142505,1,0,0:0:0:0:
192,192,142677,1,0,0:0:0:0:
448,192,142677,1,0,0:0:0:0:
64,192,142848,1,0,0:0:0:0:
192,192,143020,1,0,0:0:0:0:
448,192,143020,1,0,0:0:0:0:
320,192,143020,1,0,0:0:0:0:
448,192,143191,1,0,0:0:0:0:
64,192,143191,1,0,0:0:0:0:
320,192,143362,1,0,0:0:0:0:
192,192,143362,1,0,0:0:0:0:
64,192,143534,1,0,0:0:0:0:
192,192,143705,1,0,0:0:0:0:
448,192,143705,1,0,0:0:0:0:
320,192,143877,1,0,0:0:0:0:
64,192,143877,1,0,0:0:0:0:
448,192,144048,1,0,0:0:0:0:
192,192,144048,1,0,0:0:0:0:
64,192,144220,1,0,0:0:0:0:
192,192,144391,1,0,0:0:0:0:
320,192,144391,1,0,0:0:0:0:
64,192,144562,1,0,0:0:0:0:
448,192,144562,1,0,0:0:0:0:
192,192,144734,1,0,0:0:0:0:
320,192,144734,1,0,0:0:0:0:
64,192,144905,1,0,0:0:0:0:
448,192,145077,1,0,0:0:0:0:
192,192,145077,1,0,0:0:0:0:
64,192,145248,1,0,0:0:0:0:
320,192,145248,1,0,0:0:0:0:
448,192,145420,1,0,0:0:0:0:
192,192,145420,1,0,0:0:0:0:
64,192,145591,1,0,0:0:0:0:
320,192,145762,1,0,0:0:0:0:
448,192,145762,1,0,0:0:0:0:
192,192,145762,1,0,0:0:0:0:
448,192,145934,1,0,0:0:0:0:
64,192,145934,1,0,0:0:0:0:
320,192,146105,1,0,0:0:0:0:
192,192,146105,1,0,0:0:0:0:
64,192,146277,1,0,0:0:0:0:
320,192,146448,1,0,0:0:0:0:
448,192,146448,1,0,0:0:0:0:
192,192,146620,1,0,0:0:0:0:
64,192,146620,1,0,0:0:0:0:
320,192,146791,1,0,0:0:0:0:
448,192,146791,1,0,0:0:0:0:
64,192,146962,1,0,0:0:0:0:
448,192,147134,1,0,0:0:0:0:
192,192,147134,1,0,0:0:0:0:
320,192,147305,1,0,0:0:0:0:
64,192,147305,1,0,0:0:0:0:
192,192,147477,1,0,0:0:0:0:
448,192,147477,1,0,0:0:0:0:
320,192,147648,1,0,0:0:0:0:
448,192,147820,1,0,0:0:0:0:
192,192,147820,1,0,0:0:0:0:
320,192,147991,1,0,0:0:0:0:
64,192,147991,1,0,0:0:0:0:
448,192,148162,1,0,0:0:0:0:
192,192,148162,1,0,0:0:0:0:
320,192,148334,1,0,0:0:0:0:
64,192,148505,1,0,0:0:0:0:
448,192,148505,1,0,0:0:0:0:
192,192,148505,1,0,0:0:0:0:
64,192,148677,1,0,0:0:0:0:
320,192,148677,1,0,0:0:0:0:
192,192,148848,1,0,0:0:0:0:
448,192,148848,1,0,0:0:0:0:
320,192,149020,1,0,0:0:0:0:
64,192,149191,1,0,0:0:0:0:
448,192,149191,1,0,0:0:0:0:
320,192,149362,1,0,0:0:0:0:
192,192,149362,1,0,0:0:0:0:
448,192,149534,1,0,0:0:0:0:
64,192,149534,1,0,0:0:0:0:
320,192,149705,1,0,0:0:0:0:
64,192,149877,1,0,0:0:0:0:
448,192,149877,1,0,0:0:0:0:
320,192,150048,1,0,0:0:0:0:
192,192,150048,1,0,0:0:0:0:
192,192,150220,1,0,0:0:0:0:
64,192,150220,1,0,0:0:0:0:
320,192,150391,1,0,0:0:0:0:
448,192,150562,1,0,0:0:0:0:
64,192,150562,1,0,0:0:0:0:
320,192,150734,1,0,0:0:0:0:
192,192,150734,1,0,0:0:0:0:
64,192,150905,1,0,0:0:0:0:
448,192,150905,1,0,0:0:0:0:
192,192,151077,1,0,0:0:0:0:
448,192,151248,1,0,0:0:0:0:
64,192,151248,1,0,0:0:0:0:
320,192,151248,1,0,0:0:0:0:
448,192,151420,1,0,0:0:0:0:
192,192,151420,1,0,0:0:0:0:
320,192,151591,1,0,0:0:0:0:
64,192,151591,1,0,0:0:0:0:
448,192,151762,1,0,0:0:0:0:
64,192,151934,1,0,0:0:0:0:
320,192,151934,1,0,0:0:0:0:
320,192,152105,1,0,0:0:0:0:
192,192,152105,1,0,0:0:0:0:
64,192,152277,1,0,0:0:0:0:
448,192,152277,1,0,0:0:0:0:
192,192,152448,1,0,0:0:0:0:
448,192,152620,1,0,0:0:0:0:
320,192,152620,1,0,0:0:0:0:
64,192,152791,1,0,0:0:0:0:
192,192,152791,1,0,0:0:0:0:
448,192,152962,1,0,0:0:0:0:
320,192,152962,1,0,0:0:0:0:
192,192,153134,1,0,0:0:0:0:
64,192,153305,1,0,0:0:0:0:
448,192,153305,1,0,0:0:0:0:
320,192,153477,1,0,0:0:0:0:
192,192,153477,1,0,0:0:0:0:
448,192,153648,1,0,0:0:0:0:
64,192,153648,1,0,0:0:0:0:
320,192,153820,1,0,0:0:0:0:
64,192,153991,1,0,0:0:0:0:
448,192,153991,1,0,0:0:0:0:
192,192,153991,1,0,0:0:0:0:
320,192,154162,1,0,0:0:0:0:
64,192,154162,1,0,0:0:0:0:
448,192,154334,1,0,0:0:0:0:
192,192,154334,1,0,0:0:0:0:
320,192,154505,1,0,0:0:0:0:
448,192,154677,1,0,0:0:0:0:
64,192,154677,1,0,0:0:0:0:
320,192,154848,1,0,0:0:0:0:
192,192,154848,1,0,0:0:0:0:
64,192,155020,1,0,0:0:0:0:
448,192,155020,1,0,0:0:0:0:
320,192,155191,1,0,0:0:0:0:
192,192,155362,1,0,0:0:0:0:
64,192,155362,1,0,0:0:0:0:
320,192,155534,1,0,0:0:0:0:
448,192,155534,1,0,0:0:0:0:
64,192,155705,1,0,0:0:0:0:
192,192,155705,1,0,0:0:0:0:
320,192,155877,1,0,0:0:0:0:
192,192,156048,1,0,0:0:0:0:
448,192,156048,1,0,0:0:0:0:
320,192,156220,1,0,0:0:0:0:
64,192,156220,1,0,0:0:0:0:
448,192,156391,1,0,0:0:0:0:
192,192,156391,1,0,0:0:0:0:
64,192,156562,1,0,0:0:0:0:
448,192,156734,1,0,0:0:0:0:
320,192,156734,1,0,0:0:0:0:
192,192,156734,1,0,0:0:0:0:
64,192,156905,1,0,0:0:0:0:
320,192,156905,1,0,0:0:0:0:
192,192,157077,1,0,0:0:0:0:
448,192,157077,1,0,0:0:0:0:
64,192,157248,1,0,0:0:0:0:
320,192,157420,1,0,0:0:0:0:
448,192,157420,1,0,0:0:0:0:
192,192,157591,1,0,0:0:0:0:
64,192,157591,1,0,0:0:0:0:
448,192,157762,1,0,0:0:0:0:
320,192,157762,1,0,0:0:0:0:
64,192,157848,1,0,0:0:0:0:
192,192,157934,1,0,0:0:0:0:
448,192,157934,1,0,0:0:0:0:
320,192,158020,1,0,0:0:0:0:
64,192,158105,1,0,0:0:0:0:
192,192,158191,1,0,0:0:0:0:
448,192,158277,1,0,0:0:0:0:
64,192,158277,1,0,0:0:0:0:
320,192,158362,1,0,0:0:0:0:
192,192,158448,1,0,0:0:0:0:
448,192,158534,1,0,0:0:0:0:
192,192,158620,1,0,0:0:0:0:
320,192,158620,1,0,0:0:0:0:
64,192,158705,1,0,0:0:0:0:
448,192,158791,1,0,0:0:0:0:
64,192,158877,1,0,0:0:0:0:
320,192,158962,1,0,0:0:0:0:
448,192,158962,1,0,0:0:0:0:
192,192,159048,1,0,0:0:0:0:
320,192,159134,1,0,0:0:0:0:
192,192,159220,1,0,0:0:0:0:
64,192,159305,1,0,0:0:0:0:
448,192,159305,1,0,0:0:0:0:
320,192,159391,1,0,0:0:0:0:
448,192,159477,1,0,0:0:0:0:
192,192,159477,1,0,0:0:0:0:
64,192,159562,1,0,0:0:0:0:
320,192,159648,1,0,0:0:0:0:
448,192,159648,1,0,0:0:0:0:
64,192,159734,1,0,0:0:0:0:
192,192,159820,1,0,0:0:0:0:
64,192,159905,1,0,0:0:0:0:
448,192,159991,1,0,0:0:0:0:
192,192,159991,1,0,0:0:0:0:
320,192,160077,1,0,0:0:0:0:
448,192,160162,1,0,0:0:0:0:
64,192,160248,1,0,0:0:0:0:
192,192,160334,1,0,0:0:0:0:
320,192,160334,1,0,0:0:0:0:
448,192,160420,1,0,0:0:0:0:
192,192,160505,1,0,0:0:0:0:
64,192,160591,1,0,0:0:0:0:
320,192,160677,1,0,0:0:0:0:
192,192,160677,1,0,0:0:0:0:
64,192,160762,1,0,0:0:0:0:
448,192,160848,1,0,0:0:0:0:
320,192,160934,1,0,0:0:0:0:
448,192,161020,1,0,0:0:0:0:
192,192,161020,1,0,0:0:0:0:
320,192,161105,1,0,0:0:0:0:
64,192,161191,1,0,0:0:0:0:
448,192,161277,1,0,0:0:0:0:
64,192,161362,1,0,0:0:0:0:
320,192,161362,1,0,0:0:0:0:
192,192,161448,1,0,0:0:0:0:
320,192,161534,1,0,0:0:0:0:
192,192,161620,1,0,0:0:0:0:
448,192,161705,1,0,0:0:0:0:
64,192,161705,1,0,0:0:0:0:
192,192,161791,1,0,0:0:0:0:
64,192,161877,1,0,0:0:0:0:
448,192,161962,1,0,0:0:0:0:
320,192,162048,1,0,0:0:0:0:
64,192,162048,1,0,0:0:0:0:
192,192,162134,1,0,0:0:0:0:
448,192,162220,1,0,0:0:0:0:
64,192,162220,1,0,0:0:0:0:
320,192,162305,1,0,0:0:0:0:
192,192,162391,1,0,0:0:0:0:
448,192,162391,1,0,0:0:0:0:
320,192,162477,1,0,0:0:0:0:
192,192,162562,1,0,0:0:0:0:
64,192,162648,1,0,0:0:0:0:
320,192,162734,1,0,0:0:0:0:
448,192,162734,1,0,0:0:0:0:
64,192,162820,1,0,0:0:0:0:
448,192,162905,1,0,0:0:0:0:
320,192,162991,1,0,0:0:0:0:
192,192,163077,1,0,0:0:0:0:
64,192,163077,1,0,0:0:0:0:
448,192,163162,1,0,0:0:0:0:
192,192,163248,1,0,0:0:0:0:
320,192,163334,1,0,0:0:0:0:
64,192,163420,1,0,0:0:0:0:
448,192,163420,1,0,0:0:0:0:
192,192,163505,1,0,0:0:0:0:
448,192,163591,1,0,0:0:0:0:
192,192,163677,1,0,0:0:0:0:
320,192,163762,1,0,0:0:0:0:
64,192,163762,1,0,0:0:0:0:
448,192,163848,1,0,0:0:0:0:
64,192,163934,1,0,0:0:0:0:
320,192,164020,1,0,0:0:0:0:
192,192,164105,1,0,0:0:0:0:
448,192,164105,1,0,0:0:0:0:
64,192,164191,1,0,0:0:0:0:
192,192,164277,1,0,0:0:0:0:
320,192,164362,1,0,0:0:0:0:
448,192,164448,1,0,0:0:0:0:
64,192,164448,1,0,0:0:0:0:
320,192,164534,1,0,0:0:0:0:
64,192,164620,1,0,0:0:0:0:
192,192,164705,1,0,0:0:0:0:
320,192,164791,1,0,0:0:0:0:
448,192,164791,1,0,0:0:0:0:
64,192,164877,1,0,0:0:0:0:
448,192,164962,1,0,0:0:0:0:
192,192,164962,1,0,0:0:0:0:
320,192,165048,1,0,0:0:0:0:
64,192,165134,1,0,0:0:0:0:
448,192,165134,1,0,0:0:0:0:
192,192,165220,1,0,0:0:0:0:
64,192,165305,1,0,0:0:0:0:
320,192,165391,1,0,0:0:0:0:
448,192,165477,1,0,0:0:0:0:
192,192,165477,1,0,0:0:0:0:
64,192,165562,1,0,0:0:0:0:
320,192,165648,1,0,0:0:0:0:
192,192,165734,1,0,0:0:0:0:
448,192,165820,1,0,0:0:0:0:
64,192,165820,1,0,0:0:0:0:
192,192,165905,1,0,0:0:0:0:
320,192,165991,1,0,0:0:0:0:
64,192,166077,1,0,0:0:0:0:
448,192,166162,1,0,0:0:0:0:
192,192,166162,1,0,0:0:0:0:
320,192,166248,1,0,0:0:0:0:
64,192,166334,1,0,0:0:0:0:
320,192,166420,1,0,0:0:0:0:
448,192,166505,1,0,0:0:0:0:
192,192,166505,1,0,0:0:0:0:
64,192,166591,1,0,0:0:0:0:
448,192,166677,1,0,0:0:0:0:
320,192,166762,1,0,0:0:0:0:
64,192,166848,1,0,0:0:0:0:
192,192,166848,1,0,0:0:0:0:
320,192,166934,1,0,0:0:0:0:
448,192,167020,1,0,0:0:0:0:
192,192,167105,1,0,0:0:0:0:
320,192,167191,1,0,0:0:0:0:
64,192,167191,1,0,0:0:0:0:
192,192,167277,1,0,0:0:0:0:
64,192,167362,1,0,0:0:0:0:
448,192,167448,1,0,0:0:0:0:
64,192,167534,1,0,0:0:0:0:
320,192,167534,1,0,0:0:0:0:
448,192,167620,1,0,0:0:0:0:
192,192,167705,1,0,0:0:0:0:
64,192,167705,1,0,0:0:0:0:
320,192,167791,1,0,0:0:0:0:
448,192,167877,1,0,0:0:0:0:
64,192,167877,1,0,0:0:0:0:
192,192,167962,1,0,0:0:0:0:
320,192,168048,1,0,0:0:0:0:
448,192,168134,1,0,0:0:0:0:
64,192,168220,1,0,0:0:0:0:
320,192,168220,1,0,0:0:0:0:
192,192,168305,1,0,0:0:0:0:
64,192,168391,1,0,0:0:0:0:
320,192,168477,1,0,0:0:0:0:
448,192,168562,1,0,0:0:0:0:
192,192,168562,1,0,0:0:0:0:
64,192,168605,1,0,0:0:0:0:
320,192,168648,1,0,0:0:0:0:
192,192,168691,1,0,0:0:0:0:
448,192,168734,1,0,0:0:0:0:
320,192,168820,1,0,0:0:0:0:
64,192,168905,1,0,0:0:0:0:
192,192,168905,1,0,0:0:0:0:
448,192,168991,1,0,0:0:0:0:
320,192,169077,1,0,0:0:0:0:
64,192,169162,1,0,0:0:0:0:
192,192,169248,1,0,0:0:0:0:
448,192,169248,1,0,0:0:0:0:
64,192,169334,1,0,0:0:0:0:
192,192,169420,1,0,0:0:0:0:
320,192,169505,1,0,0:0:0:0:
192,192,169591,1,0,0:0:0:0:
448,192,169591,1,0,0:0:0:0:
64,192,169677,1,0,0:0:0:0:
320,192,169762,1,0,0:0:0:0:
64,192,169848,1,0,0:0:0:0:
320,192,169934,1,0,0:0:0:0:
192,192,169934,1,0,0:0:0:0:
448,192,170020,1,0,0:0:0:0:
320,192,170105,1,0,0:0:0:0:
64,192,170191,1,0,0:0:0:0:
192,192,170277,1,0,0:0:0:0:
448,192,170277,1,0,0:0:0:0:
320,192,170362,1,0,0:0:0:0:
192,192,170448,1,0,0:0:0:0:
64,192,170448,1,0,0:0:0:0:
448,192,170534,1,0,0:0:0:0:
64,192,170620,1,0,0:0:0:0:
320,192,170620,1,0,0:0:0:0:
192,192,170705,1,0,0:0:0:0:
448,192,170791,1,0,0:0:0:0:
64,192,170877,1,0,0:0:0:0:
448,192,170962,1,0,0:0:0:0:
320,192,170962,1,0,0:0:0:0:
64,192,171048,1,0,0:0:0:0:
192,192,171134,1,0,0:0:0:0:
64,192,171220,1,0,0:0:0:0:
192,192,171305,1,0,0:0:0:0:
448,192,171305,1,0,0:0:0:0:
320,192,171391,1,0,0:0:0:0:
448,192,171477,1,0,0:0:0:0:
64,192,171562,1,0,0:0:0:0:
320,192,171648,1,0,0:0:0:0:
192,192,171648,1,0,0:0:0:0:
448,192,171734,5,0,0:0:0:0:
64,192,171820,1,0,0:0:0:0:
320,192,171905,1,0,0:0:0:0:
448,192,171991,5,0,0:0:0:0:
192,192,171991,1,0,0:0:0:0:
320,192,172077,1,0,0:0:0:0:
192,192,172162,1,0,0:0:0:0:
64,192,172248,1,0,0:0:0:0:
448,192,172334,1,0,0:0:0:0:
192,192,172334,1,0,0:0:0:0:
320,192,172420,1,0,0:0:0:0:
64,192,172505,1,0,0:0:0:0:
192,192,172591,1,0,0:0:0:0:
64,192,172677,1,0,0:0:0:0:
448,192,172677,1,0,0:0:0:0:
320,192,172762,1,0,0:0:0:0:
192,192,172848,5,0,0:0:0:0:
448,192,172848,1,0,0:0:0:0:
320,192,172934,1,0,0:0:0:0:
64,192,172934,1,0,0:0:0:0:
448,192,173020,1,0,0:0:0:0:
192,192,173020,1,0,0:0:0:0:
64,192,173105,1,0,0:0:0:0:
192,192,173191,1,0,0:0:0:0:
320,192,173191,1,0,0:0:0:0:
448,192,173277,1,0,0:0:0:0:
64,192,173277,1,0,0:0:0:0:
192,192,173362,1,0,0:0:0:0:
320,192,173362,1,0,0:0:0:0:
448,192,173448,1,0,0:0:0:0:
320,192,173534,1,0,0:0:0:0:
192,192,173534,1,0,0:0:0:0:
448,192,173620,1,0,0:0:0:0:
64,192,173620,1,0,0:0:0:0:
192,192,173705,1,0,0:0:0:0:
320,192,173705,1,0,0:0:0:0:
64,192,173791,1,0,0:0:0:0:
448,192,173877,1,0,0:0:0:0:
320,192,173877,1,0,0:0:0:0:
64,192,173962,1,0,0:0:0:0:
192,192,173962,1,0,0:0:0:0:
320,192,174048,1,0,0:0:0:0:
448,192,174048,1,0,0:0:0:0:
192,192,174134,1,0,0:0:0:0:
448,192,174220,1,0,0:0:0:0:
64,192,174220,1,0,0:0:0:0:
192,192,174305,1,0,0:0:0:0:
320,192,174305,1,0,0:0:0:0:
448,192,174391,1,0,0:0:0:0:
64,192,174391,1,0,0:0:0:0:
192,192,174477,1,0,0:0:0:0:
64,192,174562,1,0,0:0:0:0:
320,192,174562,1,0,0:0:0:0:
448,192,174648,1,0,0:0:0:0:
192,192,174648,1,0,0:0:0:0:
64,192,174734,1,0,0:0:0:0:
320,192,174734,1,0,0:0:0:0:
192,192,174820,1,0,0:0:0:0:
64,192,174905,1,0,0:0:0:0:
448,192,174905,1,0,0:0:0:0:
320,192,174991,1,0,0:0:0:0:
192,192,174991,1,0,0:0:0:0:
448,192,175077,1,0,0:0:0:0:
64,192,175077,1,0,0:0:0:0:
320,192,175162,1,0,0:0:0:0:
64,192,175248,1,0,0:0:0:0:
448,192,175248,1,0,0:0:0:0:
192,192,175334,1,0,0:0:0:0:
320,192,175334,1,0,0:0:0:0:
64,192,175420,1,0,0:0:0:0:
448,192,175420,1,0,0:0:0:0:
320,192,175462,1,0,0:0:0:0:
192,192,175505,1,0,0:0:0:0:
448,192,175548,1,0,0:0:0:0:
64,192,175591,1,0,0:0:0:0:
320,192,175591,1,0,0:0:0:0:
448,192,175677,1,0,0:0:0:0:
192,192,175677,1,0,0:0:0:0:
64,192,175762,1,0,0:0:0:0:
320,192,175762,1,0,0:0:0:0:
448,192,175848,1,0,0:0:0:0:
192,192,175934,1,0,0:0:0:0:
320,192,175934,1,0,0:0:0:0:
64,192,176020,1,0,0:0:0:0:
448,192,176020,1,0,0:0:0:0:
192,192,176105,1,0,0:0:0:0:
320,192,176105,1,0,0:0:0:0:
64,192,176191,1,0,0:0:0:0:
320,192,176277,1,0,0:0:0:0:
448,192,176277,1,0,0:0:0:0:
64,192,176362,1,0,0:0:0:0:
192,192,176362,1,0,0:0:0:0:
320,192,176448,1,0,0:0:0:0:
448,192,176448,1,0,0:0:0:0:
192,192,176534,1,0,0:0:0:0:
320,192,176620,1,0,0:0:0:0:
64,192,176620,1,0,0:0:0:0:
448,192,176705,1,0,0:0:0:0:
192,192,176705,1,0,0:0:0:0:
320,192,176791,1,0,0:0:0:0:
64,192,176791,1,0,0:0:0:0:
192,192,176834,1,0,0:0:0:0:
448,192,176877,1,0,0:0:0:0:
64,192,176920,1,0,0:0:0:0:
320,192,176962,1,0,0:0:0:0:
192,192,176962,1,0,0:0:0:0:
448,192,177048,1,0,0:0:0:0:
64,192,177048,1,0,0:0:0:0:
320,192,177134,1,0,0:0:0:0:
192,192,177134,1,0,0:0:0:0:
64,192,177220,1,0,0:0:0:0:
320,192,177305,1,0,0:0:0:0:
448,192,177305,1,0,0:0:0:0:
192,192,177391,1,0,0:0:0:0:
64,192,177391,1,0,0:0:0:0:
448,192,177477,1,0,0:0:0:0:
320,192,177477,1,0,0:0:0:0:
192,192,177562,1,0,0:0:0:0:
320,192,177648,1,0,0:0:0:0:
64,192,177648,1,0,0:0:0:0:
192,192,177734,1,0,0:0:0:0:
448,192,177734,1,0,0:0:0:0:
64,192,177820,1,0,0:0:0:0:
320,192,177820,1,0,0:0:0:0:
448,192,177905,1,0,0:0:0:0:
192,192,177991,1,0,0:0:0:0:
64,192,177991,1,0,0:0:0:0:
448,192,178077,1,0,0:0:0:0:
320,192,178077,1,0,0:0:0:0:
192,192,178162,1,0,0:0:0:0:
64,192,178162,1,0,0:0:0:0:
320,192,178248,1,0,0:0:0:0:
192,192,178334,1,0,0:0:0:0:
64,192,178334,1,0,0:0:0:0:
320,192,178420,1,0,0:0:0:0:
448,192,178420,1,0,0:0:0:0:
192,192,178505,1,0,0:0:0:0:
64,192,178505,1,0,0:0:0:0:
448,192,178591,1,0,0:0:0:0:
64,192,178677,1,0,0:0:0:0:
320,192,178677,1,0,0:0:0:0:
448,192,178762,1,0,0:0:0:0:
192,192,178762,1,0,0:0:0:0:
64,192,178848,1,0,0:0:0:0:
320,192,178848,1,0,0:0:0:0:
192,192,178934,1,0,0:0:0:0:
448,192,179020,1,0,0:0:0:0:
320,192,179020,1,0,0:0:0:0:
64,192,179105,1,0,0:0:0:0:
192,192,179105,1,0,0:0:0:0:
320,192,179191,1,0,0:0:0:0:
448,192,179191,1,0,0:0:0:0:
64,192,179277,1,0,0:0:0:0:
320,192,179362,1,0,0:0:0:0:
448,192,179362,1,0,0:0:0:0:
192,192,179448,1,0,0:0:0:0:
64,192,179448,1,0,0:0:0:0:
448,192,179534,1,0,0:0:0:0:
320,192,179534,1,0,0:0:0:0:
192,192,179577,1,0,0:0:0:0:
64,192,179620,1,0,0:0:0:0:
320,192,179662,1,0,0:0:0:0:
192,192,179705,1,0,0:0:0:0:
448,192,179705,1,0,0:0:0:0:
320,192,182448,1,0,0:0:0:0:
448,192,182448,1,0,0:0:0:0:
192,192,182448,1,0,0:0:0:0:
64,192,182534,1,0,0:0:0:0:
320,192,182705,1,0,0:0:0:0:
448,192,182705,1,0,0:0:0:0:
64,192,182791,1,0,0:0:0:0:
192,192,182791,1,0,0:0:0:0:
448,192,182962,1,0,0:0:0:0:
320,192,182962,1,0,0:0:0:0:
192,192,183134,1,0,0:0:0:0:
448,192,183134,1,0,0:0:0:0:
64,192,183134,1,0,0:0:0:0:
320,192,183220,1,0,0:0:0:0:
64,192,183391,1,0,0:0:0:0:
192,192,183391,1,0,0:0:0:0:
320,192,183477,1,0,0:0:0:0:
448,192,183477,1,0,0:0:0:0:
64,192,183648,1,0,0:0:0:0:
192,192,183648,1,0,0:0:0:0:
320,192,183820,1,0,0:0:0:0:
192,192,183820,1,0,0:0:0:0:
448,192,183820,1,0,0:0:0:0:
64,192,183905,1,0,0:0:0:0:
64,192,184077,1,0,0:0:0:0:
320,192,184077,1,0,0:0:0:0:
192,192,184162,1,0,0:0:0:0:
448,192,184162,1,0,0:0:0:0:
320,192,184334,1,0,0:0:0:0:
448,192,184334,1,0,0:0:0:0:
192,192,184505,1,0,0:0:0:0:
448,192,184505,1,0,0:0:0:0:
64,192,184505,1,0,0:0:0:0:
320,192,184591,1,0,0:0:0:0:
192,192,184762,1,0,0:0:0:0:
64,192,184762,1,0,0:0:0:0:
320,192,184848,1,0,0:0:0:0:
448,192,184848,1,0,0:0:0:0:
64,192,185020,1,0,0:0:0:0:
448,192,185020,1,0,0:0:0:0:
192,192,185191,1,0,0:0:0:0:
320,192,185191,1,0,0:0:0:0:
64,192,185191,1,0,0:0:0:0:
448,192,185277,1,0,0:0:0:0:
320,192,185448,1,0,0:0:0:0:
192,192,185448,1,0,0:0:0:0:
448,192,185534,1,0,0:0:0:0:
64,192,185534,1,0,0:0:0:0:
192,192,185705,1,0,0:0:0:0:
320,192,185705,1,0,0:0:0:0:
448,192,185877,1,0,0:0:0:0:
192,192,185877,1,0,0:0:0:0:
64,192,185877,1,0,0:0:0:0:
320,192,185962,1,0,0:0:0:0:
64,192,186134,1,0,0:0:0:0:
192,192,186134,1,0,0:0:0:0:
320,192,186220,1,0,0:0:0:0:
448,192,186220,1,0,0:0:0:0:
448,192,186391,1,0,0:0:0:0:
320,192,186391,1,0,0:0:0:0:
64,192,186562,1,0,0:0:0:0:
192,192,186562,1,0,0:0:0:0:
448,192,186562,1,0,0:0:0:0:
320,192,186648,1,0,0:0:0:0:
192,192,186820,1,0,0:0:0:0:
64,192,186820,1,0,0:0:0:0:
320,192,186905,1,0,0:0:0:0:
448,192,186905,1,0,0:0:0:0:
64,192,187077,1,0,0:0:0:0:
192,192,187077,1,0,0:0:0:0:
64,192,187248,1,0,0:0:0:0:
448,192,187248,1,0,0:0:0:0:
320,192,187248,1,0,0:0:0:0:
192,192,187334,1,0,0:0:0:0:
448,192,187505,1,0,0:0:0:0:
192,192,187505,1,0,0:0:0:0:
64,192,187591,1,0,0:0:0:0:
320,192,187591,1,0,0:0:0:0:
64,192,187762,1,0,0:0:0:0:
192,192,187762,1,0,0:0:0:0:
320,192,187934,1,0,0:0:0:0:
64,192,187934,1,0,0:0:0:0:
448,192,187934,1,0,0:0:0:0:
192,192,188020,1,0,0:0:0:0:
448,192,188191,1,0,0:0:0:0:
320,192,188191,1,0,0:0:0:0:
192,192,188277,1,0,0:0:0:0:
64,192,188277,1,0,0:0:0:0:
320,192,188448,1,0,0:0:0:0:
448,192,188448,1,0,0:0:0:0:
64,192,188620,1,0,0:0:0:0:
320,192,188620,1,0,0:0:0:0:
448,192,188620,1,0,0:0:0:0:
192,192,188705,1,0,0:0:0:0:
192,192,188877,1,0,0:0:0:0:
320,192,188877,1,0,0:0:0:0:
64,192,188962,1,0,0:0:0:0:
448,192,188962,1,0,0:0:0:0:
448,192,189134,1,0,0:0:0:0:
320,192,189134,1,0,0:0:0:0:
448,192,189305,1,0,0:0:0:0:
64,192,189305,1,0,0:0:0:0:
192,192,189305,1,0,0:0:0:0:
320,192,189391,1,0,0:0:0:0:
64,192,189562,1,0,0:0:0:0:
192,192,189562,1,0,0:0:0:0:
320,192,189648,1,0,0:0:0:0:
448,192,189648,1,0,0:0:0:0:
192,192,189820,1,0,0:0:0:0:
64,192,189820,1,0,0:0:0:0:
320,192,189991,1,0,0:0:0:0:
64,192,189991,1,0,0:0:0:0:
192,192,189991,1,0,0:0:0:0:
448,192,190077,1,0,0:0:0:0:
448,192,190248,1,0,0:0:0:0:
64,192,190248,1,0,0:0:0:0:
320,192,190334,1,0,0:0:0:0:
192,192,190334,1,0,0:0:0:0:
64,192,190505,1,0,0:0:0:0:
448,192,190505,1,0,0:0:0:0:
64,192,190677,1,0,0:0:0:0:
320,192,190677,1,0,0:0:0:0:
192,192,190677,1,0,0:0:0:0:
448,192,190762,1,0,0:0:0:0:
192,192,190934,1,0,0:0:0:0:
320,192,190934,1,0,0:0:0:0:
448,192,191020,1,0,0:0:0:0:
64,192,191020,1,0,0:0:0:0:
64,192,191191,1,0,0:0:0:0:
320,192,191191,1,0,0:0:0:0:
320,192,191362,1,0,0:0:0:0:
448,192,191362,1,0,0:0:0:0:
192,192,191362,1,0,0:0:0:0:
64,192,191448,1,0,0:0:0:0:
192,192,191620,1,0,0:0:0:0:
448,192,191620,1,0,0:0:0:0:
64,192,191705,1,0,0:0:0:0:
320,192,191705,1,0,0:0:0:0:
448,192,191877,1,0,0:0:0:0:
192,192,191877,1,0,0:0:0:0:
192,192,192048,1,0,0:0:0:0:
64,192,192048,1,0,0:0:0:0:
448,192,192048,1,0,0:0:0:0:
320,192,192134,1,0,0:0:0:0:
64,192,192305,1,0,0:0:0:0:
320,192,192305,1,0,0:0:0:0:
192,192,192391,1,0,0:0:0:0:
448,192,192391,1,0,0:0:0:0:
320,192,192562,1,0,0:0:0:0:
192,192,192562,1,0,0:0:0:0:
64,192,192734,1,0,0:0:0:0:
448,192,192734,1,0,0:0:0:0:
320,192,192734,1,0,0:0:0:0:
192,192,192820,1,0,0:0:0:0:
64,192,192991,1,0,0:0:0:0:
448,192,192991,1,0,0:0:0:0:
320,192,192991,1,0,0:0:0:0:
192,192,193077,1,0,0:0:0:0:
320,192,193077,1,0,0:0:0:0:
64,192,193248,1,0,0:0:0:0:
192,192,193248,1,0,0:0:0:0:
448,192,193248,1,0,0:0:0:0:
320,192,193420,1,0,0:0:0:0:
448,192,193420,1,0,0:0:0:0:
64,192,193420,1,0,0:0:0:0:
192,192,193505,1,0,0:0:0:0:
192,192,193677,1,0,0:0:0:0:
448,192,193677,1,0,0:0:0:0:
320,192,193762,1,0,0:0:0:0:
64,192,193762,1,0,0:0:0:0:
448,192,193934,1,0,0:0:0:0:
192,192,193934,1,0,0:0:0:0:
64,192,194105,1,0,0:0:0:0:
192,192,194105,1,0,0:0:0:0:
320,192,194105,1,0,0:0:0:0:
448,192,194191,1,0,0:0:0:0:
64,192,194362,1,0,0:0:0:0:
192,192,194362,1,0,0:0:0:0:
448,192,194448,1,0,0:0:0:0:
320,192,194448,1,0,0:0:0:0:
192,192,194620,1,0,0:0:0:0:
64,192,194620,1,0,0:0:0:0:
320,192,194791,1,0,0:0:0:0:
448,192,194791,1,0,0:0:0:0:
64,192,194791,1,0,0:0:0:0:
192,192,194877,1,0,0:0:0:0:
448,192,195048,1,0,0:0:0:0:
320,192,195048,1,0,0:0:0:0:
64,192,195134,1,0,0:0:0:0:
192,192,195134,1,0,0:0:0:0:
320,192,195305,1,0,0:0:0:0:
192,192,195305,1,0,0:0:0:0:
64,192,195477,1,0,0:0:0:0:
320,192,195477,1,0,0:0:0:0:
448,192,195477,1,0,0:0:0:0:
192,192,195562,1,0,0:0:0:0:
448,192,195734,1,0,0:0:0:0:
320,192,195734,1,0,0:0:0:0:
192,192,195820,1,0,0:0:0:0:
64,192,195820,1,0,0:0:0:0:
320,192,195991,1,0,0:0:0:0:
64,192,195991,1,0,0:0:0:0:
320,192,196162,1,0,0:0:0:0:
192,192,196162,1,0,0:0:0:0:
448,192,196162,1,0,0:0:0:0:
64,192,196248,1,0,0:0:0:0:
448,192,196420,1,0,0:0:0:0:
192,192,196420,1,0,0:0:0:0:
64,192,196505,1,0,0:0:0:0:
320,192,196505,1,0,0:0:0:0:
192,192,196677,1,0,0:0:0:0:
448,192,196677,1,0,0:0:0:0:
320,192,196848,1,0,0:0:0:0:
192,192,196848,1,0,0:0:0:0:
64,192,196848,1,0,0:0:0:0:
448,192,196934,1,0,0:0:0:0:
448,192,197105,1,0,0:0:0:0:
320,192,197105,1,0,0:0:0:0:
192,192,197191,1,0,0:0:0:0:
64,192,197191,1,0,0:0:0:0:
64,192,197362,1,0,0:0:0:0:
320,192,197362,1,0,0:0:0:0:
320,192,197534,1,0,0:0:0:0:
64,192,197534,1,0,0:0:0:0:
448,192,197534,1,0,0:0:0:0:
192,192,197620,1,0,0:0:0:0:
320,192,197791,1,0,0:0:0:0:
192,192,197791,1,0,0:0:0:0:
448,192,197877,1,0,0:0:0:0:
64,192,197877,1,0,0:0:0:0:
320,192,198048,1,0,0:0:0:0:
64,192,198048,1,0,0:0:0:0:
448,192,198220,1,0,0:0:0:0:
192,192,198220,1,0,0:0:0:0:
320,192,198220,1,0,0:0:0:0:
64,192,198305,1,0,0:0:0:0:
192,192,198477,1,0,0:0:0:0:
448,192,198477,1,0,0:0:0:0:
64,192,198562,1,0,0:0:0:0:
320,192,198562,1,0,0:0:0:0:
448,192,198734,1,0,0:0:0:0:
192,192,198734,1,0,0:0:0:0:
192,192,198905,1,0,0:0:0:0:
448,192,198905,1,0,0:0:0:0:
64,192,198905,1,0,0:0:0:0:
320,192,198991,1,0,0:0:0:0:
320,192,199162,1,0,0:0:0:0:
192,192,199162,1,0,0:0:0:0:
64,192,199248,1,0,0:0:0:0:
448,192,199248,1,0,0:0:0:0:
192,192,199420,1,0,0:0:0:0:
320,192,199420,1,0,0:0:0:0:
448,192,199591,1,0,0:0:0:0:
320,192,199591,1,0,0:0:0:0:
64,192,199591,1,0,0:0:0:0:
192,192,199677,1,0,0:0:0:0:
64,192,199848,1,0,0:0:0:0:
320,192,199848,1,0,0:0:0:0:
192,192,199934,1,0,0:0:0:0:
448,192,199934,1,0,0:0:0:0:
320,192,200105,1,0,0:0:0:0:
448,192,200105,1,0,0:0:0:0:
64,192,200277,1,0,0:0:0:0:
192,192,200277,1,0,0:0:0:0:
448,192,200277,1,0,0:0:0:0:
320,192,200362,1,0,0:0:0:0:
64,192,200534,1,0,0:0:0:0:
192,192,200534,1,0,0:0:0:0:
448,192,200620,1,0,0:0:0:0:
320,192,200620,1,0,0:0:0:0:
64,192,200791,1,0,0:0:0:0:
192,192,200791,1,0,0:0:0:0:
320,192,200962,1,0,0:0:0:0:
448,192,200962,1,0,0:0:0:0:
64,192,200962,1,0,0:0:0:0:
192,192,201048,1,0,0:0:0:0:
448,192,201220,1,0,0:0:0:0:
192,192,201220,1,0,0:0:0:0:
64,192,201305,1,0,0:0:0:0:
320,192,201305,1,0,0:0:0:0:
320,192,201477,1,0,0:0:0:0:
64,192,201477,1,0,0:0:0:0:
320,192,201648,1,0,0:0:0:0:
448,192,201648,1,0,0:0:0:0:
64,192,201734,1,0,0:0:0:0:
192,192,201734,1,0,0:0:0:0:
448,192,201820,1,0,0:0:0:0:
320,192,201820,1,0,0:0:0:0:
192,192,201905,1,0,0:0:0:0:
64,192,201905,1,0,0:0:0:0:
448,192,201991,1,0,0:0:0:0:
320,192,201991,1,0,0:0:0:0:
64,192,202077,1,0,0:0:0:0:
192,192,202077,1,0,0:0:0:0:
448,192,202162,1,0,0:0:0:0:
320,192,202162,1,0,0:0:0:0:
64,192,202248,1,0,0:0:0:0:
192,192,202248,1,0,0:0:0:0:
320,192,202334,1,0,0:0:0:0:
448,192,202334,1,0,0:0:0:0:
192,192,202420,1,0,0:0:0:0:
64,192,202420,1,0,0:0:0:0:
320,192,202505,1,0,0:0:0:0:
448,192,202505,1,0,0:0:0:0:
64,192,202591,1,0,0:0:0:0:
192,192,202591,1,0,0:0:0:0:
320,192,202677,1,0,0:0:0:0:
448,192,202677,1,0,0:0:0:0:
192,192,202762,1,0,0:0:0:0:
64,192,202762,1,0,0:0:0:0:
448,192,202848,1,0,0:0:0:0:
320,192,202848,1,0,0:0:0:0:
192,192,202934,1,0,0:0:0:0:
64,192,202934,1,0,0:0:0:0:
320,192,203020,1,0,0:0:0:0:
448,192,203020,1,0,0:0:0:0:
192,192,203362,1,0,0:0:0:0:
448,192,203362,1,0,0:0:0:0:
320,192,203705,1,0,0:0:0:0:
64,192,203705,1,0,0:0:0:0:
320,192,203962,1,0,0:0:0:0:
448,192,204048,1,0,0:0:0:0:
64,192,204048,1,0,0:0:0:0:
320,192,204220,1,0,0:0:0:0:
192,192,204220,1,0,0:0:0:0:
64,192,204391,1,0,0:0:0:0:
448,192,204391,1,0,0:0:0:0:
320,192,204391,1,0,0:0:0:0:
192,192,204477,1,0,0:0:0:0:
448,192,204562,1,0,0:0:0:0:
64,192,204648,1,0,0:0:0:0:
320,192,204648,1,0,0:0:0:0:
192,192,204734,1,0,0:0:0:0:
448,192,204734,1,0,0:0:0:0:
64,192,204820,1,0,0:0:0:0:
448,192,204905,1,0,0:0:0:0:
192,192,204905,1,0,0:0:0:0:
320,192,204991,1,0,0:0:0:0:
192,192,205077,1,0,0:0:0:0:
448,192,205077,1,0,0:0:0:0:
64,192,205077,1,0,0:0:0:0:
320,192,205162,1,0,0:0:0:0:
64,192,205248,1,0,0:0:0:0:
448,192,205334,1,0,0:0:0:0:
192,192,205334,1,0,0:0:0:0:
320,192,205420,1,0,0:0:0:0:
64,192,205420,1,0,0:0:0:0:
192,192,205505,1,0,0:0:0:0:
448,192,205591,1,0,0:0:0:0:
64,192,205591,1,0,0:0:0:0:
192,192,205677,1,0,0:0:0:0:
64,192,205762,1,0,0:0:0:0:
448,192,205762,1,0,0:0:0:0:
320,192,205762,1,0,0:0:0:0:
192,192,205848,1,0,0:0:0:0:
320,192,205934,1,0,0:0:0:0:
192,192,206020,1,0,0:0:0:0:
448,192,206020,1,0,0:0:0:0:
64,192,206105,1,0,0:0:0:0:
320,192,206105,1,0,0:0:0:0:
448,192,206191,1,0,0:0:0:0:
64,192,206277,1,0,0:0:0:0:
320,192,206277,1,0,0:0:0:0:
448,192,206362,1,0,0:0:0:0:
64,192,206448,1,0,0:0:0:0:
320,192,206448,1,0,0:0:0:0:
192,192,206448,1,0,0:0:0:0:
448,192,206534,1,0,0:0:0:0:
320,192,206620,1,0,0:0:0:0:
448,192,206705,1,0,0:0:0:0:
192,192,206705,1,0,0:0:0:0:
64,192,206791,1,0,0:0:0:0:
320,192,206791,1,0,0:0:0:0:
448,192,206877,1,0,0:0:0:0:
192,192,206962,1,0,0:0:0:0:
64,192,206962,1,0,0:0:0:0:
448,192,207048,1,0,0:0:0:0:
64,192,207134,1,0,0:0:0:0:
192,192,207134,1,0,0:0:0:0:
320,192,207134,1,0,0:0:0:0:
448,192,207220,1,0,0:0:0:0:
320,192,207305,1,0,0:0:0:0:
192,192,207391,1,0,0:0:0:0:
64,192,207391,1,0,0:0:0:0:
448,192,207477,1,0,0:0:0:0:
320,192,207477,1,0,0:0:0:0:
64,192,207562,1,0,0:0:0:0:
192,192,207648,1,0,0:0:0:0:
448,192,207648,1,0,0:0:0:0:
320,192,207734,1,0,0:0:0:0:
64,192,207820,1,0,0:0:0:0:
448,192,207820,1,0,0:0:0:0:
192,192,207820,1,0,0:0:0:0:
320,192,207905,1,0,0:0:0:0:
192,192,207991,1,0,0:0:0:0:
320,192,208077,1,0,0:0:0:0:
448,192,208077,1,0,0:0:0:0:
64,192,208162,1,0,0:0:0:0:
192,192,208162,1,0,0:0:0:0:
320,192,208248,1,0,0:0:0:0:
192,192,208334,1,0,0:0:0:0:
448,192,208334,1,0,0:0:0:0:
64,192,208420,1,0,0:0:0:0:
320,192,208505,1,0,0:0:0:0:
192,192,208505,1,0,0:0:0:0:
448,192,208505,1,0,0:0:0:0:
64,192,208591,1,0,0:0:0:0:
448,192,208677,1,0,0:0:0:0:
192,192,208762,1,0,0:0:0:0:
64,192,208762,1,0,0:0:0:0:
320,192,208848,1,0,0:0:0:0:
448,192,208848,1,0,0:0:0:0:
64,192,208934,1,0,0:0:0:0:
192,192,209020,1,0,0:0:0:0:
320,192,209020,1,0,0:0:0:0:
64,192,209105,1,0,0:0:0:0:
448,192,209191,1,0,0:0:0:0:
192,192,209191,1,0,0:0:0:0:
320,192,209191,1,0,0:0:0:0:
64,192,209277,1,0,0:0:0:0:
448,192,209362,1,0,0:0:0:0:
64,192,209448,1,0,0:0:0:0:
192,192,209448,1,0,0:0:0:0:
448,192,209534,1,0,0:0:0:0:
320,192,209534,1,0,0:0:0:0:
192,192,209620,1,0,0:0:0:0:
448,192,209705,1,0,0:0:0:0:
64,192,209705,1,0,0:0:0:0:
320,192,209791,1,0,0:0:0:0:
64,192,209877,1,0,0:0:0:0:
192,192,209877,1,0,0:0:0:0:
448,192,209877,1,0,0:0:0:0:
320,192,209962,1,0,0:0:0:0:
192,192,210048,1,0,0:0:0:0:
320,192,210134,1,0,0:0:0:0:
448,192,210134,1,0,0:0:0:0:
64,192,210220,1,0,0:0:0:0:
192,192,210220,1,0,0:0:0:0:
448,192,210305,1,0,0:0:0:0:
192,192,210391,1,0,0:0:0:0:
320,192,210391,1,0,0:0:0:0:
64,192,210477,1,0,0:0:0:0:
448,192,210562,1,0,0:0:0:0:
320,192,210562,1,0,0:0:0:0:
192,192,210562,1,0,0:0:0:0:
64,192,210648,1,0,0:0:0:0:
448,192,210734,1,0,0:0:0:0:
320,192,210820,1,0,0:0:0:0:
64,192,210820,1,0,0:0:0:0:
192,192,210905,1,0,0:0:0:0:
448,192,210905,1,0,0:0:0:0:
320,192,210991,1,0,0:0:0:0:
64,192,211077,1,0,0:0:0:0:
448,192,211077,1,0,0:0:0:0:
192,192,211162,1,0,0:0:0:0:
64,192,211248,1,0,0:0:0:0:
320,192,211248,1,0,0:0:0:0:
448,192,211248,1,0,0:0:0:0:
192,192,211334,1,0,0:0:0:0:
448,192,211420,1,0,0:0:0:0:
320,192,211505,1,0,0:0:0:0:
192,192,211505,1,0,0:0:0:0:
64,192,211591,1,0,0:0:0:0:
448,192,211591,1,0,0:0:0:0:
192,192,211677,1,0,0:0:0:0:
64,192,211762,1,0,0:0:0:0:
320,192,211762,1,0,0:0:0:0:
192,192,211848,1,0,0:0:0:0:
64,192,211934,1,0,0:0:0:0:
320,192,211934,1,0,0:0:0:0:
448,192,211934,1,0,0:0:0:0:
192,192,212020,1,0,0:0:0:0:
448,192,212105,1,0,0:0:0:0:
320,192,212191,1,0,0:0:0:0:
64,192,212191,1,0,0:0:0:0:
192,192,212277,1,0,0:0:0:0:
448,192,212277,1,0,0:0:0:0:
64,192,212362,1,0,0:0:0:0:
448,192,212448,1,0,0:0:0:0:
192,192,212448,1,0,0:0:0:0:
320,192,212534,1,0,0:0:0:0:
192,192,212620,1,0,0:0:0:0:
64,192,212620,1,0,0:0:0:0:
448,192,212620,1,0,0:0:0:0:
320,192,212705,1,0,0:0:0:0:
192,192,212791,1,0,0:0:0:0:
64,192,212877,1,0,0:0:0:0:
448,192,212877,1,0,0:0:0:0:
192,192,212962,1,0,0:0:0:0:
320,192,212962,1,0,0:0:0:0:
64,192,213048,1,0,0:0:0:0:
192,192,213134,1,0,0:0:0:0:
320,192,213134,1,0,0:0:0:0:
448,192,213220,1,0,0:0:0:0:
320,192,213305,1,0,0:0:0:0:
192,192,213305,1,0,0:0:0:0:
64,192,213305,1,0,0:0:0:0:
448,192,213391,1,0,0:0:0:0:
320,192,213477,1,0,0:0:0:0:
64,192,213562,1,0,0:0:0:0:
448,192,213562,1,0,0:0:0:0:
192,192,213648,1,0,0:0:0:0:
320,192,213648,1,0,0:0:0:0:
64,192,213734,1,0,0:0:0:0:
448,192,213820,1,0,0:0:0:0:
320,192,213820,1,0,0:0:0:0:
64,192,213905,1,0,0:0:0:0:
448,192,213991,1,0,0:0:0:0:
192,192,213991,1,0,0:0:0:0:
320,192,213991,1,0,0:0:0:0:
64,192,214077,1,0,0:0:0:0:
448,192,214162,1,0,0:0:0:0:
192,192,214248,1,0,0:0:0:0:
64,192,214248,1,0,0:0:0:0:
448,192,214334,1,0,0:0:0:0:
320,192,214334,1,0,0:0:0:0:
192,192,214420,1,0,0:0:0:0:
64,192,214505,1,0,0:0:0:0:
448,192,214505,1,0,0:0:0:0:
192,192,214591,1,0,0:0:0:0:
64,192,214677,1,0,0:0:0:0:
448,192,214677,1,0,0:0:0:0:
320,192,214677,1,0,0:0:0:0:
192,192,214762,1,0,0:0:0:0:
448,192,214848,1,0,0:0:0:0:
64,192,214934,1,0,0:0:0:0:
320,192,214934,1,0,0:0:0:0:
192,192,215020,1,0,0:0:0:0:
448,192,215020,1,0,0:0:0:0:
64,192,215105,1,0,0:0:0:0:
320,192,215191,1,0,0:0:0:0:
192,192,215191,1,0,0:0:0:0:
448,192,215191,1,0,0:0:0:0:
64,192,215277,1,0,0:0:0:0:
320,192,215362,1,0,0:0:0:0:
448,192,215362,1,0,0:0:0:0:
192,192,215362,1,0,0:0:0:0:
64,192,215448,1,0,0:0:0:0:
320,192,215534,1,0,0:0:0:0:
64,192,215620,1,0,0:0:0:0:
448,192,215620,1,0,0:0:0:0:
192,192,215705,1,0,0:0:0:0:
320,192,215705,1,0,0:0:0:0:
64,192,215791,1,0,0:0:0:0:
320,192,215877,1,0,0:0:0:0:
192,192,215877,1,0,0:0:0:0:
448,192,215962,1,0,0:0:0:0:
64,192,216048,1,0,0:0:0:0:
192,192,216048,1,0,0:0:0:0:
320,192,216048,1,0,0:0:0:0:
448,192,216134,1,0,0:0:0:0:
64,192,216220,1,0,0:0:0:0:
320,192,216305,1,0,0:0:0:0:
192,192,216305,1,0,0:0:0:0:
448,192,216391,1,0,0:0:0:0:
64,192,216391,1,0,0:0:0:0:
320,192,216477,1,0,0:0:0:0:
192,192,216562,1,0,0:0:0:0:
64,192,216562,1,0,0:0:0:0:
448,192,216648,1,0,0:0:0:0:
64,192,216734,1,0,0:0:0:0:
192,192,216734,1,0,0:0:0:0:
320,192,216734,1,0,0:0:0:0:
448,192,216820,1,0,0:0:0:0:
192,192,216905,1,0,0:0:0:0:
320,192,216991,1,0,0:0:0:0:
64,192,216991,1,0,0:0:0:0:
192,192,217077,1,0,0:0:0:0:
448,192,217077,1,0,0:0:0:0:
64,192,217162,1,0,0:0:0:0:
448,192,217248,1,0,0:0:0:0:
320,192,217248,1,0,0:0:0:0:
64,192,217334,1,0,0:0:0:0:
448,192,217420,1,0,0:0:0:0:
192,192,217420,1,0,0:0:0:0:
320,192,217420,1,0,0:0:0:0:
64,192,217505,1,0,0:0:0:0:
320,192,217591,1,0,0:0:0:0:
192,192,217677,1,0,0:0:0:0:
64,192,217677,1,0,0:0:0:0:
320,192,217762,1,0,0:0:0:0:
448,192,217762,1,0,0:0:0:0:
64,192,217848,1,0,0:0:0:0:
448,192,217934,1,0,0:0:0:0:
192,192,217934,1,0,0:0:0:0:
320,192,218020,1,0,0:0:0:0:
192,192,218105,1,0,0:0:0:0:
64,192,218105,1,0,0:0:0:0:
448,192,218105,1,0,0:0:0:0:
320,192,218191,1,0,0:0:0:0:
64,192,218277,1,0,0:0:0:0:
320,192,218362,1,0,0:0:0:0:
448,192,218362,1,0,0:0:0:0:
192,192,218448,1,0,0:0:0:0:
64,192,218448,1,0,0:0:0:0:
448,192,218534,1,0,0:0:0:0:
320,192,218620,1,0,0:0:0:0:
64,192,218620,1,0,0:0:0:0:
192,192,218705,1,0,0:0:0:0:
64,192,218791,1,0,0:0:0:0:
448,192,218791,1,0,0:0:0:0:
320,192,218791,1,0,0:0:0:0:
192,192,218877,1,0,0:0:0:0:
320,192,218962,1,0,0:0:0:0:
64,192,219048,1,0,0:0:0:0:
448,192,219048,1,0,0:0:0:0:
192,192,219134,1,0,0:0:0:0:
320,192,219134,1,0,0:0:0:0:
64,192,219220,1,0,0:0:0:0:
192,192,219305,1,0,0:0:0:0:
448,192,219305,1,0,0:0:0:0:
64,192,219391,1,0,0:0:0:0:
320,192,219477,1,0,0:0:0:0:
192,192,219477,1,0,0:0:0:0:
448,192,219477,1,0,0:0:0:0:
64,192,219562,1,0,0:0:0:0:
448,192,219648,1,0,0:0:0:0:
320,192,219734,1,0,0:0:0:0:
64,192,219734,1,0,0:0:0:0:
448,192,219820,1,0,0:0:0:0:
192,192,219820,1,0,0:0:0:0:
64,192,219905,1,0,0:0:0:0:
320,192,219991,1,0,0:0:0:0:
192,192,219991,1,0,0:0:0:0:
64,192,220077,1,0,0:0:0:0:
320,192,220162,1,0,0:0:0:0:
192,192,220162,1,0,0:0:0:0:
448,192,220162,1,0,0:0:0:0:
64,192,220248,1,0,0:0:0:0:
448,192,220334,1,0,0:0:0:0:
64,192,220420,1,0,0:0:0:0:
192,192,220420,1,0,0:0:0:0:
448,192,220505,1,0,0:0:0:0:
320,192,220505,1,0,0:0:0:0:
64,192,220591,1,0,0:0:0:0:
448,192,220677,1,0,0:0:0:0:
192,192,220677,1,0,0:0:0:0:
320,192,220762,1,0,0:0:0:0:
64,192,220848,1,0,0:0:0:0:
448,192,220848,1,0,0:0:0:0:
192,192,220848,1,0,0:0:0:0:
320,192,220934,1,0,0:0:0:0:
448,192,221020,1,0,0:0:0:0:
320,192,221105,1,0,0:0:0:0:
192,192,221105,1,0,0:0:0:0:
64,192,221191,1,0,0:0:0:0:
448,192,221191,1,0,0:0:0:0:
320,192,221277,1,0,0:0:0:0:
64,192,221362,1,0,0:0:0:0:
192,192,221362,1,0,0:0:0:0:
448,192,221448,1,0,0:0:0:0:
320,192,221534,1,0,0:0:0:0:
192,192,221534,1,0,0:0:0:0:
64,192,221534,1,0,0:0:0:0:
448,192,221620,1,0,0:0:0:0:
320,192,221705,1,0,0:0:0:0:
64,192,221791,1,0,0:0:0:0:
192,192,221791,1,0,0:0:0:0:
320,192,221877,1,0,0:0:0:0:
448,192,221877,1,0,0:0:0:0:
64,192,221962,1,0,0:0:0:0:
320,192,222048,1,0,0:0:0:0:
448,192,222048,1,0,0:0:0:0:
64,192,222134,1,0,0:0:0:0:
448,192,222220,1,0,0:0:0:0:
192,192,222220,1,0,0:0:0:0:
320,192,222220,1,0,0:0:0:0:
64,192,222305,1,0,0:0:0:0:
192,192,222391,1,0,0:0:0:0:
64,192,222477,1,0,0:0:0:0:
448,192,222477,1,0,0:0:0:0:
320,192,222562,1,0,0:0:0:0:
192,192,222562,1,0,0:0:0:0:
64,192,222648,1,0,0:0:0:0:
320,192,222734,1,0,0:0:0:0:
448,192,222734,1,0,0:0:0:0:
192,192,222820,1,0,0:0:0:0:
448,192,222905,1,0,0:0:0:0:
64,192,222905,1,0,0:0:0:0:
320,192,222905,1,0,0:0:0:0:
192,192,222991,1,0,0:0:0:0:
448,192,223077,1,0,0:0:0:0:
320,192,223162,1,0,0:0:0:0:
192,192,223162,1,0,0:0:0:0:
64,192,223248,1,0,0:0:0:0:
448,192,223248,1,0,0:0:0:0:
320,192,223334,1,0,0:0:0:0:
448,192,223420,1,0,0:0:0:0:
64,192,223420,1,0,0:0:0:0:
320,192,223505,1,0,0:0:0:0:
448,192,223591,1,0,0:0:0:0:
64,192,223591,1,0,0:0:0:0:
192,192,223591,1,0,0:0:0:0:
320,192,223677,1,0,0:0:0:0:
64,192,223762,1,0,0:0:0:0:
192,192,223848,1,0,0:0:0:0:
448,192,223848,1,0,0:0:0:0:
320,192,223934,1,0,0:0:0:0:
64,192,223934,1,0,0:0:0:0:
192,192,224020,1,0,0:0:0:0:
448,192,224105,1,0,0:0:0:0:
64,192,224105,1,0,0:0:0:0:
320,192,224191,1,0,0:0:0:0:
192,192,224277,1,0,0:0:0:0:
448,192,224277,1,0,0:0:0:0:
64,192,224277,1,0,0:0:0:0:
320,192,224362,1,0,0:0:0:0:
192,192,224448,1,0,0:0:0:0:
64,192,224534,1,0,0:0:0:0:
320,192,224534,1,0,0:0:0:0:
192,192,224620,1,0,0:0:0:0:
448,192,224620,1,0,0:0:0:0:
320,192,224705,1,0,0:0:0:0:
64,192,224791,1,0,0:0:0:0:
448,192,224791,1,0,0:0:0:0:
320,192,224877,1,0,0:0:0:0:
64,192,224962,1,0,0:0:0:0:
192,192,224962,1,0,0:0:0:0:
448,192,224962,1,0,0:0:0:0:
320,192,225048,1,0,0:0:0:0:
448,192,225134,1,0,0:0:0:0:
192,192,225220,1,0,0:0:0:0:
64,192,225220,1,0,0:0:0:0:
320,192,225305,1,0,0:0:0:0:
64,192,225391,1,0,0:0:0:0:
192,192,225477,1,0,0:0:0:0:
448,192,225477,1,0,0:0:0:0:
64,192,225562,1,0,0:0:0:0:
192,192,225648,1,0,0:0:0:0:
320,192,225648,1,0,0:0:0:0:
64,192,225734,1,0,0:0:0:0:
448,192,225820,1,0,0:0:0:0:
64,192,225905,1,0,0:0:0:0:
320,192,225905,1,0,0:0:0:0:
192,192,225905,1,0,0:0:0:0:
448,192,225991,1,0,0:0:0:0:
320,192,226077,1,0,0:0:0:0:
192,192,226162,1,0,0:0:0:0:
64,192,226162,1,0,0:0:0:0:
320,192,226205,1,0,0:0:0:0:
448,192,226248,1,0,0:0:0:0:
64,192,226291,1,0,0:0:0:0:
320,192,226334,1,0,0:0:0:0:
192,192,226334,1,0,0:0:0:0:
64,192,226420,1,0,0:0:0:0:
448,192,226505,1,0,0:0:0:0:
320,192,226591,1,0,0:0:0:0:
192,192,226591,1,0,0:0:0:0:
448,192,226677,1,0,0:0:0:0:
64,192,226677,1,0,0:0:0:0:
192,192,226762,1,0,0:0:0:0:
320,192,226848,1,0,0:0:0:0:
448,192,226848,1,0,0:0:0:0:
192,192,226934,1,0,0:0:0:0:
448,192,227020,1,0,0:0:0:0:
64,192,227020,1,0,0:0:0:0:
320,192,227020,1,0,0:0:0:0:
192,192,227105,1,0,0:0:0:0:
64,192,227191,1,0,0:0:0:0:
448,192,227277,1,0,0:0:0:0:
320,192,227277,1,0,0:0:0:0:
192,192,227362,1,0,0:0:0:0:
64,192,227362,1,0,0:0:0:0:
448,192,227448,1,0,0:0:0:0:
192,192,227534,1,0,0:0:0:0:
64,192,227534,1,0,0:0:0:0:
320,192,227620,1,0,0:0:0:0:
192,192,227705,1,0,0:0:0:0:
448,192,227705,1,0,0:0:0:0:
64,192,227705,1,0,0:0:0:0:
320,192,227791,1,0,0:0:0:0:
192,192,227877,1,0,0:0:0:0:
64,192,227962,1,0,0:0:0:0:
320,192,227962,1,0,0:0:0:0:
448,192,228048,1,0,0:0:0:0:
192,192,228048,1,0,0:0:0:0:
64,192,228134,1,0,0:0:0:0:
448,192,228220,1,0,0:0:0:0:
192,192,228220,1,0,0:0:0:0:
320,192,228305,1,0,0:0:0:0:
64,192,228391,1,0,0:0:0:0:
192,192,228391,1,0,0:0:0:0:
448,192,228391,1,0,0:0:0:0:
320,192,228477,1,0,0:0:0:0:
448,192,228562,1,0,0:0:0:0:
320,192,228648,1,0,0:0:0:0:
192,192,228648,1,0,0:0:0:0:
448,192,228734,1,0,0:0:0:0:
64,192,228734,1,0,0:0:0:0:
192,192,228820,1,0,0:0:0:0:
448,192,228905,1,0,0:0:0:0:
320,192,228905,1,0,0:0:0:0:
64,192,228991,1,0,0:0:0:0:
320,192,229077,1,0,0:0:0:0:
192,192,229077,1,0,0:0:0:0:
448,192,229077,1,0,0:0:0:0:
64,192,229162,1,0,0:0:0:0:
448,192,229248,1,0,0:0:0:0:
320,192,229334,1,0,0:0:0:0:
64,192,229334,1,0,0:0:0:0:
192,192,229420,1,0,0:0:0:0:
448,192,229420,1,0,0:0:0:0:
64,192,229505,1,0,0:0:0:0:
448,192,229591,1,0,0:0:0:0:
192,192,229591,1,0,0:0:0:0:
320,192,229677,1,0,0:0:0:0:
192,192,229762,1,0,0:0:0:0:
64,192,229762,1,0,0:0:0:0:
448,192,229762,1,0,0:0:0:0:
320,192,229848,1,0,0:0:0:0:
192,192,229934,1,0,0:0:0:0:
448,192,230020,1,0,0:0:0:0:
64,192,230020,1,0,0:0:0:0:
320,192,230105,1,0,0:0:0:0:
192,192,230105,1,0,0:0:0:0:
64,192,230191,1,0,0:0:0:0:
320,192,230277,1,0,0:0:0:0:
448,192,230277,1,0,0:0:0:0:
192,192,230362,1,0,0:0:0:0:
64,192,230448,1,0,0:0:0:0:
320,192,230448,1,0,0:0:0:0:
448,192,230448,1,0,0:0:0:0:
192,192,230534,1,0,0:0:0:0:
448,192,230620,1,0,0:0:0:0:
320,192,230705,1,0,0:0:0:0:
192,192,230705,1,0,0:0:0:0:
64,192,230791,1,0,0:0:0:0:
448,192,230791,1,0,0:0:0:0:
320,192,230877,1,0,0:0:0:0:
64,192,230962,1,0,0:0:0:0:
192,192,230962,1,0,0:0:0:0:
320,192,231048,1,0,0:0:0:0:
192,192,231134,1,0,0:0:0:0:
64,192,231134,1,0,0:0:0:0:
448,192,231134,1,0,0:0:0:0:
320,192,231220,1,0,0:0:0:0:
64,192,231305,1,0,0:0:0:0:
192,192,231391,1,0,0:0:0:0:
448,192,231391,1,0,0:0:0:0:
64,192,231477,1,0,0:0:0:0:
320,192,231477,1,0,0:0:0:0:
448,192,231562,1,0,0:0:0:0:
64,192,231648,1,0,0:0:0:0:
192,192,231648,1,0,0:0:0:0:
448,192,231734,1,0,0:0:0:0:
64,192,231820,1,0,0:0:0:0:
320,192,231820,1,0,0:0:0:0:
192,192,231820,1,0,0:0:0:0:
448,192,231905,1,0,0:0:0:0:
320,192,231991,1,0,0:0:0:0:
448,192,232077,1,0,0:0:0:0:
192,192,232077,1,0,0:0:0:0:
320,192,232162,1,0,0:0:0:0:
64,192,232162,1,0,0:0:0:0:
192,192,232248,1,0,0:0:0:0:
64,192,232334,1,0,0:0:0:0:
448,192,232334,1,0,0:0:0:0:
192,192,232420,1,0,0:0:0:0:
320,192,232505,1,0,0:0:0:0:
448,192,232505,1,0,0:0:0:0:
64,192,232505,1,0,0:0:0:0:
192,192,232591,1,0,0:0:0:0:
320,192,232677,1,0,0:0:0:0:
64,192,232762,1,0,0:0:0:0:
448,192,232762,1,0,0:0:0:0:
320,192,232848,1,0,0:0:0:0:
192,192,232848,1,0,0:0:0:0:
448,192,232934,1,0,0:0:0:0:
64,192,233020,1,0,0:0:0:0:
320,192,233020,1,0,0:0:0:0:
192,192,233105,1,0,0:0:0:0:
320,192,233191,1,0,0:0:0:0:
64,192,233191,1,0,0:0:0:0:
448,192,233191,1,0,0:0:0:0:
192,192,233277,1,0,0:0:0:0:
64,192,233362,1,0,0:0:0:0:
448,192,233448,1,0,0:0:0:0:
320,192,233448,1,0,0:0:0:0:
64,192,233534,1,0,0:0:0:0:
192,192,233534,1,0,0:0:0:0:
448,192,233620,1,0,0:0:0:0:
192,192,233705,1,0,0:0:0:0:
64,192,233705,1,0,0:0:0:0:
320,192,233791,1,0,0:0:0:0:
64,192,233877,1,0,0:0:0:0:
448,192,233877,1,0,0:0:0:0:
192,192,233877,1,0,0:0:0:0:
320,192,233962,1,0,0:0:0:0:
64,192,234048,1,0,0:0:0:0:
320,192,234134,1,0,0:0:0:0:
192,192,234134,1,0,0:0:0:0:
448,192,234220,1,0,0:0:0:0:
64,192,234220,1,0,0:0:0:0:
320,192,234305,1,0,0:0:0:0:
448,192,234391,1,0,0:0:0:0:
192,192,234391,1,0,0:0:0:0:
64,192,234477,1,0,0:0:0:0:
320,192,234562,1,0,0:0:0:0:
192,192,234562,1,0,0:0:0:0:
448,192,234562,1,0,0:0:0:0:
64,192,234648,1,0,0:0:0:0:
448,192,234734,1,0,0:0:0:0:
320,192,234820,1,0,0:0:0:0:
192,192,234820,1,0,0:0:0:0:
448,192,234905,1,0,0:0:0:0:
64,192,234905,1,0,0:0:0:0:
192,192,234991,1,0,0:0:0:0:
320,192,235077,1,0,0:0:0:0:
64,192,235077,1,0,0:0:0:0:
192,192,235162,1,0,0:0:0:0:
64,192,235248,1,0,0:0:0:0:
320,192,235248,1,0,0:0:0:0:
448,192,235248,1,0,0:0:0:0:
192,192,235334,1,0,0:0:0:0:
320,192,235420,1,0,0:0:0:0:
448,192,235505,1,0,0:0:0:0:
192,192,235505,1,0,0:0:0:0:
64,192,235591,1,0,0:0:0:0:
320,192,235591,1,0,0:0:0:0:
192,192,235677,1,0,0:0:0:0:
320,192,235762,1,0,0:0:0:0:
448,192,235762,1,0,0:0:0:0:
64,192,235848,1,0,0:0:0:0:
192,192,235934,1,0,0:0:0:0:
448,192,235934,1,0,0:0:0:0:
320,192,235934,1,0,0:0:0:0:
64,192,236020,1,0,0:0:0:0:
320,192,236105,1,0,0:0:0:0:
192,192,236191,1,0,0:0:0:0:
448,192,236191,1,0,0:0:0:0:
64,192,236277,1,0,0:0:0:0:
320,192,236277,1,0,0:0:0:0:
192,192,236362,1,0,0:0:0:0:
320,192,236448,1,0,0:0:0:0:
448,192,236448,1,0,0:0:0:0:
192,192,236534,1,0,0:0:0:0:
320,192,236620,1,0,0:0:0:0:
64,192,236620,1,0,0:0:0:0:
448,192,236620,1,0,0:0:0:0:
192,192,236705,1,0,0:0:0:0:
320,192,236791,1,0,0:0:0:0:
64,192,236877,1,0,0:0:0:0:
448,192,236877,1,0,0:0:0:0:
320,192,236962,1,0,0:0:0:0:
192,192,236962,1,0,0:0:0:0:
448,192,237048,1,0,0:0:0:0:
64,192,237134,1,0,0:0:0:0:
320,192,237134,1,0,0:0:0:0:
192,192,237220,1,0,0:0:0:0:
320,192,237305,1,0,0:0:0:0:
64,192,237305,1,0,0:0:0:0:
448,192,237305,1,0,0:0:0:0:
192,192,237391,1,0,0:0:0:0:
320,192,237477,1,0,0:0:0:0:
64,192,237477,1,0,0:0:0:0:
448,192,237562,1,0,0:0:0:0:
192,192,237562,1,0,0:0:0:0:
64,192,237648,1,0,0:0:0:0:
320,192,237648,1,0,0:0:0:0:
448,192,237734,1,0,0:0:0:0:
320,192,237820,1,0,0:0:0:0:
192,192,237820,1,0,0:0:0:0:
64,192,237820,1,0,0:0:0:0:
448,192,237905,1,0,0:0:0:0:
64,192,237991,1,0,0:0:0:0:
320,192,237991,1,0,0:0:0:0:
192,192,237991,1,0,0:0:0:0:
448,192,238077,1,0,0:0:0:0:
192,192,238162,1,0,0:0:0:0:
320,192,238162,1,0,0:0:0:0:
64,192,238248,1,0,0:0:0:0:
448,192,238248,1,0,0:0:0:0:
320,192,238334,1,0,0:0:0:0:
192,192,238334,1,0,0:0:0:0:
448,192,238420,1,0,0:0:0:0:
192,192,238505,1,0,0:0:0:0:
320,192,238505,1,0,0:0:0:0:
64,192,238505,1,0,0:0:0:0:
448,192,238591,1,0,0:0:0:0:
320,192,238677,1,0,0:0:0:0:
192,192,238677,1,0,0:0:0:0:
64,192,238677,1,0,0:0:0:0:
448,192,238762,1,0,0:0:0:0:
320,192,238848,1,0,0:0:0:0:
192,192,238848,1,0,0:0:0:0:
448,192,238934,1,0,0:0:0:0:
64,192,238934,1,0,0:0:0:0:
320,192,239020,1,0,0:0:0:0:
192,192,239020,1,0,0:0:0:0:
448,192,239105,1,0,0:0:0:0:
192,192,239191,1,0,0:0:0:0:
64,192,239191,1,0,0:0:0:0:
320,192,239191,1,0,0:0:0:0:
448,192,239277,1,0,0:0:0:0:
192,192,239362,1,0,0:0:0:0:
64,192,239362,1,0,0:0:0:0:
320,192,239362,1,0,0:0:0:0:
448,192,239448,1,0,0:0:0:0:
64,192,239534,1,0,0:0:0:0:
320,192,239534,1,0,0:0:0:0:
192,192,239620,1,0,0:0:0:0:
448,192,239620,1,0,0:0:0:0:
320,192,239705,1,0,0:0:0:0:
64,192,239705,1,0,0:0:0:0:
192,192,239791,1,0,0:0:0:0:
448,192,239877,1,0,0:0:0:0:
320,192,239877,1,0,0:0:0:0:
64,192,239877,1,0,0:0:0:0:
192,192,239962,1,0,0:0:0:0:
64,192,240048,1,0,0:0:0:0:
448,192,240048,1,0,0:0:0:0:
320,192,240048,1,0,0:0:0:0:
192,192,240134,1,0,0:0:0:0:
64,192,240220,1,0,0:0:0:0:
320,192,240220,1,0,0:0:0:0:
192,192,240305,1,0,0:0:0:0:
448,192,240305,1,0,0:0:0:0:
64,192,240391,1,0,0:0:0:0:
320,192,240391,1,0,0:0:0:0:
448,192,240477,1,0,0:0:0:0:
192,192,240562,1,0,0:0:0:0:
64,192,240562,1,0,0:0:0:0:
320,192,240562,1,0,0:0:0:0:
448,192,240648,1,0,0:0:0:0:
320,192,240734,1,0,0:0:0:0:
192,192,240734,1,0,0:0:0:0:
64,192,240734,1,0,0:0:0:0:
448,192,240820,1,0,0:0:0:0:
320,192,240905,1,0,0:0:0:0:
64,192,240905,1,0,0:0:0:0:
192,192,240991,1,0,0:0:0:0:
448,192,240991,1,0,0:0:0:0:
320,192,241077,1,0,0:0:0:0:
64,192,241077,1,0,0:0:0:0:
192,192,241162,1,0,0:0:0:0:
448,192,241248,1,0,0:0:0:0:
64,192,241248,1,0,0:0:0:0:
320,192,241248,1,0,0:0:0:0:
192,192,241334,1,0,0:0:0:0:
448,192,241420,1,0,0:0:0:0:
320,192,241420,1,0,0:0:0:0:
64,192,241420,1,0,0:0:0:0:
192,192,241505,1,0,0:0:0:0:
64,192,241591,1,0,0:0:0:0:
448,192,241591,1,0,0:0:0:0:
192,192,241677,1,0,0:0:0:0:
320,192,241677,1,0,0:0:0:0:
64,192,241762,1,0,0:0:0:0:
448,192,241762,1,0,0:0:0:0:
192,192,241848,1,0,0:0:0:0:
448,192,241934,1,0,0:0:0:0:
320,192,241934,1,0,0:0:0:0:
64,192,241934,1,0,0:0:0:0:
192,192,242020,1,0,0:0:0:0:
64,192,242105,1,0,0:0:0:0:
448,192,242105,1,0,0:0:0:0:
320,192,242105,1,0,0:0:0:0:
192,192,242191,1,0,0:0:0:0:
448,192,242277,1,0,0:0:0:0:
64,192,242277,1,0,0:0:0:0:
192,192,242362,1,0,0:0:0:0:
320,192,242362,1,0,0:0:0:0:
448,192,242448,1,0,0:0:0:0:
64,192,242448,1,0,0:0:0:0:
320,192,242534,1,0,0:0:0:0:
64,192,242620,1,0,0:0:0:0:
192,192,242620,1,0,0:0:0:0:
448,192,242620,1,0,0:0:0:0:
320,192,242705,1,0,0:0:0:0:
192,192,242791,1,0,0:0:0:0:
448,192,242791,1,0,0:0:0:0:
64,192,242791,1,0,0:0:0:0:
320,192,242877,1,0,0:0:0:0:
448,192,242962,1,0,0:0:0:0:
64,192,242962,1,0,0:0:0:0:
192,192,243048,1,0,0:0:0:0:
320,192,243048,1,0,0:0:0:0:
64,192,243134,1,0,0:0:0:0:
448,192,243134,1,0,0:0:0:0:
192,192,243220,1,0,0:0:0:0:
448,192,243305,1,0,0:0:0:0:
64,192,243305,1,0,0:0:0:0:
320,192,243305,1,0,0:0:0:0:
192,192,243391,1,0,0:0:0:0:
64,192,243477,1,0,0:0:0:0:
320,192,243477,1,0,0:0:0:0:
448,192,243477,1,0,0:0:0:0:
192,192,243562,1,0,0:0:0:0:
64,192,243648,1,0,0:0:0:0:
320,192,243648,1,0,0:0:0:0:
448,192,243734,1,0,0:0:0:0:
192,192,243734,1,0,0:0:0:0:
320,192,243820,1,0,0:0:0:0:
64,192,243820,1,0,0:0:0:0:
448,192,243905,1,0,0:0:0:0:
192,192,243991,1,0,0:0:0:0:
320,192,243991,1,0,0:0:0:0:
64,192,243991,1,0,0:0:0:0:
448,192,244077,1,0,0:0:0:0:
320,192,244162,1,0,0:0:0:0:
192,192,244162,1,0,0:0:0:0:
64,192,244162,1,0,0:0:0:0:
448,192,244248,1,0,0:0:0:0:
192,192,244334,1,0,0:0:0:0:
320,192,244334,1,0,0:0:0:0:
448,192,244420,1,0,0:0:0:0:
64,192,244420,1,0,0:0:0:0:
192,192,244505,1,0,0:0:0:0:
320,192,244505,1,0,0:0:0:0:
64,192,244591,1,0,0:0:0:0:
192,192,244677,1,0,0:0:0:0:
448,192,244677,1,0,0:0:0:0:
320,192,244677,1,0,0:0:0:0:
64,192,244762,1,0,0:0:0:0:
320,192,244848,1,0,0:0:0:0:
192,192,244848,1,0,0:0:0:0:
448,192,244848,1,0,0:0:0:0:
64,192,244934,1,0,0:0:0:0:
448,192,245020,1,0,0:0:0:0:
320,192,245020,1,0,0:0:0:0:
64,192,245105,1,0,0:0:0:0:
192,192,245105,1,0,0:0:0:0:
320,192,245191,1,0,0:0:0:0:
448,192,245191,1,0,0:0:0:0:
64,192,245277,1,0,0:0:0:0:
448,192,245362,1,0,0:0:0:0:
320,192,245362,1,0,0:0:0:0:
192,192,245362,1,0,0:0:0:0:
64,192,245448,1,0,0:0:0:0:
448,192,245534,1,0,0:0:0:0:
320,192,245534,1,0,0:0:0:0:
192,192,245534,1,0,0:0:0:0:
64,192,245620,1,0,0:0:0:0:
448,192,245705,1,0,0:0:0:0:
320,192,245705,1,0,0:0:0:0:
192,192,245791,1,0,0:0:0:0:
64,192,245791,1,0,0:0:0:0:
320,192,245877,1,0,0:0:0:0:
448,192,245877,1,0,0:0:0:0:
192,192,245962,1,0,0:0:0:0:
64,192,246048,1,0,0:0:0:0:
448,192,246048,1,0,0:0:0:0:
320,192,246048,1,0,0:0:0:0:
192,192,246134,1,0,0:0:0:0:
448,192,246220,1,0,0:0:0:0:
320,192,246220,1,0,0:0:0:0:
64,192,246220,1,0,0:0:0:0:
192,192,246305,1,0,0:0:0:0:
320,192,246391,1,0,0:0:0:0:
64,192,246391,1,0,0:0:0:0:
448,192,246477,1,0,0:0:0:0:
192,192,246477,1,0,0:0:0:0:
320,192,246562,1,0,0:0:0:0:
64,192,246562,1,0,0:0:0:0:
192,192,246648,1,0,0:0:0:0:
448,192,246734,1,0,0:0:0:0:
320,192,246734,1,0,0:0:0:0:
64,192,246734,1,0,0:0:0:0:
192,192,246820,1,0,0:0:0:0:
448,192,246905,1,0,0:0:0:0:
320,192,246905,1,0,0:0:0:0:
64,192,246905,1,0,0:0:0:0:
192,192,246991,1,0,0:0:0:0:
64,192,247077,1,0,0:0:0:0:
448,192,247077,1,0,0:0:0:0:
192,192,247162,1,0,0:0:0:0:
320,192,247162,1,0,0:0:0:0:
64,192,247248,1,0,0:0:0:0:
448,192,247248,1,0,0:0:0:0:
192,192,247334,1,0,0:0:0:0:
320,192,247420,1,0,0:0:0:0:
448,192,247420,1,0,0:0:0:0:
64,192,247420,1,0,0:0:0:0:
192,192,247505,1,0,0:0:0:0:
64,192,247591,1,0,0:0:0:0:
448,192,247591,1,0,0:0:0:0:
320,192,247591,1,0,0:0:0:0:
192,192,247677,1,0,0:0:0:0:
320,192,247762,1,0,0:0:0:0:
448,192,247762,1,0,0:0:0:0:
192,192,247848,1,0,0:0:0:0:
64,192,247848,1,0,0:0:0:0:
448,192,247934,1,0,0:0:0:0:
320,192,247934,1,0,0:0:0:0:
192,192,248020,1,0,0:0:0:0:
448,192,248105,1,0,0:0:0:0:
320,192,248105,1,0,0:0:0:0:
64,192,248105,1,0,0:0:0:0:
192,192,248191,1,0,0:0:0:0:
320,192,248277,1,0,0:0:0:0:
448,192,248277,1,0,0:0:0:0:
64,192,248277,1,0,0:0:0:0:
192,192,248362,1,0,0:0:0:0:
64,192,248448,1,0,0:0:0:0:
320,192,248448,1,0,0:0:0:0:
448,192,248534,1,0,0:0:0:0:
192,192,248534,1,0,0:0:0:0:
64,192,248620,1,0,0:0:0:0:
320,192,248620,1,0,0:0:0:0:
448,192,248705,1,0,0:0:0:0:
320,192,248791,1,0,0:0:0:0:
64,192,248791,1,0,0:0:0:0:
192,192,248791,1,0,0:0:0:0:
448,192,248877,1,0,0:0:0:0:
192,192,248962,1,0,0:0:0:0:
64,192,248962,1,0,0:0:0:0:
320,192,248962,1,0,0:0:0:0:
448,192,249048,1,0,0:0:0:0:
192,192,249134,1,0,0:0:0:0:
64,192,249134,1,0,0:0:0:0:
448,192,249220,1,0,0:0:0:0:
320,192,249220,1,0,0:0:0:0:
64,192,249305,1,0,0:0:0:0:
192,192,249305,1,0,0:0:0:0:
320,192,249391,1,0,0:0:0:0:
64,192,249477,1,0,0:0:0:0:
192,192,249477,1,0,0:0:0:0:
448,192,249477,1,0,0:0:0:0:
320,192,249562,1,0,0:0:0:0:
192,192,249648,1,0,0:0:0:0:
448,192,249648,1,0,0:0:0:0:
64,192,249648,1,0,0:0:0:0:
320,192,249734,1,0,0:0:0:0:
448,192,249820,1,0,0:0:0:0:
64,192,249820,1,0,0:0:0:0:
320,192,249905,1,0,0:0:0:0:
192,192,249905,1,0,0:0:0:0:
448,192,249991,1,0,0:0:0:0:
64,192,249991,1,0,0:0:0:0:
192,192,250077,1,0,0:0:0:0:
64,192,250162,1,0,0:0:0:0:
320,192,250162,1,0,0:0:0:0:
448,192,250162,1,0,0:0:0:0:
192,192,250248,1,0,0:0:0:0:
320,192,250334,1,0,0:0:0:0:
448,192,250334,1,0,0:0:0:0:
64,192,250334,1,0,0:0:0:0:
192,192,250420,1,0,0:0:0:0:
64,192,250505,1,0,0:0:0:0:
320,192,250505,1,0,0:0:0:0:
192,192,250591,1,0,0:0:0:0:
448,192,250591,1,0,0:0:0:0:
320,192,250677,1,0,0:0:0:0:
64,192,250677,1,0,0:0:0:0:
192,192,250762,1,0,0:0:0:0:
448,192,250848,1,0,0:0:0:0:
64,192,250848,1,0,0:0:0:0:
320,192,250848,1,0,0:0:0:0:
192,192,250934,1,0,0:0:0:0:
320,192,251020,1,0,0:0:0:0:
64,192,251020,1,0,0:0:0:0:
448,192,251020,1,0,0:0:0:0:
192,192,251105,1,0,0:0:0:0:
64,192,251191,1,0,0:0:0:0:
448,192,251191,1,0,0:0:0:0:
320,192,251277,1,0,0:0:0:0:
192,192,251277,1,0,0:0:0:0:
64,192,251362,1,0,0:0:0:0:
448,192,251362,1,0,0:0:0:0:
192,192,251448,1,0,0:0:0:0:
448,192,251534,1,0,0:0:0:0:
320,192,251534,1,0,0:0:0:0:
64,192,251534,1,0,0:0:0:0:
192,192,251620,1,0,0:0:0:0:
448,192,251705,1,0,0:0:0:0:
64,192,251705,1,0,0:0:0:0:
320,192,251705,1,0,0:0:0:0:
192,192,251791,1,0,0:0:0:0:
448,192,251877,1,0,0:0:0:0:
320,192,251877,1,0,0:0:0:0:
192,192,251962,1,0,0:0:0:0:
64,192,251962,1,0,0:0:0:0:
448,192,252048,1,0,0:0:0:0:
320,192,252048,1,0,0:0:0:0:
64,192,252134,1,0,0:0:0:0:
320,192,252220,1,0,0:0:0:0:
448,192,252220,1,0,0:0:0:0:
192,192,252220,1,0,0:0:0:0:
64,192,252305,1,0,0:0:0:0:
448,192,252391,1,0,0:0:0:0:
192,192,252391,1,0,0:0:0:0:
320,192,252391,1,0,0:0:0:0:
64,192,252477,1,0,0:0:0:0:
448,192,252562,1,0,0:0:0:0:
320,192,252562,1,0,0:0:0:0:
64,192,252648,1,0,0:0:0:0:
192,192,252648,1,0,0:0:0:0:
448,192,252734,1,0,0:0:0:0:
320,192,252734,1,0,0:0:0:0:
64,192,252820,1,0,0:0:0:0:
192,192,252905,1,0,0:0:0:0:
320,192,252905,1,0,0:0:0:0:
448,192,252905,1,0,0:0:0:0:
64,192,252991,1,0,0:0:0:0:
448,192,253077,1,0,0:0:0:0:
192,192,253077,1,0,0:0:0:0:
320,192,253077,1,0,0:0:0:0:
64,192,253162,1,0,0:0:0:0:
448,192,253248,1,0,0:0:0:0:
192,192,253248,1,0,0:0:0:0:
320,192,253334,1,0,0:0:0:0:
64,192,253334,1,0,0:0:0:0:
448,192,253420,1,0,0:0:0:0:
192,192,253420,1,0,0:0:0:0:
320,192,253505,1,0,0:0:0:0:
192,192,253591,1,0,0:0:0:0:
448,192,253591,1,0,0:0:0:0:
64,192,253591,1,0,0:0:0:0:
320,192,253677,1,0,0:0:0:0:
64,192,253762,1,0,0:0:0:0:
448,192,253762,1,0,0:0:0:0:
192,192,253762,1,0,0:0:0:0:
320,192,253848,1,0,0:0:0:0:
64,192,253934,1,0,0:0:0:0:
192,192,253934,1,0,0:0:0:0:
320,192,254020,1,0,0:0:0:0:
448,192,254020,1,0,0:0:0:0:
192,192,254105,1,0,0:0:0:0:
64,192,254105,1,0,0:0:0:0:
448,192,254191,1,0,0:0:0:0:
320,192,254277,1,0,0:0:0:0:
64,192,254277,1,0,0:0:0:0:
192,192,254277,1,0,0:0:0:0:
448,192,254362,1,0,0:0:0:0:
320,192,254448,1,0,0:0:0:0:
192,192,254448,1,0,0:0:0:0:
64,192,254448,1,0,0:0:0:0:
448,192,254534,1,0,0:0:0:0:
64,192,254620,1,0,0:0:0:0:
192,192,254620,1,0,0:0:0:0:
448,192,254705,1,0,0:0:0:0:
320,192,254705,1,0,0:0:0:0:
192,192,254791,1,0,0:0:0:0:
64,192,254791,1,0,0:0:0:0:
320,192,254877,1,0,0:0:0:0:
192,192,254962,1,0,0:0:0:0:
64,192,254962,1,0,0:0:0:0:
448,192,254962,1,0,0:0:0:0:
320,192,255048,1,0,0:0:0:0:
192,192,255134,1,0,0:0:0:0:
448,192,255134,1,0,0:0:0:0:
64,192,255134,1,0,0:0:0:0:
320,192,255220,1,0,0:0:0:0:
64,192,255305,1,0,0:0:0:0:
448,192,255305,1,0,0:0:0:0:
320,192,255391,1,0,0:0:0:0:
192,192,255391,1,0,0:0:0:0:
448,192,255477,1,0,0:0:0:0:
64,192,255477,1,0,0:0:0:0:
320,192,255562,1,0,0:0:0:0:
448,192,255648,1,0,0:0:0:0:
192,192,255648,1,0,0:0:0:0:
64,192,255648,1,0,0:0:0:0:
320,192,255734,1,0,0:0:0:0:
192,192,255820,1,0,0:0:0:0:
448,192,255820,1,0,0:0:0:0:
64,192,255820,1,0,0:0:0:0:
320,192,255905,1,0,0:0:0:0:
448,192,255991,1,0,0:0:0:0:
192,192,255991,1,0,0:0:0:0:
320,192,256077,1,0,0:0:0:0:
64,192,256077,1,0,0:0:0:0:
448,192,256162,1,0,0:0:0:0:
192,192,256162,1,0,0:0:0:0:
64,192,256248,1,0,0:0:0:0:
448,192,256334,1,0,0:0:0:0:
192,192,256334,1,0,0:0:0:0:
320,192,256334,1,0,0:0:0:0:
64,192,256420,1,0,0:0:0:0:
192,192,256505,1,0,0:0:0:0:
448,192,256505,1,0,0:0:0:0:
320,192,256505,1,0,0:0:0:0:
64,192,256591,1,0,0:0:0:0:
320,192,256677,1,0,0:0:0:0:
192,192,256677,1,0,0:0:0:0:
64,192,256762,1,0,0:0:0:0:
448,192,256762,1,0,0:0:0:0:
320,192,256848,1,0,0:0:0:0:
192,192,256848,1,0,0:0:0:0:
64,192,256934,1,0,0:0:0:0:
320,192,257020,1,0,0:0:0:0:
192,192,257020,1,0,0:0:0:0:
448,192,257020,1,0,0:0:0:0:
64,192,257105,1,0,0:0:0:0:
320,192,257191,1,0,0:0:0:0:
448,192,257191,1,0,0:0:0:0:
192,192,257191,1,0,0:0:0:0:
64,192,257277,1,0,0:0:0:0:
192,192,257362,1,0,0:0:0:0:
448,192,257362,1,0,0:0:0:0:
64,192,257448,1,0,0:0:0:0:
320,192,257448,1,0,0:0:0:0:
192,192,257534,1,0,0:0:0:0:
448,192,257534,1,0,0:0:0:0:
64,192,257620,1,0,0:0:0:0:
320,192,257705,1,0,0:0:0:0:
448,192,257705,1,0,0:0:0:0:
192,192,257705,1,0,0:0:0:0:
64,192,257791,1,0,0:0:0:0:
192,192,257877,1,0,0:0:0:0:
320,192,257877,1,0,0:0:0:0:
448,192,257877,1,0,0:0:0:0:
64,192,257962,1,0,0:0:0:0:
448,192,258048,1,0,0:0:0:0:
192,192,258048,1,0,0:0:0:0:
320,192,258134,1,0,0:0:0:0:
64,192,258134,1,0,0:0:0:0:
448,192,258220,1,0,0:0:0:0:
192,192,258220,1,0,0:0:0:0:
64,192,258305,1,0,0:0:0:0:
448,192,258391,1,0,0:0:0:0:
192,192,258391,1,0,0:0:0:0:
320,192,258391,1,0,0:0:0:0:
64,192,258477,1,0,0:0:0:0:
320,192,258562,1,0,0:0:0:0:
192,192,258562,1,0,0:0:0:0:
448,192,258562,1,0,0:0:0:0:
64,192,258648,1,0,0:0:0:0:
192,192,258734,1,0,0:0:0:0:
320,192,258734,1,0,0:0:0:0:
448,192,258820,1,0,0:0:0:0:
64,192,258820,1,0,0:0:0:0:
320,192,258905,1,0,0:0:0:0:
192,192,258905,1,0,0:0:0:0:
448,192,258991,1,0,0:0:0:0:
64,192,259077,1,0,0:0:0:0:
320,192,259077,1,0,0:0:0:0:
192,192,259077,1,0,0:0:0:0:
448,192,259162,1,0,0:0:0:0:
320,192,259248,1,0,0:0:0:0:
192,192,259248,1,0,0:0:0:0:
64,192,259334,1,0,0:0:0:0:
192,192,259420,1,0,0:0:0:0:
320,192,259420,1,0,0:0:0:0:
64,192,259505,1,0,0:0:0:0:
448,192,259505,1,0,0:0:0:0:
320,192,259591,1,0,0:0:0:0:
192,192,259591,1,0,0:0:0:0:
448,192,259677,1,0,0:0:0:0:
192,192,259762,1,0,0:0:0:0:
320,192,259762,1,0,0:0:0:0:
448,192,259848,1,0,0:0:0:0:
192,192,259934,1,0,0:0:0:0:
64,192,259934,1,0,0:0:0:0:
320,192,260020,1,0,0:0:0:0:
64,192,260105,1,0,0:0:0:0:
448,192,260105,1,0,0:0:0:0:
320,192,260191,1,0,0:0:0:0:
192,192,260191,1,0,0:0:0:0:
448,192,260277,1,0,0:0:0:0:
64,192,260277,1,0,0:0:0:0:
320,192,260362,1,0,0:0:0:0:
192,192,260448,1,0,0:0:0:0:
448,192,260448,1,0,0:0:0:0:
64,192,260534,1,0,0:0:0:0:
448,192,260620,1,0,0:0:0:0:
320,192,260620,1,0,0:0:0:0:
64,192,260705,1,0,0:0:0:0:
448,192,260791,1,0,0:0:0:0:
192,192,260791,1,0,0:0:0:0:
64,192,260877,1,0,0:0:0:0:
320,192,260877,1,0,0:0:0:0:
192,192,260962,1,0,0:0:0:0:
448,192,260962,1,0,0:0:0:0:
64,192,261048,1,0,0:0:0:0:
448,192,261134,1,0,0:0:0:0:
320,192,261134,1,0,0:0:0:0:
64,192,261220,1,0,0:0:0:0:
192,192,261305,1,0,0:0:0:0:
320,192,261305,1,0,0:0:0:0:
448,192,261391,1,0,0:0:0:0:
320,192,261477,1,0,0:0:0:0:
64,192,261477,1,0,0:0:0:0:
448,192,261562,1,0,0:0:0:0:
192,192,261562,1,0,0:0:0:0:
320,192,261648,1,0,0:0:0:0:
64,192,261648,1,0,0:0:0:0:
192,192,261734,1,0,0:0:0:0:
64,192,261820,1,0,0:0:0:0:
320,192,261820,1,0,0:0:0:0:
448,192,261905,1,0,0:0:0:0:
192,192,261991,1,0,0:0:0:0:
320,192,261991,1,0,0:0:0:0:
448,192,262077,1,0,0:0:0:0:
64,192,262162,1,0,0:0:0:0:
192,192,262162,1,0,0:0:0:0:
320,192,262248,1,0,0:0:0:0:
448,192,262248,1,0,0:0:0:0:
192,192,262334,1,0,0:0:0:0:
64,192,262334,1,0,0:0:0:0:
320,192,262420,1,0,0:0:0:0:
448,192,262505,1,0,0:0:0:0:
64,192,262505,1,0,0:0:0:0:
320,192,262591,1,0,0:0:0:0:
192,192,262677,1,0,0:0:0:0:
64,192,262677,1,0,0:0:0:0:
448,192,262762,1,0,0:0:0:0:
320,192,262848,1,0,0:0:0:0:
64,192,262848,1,0,0:0:0:0:
448,192,262934,1,0,0:0:0:0:
192,192,262934,1,0,0:0:0:0:
64,192,263020,1,0,0:0:0:0:
320,192,263020,1,0,0:0:0:0:
448,192,263105,1,0,0:0:0:0:
64,192,263191,1,0,0:0:0:0:
192,192,263191,1,0,0:0:0:0:
320,192,263277,1,0,0:0:0:0:
448,192,263362,1,0,0:0:0:0:
64,192,263362,1,0,0:0:0:0:
192,192,263448,1,0,0:0:0:0:
64,192,263534,1,0,0:0:0:0:
320,192,263534,1,0,0:0:0:0:
192,192,263620,1,0,0:0:0:0:
448,192,263620,1,0,0:0:0:0:
320,192,263705,1,0,0:0:0:0:
64,192,263705,1,0,0:0:0:0:
448,192,263791,1,0,0:0:0:0:
320,192,263877,1,0,0:0:0:0:
64,192,263877,1,0,0:0:0:0:
192,192,263962,1,0,0:0:0:0:
320,192,264048,1,0,0:0:0:0:
448,192,264048,1,0,0:0:0:0:
64,192,264134,1,0,0:0:0:0:
448,192,264220,1,0,0:0:0:0:
192,192,264220,1,0,0:0:0:0:
64,192,264305,1,0,0:0:0:0:
320,192,264305,1,0,0:0:0:0:
448,192,264391,1,0,0:0:0:0:
192,192,264391,1,0,0:0:0:0:
64,192,264477,1,0,0:0:0:0:
320,192,264562,1,0,0:0:0:0:
448,192,264562,1,0,0:0:0:0:
64,192,264648,1,0,0:0:0:0:
192,192,264734,1,0,0:0:0:0:
448,192,264734,1,0,0:0:0:0:
64,192,264820,1,0,0:0:0:0:
192,192,264905,1,0,0:0:0:0:
64,192,264991,1,0,0:0:0:0:
320,192,264991,1,0,0:0:0:0:
192,192,265077,1,0,0:0:0:0:
448,192,265077,1,0,0:0:0:0:
320,192,265162,1,0,0:0:0:0:
448,192,265248,1,0,0:0:0:0:
64,192,265248,1,0,0:0:0:0:
320,192,265334,1,0,0:0:0:0:
192,192,265420,1,0,0:0:0:0:
448,192,265420,1,0,0:0:0:0:
64,192,265420,1,0,0:0:0:0:
320,192,265505,1,0,0:0:0:0:
64,192,265591,1,0,0:0:0:0:
448,192,265677,1,0,0:0:0:0:
320,192,265677,1,0,0:0:0:0:
192,192,265762,1,0,0:0:0:0:
64,192,265762,1,0,0:0:0:0:
320,192,265848,1,0,0:0:0:0:
448,192,265934,1,0,0:0:0:0:
192,192,265934,1,0,0:0:0:0:
320,192,266020,1,0,0:0:0:0:
192,192,266105,1,0,0:0:0:0:
448,192,266105,1,0,0:0:0:0:
64,192,266105,1,0,0:0:0:0:
320,192,266191,1,0,0:0:0:0:
448,192,266277,1,0,0:0:0:0:
64,192,266362,1,0,0:0:0:0:
192,192,266362,1,0,0:0:0:0:
448,192,266448,1,0,0:0:0:0:
320,192,266448,1,0,0:0:0:0:
192,192,266534,1,0,0:0:0:0:
320,192,266620,1,0,0:0:0:0:
64,192,266620,1,0,0:0:0:0:
448,192,266705,1,0,0:0:0:0:
192,192,266791,1,0,0:0:0:0:
64,192,266791,1,0,0:0:0:0:
320,192,266791,1,0,0:0:0:0:
448,192,266877,1,0,0:0:0:0:
320,192,266962,1,0,0:0:0:0:
192,192,267048,1,0,0:0:0:0:
448,192,267048,1,0,0:0:0:0:
64,192,267134,1,0,0:0:0:0:
320,192,267134,1,0,0:0:0:0:
192,192,267220,1,0,0:0:0:0:
320,192,267305,1,0,0:0:0:0:
64,192,267305,1,0,0:0:0:0:
448,192,267391,1,0,0:0:0:0:
320,192,267477,1,0,0:0:0:0:
192,192,267477,1,0,0:0:0:0:
64,192,267477,1,0,0:0:0:0:
448,192,267562,1,0,0:0:0:0:
64,192,267648,1,0,0:0:0:0:
192,192,267734,1,0,0:0:0:0:
320,192,267734,1,0,0:0:0:0:
448,192,267820,1,0,0:0:0:0:
64,192,267820,1,0,0:0:0:0:
192,192,267905,1,0,0:0:0:0:
320,192,267991,1,0,0:0:0:0:
64,192,267991,1,0,0:0:0:0:
192,192,268077,1,0,0:0:0:0:
320,192,268162,1,0,0:0:0:0:
448,192,268162,1,0,0:0:0:0:
64,192,268162,1,0,0:0:0:0:
192,192,268248,1,0,0:0:0:0:
64,192,268334,1,0,0:0:0:0:
448,192,268420,1,0,0:0:0:0:
320,192,268420,1,0,0:0:0:0:
192,192,268505,1,0,0:0:0:0:
64,192,268505,1,0,0:0:0:0:
320,192,268591,1,0,0:0:0:0:
64,192,268677,1,0,0:0:0:0:
448,192,268677,1,0,0:0:0:0:
320,192,268762,1,0,0:0:0:0:
192,192,268848,1,0,0:0:0:0:
64,192,268848,1,0,0:0:0:0:
448,192,268848,1,0,0:0:0:0:
320,192,268934,1,0,0:0:0:0:
448,192,269020,1,0,0:0:0:0:
64,192,269105,1,0,0:0:0:0:
192,192,269191,1,0,0:0:0:0:
320,192,269191,1,0,0:0:0:0:
64,192,269277,1,0,0:0:0:0:
448,192,269362,1,0,0:0:0:0:
320,192,269448,1,0,0:0:0:0:
192,192,269534,1,0,0:0:0:0:
64,192,269534,1,0,0:0:0:0:
320,192,269620,1,0,0:0:0:0:
192,192,269705,1,0,0:0:0:0:
448,192,269791,1,0,0:0:0:0:
320,192,269877,1,0,0:0:0:0:
192,192,269877,1,0,0:0:0:0:
448,192,269962,1,0,0:0:0:0:
64,192,270048,1,0,0:0:0:0:
192,192,270091,1,0,0:0:0:0:
320,192,270134,1,0,0:0:0:0:
448,192,270177,1,0,0:0:0:0:
64,192,270220,1,0,0:0:0:0:
192,192,270220,1,0,0:0:0:0:
448,192,270391,1,0,0:0:0:0:
320,192,270477,5,0,0:0:0:0:
64,192,270477,1,0,0:0:0:0:
192,192,270562,1,0,0:0:0:0:
448,192,270734,1,0,0:0:0:0:
192,192,270734,1,0,0:0:0:0:
64,192,270734,1,0,0:0:0:0:
192,192,270905,1,0,0:0:0:0:
320,192,270905,1,0,0:0:0:0:
64,192,271077,1,0,0:0:0:0:
448,192,271162,1,0,0:0:0:0:
320,192,271162,1,0,0:0:0:0:
192,192,271248,1,0,0:0:0:0:
64,192,271420,1,0,0:0:0:0:
448,192,271420,1,0,0:0:0:0:
320,192,271420,1,0,0:0:0:0:
448,192,271591,1,0,0:0:0:0:
192,192,271591,1,0,0:0:0:0:
320,192,271762,1,0,0:0:0:0:
192,192,271848,5,0,0:0:0:0:
64,192,271848,1,0,0:0:0:0:
320,192,271934,1,0,0:0:0:0:
448,192,272105,1,0,0:0:0:0:
64,192,272105,1,0,0:0:0:0:
192,192,272105,1,0,0:0:0:0:
448,192,272277,1,0,0:0:0:0:
64,192,272277,1,0,0:0:0:0:
320,192,272448,1,0,0:0:0:0:
192,192,272534,1,0,0:0:0:0:
448,192,272534,1,0,0:0:0:0:
64,192,272620,1,0,0:0:0:0:
192,192,272791,1,0,0:0:0:0:
320,192,272791,1,0,0:0:0:0:
448,192,272791,1,0,0:0:0:0:
448,192,272962,1,0,0:0:0:0:
64,192,272962,1,0,0:0:0:0:
192,192,273134,1,0,0:0:0:0:
320,192,273134,1,0,0:0:0:0:
448,192,273220,5,0,0:0:0:0:
192,192,273305,1,0,0:0:0:0:
320,192,273477,1,0,0:0:0:0:
192,192,273477,1,0,0:0:0:0:
64,192,273477,1,0,0:0:0:0:
448,192,273648,1,0,0:0:0:0:
320,192,273820,1,0,0:0:0:0:
64,192,273820,1,0,0:0:0:0:
192,192,273905,1,0,0:0:0:0:
448,192,273991,1,0,0:0:0:0:
320,192,274162,1,0,0:0:0:0:
192,192,274162,1,0,0:0:0:0:
64,192,274162,1,0,0:0:0:0:
64,192,274334,1,0,0:0:0:0:
320,192,274505,1,0,0:0:0:0:
448,192,274591,5,0,0:0:0:0:
192,192,274677,1,0,0:0:0:0:
448,192,274848,1,0,0:0:0:0:
320,192,274848,1,0,0:0:0:0:
64,192,275020,1,0,0:0:0:0:
448,192,275191,1,0,0:0:0:0:
192,192,275277,1,0,0:0:0:0:
320,192,275362,1,0,0:0:0:0:
64,192,275534,1,0,0:0:0:0:
192,192,275534,1,0,0:0:0:0:
320,192,275705,5,0,0:0:0:0:
192,192,275705,1,0,0:0:0:0:
448,192,275705,1,0,0:0:0:0:
64,192,275791,1,0,0:0:0:0:
320,192,275877,1,0,0:0:0:0:
192,192,275962,1,0,0:0:0:0:
448,192,275962,1,0,0:0:0:0:
320,192,276048,1,0,0:0:0:0:
64,192,276048,1,0,0:0:0:0:
448,192,276134,1,0,0:0:0:0:
192,192,276134,1,0,0:0:0:0:
320,192,276220,1,0,0:0:0:0:
64,192,276220,1,0,0:0:0:0:
448,192,276305,1,0,0:0:0:0:
320,192,276391,1,0,0:0:0:0:
192,192,276391,1,0,0:0:0:0:
64,192,276477,1,0,0:0:0:0:
320,192,276562,1,0,0:0:0:0:
192,192,276648,1,0,0:0:0:0:
64,192,276648,1,0,0:0:0:0:
448,192,276734,1,0,0:0:0:0:
320,192,276734,1,0,0:0:0:0:
64,192,276820,1,0,0:0:0:0:
192,192,276820,1,0,0:0:0:0:
320,192,276905,1,0,0:0:0:0:
448,192,276905,1,0,0:0:0:0:
64,192,276991,1,0,0:0:0:0:
320,192,277077,5,0,0:0:0:0:
448,192,277077,1,0,0:0:0:0:
192,192,277077,1,0,0:0:0:0:
64,192,277162,1,0,0:0:0:0:
320,192,277248,1,0,0:0:0:0:
192,192,277334,1,0,0:0:0:0:
448,192,277334,1,0,0:0:0:0:
320,192,277420,1,0,0:0:0:0:
64,192,277420,1,0,0:0:0:0:
192,192,277505,1,0,0:0:0:0:
448,192,277505,1,0,0:0:0:0:
320,192,277591,1,0,0:0:0:0:
64,192,277591,1,0,0:0:0:0:
448,192,277677,1,0,0:0:0:0:
64,192,277762,1,0,0:0:0:0:
320,192,277762,1,0,0:0:0:0:
448,192,277848,1,0,0:0:0:0:
192,192,277934,1,0,0:0:0:0:
320,192,278020,1,0,0:0:0:0:
448,192,278020,1,0,0:0:0:0:
192,192,278105,1,0,0:0:0:0:
64,192,278105,1,0,0:0:0:0:
448,192,278191,1,0,0:0:0:0:
320,192,278191,1,0,0:0:0:0:
192,192,278277,1,0,0:0:0:0:
64,192,278277,1,0,0:0:0:0:
320,192,278362,1,0,0:0:0:0:
64,192,278448,5,0,0:0:0:0:
192,192,278448,1,0,0:0:0:0:
448,192,278448,1,0,0:0:0:0:
320,192,278534,1,0,0:0:0:0:
192,192,278620,1,0,0:0:0:0:
64,192,278705,1,0,0:0:0:0:
448,192,278705,1,0,0:0:0:0:
192,192,278791,1,0,0:0:0:0:
320,192,278791,1,0,0:0:0:0:
64,192,278877,1,0,0:0:0:0:
448,192,278877,1,0,0:0:0:0:
192,192,278962,1,0,0:0:0:0:
320,192,278962,1,0,0:0:0:0:
448,192,279048,1,0,0:0:0:0:
320,192,279134,1,0,0:0:0:0:
192,192,279134,1,0,0:0:0:0:
64,192,279220,1,0,0:0:0:0:
320,192,279305,1,0,0:0:0:0:
448,192,279391,1,0,0:0:0:0:
192,192,279391,1,0,0:0:0:0:
64,192,279477,1,0,0:0:0:0:
320,192,279477,1,0,0:0:0:0:
192,192,279562,1,0,0:0:0:0:
448,192,279562,1,0,0:0:0:0:
320,192,279648,1,0,0:0:0:0:
64,192,279648,1,0,0:0:0:0:
448,192,279734,1,0,0:0:0:0:
192,192,279820,5,0,0:0:0:0:
64,192,279820,1,0,0:0:0:0:
320,192,279820,1,0,0:0:0:0:
448,192,279905,1,0,0:0:0:0:
192,192,279991,1,0,0:0:0:0:
320,192,280077,1,0,0:0:0:0:
64,192,280077,1,0,0:0:0:0:
192,192,280162,1,0,0:0:0:0:
448,192,280162,1,0,0:0:0:0:
320,192,280248,1,0,0:0:0:0:
64,192,280248,1,0,0:0:0:0:
192,192,280334,1,0,0:0:0:0:
448,192,280334,1,0,0:0:0:0:
320,192,280420,1,0,0:0:0:0:
448,192,280505,1,0,0:0:0:0:
64,192,280505,1,0,0:0:0:0:
192,192,280591,1,0,0:0:0:0:
320,192,280677,1,0,0:0:0:0:
64,192,280762,1,0,0:0:0:0:
448,192,280762,1,0,0:0:0:0:
320,192,280848,1,0,0:0:0:0:
192,192,280848,1,0,0:0:0:0:
64,192,280934,1,0,0:0:0:0:
448,192,280934,1,0,0:0:0:0:
320,192,281020,1,0,0:0:0:0:
192,192,281020,1,0,0:0:0:0:
64,192,281105,1,0,0:0:0:0:
320,192,281191,5,0,0:0:0:0:
448,192,281191,1,0,0:0:0:0:
192,192,281191,1,0,0:0:0:0:
64,192,281277,1,0,0:0:0:0:
320,192,281362,1,0,0:0:0:0:
64,192,281448,1,0,0:0:0:0:
448,192,281448,1,0,0:0:0:0:
192,192,281534,1,0,0:0:0:0:
320,192,281534,1,0,0:0:0:0:
448,192,281620,1,0,0:0:0:0:
64,192,281620,1,0,0:0:0:0:
192,192,281705,1,0,0:0:0:0:
320,192,281705,1,0,0:0:0:0:
64,192,281791,1,0,0:0:0:0:
192,192,281877,1,0,0:0:0:0:
320,192,281877,1,0,0:0:0:0:
448,192,281962,1,0,0:0:0:0:
192,192,282048,1,0,0:0:0:0:
64,192,282134,1,0,0:0:0:0:
320,192,282134,1,0,0:0:0:0:
192,192,282220,1,0,0:0:0:0:
448,192,282220,1,0,0:0:0:0:
64,192,282305,1,0,0:0:0:0:
320,192,282305,1,0,0:0:0:0:
448,192,282391,1,0,0:0:0:0:
192,192,282391,1,0,0:0:0:0:
64,192,282477,1,0,0:0:0:0:
192,192,282562,5,0,0:0:0:0:
320,192,282562,1,0,0:0:0:0:
448,192,282562,1,0,0:0:0:0:
64,192,282648,1,0,0:0:0:0:
320,192,282734,1,0,0:0:0:0:
448,192,282820,1,0,0:0:0:0:
192,192,282820,1,0,0:0:0:0:
320,192,282905,1,0,0:0:0:0:
64,192,282905,1,0,0:0:0:0:
448,192,282991,1,0,0:0:0:0:
192,192,282991,1,0,0:0:0:0:
320,192,283077,1,0,0:0:0:0:
64,192,283077,1,0,0:0:0:0:
192,192,283162,1,0,0:0:0:0:
64,192,283248,1,0,0:0:0:0:
320,192,283248,1,0,0:0:0:0:
448,192,283334,1,0,0:0:0:0:
320,192,283420,1,0,0:0:0:0:
448,192,283505,1,0,0:0:0:0:
192,192,283505,1,0,0:0:0:0:
320,192,283591,1,0,0:0:0:0:
64,192,283591,1,0,0:0:0:0:
192,192,283677,1,0,0:0:0:0:
448,192,283677,1,0,0:0:0:0:
320,192,283762,1,0,0:0:0:0:
64,192,283762,1,0,0:0:0:0:
448,192,283848,1,0,0:0:0:0:
320,192,283934,5,0,0:0:0:0:
192,192,283934,1,0,0:0:0:0:
64,192,283934,1,0,0:0:0:0:
448,192,284020,1,0,0:0:0:0:
320,192,284105,1,0,0:0:0:0:
448,192,284191,1,0,0:0:0:0:
64,192,284191,1,0,0:0:0:0:
320,192,284277,1,0,0:0:0:0:
192,192,284277,1,0,0:0:0:0:
448,192,284362,1,0,0:0:0:0:
64,192,284362,1,0,0:0:0:0:
320,192,284448,1,0,0:0:0:0:
192,192,284448,1,0,0:0:0:0:
64,192,284534,1,0,0:0:0:0:
448,192,284620,1,0,0:0:0:0:
320,192,284620,1,0,0:0:0:0:
64,192,284705,1,0,0:0:0:0:
192,192,284791,1,0,0:0:0:0:
64,192,284877,1,0,0:0:0:0:
448,192,284877,1,0,0:0:0:0:
192,192,284962,1,0,0:0:0:0:
320,192,284962,1,0,0:0:0:0:
448,192,285048,1,0,0:0:0:0:
64,192,285048,1,0,0:0:0:0:
192,192,285134,1,0,0:0:0:0:
320,192,285134,1,0,0:0:0:0:
448,192,285220,1,0,0:0:0:0:
64,192,285305,5,0,0:0:0:0:
192,192,285305,1,0,0:0:0:0:
320,192,285305,1,0,0:0:0:0:
448,192,285391,1,0,0:0:0:0:
192,192,285477,1,0,0:0:0:0:
320,192,285562,1,0,0:0:0:0:
448,192,285562,1,0,0:0:0:0:
192,192,285648,1,0,0:0:0:0:
64,192,285648,1,0,0:0:0:0:
320,192,285734,1,0,0:0:0:0:
448,192,285734,1,0,0:0:0:0:
64,192,285820,1,0,0:0:0:0:
192,192,285820,1,0,0:0:0:0:
320,192,285905,1,0,0:0:0:0:
448,192,285991,1,0,0:0:0:0:
64,192,285991,1,0,0:0:0:0:
320,192,286077,1,0,0:0:0:0:
448,192,286162,1,0,0:0:0:0:
64,192,286248,1,0,0:0:0:0:
192,192,286248,1,0,0:0:0:0:
448,192,286334,1,0,0:0:0:0:
320,192,286334,1,0,0:0:0:0:
64,192,286420,1,0,0:0:0:0:
192,192,286420,1,0,0:0:0:0:
320,192,286505,1,0,0:0:0:0:
448,192,286505,1,0,0:0:0:0:
64,192,286591,1,0,0:0:0:0:
320,192,286677,5,0,0:0:0:0:
192,192,286677,1,0,0:0:0:0:
448,192,286677,1,0,0:0:0:0:
64,192,286762,1,0,0:0:0:0:
320,192,286848,1,0,0:0:0:0:
192,192,286934,1,0,0:0:0:0:
64,192,286934,1,0,0:0:0:0:
320,192,287020,1,0,0:0:0:0:
448,192,287020,1,0,0:0:0:0:
64,192,287105,1,0,0:0:0:0:
192,192,287105,1,0,0:0:0:0:
448,192,287191,1,0,0:0:0:0:
320,192,287191,1,0,0:0:0:0:
64,192,287277,1,0,0:0:0:0:
448,192,287362,1,0,0:0:0:0:
192,192,287362,1,0,0:0:0:0:
320,192,287448,1,0,0:0:0:0:
64,192,287534,1,0,0:0:0:0:
192,192,287620,1,0,0:0:0:0:
448,192,287620,1,0,0:0:0:0:
64,192,287705,1,0,0:0:0:0:
320,192,287705,1,0,0:0:0:0:
448,192,287791,1,0,0:0:0:0:
192,192,287791,1,0,0:0:0:0:
64,192,287877,1,0,0:0:0:0:
320,192,287877,1,0,0:0:0:0:
448,192,287962,1,0,0:0:0:0:
320,192,288048,5,0,0:0:0:0:
64,192,288048,1,0,0:0:0:0:
192,192,288048,1,0,0:0:0:0:
448,192,288134,1,0,0:0:0:0:
64,192,288220,1,0,0:0:0:0:
320,192,288305,1,0,0:0:0:0:
448,192,288305,1,0,0:0:0:0:
64,192,288391,1,0,0:0:0:0:
192,192,288391,1,0,0:0:0:0:
448,192,288477,1,0,0:0:0:0:
320,192,288477,1,0,0:0:0:0:
192,192,288562,1,0,0:0:0:0:
64,192,288562,1,0,0:0:0:0:
448,192,288648,1,0,0:0:0:0:
320,192,288734,1,0,0:0:0:0:
192,192,288734,1,0,0:0:0:0:
64,192,288820,1,0,0:0:0:0:
320,192,288905,1,0,0:0:0:0:
448,192,288991,1,0,0:0:0:0:
192,192,288991,1,0,0:0:0:0:
320,192,289077,1,0,0:0:0:0:
64,192,289077,1,0,0:0:0:0:
192,192,289162,1,0,0:0:0:0:
448,192,289162,1,0,0:0:0:0:
64,192,289248,1,0,0:0:0:0:
320,192,289248,1,0,0:0:0:0:
192,192,289334,1,0,0:0:0:0:
64,192,289420,5,0,0:0:0:0:
448,192,289420,1,0,0:0:0:0:
320,192,289420,1,0,0:0:0:0:
192,192,289505,1,0,0:0:0:0:
320,192,289591,1,0,0:0:0:0:
64,192,289677,1,0,0:0:0:0:
448,192,289677,1,0,0:0:0:0:
192,192,289762,1,0,0:0:0:0:
320,192,289762,1,0,0:0:0:0:
64,192,289848,1,0,0:0:0:0:
448,192,289848,1,0,0:0:0:0:
320,192,289934,1,0,0:0:0:0:
192,192,289934,1,0,0:0:0:0:
448,192,290020,1,0,0:0:0:0:
64,192,290105,1,0,0:0:0:0:
192,192,290105,1,0,0:0:0:0:
448,192,290191,1,0,0:0:0:0:
320,192,290277,1,0,0:0:0:0:
64,192,290362,1,0,0:0:0:0:
448,192,290362,1,0,0:0:0:0:
320,192,290448,1,0,0:0:0:0:
192,192,290448,1,0,0:0:0:0:
448,192,290534,1,0,0:0:0:0:
64,192,290534,1,0,0:0:0:0:
320,192,290620,1,0,0:0:0:0:
192,192,290620,1,0,0:0:0:0:
448,192,290705,1,0,0:0:0:0:
192,192,290791,5,0,0:0:0:0:
320,192,290791,1,0,0:0:0:0:
64,192,290791,1,0,0:0:0:0:
448,192,290877,1,0,0:0:0:0:
64,192,290962,1,0,0:0:0:0:
320,192,291048,1,0,0:0:0:0:
448,192,291048,1,0,0:0:0:0:
192,192,291134,1,0,0:0:0:0:
64,192,291134,1,0,0:0:0:0:
320,192,291220,1,0,0:0:0:0:
448,192,291220,1,0,0:0:0:0:
192,192,291305,1,0,0:0:0:0:
64,192,291305,1,0,0:0:0:0:
448,192,291391,1,0,0:0:0:0:
320,192,291477,1,0,0:0:0:0:
64,192,291477,1,0,0:0:0:0:
448,192,291562,1,0,0:0:0:0:
320,192,291648,1,0,0:0:0:0:
192,192,291734,1,0,0:0:0:0:
448,192,291734,1,0,0:0:0:0:
64,192,291820,1,0,0:0:0:0:
320,192,291820,1,0,0:0:0:0:
448,192,291905,1,0,0:0:0:0:
192,192,291905,1,0,0:0:0:0:
64,192,291991,1,0,0:0:0:0:
320,192,291991,1,0,0:0:0:0:
192,192,292077,1,0,0:0:0:0:
320,192,292162,5,0,0:0:0:0:
64,192,292162,1,0,0:0:0:0:
448,192,292162,1,0,0:0:0:0:
192,192,292248,1,0,0:0:0:0:
64,192,292334,1,0,0:0:0:0:
448,192,292420,1,0,0:0:0:0:
192,192,292420,1,0,0:0:0:0:
64,192,292505,1,0,0:0:0:0:
320,192,292505,1,0,0:0:0:0:
192,192,292591,1,0,0:0:0:0:
448,192,292591,1,0,0:0:0:0:
64,192,292677,1,0,0:0:0:0:
320,192,292677,1,0,0:0:0:0:
192,192,292762,1,0,0:0:0:0:
320,192,292848,1,0,0:0:0:0:
64,192,292848,1,0,0:0:0:0:
448,192,292934,1,0,0:0:0:0:
192,192,293020,1,0,0:0:0:0:
320,192,293105,1,0,0:0:0:0:
64,192,293105,1,0,0:0:0:0:
448,192,293191,1,0,0:0:0:0:
192,192,293191,1,0,0:0:0:0:
64,192,293277,1,0,0:0:0:0:
320,192,293277,1,0,0:0:0:0:
448,192,293362,1,0,0:0:0:0:
192,192,293362,1,0,0:0:0:0:
320,192,293448,1,0,0:0:0:0:
64,192,293534,5,0,0:0:0:0:
192,192,293534,1,0,0:0:0:0:
448,192,293534,1,0,0:0:0:0:
320,192,293620,1,0,0:0:0:0:
64,192,293705,1,0,0:0:0:0:
320,192,293791,1,0,0:0:0:0:
192,192,293791,1,0,0:0:0:0:
64,192,293877,1,0,0:0:0:0:
448,192,293877,1,0,0:0:0:0:
192,192,293962,1,0,0:0:0:0:
320,192,293962,1,0,0:0:0:0:
64,192,294048,1,0,0:0:0:0:
448,192,294048,1,0,0:0:0:0:
192,192,294134,1,0,0:0:0:0:
320,192,294220,1,0,0:0:0:0:
64,192,294220,1,0,0:0:0:0:
448,192,294305,1,0,0:0:0:0:
320,192,294391,1,0,0:0:0:0:
448,192,294477,1,0,0:0:0:0:
192,192,294477,1,0,0:0:0:0:
64,192,294562,1,0,0:0:0:0:
320,192,294562,1,0,0:0:0:0:
192,192,294648,1,0,0:0:0:0:
448,192,294648,1,0,0:0:0:0:
320,192,294734,1,0,0:0:0:0:
64,192,294734,1,0,0:0:0:0:
192,192,294820,1,0,0:0:0:0:
448,192,294905,5,0,0:0:0:0:
320,192,294905,1,0,0:0:0:0:
64,192,294905,1,0,0:0:0:0:
192,192,294991,1,0,0:0:0:0:
448,192,295077,1,0,0:0:0:0:
320,192,295162,1,0,0:0:0:0:
64,192,295162,1,0,0:0:0:0:
192,192,295248,1,0,0:0:0:0:
448,192,295248,1,0,0:0:0:0:
320,192,295334,1,0,0:0:0:0:
64,192,295334,1,0,0:0:0:0:
448,192,295420,1,0,0:0:0:0:
192,192,295420,1,0,0:0:0:0:
320,192,295505,1,0,0:0:0:0:
448,192,295591,1,0,0:0:0:0:
192,192,295591,1,0,0:0:0:0:
64,192,295677,1,0,0:0:0:0:
448,192,295762,1,0,0:0:0:0:
320,192,295848,1,0,0:0:0:0:
192,192,295848,1,0,0:0:0:0:
448,192,295934,1,0,0:0:0:0:
64,192,295934,1,0,0:0:0:0:
192,192,296020,1,0,0:0:0:0:
320,192,296020,1,0,0:0:0:0:
64,192,296105,1,0,0:0:0:0:
448,192,296105,1,0,0:0:0:0:
192,192,296191,1,0,0:0:0:0:
64,192,296277,5,0,0:0:0:0:
320,192,296277,1,0,0:0:0:0:
448,192,296277,1,0,0:0:0:0:
192,192,296362,1,0,0:0:0:0:
64,192,296448,1,0,0:0:0:0:
320,192,296534,1,0,0:0:0:0:
192,192,296534,1,0,0:0:0:0:
64,192,296620,1,0,0:0:0:0:
448,192,296620,1,0,0:0:0:0:
192,192,296705,1,0,0:0:0:0:
320,192,296705,1,0,0:0:0:0:
64,192,296791,1,0,0:0:0:0:
448,192,296791,1,0,0:0:0:0:
320,192,296877,1,0,0:0:0:0:
192,192,296962,1,0,0:0:0:0:
64,192,296962,1,0,0:0:0:0:
320,192,297048,1,0,0:0:0:0:
448,192,297134,1,0,0:0:0:0:
64,192,297220,1,0,0:0:0:0:
192,192,297220,1,0,0:0:0:0:
448,192,297305,1,0,0:0:0:0:
320,192,297305,1,0,0:0:0:0:
192,192,297391,1,0,0:0:0:0:
64,192,297391,1,0,0:0:0:0:
448,192,297477,1,0,0:0:0:0:
320,192,297477,1,0,0:0:0:0:
64,192,297562,1,0,0:0:0:0:
320,192,297648,5,0,0:0:0:0:
192,192,297648,1,0,0:0:0:0:
448,192,297648,1,0,0:0:0:0:
64,192,297734,1,0,0:0:0:0:
448,192,297820,1,0,0:0:0:0:
192,192,297905,1,0,0:0:0:0:
320,192,297905,1,0,0:0:0:0:
64,192,297991,1,0,0:0:0:0:
192,192,298077,1,0,0:0:0:0:
320,192,298077,1,0,0:0:0:0:
64,192,298162,1,0,0:0:0:0:
448,192,298162,1,0,0:0:0:0:
320,192,298248,1,0,0:0:0:0:
64,192,298334,1,0,0:0:0:0:
448,192,298420,1,0,0:0:0:0:
192,192,298505,1,0,0:0:0:0:
320,192,298591,1,0,0:0:0:0:
64,192,298591,1,0,0:0:0:0:
448,192,298677,1,0,0:0:0:0:
320,192,298762,1,0,0:0:0:0:
192,192,298762,1,0,0:0:0:0:
448,192,298848,1,0,0:0:0:0:
64,192,298848,1,0,0:0:0:0:
320,192,298934,1,0,0:0:0:0:
448,192,299020,1,0,0:0:0:0:
192,192,299020,1,0,0:0:0:0:
64,192,299105,1,0,0:0:0:0:
448,192,299191,1,0,0:0:0:0:
192,192,299277,1,0,0:0:0:0:
320,192,299277,1,0,0:0:0:0:
64,192,299362,1,0,0:0:0:0:
448,192,299362,1,0,0:0:0:0:
320,192,299448,1,0,0:0:0:0:
192,192,299448,1,0,0:0:0:0:
448,192,299534,1,0,0:0:0:0:
64,192,299534,1,0,0:0:0:0:
192,192,299620,1,0,0:0:0:0:
448,192,299705,1,0,0:0:0:0:
320,192,299791,1,0,0:0:0:0:
192,192,299877,1,0,0:0:0:0:
64,192,299962,1,0,0:0:0:0:
320,192,299962,1,0,0:0:0:0:
448,192,300048,1,0,0:0:0:0:
192,192,300048,1,0,0:0:0:0:
320,192,300134,1,0,0:0:0:0:
64,192,300134,1,0,0:0:0:0:
192,192,300220,1,0,0:0:0:0:
448,192,300220,1,0,0:0:0:0:
320,192,300305,1,0,0:0:0:0:
448,192,300391,1,0,0:0:0:0:
64,192,300391,1,0,0:0:0:0:
320,192,300477,1,0,0:0:0:0:
448,192,300562,1,0,0:0:0:0:
64,192,300648,1,0,0:0:0:0:
192,192,300648,1,0,0:0:0:0:
320,192,300734,1,0,0:0:0:0:
448,192,300734,1,0,0:0:0:0:
64,192,300820,1,0,0:0:0:0:
192,192,300820,1,0,0:0:0:0:
448,192,300905,1,0,0:0:0:0:
320,192,300905,1,0,0:0:0:0:
64,192,300991,1,0,0:0:0:0:
320,192,301077,1,0,0:0:0:0:
192,192,301162,1,0,0:0:0:0:
448,192,301248,1,0,0:0:0:0:
192,192,301334,1,0,0:0:0:0:
320,192,301334,1,0,0:0:0:0:
64,192,301420,1,0,0:0:0:0:
448,192,301420,1,0,0:0:0:0:
192,192,301505,1,0,0:0:0:0:
320,192,301505,1,0,0:0:0:0:
64,192,301591,1,0,0:0:0:0:
448,192,301591,1,0,0:0:0:0:
192,192,301677,1,0,0:0:0:0:
64,192,301762,1,0,0:0:0:0:
448,192,301762,1,0,0:0:0:0:
192,192,301848,1,0,0:0:0:0:
320,192,301934,1,0,0:0:0:0:
64,192,302020,1,0,0:0:0:0:
192,192,302020,1,0,0:0:0:0:
320,192,302105,1,0,0:0:0:0:
448,192,302105,1,0,0:0:0:0:
192,192,302191,1,0,0:0:0:0:
64,192,302191,1,0,0:0:0:0:
320,192,302277,1,0,0:0:0:0:
448,192,302277,1,0,0:0:0:0:
64,192,302362,1,0,0:0:0:0:
448,192,302448,1,0,0:0:0:0:
192,192,302534,1,0,0:0:0:0:
320,192,302620,1,0,0:0:0:0:
64,192,302705,1,0,0:0:0:0:
192,192,302705,1,0,0:0:0:0:
320,192,302791,1,0,0:0:0:0:
448,192,302791,1,0,0:0:0:0:
192,192,302877,1,0,0:0:0:0:
64,192,302877,1,0,0:0:0:0:
448,192,302962,1,0,0:0:0:0:
320,192,302962,1,0,0:0:0:0:
192,192,303048,1,0,0:0:0:0:
448,192,303134,1,0,0:0:0:0:
320,192,303134,1,0,0:0:0:0:
64,192,303220,1,0,0:0:0:0:
448,192,303305,1,0,0:0:0:0:
192,192,303391,1,0,0:0:0:0:
64,192,303391,1,0,0:0:0:0:
320,192,303477,1,0,0:0:0:0:
448,192,303477,1,0,0:0:0:0:
64,192,303562,1,0,0:0:0:0:
192,192,303562,1,0,0:0:0:0:
320,192,303648,1,0,0:0:0:0:
448,192,303648,1,0,0:0:0:0:
64,192,303734,1,0,0:0:0:0:
448,192,303820,1,0,0:0:0:0:
192,192,303905,1,0,0:0:0:0:
320,192,303991,1,0,0:0:0:0:
192,192,304077,1,0,0:0:0:0:
448,192,304077,1,0,0:0:0:0:
64,192,304162,1,0,0:0:0:0:
320,192,304162,1,0,0:0:0:0:
448,192,304248,1,0,0:0:0:0:
192,192,304248,1,0,0:0:0:0:
320,192,304334,1,0,0:0:0:0:
64,192,304334,1,0,0:0:0:0:
192,192,304420,1,0,0:0:0:0:
64,192,304505,1,0,0:0:0:0:
320,192,304505,1,0,0:0:0:0:
448,192,304591,1,0,0:0:0:0:
64,192,304677,1,0,0:0:0:0:
448,192,304762,1,0,0:0:0:0:
320,192,304762,1,0,0:0:0:0:
192,192,304848,1,0,0:0:0:0:
64,192,304848,1,0,0:0:0:0:
320,192,304934,1,0,0:0:0:0:
448,192,304934,1,0,0:0:0:0:
192,192,305020,1,0,0:0:0:0:
64,192,305020,1,0,0:0:0:0:
448,192,305105,1,0,0:0:0:0:
64,192,305191,1,0,0:0:0:0:
448,192,305277,1,0,0:0:0:0:
192,192,305362,1,0,0:0:0:0:
64,192,305448,1,0,0:0:0:0:
320,192,305448,1,0,0:0:0:0:
192,192,305534,1,0,0:0:0:0:
448,192,305534,1,0,0:0:0:0:
64,192,305620,1,0,0:0:0:0:
320,192,305620,1,0,0:0:0:0:
192,192,305705,1,0,0:0:0:0:
448,192,305705,1,0,0:0:0:0:
64,192,305791,1,0,0:0:0:0:
192,192,305877,1,0,0:0:0:0:
320,192,305877,1,0,0:0:0:0:
64,192,305962,1,0,0:0:0:0:
320,192,306048,1,0,0:0:0:0:
448,192,306134,1,0,0:0:0:0:
64,192,306134,1,0,0:0:0:0:
192,192,306220,1,0,0:0:0:0:
320,192,306220,1,0,0:0:0:0:
64,192,306305,1,0,0:0:0:0:
448,192,306305,1,0,0:0:0:0:
320,192,306391,1,0,0:0:0:0:
192,192,306391,1,0,0:0:0:0:
64,192,306477,1,0,0:0:0:0:
192,192,306562,1,0,0:0:0:0:
448,192,306648,1,0,0:0:0:0:
320,192,306734,1,0,0:0:0:0:
64,192,306820,1,0,0:0:0:0:
448,192,306820,1,0,0:0:0:0:
192,192,306905,1,0,0:0:0:0:
320,192,306905,1,0,0:0:0:0:
448,192,306991,1,0,0:0:0:0:
64,192,306991,1,0,0:0:0:0:
192,192,307077,1,0,0:0:0:0:
320,192,307077,1,0,0:0:0:0:
448,192,307162,1,0,0:0:0:0:
320,192,307248,1,0,0:0:0:0:
64,192,307248,1,0,0:0:0:0:
192,192,307334,1,0,0:0:0:0:
64,192,307420,1,0,0:0:0:0:
320,192,307505,1,0,0:0:0:0:
192,192,307505,1,0,0:0:0:0:
448,192,307591,1,0,0:0:0:0:
64,192,307591,1,0,0:0:0:0:
192,192,307677,1,0,0:0:0:0:
320,192,307677,1,0,0:0:0:0:
448,192,307762,1,0,0:0:0:0:
64,192,307762,1,0,0:0:0:0:
320,192,307848,1,0,0:0:0:0:
64,192,307934,1,0,0:0:0:0:
448,192,308020,1,0,0:0:0:0:
192,192,308105,1,0,0:0:0:0:
320,192,308191,1,0,0:0:0:0:
64,192,308191,1,0,0:0:0:0:
192,192,308277,1,0,0:0:0:0:
448,192,308277,1,0,0:0:0:0:
64,192,308362,1,0,0:0:0:0:
320,192,308362,1,0,0:0:0:0:
448,192,308448,1,0,0:0:0:0:
192,192,308448,1,0,0:0:0:0:
64,192,308534,1,0,0:0:0:0:
448,192,308620,1,0,0:0:0:0:
320,192,308620,1,0,0:0:0:0:
192,192,308705,1,0,0:0:0:0:
320,192,308791,1,0,0:0:0:0:
192,192,308877,1,0,0:0:0:0:
64,192,308877,1,0,0:0:0:0:
448,192,308962,1,0,0:0:0:0:
320,192,308962,1,0,0:0:0:0:
192,192,309048,1,0,0:0:0:0:
64,192,309048,1,0,0:0:0:0:
320,192,309134,1,0,0:0:0:0:
448,192,309134,1,0,0:0:0:0:
192,192,309220,1,0,0:0:0:0:
320,192,309305,1,0,0:0:0:0:
64,192,309391,1,0,0:0:0:0:
448,192,309477,1,0,0:0:0:0:
192,192,309562,1,0,0:0:0:0:
64,192,309562,1,0,0:0:0:0:
448,192,309648,1,0,0:0:0:0:
320,192,309648,1,0,0:0:0:0:
64,192,309734,1,0,0:0:0:0:
192,192,309734,1,0,0:0:0:0:
320,192,309820,1,0,0:0:0:0:
448,192,309820,1,0,0:0:0:0:
192,192,309905,1,0,0:0:0:0:
320,192,309991,1,0,0:0:0:0:
192,192,310077,1,0,0:0:0:0:
448,192,310162,1,0,0:0:0:0:
64,192,310248,1,0,0:0:0:0:
192,192,310248,1,0,0:0:0:0:
320,192,310334,1,0,0:0:0:0:
448,192,310334,1,0,0:0:0:0:
192,192,310420,1,0,0:0:0:0:
64,192,310420,1,0,0:0:0:0:
448,192,310505,1,0,0:0:0:0:
320,192,310505,1,0,0:0:0:0:
64,192,310591,1,0,0:0:0:0:
192,192,310677,1,0,0:0:0:0:
64,192,310762,1,0,0:0:0:0:
448,192,310848,1,0,0:0:0:0:
64,192,310934,1,0,0:0:0:0:
320,192,310934,1,0,0:0:0:0:
192,192,311020,1,0,0:0:0:0:
448,192,311020,1,0,0:0:0:0:
320,192,311105,1,0,0:0:0:0:
64,192,311105,1,0,0:0:0:0:
192,192,311191,1,0,0:0:0:0:
448,192,311191,1,0,0:0:0:0:
64,192,311277,1,0,0:0:0:0:
192,192,311362,1,0,0:0:0:0:
448,192,311448,1,0,0:0:0:0:
320,192,311534,1,0,0:0:0:0:
192,192,311620,1,0,0:0:0:0:
448,192,311620,1,0,0:0:0:0:
64,192,311705,1,0,0:0:0:0:
320,192,311705,1,0,0:0:0:0:
192,192,311791,1,0,0:0:0:0:
448,192,311791,1,0,0:0:0:0:
64,192,311877,1,0,0:0:0:0:
320,192,311877,1,0,0:0:0:0:
192,192,311962,1,0,0:0:0:0:
448,192,312048,1,0,0:0:0:0:
192,192,312134,1,0,0:0:0:0:
320,192,312220,1,0,0:0:0:0:
64,192,312305,1,0,0:0:0:0:
448,192,312305,1,0,0:0:0:0:
320,192,312391,1,0,0:0:0:0:
192,192,312391,1,0,0:0:0:0:
448,192,312477,1,0,0:0:0:0:
64,192,312477,1,0,0:0:0:0:
320,192,312562,1,0,0:0:0:0:
192,192,312562,1,0,0:0:0:0:
64,192,312648,1,0,0:0:0:0:
192,192,312734,1,0,0:0:0:0:
64,192,312820,1,0,0:0:0:0:
448,192,312905,1,0,0:0:0:0:
320,192,312991,1,0,0:0:0:0:
64,192,312991,1,0,0:0:0:0:
192,192,313077,1,0,0:0:0:0:
448,192,313077,1,0,0:0:0:0:
320,192,313162,1,0,0:0:0:0:
64,192,313162,1,0,0:0:0:0:
448,192,313248,1,0,0:0:0:0:
192,192,313248,1,0,0:0:0:0:
320,192,313334,1,0,0:0:0:0:
448,192,313420,1,0,0:0:0:0:
192,192,313505,1,0,0:0:0:0:
320,192,313591,1,0,0:0:0:0:
448,192,313677,1,0,0:0:0:0:
64,192,313677,1,0,0:0:0:0:
192,192,313762,1,0,0:0:0:0:
320,192,313762,1,0,0:0:0:0:
448,192,313848,1,0,0:0:0:0:
64,192,313848,1,0,0:0:0:0:
320,192,313934,1,0,0:0:0:0:
192,192,313934,1,0,0:0:0:0:
64,192,314020,1,0,0:0:0:0:
192,192,314105,1,0,0:0:0:0:
64,192,314191,1,0,0:0:0:0:
320,192,314277,1,0,0:0:0:0:
64,192,314362,1,0,0:0:0:0:
448,192,314362,1,0,0:0:0:0:
192,192,314448,1,0,0:0:0:0:
320,192,314448,1,0,0:0:0:0:
448,192,314534,1,0,0:0:0:0:
64,192,314534,1,0,0:0:0:0:
192,192,314620,1,0,0:0:0:0:
320,192,314620,1,0,0:0:0:0:
64,192,314705,1,0,0:0:0:0:
192,192,314791,1,0,0:0:0:0:
320,192,314877,1,0,0:0:0:0:
448,192,314962,1,0,0:0:0:0:
320,192,315048,1,0,0:0:0:0:
64,192,315048,1,0,0:0:0:0:
448,192,315134,1,0,0:0:0:0:
192,192,315134,1,0,0:0:0:0:
320,192,315220,1,0,0:0:0:0:
64,192,315220,1,0,0:0:0:0:
192,192,315305,1,0,0:0:0:0:
448,192,315305,1,0,0:0:0:0:
320,192,315391,1,0,0:0:0:0:
448,192,315477,1,0,0:0:0:0:
192,192,315562,1,0,0:0:0:0:
64,192,315648,1,0,0:0:0:0:
448,192,315734,1,0,0:0:0:0:
320,192,315734,1,0,0:0:0:0:
64,192,315820,1,0,0:0:0:0:
192,192,315820,1,0,0:0:0:0:
320,192,315905,1,0,0:0:0:0:
448,192,315905,1,0,0:0:0:0:
64,192,315991,1,0,0:0:0:0:
192,192,315991,1,0,0:0:0:0:
320,192,316077,1,0,0:0:0:0:
192,192,316162,1,0,0:0:0:0:
448,192,316248,1,0,0:0:0:0:
64,192,316334,1,0,0:0:0:0:
192,192,316420,1,0,0:0:0:0:
320,192,316420,1,0,0:0:0:0:
448,192,316505,1,0,0:0:0:0:
64,192,316505,1,0,0:0:0:0:
320,192,316591,1,0,0:0:0:0:
192,192,316591,1,0,0:0:0:0:
64,192,316677,1,0,0:0:0:0:
448,192,316677,1,0,0:0:0:0:
192,192,316762,1,0,0:0:0:0:
64,192,316848,1,0,0:0:0:0:
448,192,316934,1,0,0:0:0:0:
320,192,317020,1,0,0:0:0:0:
448,192,317105,1,0,0:0:0:0:
192,192,317105,1,0,0:0:0:0:
64,192,317191,1,0,0:0:0:0:
320,192,317191,1,0,0:0:0:0:
192,192,317277,1,0,0:0:0:0:
448,192,317277,1,0,0:0:0:0:
64,192,317362,1,0,0:0:0:0:
320,192,317362,1,0,0:0:0:0:
192,192,317448,1,0,0:0:0:0:
64,192,317534,1,0,0:0:0:0:
192,192,317620,1,0,0:0:0:0:
448,192,317705,1,0,0:0:0:0:
64,192,317791,1,0,0:0:0:0:
320,192,317791,1,0,0:0:0:0:
192,192,317877,1,0,0:0:0:0:
448,192,317877,1,0,0:0:0:0:
320,192,317962,1,0,0:0:0:0:
64,192,317962,1,0,0:0:0:0:
448,192,318048,1,0,0:0:0:0:
192,192,318048,1,0,0:0:0:0:
320,192,318134,1,0,0:0:0:0:
448,192,318220,1,0,0:0:0:0:
320,192,318305,1,0,0:0:0:0:
64,192,318391,1,0,0:0:0:0:
320,192,318477,1,0,0:0:0:0:
192,192,318477,1,0,0:0:0:0:
448,192,318562,1,0,0:0:0:0:
64,192,318562,1,0,0:0:0:0:
320,192,318648,1,0,0:0:0:0:
192,192,318648,1,0,0:0:0:0:
448,192,318734,1,0,0:0:0:0:
64,192,318734,1,0,0:0:0:0:
192,192,318820,1,0,0:0:0:0:
448,192,318905,1,0,0:0:0:0:
64,192,318991,1,0,0:0:0:0:
320,192,319077,1,0,0:0:0:0:
64,192,319162,1,0,0:0:0:0:
448,192,319162,1,0,0:0:0:0:
320,192,319248,1,0,0:0:0:0:
192,192,319248,1,0,0:0:0:0:
448,192,319334,1,0,0:0:0:0:
64,192,319334,1,0,0:0:0:0:
192,192,319420,1,0,0:0:0:0:
320,192,319420,1,0,0:0:0:0:
64,192,319505,1,0,0:0:0:0:
