osu file format v14

[General]
AudioFilename: 12 little fragments of silence120.mp3
AudioLeadIn: 0
PreviewTime: 203723
Countdown: 0
SampleSet: Drum
StackLeniency: 0.7
Mode: 3
LetterboxInBreaks: 0
SpecialStyle: 0
WidescreenStoryboard: 0

[Editor]
DistanceSpacing: 0.8
BeatDivisor: 4
GridSize: 32
TimelineZoom: 2.599999

[Metadata]
Title:12 little fragments of silence
TitleUnicode:12 little fragments of silence
Artist:Betwixt & Between
ArtistUnicode:Betwixt & Between
Creator:Shoegazer
Version:absolution 1.2x (264bpm)
Source:
Tags:speed ball z freeform hardcore j-core electronic instrumental kaoru kimura and t*noic
BeatmapID:2806384
BeatmapSetID:-1

[Difficulty]
HPDrainRate:9
CircleSize:4
OverallDifficulty:8.5
ApproachRate:5
SliderMultiplier:1.4
SliderTickRate:1

[Events]
//Background and Video events
0,0,"73.jpg",0,0
//Break Periods
//Storyboard Layer 0 (Background)
//Storyboard Layer 1 (Fail)
//Storyboard Layer 2 (Pass)
//Storyboard Layer 3 (Foreground)
//Storyboard Layer 4 (Overlay)
//Storyboard Sound Samples

[TimingPoints]
86,227.2727275,4,3,1,35,1,0

[HitObjects]
448,192,86,5,0,0:0:0:0:
64,192,199,1,0,0:0:0:0:
320,192,256,1,0,0:0:0:0:
192,192,313,1,0,0:0:0:0:
64,192,426,1,0,0:0:0:0:
448,192,540,1,0,0:0:0:0:
192,192,597,1,0,0:0:0:0:
320,192,654,1,0,0:0:0:0:
64,192,767,1,0,0:0:0:0:
320,192,881,1,0,0:0:0:0:
192,192,938,1,0,0:0:0:0:
448,192,995,1,0,0:0:0:0:
320,192,1108,1,0,0:0:0:0:
64,192,1222,1,0,0:0:0:0:
320,192,1279,1,0,0:0:0:0:
192,192,1336,1,0,0:0:0:0:
448,192,1449,1,0,0:0:0:0:
64,192,1506,1,0,0:0:0:0:
448,192,1563,1,0,0:0:0:0:
320,192,1620,1,0,0:0:0:0:
192,192,1676,1,0,0:0:0:0:
64,192,1714,1,0,0:0:0:0:
448,192,1752,1,0,0:0:0:0:
320,192,1790,1,0,0:0:0:0:
192,192,1828,1,0,0:0:0:0:
64,192,1866,1,0,0:0:0:0:
320,192,1904,1,0,0:0:0:0:
448,192,1904,1,0,0:0:0:0:
192,192,2017,1,0,0:0:0:0:
320,192,2131,1,0,0:0:0:0:
192,192,2188,1,0,0:0:0:0:
320,192,2245,1,0,0:0:0:0:
192,192,2358,1,0,0:0:0:0:
64,192,2472,1,0,0:0:0:0:
448,192,2472,1,0,0:0:0:0:
320,192,2586,1,0,0:0:0:0:
64,192,2642,1,0,0:0:0:0:
448,192,2642,1,0,0:0:0:0:
192,192,2699,1,0,0:0:0:0:
64,192,2813,1,0,0:0:0:0:
448,192,2813,1,0,0:0:0:0:
448,192,2926,1,0,0:0:0:0:
320,192,3040,1,0,0:0:0:0:
64,192,3097,1,0,0:0:0:0:
320,192,3154,1,0,0:0:0:0:
448,192,3267,1,0,0:0:0:0:
192,192,3324,1,0,0:0:0:0:
448,192,3381,1,0,0:0:0:0:
64,192,3495,1,0,0:0:0:0:
320,192,3551,1,0,0:0:0:0:
448,192,3608,1,0,0:0:0:0:
192,192,3722,1,0,0:0:0:0:
320,192,3779,1,0,0:0:0:0:
192,192,3836,1,0,0:0:0:0:
320,192,3949,1,0,0:0:0:0:
192,192,4006,1,0,0:0:0:0:
320,192,4063,1,0,0:0:0:0:
192,192,4176,1,0,0:0:0:0:
64,192,4290,1,0,0:0:0:0:
448,192,4290,1,0,0:0:0:0:
320,192,4404,1,0,0:0:0:0:
64,192,4461,1,0,0:0:0:0:
448,192,4461,1,0,0:0:0:0:
192,192,4517,1,0,0:0:0:0:
64,192,4631,1,0,0:0:0:0:
448,192,4631,1,0,0:0:0:0:
64,192,4745,1,0,0:0:0:0:
320,192,4858,1,0,0:0:0:0:
192,192,4915,1,0,0:0:0:0:
320,192,4972,1,0,0:0:0:0:
64,192,5086,1,0,0:0:0:0:
448,192,5142,1,0,0:0:0:0:
64,192,5199,1,0,0:0:0:0:
192,192,5256,1,0,0:0:0:0:
320,192,5313,1,0,0:0:0:0:
448,192,5313,1,0,0:0:0:0:
64,192,5370,1,0,0:0:0:0:
192,192,5370,1,0,0:0:0:0:
320,192,5426,1,0,0:0:0:0:
448,192,5426,1,0,0:0:0:0:
192,192,5483,1,0,0:0:0:0:
64,192,5540,1,0,0:0:0:0:
320,192,5540,1,0,0:0:0:0:
448,192,5540,1,0,0:0:0:0:
192,192,5654,1,0,0:0:0:0:
320,192,5767,1,0,0:0:0:0:
192,192,5824,1,0,0:0:0:0:
320,192,5881,1,0,0:0:0:0:
192,192,5995,1,0,0:0:0:0:
64,192,6108,1,0,0:0:0:0:
448,192,6108,1,0,0:0:0:0:
320,192,6222,1,0,0:0:0:0:
64,192,6279,1,0,0:0:0:0:
448,192,6279,1,0,0:0:0:0:
192,192,6336,1,0,0:0:0:0:
64,192,6449,1,0,0:0:0:0:
448,192,6449,1,0,0:0:0:0:
448,192,6563,1,0,0:0:0:0:
320,192,6676,1,0,0:0:0:0:
64,192,6733,1,0,0:0:0:0:
320,192,6790,1,0,0:0:0:0:
448,192,6904,1,0,0:0:0:0:
192,192,6961,1,0,0:0:0:0:
448,192,7017,1,0,0:0:0:0:
64,192,7131,1,0,0:0:0:0:
320,192,7188,1,0,0:0:0:0:
448,192,7245,1,0,0:0:0:0:
192,192,7358,1,0,0:0:0:0:
320,192,7415,1,0,0:0:0:0:
192,192,7472,1,0,0:0:0:0:
320,192,7586,1,0,0:0:0:0:
192,192,7642,1,0,0:0:0:0:
320,192,7699,1,0,0:0:0:0:
192,192,7813,1,0,0:0:0:0:
64,192,7926,1,0,0:0:0:0:
448,192,7926,1,0,0:0:0:0:
320,192,8040,1,0,0:0:0:0:
64,192,8097,1,0,0:0:0:0:
448,192,8097,1,0,0:0:0:0:
192,192,8154,1,0,0:0:0:0:
64,192,8267,1,0,0:0:0:0:
448,192,8267,1,0,0:0:0:0:
64,192,8381,1,0,0:0:0:0:
320,192,8495,1,0,0:0:0:0:
192,192,8551,1,0,0:0:0:0:
320,192,8608,1,0,0:0:0:0:
64,192,8722,1,0,0:0:0:0:
448,192,8722,1,0,0:0:0:0:
192,192,8836,1,0,0:0:0:0:
320,192,8892,1,0,0:0:0:0:
448,192,8892,1,0,0:0:0:0:
64,192,8949,1,0,0:0:0:0:
192,192,8949,1,0,0:0:0:0:
320,192,9006,1,0,0:0:0:0:
64,192,9063,1,0,0:0:0:0:
448,192,9063,1,0,0:0:0:0:
64,192,9176,1,0,0:0:0:0:
192,192,9176,1,0,0:0:0:0:
448,192,9176,1,0,0:0:0:0:
64,192,9347,1,0,0:0:0:0:
192,192,9347,1,0,0:0:0:0:
448,192,9347,1,0,0:0:0:0:
64,192,9517,1,0,0:0:0:0:
192,192,9517,1,0,0:0:0:0:
448,192,9517,1,0,0:0:0:0:
64,192,9688,1,0,0:0:0:0:
192,192,9688,1,0,0:0:0:0:
448,192,9688,1,0,0:0:0:0:
64,192,9858,1,0,0:0:0:0:
192,192,9858,1,0,0:0:0:0:
448,192,9858,1,0,0:0:0:0:
320,192,9972,1,0,0:0:0:0:
64,192,10086,1,0,0:0:0:0:
448,192,10086,1,0,0:0:0:0:
192,192,10199,1,0,0:0:0:0:
64,192,10256,1,0,0:0:0:0:
448,192,10256,1,0,0:0:0:0:
192,192,10313,1,0,0:0:0:0:
320,192,10313,1,0,0:0:0:0:
64,192,10426,1,0,0:0:0:0:
448,192,10426,1,0,0:0:0:0:
192,192,10540,1,0,0:0:0:0:
320,192,10540,1,0,0:0:0:0:
64,192,10597,1,0,0:0:0:0:
448,192,10597,1,0,0:0:0:0:
64,192,10711,1,0,0:0:0:0:
320,192,10767,1,0,0:0:0:0:
448,192,10824,1,0,0:0:0:0:
192,192,10881,1,0,0:0:0:0:
320,192,10938,1,0,0:0:0:0:
64,192,10995,1,0,0:0:0:0:
192,192,10995,1,0,0:0:0:0:
448,192,10995,1,0,0:0:0:0:
64,192,11165,1,0,0:0:0:0:
192,192,11165,1,0,0:0:0:0:
448,192,11165,1,0,0:0:0:0:
64,192,11336,1,0,0:0:0:0:
192,192,11336,1,0,0:0:0:0:
448,192,11336,1,0,0:0:0:0:
64,192,11506,1,0,0:0:0:0:
192,192,11506,1,0,0:0:0:0:
448,192,11506,1,0,0:0:0:0:
64,192,11676,1,0,0:0:0:0:
192,192,11676,1,0,0:0:0:0:
448,192,11676,1,0,0:0:0:0:
320,192,11790,1,0,0:0:0:0:
64,192,11904,1,0,0:0:0:0:
448,192,11904,1,0,0:0:0:0:
320,192,12017,1,0,0:0:0:0:
64,192,12074,1,0,0:0:0:0:
448,192,12074,1,0,0:0:0:0:
192,192,12131,1,0,0:0:0:0:
320,192,12131,1,0,0:0:0:0:
64,192,12245,1,0,0:0:0:0:
448,192,12245,1,0,0:0:0:0:
192,192,12358,1,0,0:0:0:0:
320,192,12358,1,0,0:0:0:0:
64,192,12415,1,0,0:0:0:0:
448,192,12415,1,0,0:0:0:0:
192,192,12529,1,0,0:0:0:0:
448,192,12586,1,0,0:0:0:0:
64,192,12642,1,0,0:0:0:0:
192,192,12680,1,0,0:0:0:0:
448,192,12718,1,0,0:0:0:0:
320,192,12756,1,0,0:0:0:0:
64,192,12813,1,0,0:0:0:0:
192,192,12813,1,0,0:0:0:0:
448,192,12813,1,0,0:0:0:0:
320,192,12926,1,0,0:0:0:0:
64,192,12983,1,0,0:0:0:0:
448,192,13040,1,0,0:0:0:0:
192,192,13154,1,0,0:0:0:0:
64,192,13267,1,0,0:0:0:0:
448,192,13267,1,0,0:0:0:0:
320,192,13381,1,0,0:0:0:0:
64,192,13438,1,0,0:0:0:0:
448,192,13495,1,0,0:0:0:0:
192,192,13608,1,0,0:0:0:0:
64,192,13722,1,0,0:0:0:0:
320,192,13722,1,0,0:0:0:0:
448,192,13722,1,0,0:0:0:0:
320,192,13892,1,0,0:0:0:0:
64,192,13949,1,0,0:0:0:0:
448,192,14063,1,0,0:0:0:0:
64,192,14176,1,0,0:0:0:0:
448,192,14176,1,0,0:0:0:0:
320,192,14290,1,0,0:0:0:0:
192,192,14347,1,0,0:0:0:0:
448,192,14404,1,0,0:0:0:0:
192,192,14517,1,0,0:0:0:0:
64,192,14631,1,0,0:0:0:0:
320,192,14631,1,0,0:0:0:0:
448,192,14631,1,0,0:0:0:0:
192,192,14745,1,0,0:0:0:0:
320,192,14801,1,0,0:0:0:0:
64,192,14858,1,0,0:0:0:0:
448,192,14858,1,0,0:0:0:0:
320,192,14972,1,0,0:0:0:0:
64,192,15086,1,0,0:0:0:0:
192,192,15086,1,0,0:0:0:0:
448,192,15086,1,0,0:0:0:0:
448,192,15256,1,0,0:0:0:0:
192,192,15313,1,0,0:0:0:0:
320,192,15313,1,0,0:0:0:0:
64,192,15370,1,0,0:0:0:0:
320,192,15426,1,0,0:0:0:0:
192,192,15483,1,0,0:0:0:0:
64,192,15540,1,0,0:0:0:0:
320,192,15540,1,0,0:0:0:0:
448,192,15540,1,0,0:0:0:0:
192,192,15711,1,0,0:0:0:0:
64,192,15767,1,0,0:0:0:0:
320,192,15767,1,0,0:0:0:0:
448,192,15767,1,0,0:0:0:0:
192,192,15881,1,0,0:0:0:0:
64,192,15995,1,0,0:0:0:0:
320,192,15995,1,0,0:0:0:0:
448,192,15995,1,0,0:0:0:0:
64,192,16165,1,0,0:0:0:0:
192,192,16222,1,0,0:0:0:0:
320,192,16222,1,0,0:0:0:0:
448,192,16336,1,0,0:0:0:0:
320,192,16364,1,0,0:0:0:0:
192,192,16392,1,0,0:0:0:0:
64,192,16449,1,0,0:0:0:0:
320,192,16449,1,0,0:0:0:0:
448,192,16449,1,0,0:0:0:0:
192,192,16563,1,0,0:0:0:0:
320,192,16676,1,0,0:0:0:0:
448,192,16676,1,0,0:0:0:0:
64,192,16790,1,0,0:0:0:0:
320,192,16847,1,0,0:0:0:0:
192,192,16904,1,0,0:0:0:0:
448,192,16904,1,0,0:0:0:0:
64,192,17017,1,0,0:0:0:0:
192,192,17074,1,0,0:0:0:0:
320,192,17131,1,0,0:0:0:0:
448,192,17131,1,0,0:0:0:0:
64,192,17188,1,0,0:0:0:0:
448,192,17245,1,0,0:0:0:0:
64,192,17301,1,0,0:0:0:0:
192,192,17358,1,0,0:0:0:0:
448,192,17358,1,0,0:0:0:0:
192,192,17472,1,0,0:0:0:0:
64,192,17586,1,0,0:0:0:0:
448,192,17586,1,0,0:0:0:0:
64,192,17699,1,0,0:0:0:0:
192,192,17813,1,0,0:0:0:0:
320,192,17813,1,0,0:0:0:0:
192,192,17926,1,0,0:0:0:0:
320,192,18040,1,0,0:0:0:0:
448,192,18040,1,0,0:0:0:0:
448,192,18154,1,0,0:0:0:0:
64,192,18267,1,0,0:0:0:0:
192,192,18267,1,0,0:0:0:0:
320,192,18324,1,0,0:0:0:0:
320,192,18438,1,0,0:0:0:0:
192,192,18495,1,0,0:0:0:0:
448,192,18495,1,0,0:0:0:0:
64,192,18608,1,0,0:0:0:0:
192,192,18665,1,0,0:0:0:0:
320,192,18722,1,0,0:0:0:0:
448,192,18722,1,0,0:0:0:0:
64,192,18836,1,0,0:0:0:0:
320,192,18892,1,0,0:0:0:0:
192,192,18949,1,0,0:0:0:0:
448,192,18949,1,0,0:0:0:0:
64,192,18987,1,0,0:0:0:0:
320,192,19025,1,0,0:0:0:0:
448,192,19063,1,0,0:0:0:0:
64,192,19101,1,0,0:0:0:0:
192,192,19139,1,0,0:0:0:0:
320,192,19176,1,0,0:0:0:0:
448,192,19176,1,0,0:0:0:0:
320,192,19290,1,0,0:0:0:0:
192,192,19404,1,0,0:0:0:0:
448,192,19404,1,0,0:0:0:0:
192,192,19517,1,0,0:0:0:0:
320,192,19631,1,0,0:0:0:0:
448,192,19631,1,0,0:0:0:0:
448,192,19745,1,0,0:0:0:0:
192,192,19858,1,0,0:0:0:0:
320,192,19858,1,0,0:0:0:0:
64,192,19972,1,0,0:0:0:0:
448,192,20029,1,0,0:0:0:0:
64,192,20086,1,0,0:0:0:0:
192,192,20086,1,0,0:0:0:0:
320,192,20142,1,0,0:0:0:0:
320,192,20256,1,0,0:0:0:0:
192,192,20313,1,0,0:0:0:0:
448,192,20313,1,0,0:0:0:0:
64,192,20426,1,0,0:0:0:0:
192,192,20483,1,0,0:0:0:0:
320,192,20540,1,0,0:0:0:0:
448,192,20540,1,0,0:0:0:0:
192,192,20654,1,0,0:0:0:0:
448,192,20711,1,0,0:0:0:0:
64,192,20767,1,0,0:0:0:0:
320,192,20767,1,0,0:0:0:0:
192,192,20824,1,0,0:0:0:0:
448,192,20881,1,0,0:0:0:0:
192,192,20938,1,0,0:0:0:0:
64,192,20995,1,0,0:0:0:0:
448,192,20995,1,0,0:0:0:0:
64,192,21108,1,0,0:0:0:0:
192,192,21222,1,0,0:0:0:0:
448,192,21222,1,0,0:0:0:0:
192,192,21336,1,0,0:0:0:0:
64,192,21449,1,0,0:0:0:0:
320,192,21449,1,0,0:0:0:0:
64,192,21563,1,0,0:0:0:0:
192,192,21676,1,0,0:0:0:0:
448,192,21676,1,0,0:0:0:0:
320,192,21790,1,0,0:0:0:0:
448,192,21847,1,0,0:0:0:0:
64,192,21904,1,0,0:0:0:0:
192,192,21904,1,0,0:0:0:0:
320,192,21961,1,0,0:0:0:0:
320,192,22074,1,0,0:0:0:0:
192,192,22131,1,0,0:0:0:0:
448,192,22131,1,0,0:0:0:0:
64,192,22245,1,0,0:0:0:0:
192,192,22301,1,0,0:0:0:0:
320,192,22358,1,0,0:0:0:0:
448,192,22358,1,0,0:0:0:0:
192,192,22472,1,0,0:0:0:0:
448,192,22529,1,0,0:0:0:0:
64,192,22586,1,0,0:0:0:0:
320,192,22586,1,0,0:0:0:0:
192,192,22623,1,0,0:0:0:0:
320,192,22661,1,0,0:0:0:0:
448,192,22699,1,0,0:0:0:0:
192,192,22737,1,0,0:0:0:0:
64,192,22775,1,0,0:0:0:0:
320,192,22813,1,0,0:0:0:0:
448,192,22813,1,0,0:0:0:0:
320,192,22926,1,0,0:0:0:0:
192,192,23040,1,0,0:0:0:0:
448,192,23040,1,0,0:0:0:0:
192,192,23154,1,0,0:0:0:0:
320,192,23267,1,0,0:0:0:0:
448,192,23267,1,0,0:0:0:0:
320,192,23438,1,0,0:0:0:0:
448,192,23438,1,0,0:0:0:0:
192,192,23495,1,0,0:0:0:0:
320,192,23551,1,0,0:0:0:0:
448,192,23551,1,0,0:0:0:0:
64,192,23608,1,0,0:0:0:0:
320,192,23665,1,0,0:0:0:0:
448,192,23665,1,0,0:0:0:0:
64,192,23722,1,0,0:0:0:0:
192,192,23722,1,0,0:0:0:0:
320,192,23779,1,0,0:0:0:0:
320,192,23892,1,0,0:0:0:0:
192,192,23949,1,0,0:0:0:0:
448,192,23949,1,0,0:0:0:0:
64,192,24063,1,0,0:0:0:0:
192,192,24120,1,0,0:0:0:0:
320,192,24176,1,0,0:0:0:0:
448,192,24176,1,0,0:0:0:0:
192,192,24290,1,0,0:0:0:0:
448,192,24347,1,0,0:0:0:0:
64,192,24404,1,0,0:0:0:0:
320,192,24404,1,0,0:0:0:0:
192,192,24461,1,0,0:0:0:0:
448,192,24517,1,0,0:0:0:0:
192,192,24574,1,0,0:0:0:0:
64,192,24631,1,0,0:0:0:0:
448,192,24631,1,0,0:0:0:0:
64,192,24745,1,0,0:0:0:0:
192,192,24858,1,0,0:0:0:0:
448,192,24858,1,0,0:0:0:0:
192,192,24972,1,0,0:0:0:0:
64,192,25086,1,0,0:0:0:0:
320,192,25086,1,0,0:0:0:0:
64,192,25199,1,0,0:0:0:0:
192,192,25313,1,0,0:0:0:0:
448,192,25313,1,0,0:0:0:0:
320,192,25426,1,0,0:0:0:0:
448,192,25483,1,0,0:0:0:0:
64,192,25540,1,0,0:0:0:0:
192,192,25540,1,0,0:0:0:0:
320,192,25597,1,0,0:0:0:0:
320,192,25711,1,0,0:0:0:0:
192,192,25767,1,0,0:0:0:0:
448,192,25767,1,0,0:0:0:0:
64,192,25881,1,0,0:0:0:0:
192,192,25938,1,0,0:0:0:0:
320,192,25995,1,0,0:0:0:0:
448,192,25995,1,0,0:0:0:0:
64,192,26108,1,0,0:0:0:0:
320,192,26165,1,0,0:0:0:0:
192,192,26222,1,0,0:0:0:0:
448,192,26222,1,0,0:0:0:0:
64,192,26260,1,0,0:0:0:0:
320,192,26298,1,0,0:0:0:0:
448,192,26336,1,0,0:0:0:0:
64,192,26373,1,0,0:0:0:0:
192,192,26411,1,0,0:0:0:0:
320,192,26449,1,0,0:0:0:0:
448,192,26449,1,0,0:0:0:0:
320,192,26563,1,0,0:0:0:0:
192,192,26676,1,0,0:0:0:0:
448,192,26676,1,0,0:0:0:0:
192,192,26790,1,0,0:0:0:0:
320,192,26904,1,0,0:0:0:0:
448,192,26904,1,0,0:0:0:0:
320,192,27017,1,0,0:0:0:0:
192,192,27131,1,0,0:0:0:0:
448,192,27131,1,0,0:0:0:0:
320,192,27245,1,0,0:0:0:0:
448,192,27301,1,0,0:0:0:0:
64,192,27358,1,0,0:0:0:0:
192,192,27358,1,0,0:0:0:0:
320,192,27415,1,0,0:0:0:0:
320,192,27529,1,0,0:0:0:0:
192,192,27586,1,0,0:0:0:0:
448,192,27586,1,0,0:0:0:0:
64,192,27699,1,0,0:0:0:0:
192,192,27756,1,0,0:0:0:0:
320,192,27813,1,0,0:0:0:0:
448,192,27813,1,0,0:0:0:0:
192,192,27926,1,0,0:0:0:0:
448,192,27983,1,0,0:0:0:0:
64,192,28040,1,0,0:0:0:0:
320,192,28040,1,0,0:0:0:0:
192,192,28097,1,0,0:0:0:0:
448,192,28154,1,0,0:0:0:0:
192,192,28211,1,0,0:0:0:0:
64,192,28267,1,0,0:0:0:0:
448,192,28267,1,0,0:0:0:0:
64,192,28381,1,0,0:0:0:0:
192,192,28495,1,0,0:0:0:0:
448,192,28495,1,0,0:0:0:0:
192,192,28608,1,0,0:0:0:0:
64,192,28722,1,0,0:0:0:0:
320,192,28722,1,0,0:0:0:0:
64,192,28836,1,0,0:0:0:0:
320,192,28949,1,0,0:0:0:0:
448,192,28949,1,0,0:0:0:0:
320,192,29063,1,0,0:0:0:0:
448,192,29063,1,0,0:0:0:0:
64,192,29176,1,0,0:0:0:0:
192,192,29176,1,0,0:0:0:0:
320,192,29233,1,0,0:0:0:0:
320,192,29347,1,0,0:0:0:0:
192,192,29404,1,0,0:0:0:0:
448,192,29404,1,0,0:0:0:0:
64,192,29517,1,0,0:0:0:0:
192,192,29574,1,0,0:0:0:0:
320,192,29631,1,0,0:0:0:0:
448,192,29631,1,0,0:0:0:0:
64,192,29745,1,0,0:0:0:0:
192,192,29858,1,0,0:0:0:0:
448,192,29858,1,0,0:0:0:0:
320,192,29896,1,0,0:0:0:0:
64,192,29934,1,0,0:0:0:0:
192,192,29972,1,0,0:0:0:0:
320,192,30010,1,0,0:0:0:0:
64,192,30086,1,0,0:0:0:0:
192,192,30086,1,0,0:0:0:0:
448,192,30086,1,0,0:0:0:0:
64,192,30256,1,0,0:0:0:0:
192,192,30256,1,0,0:0:0:0:
64,192,30426,1,0,0:0:0:0:
192,192,30426,1,0,0:0:0:0:
64,192,30597,1,0,0:0:0:0:
192,192,30597,1,0,0:0:0:0:
64,192,30767,1,0,0:0:0:0:
192,192,30767,1,0,0:0:0:0:
448,192,30881,1,0,0:0:0:0:
320,192,30909,1,0,0:0:0:0:
64,192,30938,1,0,0:0:0:0:
192,192,30995,1,0,0:0:0:0:
320,192,30995,1,0,0:0:0:0:
448,192,30995,1,0,0:0:0:0:
64,192,31108,1,0,0:0:0:0:
192,192,31222,1,0,0:0:0:0:
448,192,31222,1,0,0:0:0:0:
192,192,31336,1,0,0:0:0:0:
320,192,31449,1,0,0:0:0:0:
448,192,31449,1,0,0:0:0:0:
448,192,31563,1,0,0:0:0:0:
64,192,31676,1,0,0:0:0:0:
320,192,31676,1,0,0:0:0:0:
320,192,31790,1,0,0:0:0:0:
64,192,31904,1,0,0:0:0:0:
192,192,31904,1,0,0:0:0:0:
64,192,32017,1,0,0:0:0:0:
192,192,32131,1,0,0:0:0:0:
448,192,32131,1,0,0:0:0:0:
192,192,32245,1,0,0:0:0:0:
320,192,32358,1,0,0:0:0:0:
448,192,32358,1,0,0:0:0:0:
64,192,32415,1,0,0:0:0:0:
192,192,32443,1,0,0:0:0:0:
448,192,32472,1,0,0:0:0:0:
320,192,32500,1,0,0:0:0:0:
64,192,32529,1,0,0:0:0:0:
192,192,32557,1,0,0:0:0:0:
448,192,32642,1,0,0:0:0:0:
320,192,32671,1,0,0:0:0:0:
64,192,32699,1,0,0:0:0:0:
192,192,32728,1,0,0:0:0:0:
448,192,32756,1,0,0:0:0:0:
320,192,32784,1,0,0:0:0:0:
64,192,32813,1,0,0:0:0:0:
192,192,32813,1,0,0:0:0:0:
192,192,32926,1,0,0:0:0:0:
64,192,33040,1,0,0:0:0:0:
320,192,33040,1,0,0:0:0:0:
64,192,33154,1,0,0:0:0:0:
320,192,33267,1,0,0:0:0:0:
448,192,33267,1,0,0:0:0:0:
320,192,33381,1,0,0:0:0:0:
192,192,33495,1,0,0:0:0:0:
448,192,33495,1,0,0:0:0:0:
320,192,33532,1,0,0:0:0:0:
64,192,33570,1,0,0:0:0:0:
192,192,33608,1,0,0:0:0:0:
448,192,33646,1,0,0:0:0:0:
320,192,33684,1,0,0:0:0:0:
64,192,33722,1,0,0:0:0:0:
192,192,33722,1,0,0:0:0:0:
64,192,33836,1,0,0:0:0:0:
192,192,33949,1,0,0:0:0:0:
448,192,33949,1,0,0:0:0:0:
448,192,34063,1,0,0:0:0:0:
64,192,34176,1,0,0:0:0:0:
192,192,34176,1,0,0:0:0:0:
448,192,34233,1,0,0:0:0:0:
64,192,34290,1,0,0:0:0:0:
192,192,34290,1,0,0:0:0:0:
320,192,34347,1,0,0:0:0:0:
64,192,34404,1,0,0:0:0:0:
448,192,34404,1,0,0:0:0:0:
192,192,34461,1,0,0:0:0:0:
320,192,34517,1,0,0:0:0:0:
448,192,34517,1,0,0:0:0:0:
192,192,34574,1,0,0:0:0:0:
320,192,34631,1,0,0:0:0:0:
448,192,34631,1,0,0:0:0:0:
320,192,34745,1,0,0:0:0:0:
192,192,34858,1,0,0:0:0:0:
448,192,34858,1,0,0:0:0:0:
448,192,34972,1,0,0:0:0:0:
320,192,35029,1,0,0:0:0:0:
64,192,35086,1,0,0:0:0:0:
192,192,35086,1,0,0:0:0:0:
448,192,35142,1,0,0:0:0:0:
192,192,35199,1,0,0:0:0:0:
64,192,35313,1,0,0:0:0:0:
320,192,35313,1,0,0:0:0:0:
64,192,35426,1,0,0:0:0:0:
192,192,35483,1,0,0:0:0:0:
320,192,35540,1,0,0:0:0:0:
448,192,35540,1,0,0:0:0:0:
320,192,35654,1,0,0:0:0:0:
192,192,35767,1,0,0:0:0:0:
448,192,35767,1,0,0:0:0:0:
448,192,35881,1,0,0:0:0:0:
320,192,35938,1,0,0:0:0:0:
64,192,35995,1,0,0:0:0:0:
192,192,35995,1,0,0:0:0:0:
448,192,36051,1,0,0:0:0:0:
192,192,36108,1,0,0:0:0:0:
320,192,36165,1,0,0:0:0:0:
64,192,36222,1,0,0:0:0:0:
320,192,36336,1,0,0:0:0:0:
448,192,36392,1,0,0:0:0:0:
64,192,36449,1,0,0:0:0:0:
192,192,36449,1,0,0:0:0:0:
192,192,36563,1,0,0:0:0:0:
64,192,36676,1,0,0:0:0:0:
320,192,36676,1,0,0:0:0:0:
64,192,36790,1,0,0:0:0:0:
192,192,36847,1,0,0:0:0:0:
320,192,36904,1,0,0:0:0:0:
448,192,36904,1,0,0:0:0:0:
64,192,36961,1,0,0:0:0:0:
320,192,37017,1,0,0:0:0:0:
192,192,37131,1,0,0:0:0:0:
448,192,37131,1,0,0:0:0:0:
320,192,37169,1,0,0:0:0:0:
64,192,37207,1,0,0:0:0:0:
192,192,37245,1,0,0:0:0:0:
448,192,37282,1,0,0:0:0:0:
320,192,37320,1,0,0:0:0:0:
64,192,37358,1,0,0:0:0:0:
192,192,37358,1,0,0:0:0:0:
64,192,37472,1,0,0:0:0:0:
192,192,37586,1,0,0:0:0:0:
448,192,37586,1,0,0:0:0:0:
320,192,37699,1,0,0:0:0:0:
448,192,37699,1,0,0:0:0:0:
64,192,37756,1,0,0:0:0:0:
192,192,37756,1,0,0:0:0:0:
320,192,37813,1,0,0:0:0:0:
448,192,37813,1,0,0:0:0:0:
64,192,37870,1,0,0:0:0:0:
192,192,37926,1,0,0:0:0:0:
448,192,37983,1,0,0:0:0:0:
64,192,38040,1,0,0:0:0:0:
320,192,38040,1,0,0:0:0:0:
448,192,38097,1,0,0:0:0:0:
64,192,38154,1,0,0:0:0:0:
320,192,38267,1,0,0:0:0:0:
448,192,38267,1,0,0:0:0:0:
320,192,38381,1,0,0:0:0:0:
192,192,38495,1,0,0:0:0:0:
448,192,38495,1,0,0:0:0:0:
448,192,38608,1,0,0:0:0:0:
320,192,38665,1,0,0:0:0:0:
64,192,38722,1,0,0:0:0:0:
192,192,38722,1,0,0:0:0:0:
448,192,38779,1,0,0:0:0:0:
64,192,38836,1,0,0:0:0:0:
320,192,38949,1,0,0:0:0:0:
448,192,38949,1,0,0:0:0:0:
320,192,39063,1,0,0:0:0:0:
64,192,39120,1,0,0:0:0:0:
192,192,39176,1,0,0:0:0:0:
448,192,39176,1,0,0:0:0:0:
448,192,39290,1,0,0:0:0:0:
64,192,39404,1,0,0:0:0:0:
192,192,39404,1,0,0:0:0:0:
192,192,39517,1,0,0:0:0:0:
448,192,39574,1,0,0:0:0:0:
64,192,39631,1,0,0:0:0:0:
320,192,39631,1,0,0:0:0:0:
192,192,39688,1,0,0:0:0:0:
64,192,39745,1,0,0:0:0:0:
448,192,39801,1,0,0:0:0:0:
192,192,39858,1,0,0:0:0:0:
448,192,39972,1,0,0:0:0:0:
320,192,40029,1,0,0:0:0:0:
64,192,40086,1,0,0:0:0:0:
192,192,40086,1,0,0:0:0:0:
192,192,40199,1,0,0:0:0:0:
64,192,40313,1,0,0:0:0:0:
320,192,40313,1,0,0:0:0:0:
64,192,40426,1,0,0:0:0:0:
192,192,40483,1,0,0:0:0:0:
320,192,40540,1,0,0:0:0:0:
448,192,40540,1,0,0:0:0:0:
64,192,40597,1,0,0:0:0:0:
320,192,40654,1,0,0:0:0:0:
192,192,40767,1,0,0:0:0:0:
448,192,40767,1,0,0:0:0:0:
320,192,40805,1,0,0:0:0:0:
64,192,40843,1,0,0:0:0:0:
192,192,40881,1,0,0:0:0:0:
448,192,40919,1,0,0:0:0:0:
320,192,40957,1,0,0:0:0:0:
64,192,40995,1,0,0:0:0:0:
192,192,40995,1,0,0:0:0:0:
64,192,41108,1,0,0:0:0:0:
192,192,41222,1,0,0:0:0:0:
448,192,41222,1,0,0:0:0:0:
192,192,41336,1,0,0:0:0:0:
320,192,41449,1,0,0:0:0:0:
448,192,41449,1,0,0:0:0:0:
192,192,41506,1,0,0:0:0:0:
64,192,41563,1,0,0:0:0:0:
448,192,41563,1,0,0:0:0:0:
320,192,41620,1,0,0:0:0:0:
64,192,41676,1,0,0:0:0:0:
192,192,41676,1,0,0:0:0:0:
448,192,41733,1,0,0:0:0:0:
320,192,41790,1,0,0:0:0:0:
448,192,41847,1,0,0:0:0:0:
64,192,41904,1,0,0:0:0:0:
192,192,41904,1,0,0:0:0:0:
192,192,42017,1,0,0:0:0:0:
64,192,42131,1,0,0:0:0:0:
320,192,42131,1,0,0:0:0:0:
64,192,42245,1,0,0:0:0:0:
192,192,42301,1,0,0:0:0:0:
320,192,42358,1,0,0:0:0:0:
448,192,42358,1,0,0:0:0:0:
64,192,42415,1,0,0:0:0:0:
320,192,42472,1,0,0:0:0:0:
64,192,42586,1,0,0:0:0:0:
448,192,42586,1,0,0:0:0:0:
448,192,42699,1,0,0:0:0:0:
320,192,42756,1,0,0:0:0:0:
64,192,42813,1,0,0:0:0:0:
192,192,42813,1,0,0:0:0:0:
192,192,42926,1,0,0:0:0:0:
64,192,43040,1,0,0:0:0:0:
448,192,43040,1,0,0:0:0:0:
64,192,43154,1,0,0:0:0:0:
192,192,43211,1,0,0:0:0:0:
320,192,43267,1,0,0:0:0:0:
448,192,43267,1,0,0:0:0:0:
64,192,43324,1,0,0:0:0:0:
320,192,43381,1,0,0:0:0:0:
64,192,43495,1,0,0:0:0:0:
448,192,43495,1,0,0:0:0:0:
320,192,43608,1,0,0:0:0:0:
448,192,43608,1,0,0:0:0:0:
320,192,43722,1,0,0:0:0:0:
448,192,43722,1,0,0:0:0:0:
192,192,43836,1,0,0:0:0:0:
64,192,43949,1,0,0:0:0:0:
320,192,43949,1,0,0:0:0:0:
320,192,44063,1,0,0:0:0:0:
448,192,44120,1,0,0:0:0:0:
64,192,44176,1,0,0:0:0:0:
192,192,44176,1,0,0:0:0:0:
320,192,44233,1,0,0:0:0:0:
192,192,44290,1,0,0:0:0:0:
64,192,44404,1,0,0:0:0:0:
448,192,44404,1,0,0:0:0:0:
320,192,44517,1,0,0:0:0:0:
192,192,44574,1,0,0:0:0:0:
448,192,44631,1,0,0:0:0:0:
64,192,44688,1,0,0:0:0:0:
448,192,44745,1,0,0:0:0:0:
64,192,44801,1,0,0:0:0:0:
320,192,44858,1,0,0:0:0:0:
192,192,44915,1,0,0:0:0:0:
320,192,44972,1,0,0:0:0:0:
192,192,45029,1,0,0:0:0:0:
448,192,45086,1,0,0:0:0:0:
64,192,45142,1,0,0:0:0:0:
448,192,45199,1,0,0:0:0:0:
64,192,45256,1,0,0:0:0:0:
320,192,45313,1,0,0:0:0:0:
192,192,45370,1,0,0:0:0:0:
320,192,45426,1,0,0:0:0:0:
192,192,45483,1,0,0:0:0:0:
320,192,45540,1,0,0:0:0:0:
448,192,45540,1,0,0:0:0:0:
64,192,45597,1,0,0:0:0:0:
448,192,45654,1,0,0:0:0:0:
192,192,45711,1,0,0:0:0:0:
64,192,45767,1,0,0:0:0:0:
320,192,45767,1,0,0:0:0:0:
448,192,45824,1,0,0:0:0:0:
192,192,45881,1,0,0:0:0:0:
320,192,45938,1,0,0:0:0:0:
64,192,45995,1,0,0:0:0:0:
192,192,45995,1,0,0:0:0:0:
448,192,46051,1,0,0:0:0:0:
64,192,46108,1,0,0:0:0:0:
320,192,46165,1,0,0:0:0:0:
192,192,46222,1,0,0:0:0:0:
448,192,46222,1,0,0:0:0:0:
320,192,46336,1,0,0:0:0:0:
64,192,46449,1,0,0:0:0:0:
192,192,46449,1,0,0:0:0:0:
448,192,46506,1,0,0:0:0:0:
64,192,46563,1,0,0:0:0:0:
320,192,46620,1,0,0:0:0:0:
192,192,46676,1,0,0:0:0:0:
448,192,46676,1,0,0:0:0:0:
64,192,46733,1,0,0:0:0:0:
320,192,46790,1,0,0:0:0:0:
192,192,46847,1,0,0:0:0:0:
320,192,46904,1,0,0:0:0:0:
448,192,46904,1,0,0:0:0:0:
64,192,46961,1,0,0:0:0:0:
448,192,47017,1,0,0:0:0:0:
192,192,47074,1,0,0:0:0:0:
64,192,47131,1,0,0:0:0:0:
320,192,47131,1,0,0:0:0:0:
192,192,47245,1,0,0:0:0:0:
320,192,47358,1,0,0:0:0:0:
448,192,47358,1,0,0:0:0:0:
64,192,47415,1,0,0:0:0:0:
320,192,47472,1,0,0:0:0:0:
192,192,47529,1,0,0:0:0:0:
64,192,47586,1,0,0:0:0:0:
448,192,47586,1,0,0:0:0:0:
320,192,47642,1,0,0:0:0:0:
192,192,47699,1,0,0:0:0:0:
448,192,47756,1,0,0:0:0:0:
64,192,47813,1,0,0:0:0:0:
192,192,47813,1,0,0:0:0:0:
320,192,47870,1,0,0:0:0:0:
64,192,47926,1,0,0:0:0:0:
448,192,47983,1,0,0:0:0:0:
192,192,48040,1,0,0:0:0:0:
320,192,48040,1,0,0:0:0:0:
448,192,48154,1,0,0:0:0:0:
64,192,48267,1,0,0:0:0:0:
192,192,48267,1,0,0:0:0:0:
320,192,48324,1,0,0:0:0:0:
192,192,48381,1,0,0:0:0:0:
448,192,48438,1,0,0:0:0:0:
64,192,48495,1,0,0:0:0:0:
320,192,48495,1,0,0:0:0:0:
192,192,48551,1,0,0:0:0:0:
448,192,48608,1,0,0:0:0:0:
64,192,48665,1,0,0:0:0:0:
320,192,48722,1,0,0:0:0:0:
448,192,48722,1,0,0:0:0:0:
192,192,48779,1,0,0:0:0:0:
320,192,48836,1,0,0:0:0:0:
64,192,48892,1,0,0:0:0:0:
448,192,48949,1,0,0:0:0:0:
64,192,49063,1,0,0:0:0:0:
320,192,49176,1,0,0:0:0:0:
448,192,49176,1,0,0:0:0:0:
192,192,49233,1,0,0:0:0:0:
320,192,49290,1,0,0:0:0:0:
64,192,49347,1,0,0:0:0:0:
192,192,49404,1,0,0:0:0:0:
448,192,49404,1,0,0:0:0:0:
320,192,49461,1,0,0:0:0:0:
64,192,49517,1,0,0:0:0:0:
448,192,49574,1,0,0:0:0:0:
64,192,49631,1,0,0:0:0:0:
192,192,49631,1,0,0:0:0:0:
320,192,49688,1,0,0:0:0:0:
192,192,49745,1,0,0:0:0:0:
448,192,49801,1,0,0:0:0:0:
64,192,49858,1,0,0:0:0:0:
320,192,49858,1,0,0:0:0:0:
448,192,49972,1,0,0:0:0:0:
64,192,50086,1,0,0:0:0:0:
192,192,50086,1,0,0:0:0:0:
320,192,50142,1,0,0:0:0:0:
192,192,50199,1,0,0:0:0:0:
448,192,50256,1,0,0:0:0:0:
64,192,50313,1,0,0:0:0:0:
320,192,50313,1,0,0:0:0:0:
192,192,50370,1,0,0:0:0:0:
448,192,50426,1,0,0:0:0:0:
64,192,50483,1,0,0:0:0:0:
320,192,50540,1,0,0:0:0:0:
448,192,50540,1,0,0:0:0:0:
192,192,50597,1,0,0:0:0:0:
320,192,50654,1,0,0:0:0:0:
64,192,50711,1,0,0:0:0:0:
192,192,50767,1,0,0:0:0:0:
448,192,50767,1,0,0:0:0:0:
64,192,50881,1,0,0:0:0:0:
320,192,50995,1,0,0:0:0:0:
448,192,50995,1,0,0:0:0:0:
192,192,51051,1,0,0:0:0:0:
320,192,51108,1,0,0:0:0:0:
64,192,51165,1,0,0:0:0:0:
192,192,51222,1,0,0:0:0:0:
448,192,51222,1,0,0:0:0:0:
320,192,51279,1,0,0:0:0:0:
64,192,51336,1,0,0:0:0:0:
448,192,51392,1,0,0:0:0:0:
64,192,51449,1,0,0:0:0:0:
192,192,51449,1,0,0:0:0:0:
320,192,51506,1,0,0:0:0:0:
192,192,51563,1,0,0:0:0:0:
448,192,51620,1,0,0:0:0:0:
64,192,51676,1,0,0:0:0:0:
320,192,51676,1,0,0:0:0:0:
448,192,51790,1,0,0:0:0:0:
64,192,51904,1,0,0:0:0:0:
192,192,51904,1,0,0:0:0:0:
448,192,51961,1,0,0:0:0:0:
192,192,52017,1,0,0:0:0:0:
320,192,52074,1,0,0:0:0:0:
448,192,52074,1,0,0:0:0:0:
64,192,52131,1,0,0:0:0:0:
192,192,52131,1,0,0:0:0:0:
64,192,52245,1,0,0:0:0:0:
320,192,52245,1,0,0:0:0:0:
192,192,52301,1,0,0:0:0:0:
448,192,52301,1,0,0:0:0:0:
64,192,52415,1,0,0:0:0:0:
192,192,52472,1,0,0:0:0:0:
320,192,52472,1,0,0:0:0:0:
64,192,52529,1,0,0:0:0:0:
320,192,52586,1,0,0:0:0:0:
448,192,52586,1,0,0:0:0:0:
320,192,52699,1,0,0:0:0:0:
448,192,52699,1,0,0:0:0:0:
64,192,52813,1,0,0:0:0:0:
192,192,52813,1,0,0:0:0:0:
448,192,52813,1,0,0:0:0:0:
320,192,52870,1,0,0:0:0:0:
192,192,52926,1,0,0:0:0:0:
448,192,52983,1,0,0:0:0:0:
64,192,53040,1,0,0:0:0:0:
320,192,53040,1,0,0:0:0:0:
192,192,53097,1,0,0:0:0:0:
448,192,53154,1,0,0:0:0:0:
64,192,53211,1,0,0:0:0:0:
320,192,53267,1,0,0:0:0:0:
448,192,53267,1,0,0:0:0:0:
192,192,53324,1,0,0:0:0:0:
320,192,53381,1,0,0:0:0:0:
64,192,53438,1,0,0:0:0:0:
192,192,53495,1,0,0:0:0:0:
448,192,53495,1,0,0:0:0:0:
64,192,53608,1,0,0:0:0:0:
320,192,53722,1,0,0:0:0:0:
448,192,53722,1,0,0:0:0:0:
192,192,53779,1,0,0:0:0:0:
448,192,53836,1,0,0:0:0:0:
64,192,53892,1,0,0:0:0:0:
192,192,53949,1,0,0:0:0:0:
320,192,53949,1,0,0:0:0:0:
448,192,54006,1,0,0:0:0:0:
64,192,54063,1,0,0:0:0:0:
320,192,54120,1,0,0:0:0:0:
64,192,54176,1,0,0:0:0:0:
192,192,54176,1,0,0:0:0:0:
448,192,54233,1,0,0:0:0:0:
192,192,54290,1,0,0:0:0:0:
320,192,54347,1,0,0:0:0:0:
64,192,54404,1,0,0:0:0:0:
448,192,54404,1,0,0:0:0:0:
320,192,54517,1,0,0:0:0:0:
64,192,54631,1,0,0:0:0:0:
192,192,54631,1,0,0:0:0:0:
448,192,54688,1,0,0:0:0:0:
64,192,54745,1,0,0:0:0:0:
320,192,54801,1,0,0:0:0:0:
192,192,54858,1,0,0:0:0:0:
448,192,54858,1,0,0:0:0:0:
64,192,54915,1,0,0:0:0:0:
320,192,54972,1,0,0:0:0:0:
192,192,55029,1,0,0:0:0:0:
320,192,55086,1,0,0:0:0:0:
448,192,55086,1,0,0:0:0:0:
64,192,55142,1,0,0:0:0:0:
448,192,55199,1,0,0:0:0:0:
192,192,55256,1,0,0:0:0:0:
64,192,55313,1,0,0:0:0:0:
320,192,55313,1,0,0:0:0:0:
192,192,55426,1,0,0:0:0:0:
320,192,55540,1,0,0:0:0:0:
448,192,55540,1,0,0:0:0:0:
192,192,55597,1,0,0:0:0:0:
448,192,55654,1,0,0:0:0:0:
64,192,55711,1,0,0:0:0:0:
192,192,55767,1,0,0:0:0:0:
320,192,55767,1,0,0:0:0:0:
448,192,55824,1,0,0:0:0:0:
64,192,55881,1,0,0:0:0:0:
320,192,55938,1,0,0:0:0:0:
64,192,55995,1,0,0:0:0:0:
192,192,55995,1,0,0:0:0:0:
448,192,56051,1,0,0:0:0:0:
192,192,56108,1,0,0:0:0:0:
320,192,56146,1,0,0:0:0:0:
64,192,56184,1,0,0:0:0:0:
448,192,56222,1,0,0:0:0:0:
320,192,56260,1,0,0:0:0:0:
192,192,56298,1,0,0:0:0:0:
64,192,56336,1,0,0:0:0:0:
320,192,56373,1,0,0:0:0:0:
64,192,56449,1,0,0:0:0:0:
192,192,56449,1,0,0:0:0:0:
448,192,56449,1,0,0:0:0:0:
320,192,56506,1,0,0:0:0:0:
64,192,56563,1,0,0:0:0:0:
448,192,56620,1,0,0:0:0:0:
192,192,56676,1,0,0:0:0:0:
320,192,56676,1,0,0:0:0:0:
64,192,56733,1,0,0:0:0:0:
448,192,56790,1,0,0:0:0:0:
192,192,56847,1,0,0:0:0:0:
320,192,56904,1,0,0:0:0:0:
448,192,56904,1,0,0:0:0:0:
64,192,56961,1,0,0:0:0:0:
320,192,57017,1,0,0:0:0:0:
192,192,57074,1,0,0:0:0:0:
64,192,57131,1,0,0:0:0:0:
448,192,57131,1,0,0:0:0:0:
192,192,57245,1,0,0:0:0:0:
320,192,57358,1,0,0:0:0:0:
448,192,57358,1,0,0:0:0:0:
64,192,57415,1,0,0:0:0:0:
448,192,57472,1,0,0:0:0:0:
192,192,57529,1,0,0:0:0:0:
64,192,57586,1,0,0:0:0:0:
320,192,57586,1,0,0:0:0:0:
448,192,57642,1,0,0:0:0:0:
192,192,57699,1,0,0:0:0:0:
320,192,57756,1,0,0:0:0:0:
64,192,57813,1,0,0:0:0:0:
192,192,57813,1,0,0:0:0:0:
448,192,57870,1,0,0:0:0:0:
64,192,57926,1,0,0:0:0:0:
320,192,57983,1,0,0:0:0:0:
192,192,58040,1,0,0:0:0:0:
448,192,58040,1,0,0:0:0:0:
320,192,58154,1,0,0:0:0:0:
64,192,58267,1,0,0:0:0:0:
192,192,58267,1,0,0:0:0:0:
448,192,58324,1,0,0:0:0:0:
64,192,58381,1,0,0:0:0:0:
320,192,58438,1,0,0:0:0:0:
192,192,58495,1,0,0:0:0:0:
448,192,58495,1,0,0:0:0:0:
64,192,58551,1,0,0:0:0:0:
320,192,58608,1,0,0:0:0:0:
192,192,58665,1,0,0:0:0:0:
320,192,58722,1,0,0:0:0:0:
448,192,58722,1,0,0:0:0:0:
64,192,58779,1,0,0:0:0:0:
448,192,58836,1,0,0:0:0:0:
192,192,58892,1,0,0:0:0:0:
64,192,58949,1,0,0:0:0:0:
320,192,58949,1,0,0:0:0:0:
192,192,59063,1,0,0:0:0:0:
448,192,59176,1,0,0:0:0:0:
192,192,59233,1,0,0:0:0:0:
448,192,59290,1,0,0:0:0:0:
192,192,59347,1,0,0:0:0:0:
320,192,59404,1,0,0:0:0:0:
64,192,59461,1,0,0:0:0:0:
320,192,59517,1,0,0:0:0:0:
64,192,59574,1,0,0:0:0:0:
448,192,59631,1,0,0:0:0:0:
320,192,59669,1,0,0:0:0:0:
192,192,59707,1,0,0:0:0:0:
64,192,59745,1,0,0:0:0:0:
448,192,59782,1,0,0:0:0:0:
192,192,59820,1,0,0:0:0:0:
320,192,59858,1,0,0:0:0:0:
64,192,59896,1,0,0:0:0:0:
192,192,59934,1,0,0:0:0:0:
448,192,59972,1,0,0:0:0:0:
320,192,60010,1,0,0:0:0:0:
64,192,60048,1,0,0:0:0:0:
192,192,60086,1,0,0:0:0:0:
448,192,60086,1,0,0:0:0:0:
192,192,60199,1,0,0:0:0:0:
320,192,60313,1,0,0:0:0:0:
448,192,60313,1,0,0:0:0:0:
192,192,60426,1,0,0:0:0:0:
192,192,60540,1,0,0:0:0:0:
448,192,60540,1,0,0:0:0:0:
64,192,60654,1,0,0:0:0:0:
320,192,60767,1,0,0:0:0:0:
448,192,60767,1,0,0:0:0:0:
320,192,60881,1,0,0:0:0:0:
64,192,60995,1,0,0:0:0:0:
448,192,60995,1,0,0:0:0:0:
64,192,61108,1,0,0:0:0:0:
64,192,61222,1,0,0:0:0:0:
448,192,61222,1,0,0:0:0:0:
64,192,61336,1,0,0:0:0:0:
192,192,61449,1,0,0:0:0:0:
320,192,61449,1,0,0:0:0:0:
192,192,61563,1,0,0:0:0:0:
320,192,61676,1,0,0:0:0:0:
448,192,61676,1,0,0:0:0:0:
192,192,61790,1,0,0:0:0:0:
64,192,61904,1,0,0:0:0:0:
320,192,61904,1,0,0:0:0:0:
320,192,62017,1,0,0:0:0:0:
64,192,62131,1,0,0:0:0:0:
192,192,62131,1,0,0:0:0:0:
320,192,62245,1,0,0:0:0:0:
64,192,62358,1,0,0:0:0:0:
320,192,62358,1,0,0:0:0:0:
448,192,62472,1,0,0:0:0:0:
64,192,62586,1,0,0:0:0:0:
192,192,62586,1,0,0:0:0:0:
448,192,62642,1,0,0:0:0:0:
64,192,62699,1,0,0:0:0:0:
320,192,62756,1,0,0:0:0:0:
192,192,62813,1,0,0:0:0:0:
448,192,62813,1,0,0:0:0:0:
448,192,62926,1,0,0:0:0:0:
64,192,63040,1,0,0:0:0:0:
192,192,63040,1,0,0:0:0:0:
192,192,63154,1,0,0:0:0:0:
64,192,63267,1,0,0:0:0:0:
320,192,63267,1,0,0:0:0:0:
320,192,63381,1,0,0:0:0:0:
64,192,63495,1,0,0:0:0:0:
192,192,63495,1,0,0:0:0:0:
448,192,63551,1,0,0:0:0:0:
320,192,63608,1,0,0:0:0:0:
64,192,63665,1,0,0:0:0:0:
192,192,63722,1,0,0:0:0:0:
448,192,63722,1,0,0:0:0:0:
192,192,63836,1,0,0:0:0:0:
320,192,63949,1,0,0:0:0:0:
448,192,63949,1,0,0:0:0:0:
192,192,64063,1,0,0:0:0:0:
192,192,64176,1,0,0:0:0:0:
448,192,64176,1,0,0:0:0:0:
64,192,64290,1,0,0:0:0:0:
320,192,64404,1,0,0:0:0:0:
448,192,64404,1,0,0:0:0:0:
320,192,64517,1,0,0:0:0:0:
192,192,64631,1,0,0:0:0:0:
448,192,64631,1,0,0:0:0:0:
192,192,64745,1,0,0:0:0:0:
192,192,64858,1,0,0:0:0:0:
448,192,64858,1,0,0:0:0:0:
192,192,64972,1,0,0:0:0:0:
64,192,65086,1,0,0:0:0:0:
320,192,65086,1,0,0:0:0:0:
64,192,65199,1,0,0:0:0:0:
320,192,65313,1,0,0:0:0:0:
448,192,65313,1,0,0:0:0:0:
192,192,65426,1,0,0:0:0:0:
448,192,65426,1,0,0:0:0:0:
64,192,65540,1,0,0:0:0:0:
320,192,65540,1,0,0:0:0:0:
320,192,65654,1,0,0:0:0:0:
64,192,65767,1,0,0:0:0:0:
192,192,65767,1,0,0:0:0:0:
320,192,65881,1,0,0:0:0:0:
64,192,65995,1,0,0:0:0:0:
320,192,65995,1,0,0:0:0:0:
448,192,66108,1,0,0:0:0:0:
64,192,66222,1,0,0:0:0:0:
192,192,66222,1,0,0:0:0:0:
448,192,66279,1,0,0:0:0:0:
64,192,66336,1,0,0:0:0:0:
320,192,66392,1,0,0:0:0:0:
192,192,66449,1,0,0:0:0:0:
448,192,66449,1,0,0:0:0:0:
64,192,66563,1,0,0:0:0:0:
192,192,66563,1,0,0:0:0:0:
320,192,66676,1,0,0:0:0:0:
64,192,66790,1,0,0:0:0:0:
192,192,66790,1,0,0:0:0:0:
320,192,66904,1,0,0:0:0:0:
448,192,66904,1,0,0:0:0:0:
64,192,66961,1,0,0:0:0:0:
192,192,66961,1,0,0:0:0:0:
320,192,67017,1,0,0:0:0:0:
448,192,67017,1,0,0:0:0:0:
64,192,67074,1,0,0:0:0:0:
192,192,67074,1,0,0:0:0:0:
448,192,67131,1,0,0:0:0:0:
320,192,67169,1,0,0:0:0:0:
192,192,67207,1,0,0:0:0:0:
64,192,67245,1,0,0:0:0:0:
320,192,67282,1,0,0:0:0:0:
64,192,67358,1,0,0:0:0:0:
192,192,67358,1,0,0:0:0:0:
448,192,67358,1,0,0:0:0:0:
192,192,67472,1,0,0:0:0:0:
320,192,67586,1,0,0:0:0:0:
448,192,67586,1,0,0:0:0:0:
192,192,67699,1,0,0:0:0:0:
192,192,67813,1,0,0:0:0:0:
448,192,67813,1,0,0:0:0:0:
64,192,67926,1,0,0:0:0:0:
320,192,68040,1,0,0:0:0:0:
448,192,68040,1,0,0:0:0:0:
320,192,68154,1,0,0:0:0:0:
64,192,68267,1,0,0:0:0:0:
448,192,68267,1,0,0:0:0:0:
64,192,68381,1,0,0:0:0:0:
64,192,68495,1,0,0:0:0:0:
448,192,68495,1,0,0:0:0:0:
64,192,68608,1,0,0:0:0:0:
192,192,68722,1,0,0:0:0:0:
320,192,68722,1,0,0:0:0:0:
192,192,68836,1,0,0:0:0:0:
320,192,68949,1,0,0:0:0:0:
448,192,68949,1,0,0:0:0:0:
192,192,69063,1,0,0:0:0:0:
64,192,69176,1,0,0:0:0:0:
320,192,69176,1,0,0:0:0:0:
320,192,69290,1,0,0:0:0:0:
64,192,69404,1,0,0:0:0:0:
192,192,69404,1,0,0:0:0:0:
320,192,69517,1,0,0:0:0:0:
64,192,69631,1,0,0:0:0:0:
320,192,69631,1,0,0:0:0:0:
448,192,69745,1,0,0:0:0:0:
64,192,69858,1,0,0:0:0:0:
192,192,69858,1,0,0:0:0:0:
448,192,69915,1,0,0:0:0:0:
64,192,69972,1,0,0:0:0:0:
320,192,70029,1,0,0:0:0:0:
192,192,70086,1,0,0:0:0:0:
448,192,70086,1,0,0:0:0:0:
192,192,70199,1,0,0:0:0:0:
320,192,70313,1,0,0:0:0:0:
448,192,70313,1,0,0:0:0:0:
448,192,70426,1,0,0:0:0:0:
64,192,70540,1,0,0:0:0:0:
320,192,70540,1,0,0:0:0:0:
64,192,70654,1,0,0:0:0:0:
320,192,70711,1,0,0:0:0:0:
448,192,70711,1,0,0:0:0:0:
64,192,70767,1,0,0:0:0:0:
192,192,70767,1,0,0:0:0:0:
448,192,70824,1,0,0:0:0:0:
320,192,70881,1,0,0:0:0:0:
192,192,70995,1,0,0:0:0:0:
320,192,70995,1,0,0:0:0:0:
192,192,71108,1,0,0:0:0:0:
320,192,71222,1,0,0:0:0:0:
448,192,71222,1,0,0:0:0:0:
192,192,71336,1,0,0:0:0:0:
192,192,71449,1,0,0:0:0:0:
448,192,71449,1,0,0:0:0:0:
64,192,71563,1,0,0:0:0:0:
320,192,71676,1,0,0:0:0:0:
448,192,71676,1,0,0:0:0:0:
320,192,71790,1,0,0:0:0:0:
192,192,71904,1,0,0:0:0:0:
448,192,71904,1,0,0:0:0:0:
192,192,72017,1,0,0:0:0:0:
192,192,72131,1,0,0:0:0:0:
448,192,72131,1,0,0:0:0:0:
192,192,72245,1,0,0:0:0:0:
64,192,72358,1,0,0:0:0:0:
320,192,72358,1,0,0:0:0:0:
64,192,72472,1,0,0:0:0:0:
320,192,72586,1,0,0:0:0:0:
448,192,72586,1,0,0:0:0:0:
192,192,72699,1,0,0:0:0:0:
64,192,72813,1,0,0:0:0:0:
320,192,72813,1,0,0:0:0:0:
320,192,72926,1,0,0:0:0:0:
64,192,73040,1,0,0:0:0:0:
192,192,73040,1,0,0:0:0:0:
320,192,73154,1,0,0:0:0:0:
64,192,73267,1,0,0:0:0:0:
320,192,73267,1,0,0:0:0:0:
448,192,73381,1,0,0:0:0:0:
64,192,73495,1,0,0:0:0:0:
192,192,73495,1,0,0:0:0:0:
448,192,73551,1,0,0:0:0:0:
64,192,73608,1,0,0:0:0:0:
320,192,73665,1,0,0:0:0:0:
192,192,73722,1,0,0:0:0:0:
448,192,73722,1,0,0:0:0:0:
64,192,73836,1,0,0:0:0:0:
192,192,73836,1,0,0:0:0:0:
320,192,73949,1,0,0:0:0:0:
64,192,74063,1,0,0:0:0:0:
192,192,74063,1,0,0:0:0:0:
320,192,74176,1,0,0:0:0:0:
448,192,74176,1,0,0:0:0:0:
64,192,74233,1,0,0:0:0:0:
192,192,74233,1,0,0:0:0:0:
320,192,74290,1,0,0:0:0:0:
448,192,74290,1,0,0:0:0:0:
64,192,74347,1,0,0:0:0:0:
192,192,74347,1,0,0:0:0:0:
448,192,74404,1,0,0:0:0:0:
320,192,74442,1,0,0:0:0:0:
192,192,74479,1,0,0:0:0:0:
64,192,74517,1,0,0:0:0:0:
320,192,74555,1,0,0:0:0:0:
64,192,74631,1,0,0:0:0:0:
192,192,74631,1,0,0:0:0:0:
448,192,74631,1,0,0:0:0:0:
320,192,74688,1,0,0:0:0:0:
192,192,74745,1,0,0:0:0:0:
448,192,74801,1,0,0:0:0:0:
64,192,74858,1,0,0:0:0:0:
320,192,74858,1,0,0:0:0:0:
192,192,74915,1,0,0:0:0:0:
448,192,74972,1,0,0:0:0:0:
64,192,75029,1,0,0:0:0:0:
320,192,75086,1,0,0:0:0:0:
448,192,75086,1,0,0:0:0:0:
192,192,75161,1,0,0:0:0:0:
320,192,75237,1,0,0:0:0:0:
64,192,75313,1,0,0:0:0:0:
192,192,75313,1,0,0:0:0:0:
448,192,75313,1,0,0:0:0:0:
192,192,75540,1,0,0:0:0:0:
448,192,75540,1,0,0:0:0:0:
320,192,75654,1,0,0:0:0:0:
192,192,75711,1,0,0:0:0:0:
320,192,75767,1,0,0:0:0:0:
448,192,75767,1,0,0:0:0:0:
448,192,75881,1,0,0:0:0:0:
192,192,75938,1,0,0:0:0:0:
64,192,75995,1,0,0:0:0:0:
320,192,75995,1,0,0:0:0:0:
448,192,76108,1,0,0:0:0:0:
64,192,76165,1,0,0:0:0:0:
320,192,76222,1,0,0:0:0:0:
448,192,76222,1,0,0:0:0:0:
192,192,76336,1,0,0:0:0:0:
320,192,76392,1,0,0:0:0:0:
64,192,76449,1,0,0:0:0:0:
448,192,76449,1,0,0:0:0:0:
192,192,76506,1,0,0:0:0:0:
320,192,76563,1,0,0:0:0:0:
64,192,76620,1,0,0:0:0:0:
320,192,76676,1,0,0:0:0:0:
448,192,76676,1,0,0:0:0:0:
192,192,76733,1,0,0:0:0:0:
448,192,76790,1,0,0:0:0:0:
64,192,76847,1,0,0:0:0:0:
192,192,76904,1,0,0:0:0:0:
320,192,76904,1,0,0:0:0:0:
448,192,76961,1,0,0:0:0:0:
64,192,77017,1,0,0:0:0:0:
320,192,77074,1,0,0:0:0:0:
64,192,77131,1,0,0:0:0:0:
192,192,77131,1,0,0:0:0:0:
448,192,77131,1,0,0:0:0:0:
64,192,77358,1,0,0:0:0:0:
192,192,77358,1,0,0:0:0:0:
448,192,77434,1,0,0:0:0:0:
192,192,77510,1,0,0:0:0:0:
64,192,77586,1,0,0:0:0:0:
320,192,77586,1,0,0:0:0:0:
448,192,77642,1,0,0:0:0:0:
192,192,77699,1,0,0:0:0:0:
320,192,77813,1,0,0:0:0:0:
448,192,77813,1,0,0:0:0:0:
320,192,77889,1,0,0:0:0:0:
448,192,77889,1,0,0:0:0:0:
320,192,77964,1,0,0:0:0:0:
448,192,77964,1,0,0:0:0:0:
64,192,78040,1,0,0:0:0:0:
192,192,78040,1,0,0:0:0:0:
64,192,78116,1,0,0:0:0:0:
192,192,78116,1,0,0:0:0:0:
64,192,78192,1,0,0:0:0:0:
192,192,78192,1,0,0:0:0:0:
448,192,78267,1,0,0:0:0:0:
64,192,78324,1,0,0:0:0:0:
320,192,78381,1,0,0:0:0:0:
192,192,78438,1,0,0:0:0:0:
64,192,78495,1,0,0:0:0:0:
320,192,78495,1,0,0:0:0:0:
448,192,78551,1,0,0:0:0:0:
192,192,78608,1,0,0:0:0:0:
64,192,78665,1,0,0:0:0:0:
320,192,78722,1,0,0:0:0:0:
448,192,78722,1,0,0:0:0:0:
192,192,78779,1,0,0:0:0:0:
64,192,78836,1,0,0:0:0:0:
320,192,78892,1,0,0:0:0:0:
64,192,78949,1,0,0:0:0:0:
192,192,78949,1,0,0:0:0:0:
448,192,78949,1,0,0:0:0:0:
64,192,79176,1,0,0:0:0:0:
192,192,79176,1,0,0:0:0:0:
448,192,79233,1,0,0:0:0:0:
320,192,79290,1,0,0:0:0:0:
192,192,79347,1,0,0:0:0:0:
64,192,79404,1,0,0:0:0:0:
320,192,79404,1,0,0:0:0:0:
448,192,79461,1,0,0:0:0:0:
192,192,79517,1,0,0:0:0:0:
64,192,79574,1,0,0:0:0:0:
320,192,79631,1,0,0:0:0:0:
448,192,79631,1,0,0:0:0:0:
192,192,79688,1,0,0:0:0:0:
320,192,79745,1,0,0:0:0:0:
64,192,79801,1,0,0:0:0:0:
448,192,79858,1,0,0:0:0:0:
320,192,79903,1,0,0:0:0:0:
192,192,79949,1,0,0:0:0:0:
64,192,79994,1,0,0:0:0:0:
448,192,80040,1,0,0:0:0:0:
192,192,80086,1,0,0:0:0:0:
320,192,80086,1,0,0:0:0:0:
192,192,80199,1,0,0:0:0:0:
320,192,80313,1,0,0:0:0:0:
448,192,80313,1,0,0:0:0:0:
192,192,80426,1,0,0:0:0:0:
64,192,80540,1,0,0:0:0:0:
320,192,80540,1,0,0:0:0:0:
64,192,80654,1,0,0:0:0:0:
320,192,80767,1,0,0:0:0:0:
448,192,80767,1,0,0:0:0:0:
192,192,80881,1,0,0:0:0:0:
64,192,80995,1,0,0:0:0:0:
192,192,81040,1,0,0:0:0:0:
448,192,81086,1,0,0:0:0:0:
64,192,81131,1,0,0:0:0:0:
320,192,81177,1,0,0:0:0:0:
448,192,81222,1,0,0:0:0:0:
192,192,81260,1,0,0:0:0:0:
320,192,81298,1,0,0:0:0:0:
64,192,81336,1,0,0:0:0:0:
448,192,81373,1,0,0:0:0:0:
64,192,81449,1,0,0:0:0:0:
192,192,81449,1,0,0:0:0:0:
320,192,81449,1,0,0:0:0:0:
448,192,81506,1,0,0:0:0:0:
64,192,81563,1,0,0:0:0:0:
192,192,81676,1,0,0:0:0:0:
192,192,81790,1,0,0:0:0:0:
64,192,81904,1,0,0:0:0:0:
320,192,81904,1,0,0:0:0:0:
448,192,81904,1,0,0:0:0:0:
192,192,82017,1,0,0:0:0:0:
448,192,82074,1,0,0:0:0:0:
192,192,82131,1,0,0:0:0:0:
320,192,82131,1,0,0:0:0:0:
64,192,82188,1,0,0:0:0:0:
448,192,82245,1,0,0:0:0:0:
192,192,82301,1,0,0:0:0:0:
320,192,82358,1,0,0:0:0:0:
448,192,82358,1,0,0:0:0:0:
192,192,82415,1,0,0:0:0:0:
64,192,82472,1,0,0:0:0:0:
320,192,82529,1,0,0:0:0:0:
64,192,82586,1,0,0:0:0:0:
448,192,82586,1,0,0:0:0:0:
320,192,82642,1,0,0:0:0:0:
192,192,82699,1,0,0:0:0:0:
64,192,82756,1,0,0:0:0:0:
320,192,82813,1,0,0:0:0:0:
448,192,82813,1,0,0:0:0:0:
192,192,82926,1,0,0:0:0:0:
448,192,82983,1,0,0:0:0:0:
192,192,83040,1,0,0:0:0:0:
320,192,83040,1,0,0:0:0:0:
64,192,83097,1,0,0:0:0:0:
448,192,83154,1,0,0:0:0:0:
192,192,83211,1,0,0:0:0:0:
320,192,83267,1,0,0:0:0:0:
448,192,83267,1,0,0:0:0:0:
192,192,83324,1,0,0:0:0:0:
64,192,83381,1,0,0:0:0:0:
320,192,83438,1,0,0:0:0:0:
64,192,83495,1,0,0:0:0:0:
448,192,83495,1,0,0:0:0:0:
320,192,83551,1,0,0:0:0:0:
192,192,83608,1,0,0:0:0:0:
64,192,83665,1,0,0:0:0:0:
320,192,83722,1,0,0:0:0:0:
448,192,83722,1,0,0:0:0:0:
192,192,83836,1,0,0:0:0:0:
448,192,83892,1,0,0:0:0:0:
192,192,83949,1,0,0:0:0:0:
320,192,83949,1,0,0:0:0:0:
64,192,84006,1,0,0:0:0:0:
448,192,84063,1,0,0:0:0:0:
192,192,84120,1,0,0:0:0:0:
320,192,84176,1,0,0:0:0:0:
448,192,84176,1,0,0:0:0:0:
64,192,84233,1,0,0:0:0:0:
192,192,84290,1,0,0:0:0:0:
320,192,84347,1,0,0:0:0:0:
64,192,84404,1,0,0:0:0:0:
448,192,84404,1,0,0:0:0:0:
320,192,84461,1,0,0:0:0:0:
192,192,84517,1,0,0:0:0:0:
64,192,84574,1,0,0:0:0:0:
320,192,84631,1,0,0:0:0:0:
448,192,84631,1,0,0:0:0:0:
192,192,84745,1,0,0:0:0:0:
448,192,84801,1,0,0:0:0:0:
192,192,84858,1,0,0:0:0:0:
320,192,84858,1,0,0:0:0:0:
64,192,84915,1,0,0:0:0:0:
448,192,84972,1,0,0:0:0:0:
192,192,85029,1,0,0:0:0:0:
320,192,85086,1,0,0:0:0:0:
448,192,85086,1,0,0:0:0:0:
64,192,85142,1,0,0:0:0:0:
192,192,85199,1,0,0:0:0:0:
320,192,85256,1,0,0:0:0:0:
64,192,85313,1,0,0:0:0:0:
448,192,85313,1,0,0:0:0:0:
192,192,85370,1,0,0:0:0:0:
320,192,85426,1,0,0:0:0:0:
448,192,85483,1,0,0:0:0:0:
64,192,85540,1,0,0:0:0:0:
192,192,85540,1,0,0:0:0:0:
320,192,85540,1,0,0:0:0:0:
448,192,85654,1,0,0:0:0:0:
192,192,85711,1,0,0:0:0:0:
64,192,85767,1,0,0:0:0:0:
448,192,85767,1,0,0:0:0:0:
192,192,85824,1,0,0:0:0:0:
320,192,85881,1,0,0:0:0:0:
64,192,85938,1,0,0:0:0:0:
320,192,85995,1,0,0:0:0:0:
448,192,85995,1,0,0:0:0:0:
64,192,86051,1,0,0:0:0:0:
192,192,86108,1,0,0:0:0:0:
320,192,86165,1,0,0:0:0:0:
192,192,86222,1,0,0:0:0:0:
448,192,86222,1,0,0:0:0:0:
64,192,86279,1,0,0:0:0:0:
320,192,86336,1,0,0:0:0:0:
448,192,86392,1,0,0:0:0:0:
64,192,86449,1,0,0:0:0:0:
192,192,86449,1,0,0:0:0:0:
320,192,86563,1,0,0:0:0:0:
192,192,86620,1,0,0:0:0:0:
64,192,86676,1,0,0:0:0:0:
320,192,86676,1,0,0:0:0:0:
192,192,86733,1,0,0:0:0:0:
448,192,86790,1,0,0:0:0:0:
64,192,86847,1,0,0:0:0:0:
320,192,86904,1,0,0:0:0:0:
448,192,86904,1,0,0:0:0:0:
64,192,86961,1,0,0:0:0:0:
192,192,87017,1,0,0:0:0:0:
320,192,87074,1,0,0:0:0:0:
64,192,87131,1,0,0:0:0:0:
448,192,87131,1,0,0:0:0:0:
192,192,87188,1,0,0:0:0:0:
320,192,87245,1,0,0:0:0:0:
448,192,87301,1,0,0:0:0:0:
64,192,87358,1,0,0:0:0:0:
192,192,87358,1,0,0:0:0:0:
320,192,87472,1,0,0:0:0:0:
448,192,87529,1,0,0:0:0:0:
64,192,87586,1,0,0:0:0:0:
320,192,87586,1,0,0:0:0:0:
192,192,87642,1,0,0:0:0:0:
448,192,87699,1,0,0:0:0:0:
192,192,87756,1,0,0:0:0:0:
320,192,87813,1,0,0:0:0:0:
448,192,87813,1,0,0:0:0:0:
64,192,87870,1,0,0:0:0:0:
192,192,87926,1,0,0:0:0:0:
320,192,87983,1,0,0:0:0:0:
64,192,88040,1,0,0:0:0:0:
448,192,88040,1,0,0:0:0:0:
192,192,88097,1,0,0:0:0:0:
320,192,88154,1,0,0:0:0:0:
448,192,88211,1,0,0:0:0:0:
64,192,88267,1,0,0:0:0:0:
192,192,88267,1,0,0:0:0:0:
320,192,88381,1,0,0:0:0:0:
64,192,88438,1,0,0:0:0:0:
192,192,88438,1,0,0:0:0:0:
320,192,88495,1,0,0:0:0:0:
448,192,88495,1,0,0:0:0:0:
64,192,88551,1,0,0:0:0:0:
192,192,88608,1,0,0:0:0:0:
320,192,88665,1,0,0:0:0:0:
448,192,88665,1,0,0:0:0:0:
64,192,88722,1,0,0:0:0:0:
320,192,88779,1,0,0:0:0:0:
64,192,88836,1,0,0:0:0:0:
192,192,88836,1,0,0:0:0:0:
320,192,88892,1,0,0:0:0:0:
192,192,88949,1,0,0:0:0:0:
448,192,88949,1,0,0:0:0:0:
64,192,89006,1,0,0:0:0:0:
320,192,89063,1,0,0:0:0:0:
448,192,89063,1,0,0:0:0:0:
64,192,89120,1,0,0:0:0:0:
192,192,89176,1,0,0:0:0:0:
320,192,89176,1,0,0:0:0:0:
448,192,89176,1,0,0:0:0:0:
64,192,89290,1,0,0:0:0:0:
320,192,89347,1,0,0:0:0:0:
64,192,89404,1,0,0:0:0:0:
448,192,89404,1,0,0:0:0:0:
320,192,89461,1,0,0:0:0:0:
192,192,89517,1,0,0:0:0:0:
448,192,89574,1,0,0:0:0:0:
64,192,89631,1,0,0:0:0:0:
192,192,89631,1,0,0:0:0:0:
448,192,89688,1,0,0:0:0:0:
320,192,89745,1,0,0:0:0:0:
192,192,89801,1,0,0:0:0:0:
64,192,89858,1,0,0:0:0:0:
320,192,89858,1,0,0:0:0:0:
448,192,89915,1,0,0:0:0:0:
192,192,89972,1,0,0:0:0:0:
64,192,90029,1,0,0:0:0:0:
320,192,90086,1,0,0:0:0:0:
448,192,90086,1,0,0:0:0:0:
192,192,90199,1,0,0:0:0:0:
320,192,90256,1,0,0:0:0:0:
192,192,90313,1,0,0:0:0:0:
448,192,90313,1,0,0:0:0:0:
320,192,90370,1,0,0:0:0:0:
64,192,90426,1,0,0:0:0:0:
448,192,90483,1,0,0:0:0:0:
64,192,90540,1,0,0:0:0:0:
192,192,90540,1,0,0:0:0:0:
448,192,90597,1,0,0:0:0:0:
320,192,90654,1,0,0:0:0:0:
192,192,90711,1,0,0:0:0:0:
64,192,90767,1,0,0:0:0:0:
320,192,90767,1,0,0:0:0:0:
448,192,90824,1,0,0:0:0:0:
192,192,90881,1,0,0:0:0:0:
64,192,90938,1,0,0:0:0:0:
320,192,90995,1,0,0:0:0:0:
448,192,90995,1,0,0:0:0:0:
64,192,91108,1,0,0:0:0:0:
320,192,91165,1,0,0:0:0:0:
64,192,91222,1,0,0:0:0:0:
448,192,91222,1,0,0:0:0:0:
320,192,91279,1,0,0:0:0:0:
192,192,91336,1,0,0:0:0:0:
448,192,91392,1,0,0:0:0:0:
64,192,91449,1,0,0:0:0:0:
192,192,91449,1,0,0:0:0:0:
320,192,91506,1,0,0:0:0:0:
448,192,91563,1,0,0:0:0:0:
192,192,91620,1,0,0:0:0:0:
64,192,91676,1,0,0:0:0:0:
448,192,91676,1,0,0:0:0:0:
320,192,91733,1,0,0:0:0:0:
192,192,91790,1,0,0:0:0:0:
64,192,91847,1,0,0:0:0:0:
320,192,91904,1,0,0:0:0:0:
448,192,91904,1,0,0:0:0:0:
192,192,92017,1,0,0:0:0:0:
320,192,92074,1,0,0:0:0:0:
192,192,92131,1,0,0:0:0:0:
448,192,92131,1,0,0:0:0:0:
320,192,92188,1,0,0:0:0:0:
64,192,92245,1,0,0:0:0:0:
448,192,92301,1,0,0:0:0:0:
64,192,92358,1,0,0:0:0:0:
192,192,92358,1,0,0:0:0:0:
448,192,92415,1,0,0:0:0:0:
320,192,92472,1,0,0:0:0:0:
192,192,92529,1,0,0:0:0:0:
64,192,92586,1,0,0:0:0:0:
320,192,92586,1,0,0:0:0:0:
448,192,92586,1,0,0:0:0:0:
192,192,92699,1,0,0:0:0:0:
320,192,92813,1,0,0:0:0:0:
448,192,92813,1,0,0:0:0:0:
192,192,92926,1,0,0:0:0:0:
448,192,92983,1,0,0:0:0:0:
192,192,93040,1,0,0:0:0:0:
320,192,93040,1,0,0:0:0:0:
448,192,93097,1,0,0:0:0:0:
64,192,93154,1,0,0:0:0:0:
320,192,93211,1,0,0:0:0:0:
64,192,93267,1,0,0:0:0:0:
192,192,93267,1,0,0:0:0:0:
448,192,93324,1,0,0:0:0:0:
320,192,93381,1,0,0:0:0:0:
64,192,93438,1,0,0:0:0:0:
192,192,93495,1,0,0:0:0:0:
320,192,93495,1,0,0:0:0:0:
64,192,93551,1,0,0:0:0:0:
448,192,93608,1,0,0:0:0:0:
320,192,93665,1,0,0:0:0:0:
64,192,93722,1,0,0:0:0:0:
192,192,93722,1,0,0:0:0:0:
448,192,93836,1,0,0:0:0:0:
64,192,93892,1,0,0:0:0:0:
192,192,93949,1,0,0:0:0:0:
448,192,93949,1,0,0:0:0:0:
64,192,94006,1,0,0:0:0:0:
320,192,94063,1,0,0:0:0:0:
192,192,94120,1,0,0:0:0:0:
320,192,94176,1,0,0:0:0:0:
448,192,94176,1,0,0:0:0:0:
192,192,94233,1,0,0:0:0:0:
64,192,94290,1,0,0:0:0:0:
320,192,94347,1,0,0:0:0:0:
64,192,94404,1,0,0:0:0:0:
448,192,94404,1,0,0:0:0:0:
320,192,94461,1,0,0:0:0:0:
192,192,94517,1,0,0:0:0:0:
448,192,94574,1,0,0:0:0:0:
64,192,94631,1,0,0:0:0:0:
192,192,94631,1,0,0:0:0:0:
448,192,94745,1,0,0:0:0:0:
64,192,94801,1,0,0:0:0:0:
192,192,94858,1,0,0:0:0:0:
448,192,94858,1,0,0:0:0:0:
64,192,94915,1,0,0:0:0:0:
320,192,94972,1,0,0:0:0:0:
192,192,95029,1,0,0:0:0:0:
320,192,95086,1,0,0:0:0:0:
448,192,95086,1,0,0:0:0:0:
192,192,95142,1,0,0:0:0:0:
64,192,95199,1,0,0:0:0:0:
320,192,95256,1,0,0:0:0:0:
64,192,95313,1,0,0:0:0:0:
448,192,95313,1,0,0:0:0:0:
320,192,95370,1,0,0:0:0:0:
192,192,95426,1,0,0:0:0:0:
448,192,95483,1,0,0:0:0:0:
64,192,95540,1,0,0:0:0:0:
192,192,95540,1,0,0:0:0:0:
320,192,95597,1,0,0:0:0:0:
448,192,95597,1,0,0:0:0:0:
64,192,95654,1,0,0:0:0:0:
192,192,95654,1,0,0:0:0:0:
320,192,95711,1,0,0:0:0:0:
448,192,95711,1,0,0:0:0:0:
64,192,95767,1,0,0:0:0:0:
192,192,95767,1,0,0:0:0:0:
320,192,95824,1,0,0:0:0:0:
448,192,95824,1,0,0:0:0:0:
64,192,95881,1,0,0:0:0:0:
192,192,95881,1,0,0:0:0:0:
320,192,95938,1,0,0:0:0:0:
448,192,95938,1,0,0:0:0:0:
64,192,95995,1,0,0:0:0:0:
192,192,95995,1,0,0:0:0:0:
320,192,96051,1,0,0:0:0:0:
448,192,96051,1,0,0:0:0:0:
64,192,96108,1,0,0:0:0:0:
192,192,96108,1,0,0:0:0:0:
320,192,96165,1,0,0:0:0:0:
64,192,96222,1,0,0:0:0:0:
448,192,96222,1,0,0:0:0:0:
192,192,96279,1,0,0:0:0:0:
320,192,96336,1,0,0:0:0:0:
448,192,96336,1,0,0:0:0:0:
64,192,96392,1,0,0:0:0:0:
192,192,96392,1,0,0:0:0:0:
320,192,96449,1,0,0:0:0:0:
448,192,96449,1,0,0:0:0:0:
64,192,96563,1,0,0:0:0:0:
320,192,96620,1,0,0:0:0:0:
64,192,96676,1,0,0:0:0:0:
448,192,96676,1,0,0:0:0:0:
320,192,96733,1,0,0:0:0:0:
192,192,96790,1,0,0:0:0:0:
448,192,96847,1,0,0:0:0:0:
64,192,96904,1,0,0:0:0:0:
192,192,96904,1,0,0:0:0:0:
320,192,96961,1,0,0:0:0:0:
64,192,97017,1,0,0:0:0:0:
448,192,97017,1,0,0:0:0:0:
192,192,97074,1,0,0:0:0:0:
448,192,97131,1,0,0:0:0:0:
320,192,97188,1,0,0:0:0:0:
192,192,97245,1,0,0:0:0:0:
64,192,97301,1,0,0:0:0:0:
320,192,97358,1,0,0:0:0:0:
448,192,97358,1,0,0:0:0:0:
192,192,97472,1,0,0:0:0:0:
320,192,97529,1,0,0:0:0:0:
192,192,97586,1,0,0:0:0:0:
448,192,97586,1,0,0:0:0:0:
320,192,97642,1,0,0:0:0:0:
64,192,97699,1,0,0:0:0:0:
448,192,97756,1,0,0:0:0:0:
64,192,97813,1,0,0:0:0:0:
192,192,97813,1,0,0:0:0:0:
448,192,97870,1,0,0:0:0:0:
192,192,97926,1,0,0:0:0:0:
320,192,97926,1,0,0:0:0:0:
64,192,97983,1,0,0:0:0:0:
448,192,98040,1,0,0:0:0:0:
320,192,98097,1,0,0:0:0:0:
192,192,98154,1,0,0:0:0:0:
64,192,98211,1,0,0:0:0:0:
192,192,98267,1,0,0:0:0:0:
320,192,98267,1,0,0:0:0:0:
448,192,98267,1,0,0:0:0:0:
64,192,98381,1,0,0:0:0:0:
320,192,98438,1,0,0:0:0:0:
64,192,98495,1,0,0:0:0:0:
448,192,98495,1,0,0:0:0:0:
320,192,98551,1,0,0:0:0:0:
192,192,98608,1,0,0:0:0:0:
448,192,98665,1,0,0:0:0:0:
64,192,98722,1,0,0:0:0:0:
192,192,98722,1,0,0:0:0:0:
320,192,98779,1,0,0:0:0:0:
64,192,98836,1,0,0:0:0:0:
448,192,98836,1,0,0:0:0:0:
192,192,98892,1,0,0:0:0:0:
448,192,98949,1,0,0:0:0:0:
320,192,99006,1,0,0:0:0:0:
192,192,99063,1,0,0:0:0:0:
64,192,99120,1,0,0:0:0:0:
320,192,99176,1,0,0:0:0:0:
448,192,99176,1,0,0:0:0:0:
192,192,99290,1,0,0:0:0:0:
320,192,99347,1,0,0:0:0:0:
192,192,99404,1,0,0:0:0:0:
448,192,99404,1,0,0:0:0:0:
320,192,99461,1,0,0:0:0:0:
64,192,99517,1,0,0:0:0:0:
448,192,99574,1,0,0:0:0:0:
64,192,99631,1,0,0:0:0:0:
192,192,99631,1,0,0:0:0:0:
448,192,99688,1,0,0:0:0:0:
192,192,99745,1,0,0:0:0:0:
320,192,99745,1,0,0:0:0:0:
64,192,99801,1,0,0:0:0:0:
448,192,99858,1,0,0:0:0:0:
192,192,99915,1,0,0:0:0:0:
320,192,99972,1,0,0:0:0:0:
64,192,100029,1,0,0:0:0:0:
192,192,100029,1,0,0:0:0:0:
320,192,100086,1,0,0:0:0:0:
448,192,100086,1,0,0:0:0:0:
192,192,100199,1,0,0:0:0:0:
448,192,100256,1,0,0:0:0:0:
192,192,100313,1,0,0:0:0:0:
320,192,100313,1,0,0:0:0:0:
448,192,100370,1,0,0:0:0:0:
64,192,100426,1,0,0:0:0:0:
320,192,100483,1,0,0:0:0:0:
64,192,100540,1,0,0:0:0:0:
192,192,100540,1,0,0:0:0:0:
448,192,100597,1,0,0:0:0:0:
192,192,100654,1,0,0:0:0:0:
320,192,100654,1,0,0:0:0:0:
64,192,100711,1,0,0:0:0:0:
448,192,100767,1,0,0:0:0:0:
192,192,100824,1,0,0:0:0:0:
448,192,100881,1,0,0:0:0:0:
320,192,100938,1,0,0:0:0:0:
64,192,100995,1,0,0:0:0:0:
192,192,100995,1,0,0:0:0:0:
448,192,101108,1,0,0:0:0:0:
64,192,101165,1,0,0:0:0:0:
192,192,101222,1,0,0:0:0:0:
448,192,101222,1,0,0:0:0:0:
64,192,101279,1,0,0:0:0:0:
320,192,101336,1,0,0:0:0:0:
192,192,101392,1,0,0:0:0:0:
320,192,101449,1,0,0:0:0:0:
448,192,101449,1,0,0:0:0:0:
192,192,101506,1,0,0:0:0:0:
64,192,101563,1,0,0:0:0:0:
448,192,101563,1,0,0:0:0:0:
320,192,101620,1,0,0:0:0:0:
64,192,101676,1,0,0:0:0:0:
192,192,101733,1,0,0:0:0:0:
320,192,101790,1,0,0:0:0:0:
448,192,101847,1,0,0:0:0:0:
64,192,101904,1,0,0:0:0:0:
192,192,101904,1,0,0:0:0:0:
320,192,101904,1,0,0:0:0:0:
448,192,102017,1,0,0:0:0:0:
64,192,102074,1,0,0:0:0:0:
192,192,102131,1,0,0:0:0:0:
448,192,102131,1,0,0:0:0:0:
64,192,102188,1,0,0:0:0:0:
320,192,102245,1,0,0:0:0:0:
192,192,102301,1,0,0:0:0:0:
320,192,102358,1,0,0:0:0:0:
448,192,102358,1,0,0:0:0:0:
64,192,102415,1,0,0:0:0:0:
192,192,102472,1,0,0:0:0:0:
448,192,102472,1,0,0:0:0:0:
320,192,102529,1,0,0:0:0:0:
64,192,102586,1,0,0:0:0:0:
192,192,102642,1,0,0:0:0:0:
320,192,102699,1,0,0:0:0:0:
448,192,102756,1,0,0:0:0:0:
64,192,102813,1,0,0:0:0:0:
192,192,102813,1,0,0:0:0:0:
320,192,102926,1,0,0:0:0:0:
448,192,102983,1,0,0:0:0:0:
192,192,103040,1,0,0:0:0:0:
320,192,103040,1,0,0:0:0:0:
448,192,103097,1,0,0:0:0:0:
64,192,103154,1,0,0:0:0:0:
320,192,103211,1,0,0:0:0:0:
64,192,103267,1,0,0:0:0:0:
192,192,103267,1,0,0:0:0:0:
320,192,103324,1,0,0:0:0:0:
64,192,103381,1,0,0:0:0:0:
448,192,103381,1,0,0:0:0:0:
192,192,103438,1,0,0:0:0:0:
320,192,103495,1,0,0:0:0:0:
448,192,103551,1,0,0:0:0:0:
64,192,103608,1,0,0:0:0:0:
192,192,103665,1,0,0:0:0:0:
64,192,103722,1,0,0:0:0:0:
320,192,103722,1,0,0:0:0:0:
448,192,103722,1,0,0:0:0:0:
192,192,103836,1,0,0:0:0:0:
320,192,103892,1,0,0:0:0:0:
64,192,103949,1,0,0:0:0:0:
448,192,103949,1,0,0:0:0:0:
320,192,104006,1,0,0:0:0:0:
192,192,104063,1,0,0:0:0:0:
448,192,104120,1,0,0:0:0:0:
64,192,104176,1,0,0:0:0:0:
192,192,104176,1,0,0:0:0:0:
448,192,104233,1,0,0:0:0:0:
64,192,104290,1,0,0:0:0:0:
320,192,104290,1,0,0:0:0:0:
192,192,104347,1,0,0:0:0:0:
448,192,104404,1,0,0:0:0:0:
320,192,104461,1,0,0:0:0:0:
192,192,104517,1,0,0:0:0:0:
64,192,104574,1,0,0:0:0:0:
320,192,104631,1,0,0:0:0:0:
448,192,104631,1,0,0:0:0:0:
192,192,104745,1,0,0:0:0:0:
320,192,104801,1,0,0:0:0:0:
192,192,104858,1,0,0:0:0:0:
448,192,104858,1,0,0:0:0:0:
320,192,104915,1,0,0:0:0:0:
64,192,104972,1,0,0:0:0:0:
448,192,105029,1,0,0:0:0:0:
64,192,105086,1,0,0:0:0:0:
192,192,105086,1,0,0:0:0:0:
448,192,105142,1,0,0:0:0:0:
64,192,105199,1,0,0:0:0:0:
320,192,105199,1,0,0:0:0:0:
192,192,105256,1,0,0:0:0:0:
448,192,105313,1,0,0:0:0:0:
320,192,105370,1,0,0:0:0:0:
448,192,105426,1,0,0:0:0:0:
64,192,105483,1,0,0:0:0:0:
192,192,105540,1,0,0:0:0:0:
320,192,105540,1,0,0:0:0:0:
448,192,105540,1,0,0:0:0:0:
64,192,105654,1,0,0:0:0:0:
320,192,105711,1,0,0:0:0:0:
64,192,105767,1,0,0:0:0:0:
448,192,105767,1,0,0:0:0:0:
320,192,105824,1,0,0:0:0:0:
192,192,105881,1,0,0:0:0:0:
448,192,105938,1,0,0:0:0:0:
64,192,105995,1,0,0:0:0:0:
192,192,105995,1,0,0:0:0:0:
320,192,106051,1,0,0:0:0:0:
64,192,106108,1,0,0:0:0:0:
448,192,106108,1,0,0:0:0:0:
192,192,106165,1,0,0:0:0:0:
448,192,106222,1,0,0:0:0:0:
320,192,106279,1,0,0:0:0:0:
192,192,106336,1,0,0:0:0:0:
64,192,106392,1,0,0:0:0:0:
320,192,106449,1,0,0:0:0:0:
448,192,106449,1,0,0:0:0:0:
192,192,106563,1,0,0:0:0:0:
320,192,106620,1,0,0:0:0:0:
192,192,106676,1,0,0:0:0:0:
448,192,106676,1,0,0:0:0:0:
320,192,106733,1,0,0:0:0:0:
64,192,106790,1,0,0:0:0:0:
448,192,106847,1,0,0:0:0:0:
64,192,106904,1,0,0:0:0:0:
192,192,106904,1,0,0:0:0:0:
320,192,106961,1,0,0:0:0:0:
192,192,107017,1,0,0:0:0:0:
448,192,107017,1,0,0:0:0:0:
64,192,107074,1,0,0:0:0:0:
192,192,107131,1,0,0:0:0:0:
448,192,107188,1,0,0:0:0:0:
320,192,107245,1,0,0:0:0:0:
192,192,107282,1,0,0:0:0:0:
64,192,107358,1,0,0:0:0:0:
320,192,107358,1,0,0:0:0:0:
448,192,107358,1,0,0:0:0:0:
192,192,107472,1,0,0:0:0:0:
448,192,107529,1,0,0:0:0:0:
192,192,107586,1,0,0:0:0:0:
320,192,107586,1,0,0:0:0:0:
448,192,107642,1,0,0:0:0:0:
64,192,107699,1,0,0:0:0:0:
320,192,107756,1,0,0:0:0:0:
64,192,107813,1,0,0:0:0:0:
192,192,107813,1,0,0:0:0:0:
448,192,107870,1,0,0:0:0:0:
64,192,107926,1,0,0:0:0:0:
320,192,107926,1,0,0:0:0:0:
192,192,107983,1,0,0:0:0:0:
320,192,108040,1,0,0:0:0:0:
64,192,108097,1,0,0:0:0:0:
448,192,108154,1,0,0:0:0:0:
320,192,108211,1,0,0:0:0:0:
64,192,108267,1,0,0:0:0:0:
192,192,108267,1,0,0:0:0:0:
448,192,108381,1,0,0:0:0:0:
64,192,108438,1,0,0:0:0:0:
192,192,108495,1,0,0:0:0:0:
448,192,108495,1,0,0:0:0:0:
64,192,108551,1,0,0:0:0:0:
320,192,108608,1,0,0:0:0:0:
192,192,108665,1,0,0:0:0:0:
320,192,108722,1,0,0:0:0:0:
448,192,108722,1,0,0:0:0:0:
64,192,108779,1,0,0:0:0:0:
192,192,108836,1,0,0:0:0:0:
448,192,108836,1,0,0:0:0:0:
320,192,108892,1,0,0:0:0:0:
64,192,108949,1,0,0:0:0:0:
448,192,109006,1,0,0:0:0:0:
64,192,109063,1,0,0:0:0:0:
320,192,109120,1,0,0:0:0:0:
64,192,109176,1,0,0:0:0:0:
192,192,109176,1,0,0:0:0:0:
448,192,109290,1,0,0:0:0:0:
64,192,109347,1,0,0:0:0:0:
192,192,109404,1,0,0:0:0:0:
448,192,109404,1,0,0:0:0:0:
64,192,109461,1,0,0:0:0:0:
320,192,109517,1,0,0:0:0:0:
192,192,109574,1,0,0:0:0:0:
320,192,109631,1,0,0:0:0:0:
448,192,109631,1,0,0:0:0:0:
64,192,109688,1,0,0:0:0:0:
192,192,109745,1,0,0:0:0:0:
448,192,109745,1,0,0:0:0:0:
320,192,109801,1,0,0:0:0:0:
64,192,109858,1,0,0:0:0:0:
192,192,109915,1,0,0:0:0:0:
320,192,109972,1,0,0:0:0:0:
448,192,110029,1,0,0:0:0:0:
64,192,110086,1,0,0:0:0:0:
192,192,110086,1,0,0:0:0:0:
320,192,110086,1,0,0:0:0:0:
320,192,110256,1,0,0:0:0:0:
64,192,110313,1,0,0:0:0:0:
192,192,110313,1,0,0:0:0:0:
448,192,110313,1,0,0:0:0:0:
448,192,110483,1,0,0:0:0:0:
64,192,110540,1,0,0:0:0:0:
192,192,110540,1,0,0:0:0:0:
320,192,110540,1,0,0:0:0:0:
64,192,110654,1,0,0:0:0:0:
192,192,110654,1,0,0:0:0:0:
64,192,110767,1,0,0:0:0:0:
320,192,110767,1,0,0:0:0:0:
448,192,110767,1,0,0:0:0:0:
320,192,110881,1,0,0:0:0:0:
448,192,110881,1,0,0:0:0:0:
192,192,110995,1,0,0:0:0:0:
320,192,110995,1,0,0:0:0:0:
448,192,110995,1,0,0:0:0:0:
64,192,111051,1,0,0:0:0:0:
320,192,111108,1,0,0:0:0:0:
192,192,111165,1,0,0:0:0:0:
64,192,111222,1,0,0:0:0:0:
448,192,111222,1,0,0:0:0:0:
320,192,111279,1,0,0:0:0:0:
192,192,111336,1,0,0:0:0:0:
448,192,111392,1,0,0:0:0:0:
64,192,111449,1,0,0:0:0:0:
192,192,111449,1,0,0:0:0:0:
448,192,111506,1,0,0:0:0:0:
320,192,111563,1,0,0:0:0:0:
192,192,111620,1,0,0:0:0:0:
64,192,111676,1,0,0:0:0:0:
320,192,111676,1,0,0:0:0:0:
448,192,111733,1,0,0:0:0:0:
192,192,111790,1,0,0:0:0:0:
64,192,111847,1,0,0:0:0:0:
320,192,111904,1,0,0:0:0:0:
448,192,111904,1,0,0:0:0:0:
64,192,111961,1,0,0:0:0:0:
192,192,112017,1,0,0:0:0:0:
320,192,112074,1,0,0:0:0:0:
192,192,112131,1,0,0:0:0:0:
448,192,112131,1,0,0:0:0:0:
320,192,112188,1,0,0:0:0:0:
64,192,112245,1,0,0:0:0:0:
448,192,112301,1,0,0:0:0:0:
64,192,112358,1,0,0:0:0:0:
192,192,112358,1,0,0:0:0:0:
320,192,112415,1,0,0:0:0:0:
192,192,112472,1,0,0:0:0:0:
320,192,112529,1,0,0:0:0:0:
64,192,112586,1,0,0:0:0:0:
448,192,112586,1,0,0:0:0:0:
192,192,112642,1,0,0:0:0:0:
320,192,112699,1,0,0:0:0:0:
448,192,112699,1,0,0:0:0:0:
64,192,112756,1,0,0:0:0:0:
320,192,112813,1,0,0:0:0:0:
448,192,112813,1,0,0:0:0:0:
192,192,112870,1,0,0:0:0:0:
64,192,112926,1,0,0:0:0:0:
320,192,112983,1,0,0:0:0:0:
64,192,113040,1,0,0:0:0:0:
448,192,113040,1,0,0:0:0:0:
320,192,113097,1,0,0:0:0:0:
192,192,113154,1,0,0:0:0:0:
448,192,113211,1,0,0:0:0:0:
64,192,113267,1,0,0:0:0:0:
192,192,113267,1,0,0:0:0:0:
448,192,113324,1,0,0:0:0:0:
320,192,113381,1,0,0:0:0:0:
192,192,113438,1,0,0:0:0:0:
64,192,113495,1,0,0:0:0:0:
320,192,113495,1,0,0:0:0:0:
448,192,113495,1,0,0:0:0:0:
192,192,113551,1,0,0:0:0:0:
448,192,113608,1,0,0:0:0:0:
64,192,113665,1,0,0:0:0:0:
320,192,113722,1,0,0:0:0:0:
448,192,113722,1,0,0:0:0:0:
192,192,113779,1,0,0:0:0:0:
64,192,113836,1,0,0:0:0:0:
320,192,113892,1,0,0:0:0:0:
64,192,113949,1,0,0:0:0:0:
448,192,113949,1,0,0:0:0:0:
192,192,114006,1,0,0:0:0:0:
320,192,114063,1,0,0:0:0:0:
448,192,114120,1,0,0:0:0:0:
64,192,114176,1,0,0:0:0:0:
192,192,114176,1,0,0:0:0:0:
448,192,114233,1,0,0:0:0:0:
64,192,114290,1,0,0:0:0:0:
192,192,114290,1,0,0:0:0:0:
320,192,114347,1,0,0:0:0:0:
64,192,114404,1,0,0:0:0:0:
448,192,114404,1,0,0:0:0:0:
192,192,114461,1,0,0:0:0:0:
320,192,114517,1,0,0:0:0:0:
448,192,114517,1,0,0:0:0:0:
64,192,114574,1,0,0:0:0:0:
320,192,114631,1,0,0:0:0:0:
448,192,114631,1,0,0:0:0:0:
192,192,114688,1,0,0:0:0:0:
64,192,114745,1,0,0:0:0:0:
448,192,114801,1,0,0:0:0:0:
192,192,114858,1,0,0:0:0:0:
320,192,114858,1,0,0:0:0:0:
448,192,114915,1,0,0:0:0:0:
64,192,114972,1,0,0:0:0:0:
320,192,115029,1,0,0:0:0:0:
64,192,115086,1,0,0:0:0:0:
192,192,115086,1,0,0:0:0:0:
448,192,115142,1,0,0:0:0:0:
320,192,115199,1,0,0:0:0:0:
192,192,115256,1,0,0:0:0:0:
64,192,115313,1,0,0:0:0:0:
320,192,115313,1,0,0:0:0:0:
448,192,115313,1,0,0:0:0:0:
192,192,115370,1,0,0:0:0:0:
320,192,115426,1,0,0:0:0:0:
448,192,115483,1,0,0:0:0:0:
64,192,115540,1,0,0:0:0:0:
192,192,115540,1,0,0:0:0:0:
320,192,115597,1,0,0:0:0:0:
64,192,115654,1,0,0:0:0:0:
448,192,115711,1,0,0:0:0:0:
192,192,115767,1,0,0:0:0:0:
320,192,115767,1,0,0:0:0:0:
448,192,115824,1,0,0:0:0:0:
64,192,115881,1,0,0:0:0:0:
320,192,115938,1,0,0:0:0:0:
64,192,115995,1,0,0:0:0:0:
192,192,115995,1,0,0:0:0:0:
448,192,116051,1,0,0:0:0:0:
320,192,116108,1,0,0:0:0:0:
64,192,116165,1,0,0:0:0:0:
192,192,116222,1,0,0:0:0:0:
448,192,116222,1,0,0:0:0:0:
64,192,116279,1,0,0:0:0:0:
320,192,116336,1,0,0:0:0:0:
448,192,116336,1,0,0:0:0:0:
192,192,116392,1,0,0:0:0:0:
320,192,116449,1,0,0:0:0:0:
448,192,116449,1,0,0:0:0:0:
192,192,116506,1,0,0:0:0:0:
64,192,116563,1,0,0:0:0:0:
448,192,116620,1,0,0:0:0:0:
64,192,116676,1,0,0:0:0:0:
320,192,116676,1,0,0:0:0:0:
448,192,116733,1,0,0:0:0:0:
192,192,116790,1,0,0:0:0:0:
320,192,116847,1,0,0:0:0:0:
64,192,116904,1,0,0:0:0:0:
192,192,116904,1,0,0:0:0:0:
320,192,116961,1,0,0:0:0:0:
448,192,117017,1,0,0:0:0:0:
64,192,117074,1,0,0:0:0:0:
192,192,117131,1,0,0:0:0:0:
320,192,117131,1,0,0:0:0:0:
64,192,117188,1,0,0:0:0:0:
448,192,117245,1,0,0:0:0:0:
192,192,117301,1,0,0:0:0:0:
64,192,117358,1,0,0:0:0:0:
320,192,117358,1,0,0:0:0:0:
448,192,117358,1,0,0:0:0:0:
192,192,117472,1,0,0:0:0:0:
64,192,117529,1,0,0:0:0:0:
320,192,117529,1,0,0:0:0:0:
448,192,117529,1,0,0:0:0:0:
192,192,117699,1,0,0:0:0:0:
320,192,117699,1,0,0:0:0:0:
448,192,117699,1,0,0:0:0:0:
64,192,117870,1,0,0:0:0:0:
320,192,117870,1,0,0:0:0:0:
448,192,117870,1,0,0:0:0:0:
64,192,118040,1,0,0:0:0:0:
192,192,118040,1,0,0:0:0:0:
320,192,118040,1,0,0:0:0:0:
320,192,118211,1,0,0:0:0:0:
448,192,118211,1,0,0:0:0:0:
64,192,118267,1,0,0:0:0:0:
192,192,118267,1,0,0:0:0:0:
448,192,118324,1,0,0:0:0:0:
64,192,118381,1,0,0:0:0:0:
320,192,118438,1,0,0:0:0:0:
192,192,118495,1,0,0:0:0:0:
448,192,118495,1,0,0:0:0:0:
64,192,118551,1,0,0:0:0:0:
320,192,118608,1,0,0:0:0:0:
192,192,118665,1,0,0:0:0:0:
320,192,118722,1,0,0:0:0:0:
448,192,118722,1,0,0:0:0:0:
192,192,118779,1,0,0:0:0:0:
64,192,118836,1,0,0:0:0:0:
320,192,118892,1,0,0:0:0:0:
64,192,118949,1,0,0:0:0:0:
448,192,118949,1,0,0:0:0:0:
320,192,119006,1,0,0:0:0:0:
192,192,119063,1,0,0:0:0:0:
448,192,119120,1,0,0:0:0:0:
64,192,119176,1,0,0:0:0:0:
192,192,119176,1,0,0:0:0:0:
320,192,119233,1,0,0:0:0:0:
448,192,119290,1,0,0:0:0:0:
192,192,119347,1,0,0:0:0:0:
64,192,119404,1,0,0:0:0:0:
448,192,119404,1,0,0:0:0:0:
320,192,119461,1,0,0:0:0:0:
192,192,119517,1,0,0:0:0:0:
64,192,119574,1,0,0:0:0:0:
320,192,119631,1,0,0:0:0:0:
448,192,119631,1,0,0:0:0:0:
192,192,119688,1,0,0:0:0:0:
64,192,119745,1,0,0:0:0:0:
448,192,119801,1,0,0:0:0:0:
192,192,119858,1,0,0:0:0:0:
320,192,119858,1,0,0:0:0:0:
448,192,119915,1,0,0:0:0:0:
64,192,119972,1,0,0:0:0:0:
192,192,119972,1,0,0:0:0:0:
320,192,120029,1,0,0:0:0:0:
64,192,120086,1,0,0:0:0:0:
192,192,120086,1,0,0:0:0:0:
448,192,120142,1,0,0:0:0:0:
64,192,120199,1,0,0:0:0:0:
320,192,120256,1,0,0:0:0:0:
192,192,120313,1,0,0:0:0:0:
448,192,120313,1,0,0:0:0:0:
64,192,120370,1,0,0:0:0:0:
320,192,120426,1,0,0:0:0:0:
192,192,120483,1,0,0:0:0:0:
320,192,120540,1,0,0:0:0:0:
448,192,120540,1,0,0:0:0:0:
192,192,120597,1,0,0:0:0:0:
64,192,120654,1,0,0:0:0:0:
448,192,120711,1,0,0:0:0:0:
64,192,120767,1,0,0:0:0:0:
192,192,120767,1,0,0:0:0:0:
320,192,120767,1,0,0:0:0:0:
448,192,120824,1,0,0:0:0:0:
192,192,120881,1,0,0:0:0:0:
320,192,120938,1,0,0:0:0:0:
64,192,120995,1,0,0:0:0:0:
448,192,120995,1,0,0:0:0:0:
192,192,121051,1,0,0:0:0:0:
448,192,121108,1,0,0:0:0:0:
320,192,121165,1,0,0:0:0:0:
64,192,121222,1,0,0:0:0:0:
192,192,121222,1,0,0:0:0:0:
448,192,121279,1,0,0:0:0:0:
192,192,121336,1,0,0:0:0:0:
64,192,121392,1,0,0:0:0:0:
320,192,121449,1,0,0:0:0:0:
448,192,121449,1,0,0:0:0:0:
192,192,121506,1,0,0:0:0:0:
320,192,121563,1,0,0:0:0:0:
448,192,121563,1,0,0:0:0:0:
64,192,121620,1,0,0:0:0:0:
448,192,121676,1,0,0:0:0:0:
320,192,121714,1,0,0:0:0:0:
192,192,121752,1,0,0:0:0:0:
64,192,121790,1,0,0:0:0:0:
448,192,121828,1,0,0:0:0:0:
320,192,121866,1,0,0:0:0:0:
64,192,121904,1,0,0:0:0:0:
192,192,121904,1,0,0:0:0:0:
320,192,121961,1,0,0:0:0:0:
448,192,122017,1,0,0:0:0:0:
64,192,122074,1,0,0:0:0:0:
192,192,122131,1,0,0:0:0:0:
448,192,122131,1,0,0:0:0:0:
64,192,122188,1,0,0:0:0:0:
320,192,122245,1,0,0:0:0:0:
192,192,122301,1,0,0:0:0:0:
320,192,122358,1,0,0:0:0:0:
448,192,122358,1,0,0:0:0:0:
64,192,122415,1,0,0:0:0:0:
192,192,122472,1,0,0:0:0:0:
448,192,122529,1,0,0:0:0:0:
64,192,122586,1,0,0:0:0:0:
192,192,122586,1,0,0:0:0:0:
320,192,122586,1,0,0:0:0:0:
448,192,122642,1,0,0:0:0:0:
64,192,122699,1,0,0:0:0:0:
192,192,122756,1,0,0:0:0:0:
320,192,122813,1,0,0:0:0:0:
448,192,122813,1,0,0:0:0:0:
192,192,122870,1,0,0:0:0:0:
64,192,122926,1,0,0:0:0:0:
448,192,122983,1,0,0:0:0:0:
64,192,123040,1,0,0:0:0:0:
320,192,123040,1,0,0:0:0:0:
448,192,123097,1,0,0:0:0:0:
192,192,123154,1,0,0:0:0:0:
320,192,123211,1,0,0:0:0:0:
64,192,123267,1,0,0:0:0:0:
192,192,123267,1,0,0:0:0:0:
320,192,123324,1,0,0:0:0:0:
448,192,123381,1,0,0:0:0:0:
64,192,123438,1,0,0:0:0:0:
192,192,123438,1,0,0:0:0:0:
320,192,123495,1,0,0:0:0:0:
448,192,123495,1,0,0:0:0:0:
64,192,123551,1,0,0:0:0:0:
320,192,123608,1,0,0:0:0:0:
448,192,123608,1,0,0:0:0:0:
192,192,123665,1,0,0:0:0:0:
64,192,123722,1,0,0:0:0:0:
320,192,123722,1,0,0:0:0:0:
64,192,123836,1,0,0:0:0:0:
192,192,123949,1,0,0:0:0:0:
192,192,124063,1,0,0:0:0:0:
320,192,124176,1,0,0:0:0:0:
320,192,124290,1,0,0:0:0:0:
448,192,124404,1,0,0:0:0:0:
448,192,124517,1,0,0:0:0:0:
64,192,124631,1,0,0:0:0:0:
192,192,124688,1,0,0:0:0:0:
320,192,124745,1,0,0:0:0:0:
448,192,124801,1,0,0:0:0:0:
192,192,124858,1,0,0:0:0:0:
320,192,124915,1,0,0:0:0:0:
64,192,124972,1,0,0:0:0:0:
448,192,125029,1,0,0:0:0:0:
320,192,125086,1,0,0:0:0:0:
192,192,125142,1,0,0:0:0:0:
64,192,125199,1,0,0:0:0:0:
448,192,125256,1,0,0:0:0:0:
192,192,125313,1,0,0:0:0:0:
320,192,125370,1,0,0:0:0:0:
64,192,125426,1,0,0:0:0:0:
192,192,125426,1,0,0:0:0:0:
64,192,125540,1,0,0:0:0:0:
192,192,125540,1,0,0:0:0:0:
320,192,125540,1,0,0:0:0:0:
448,192,125540,1,0,0:0:0:0:
448,192,127472,1,0,0:0:0:0:
192,192,129404,1,0,0:0:0:0:
64,192,131108,1,0,0:0:0:0:
448,192,132586,1,0,0:0:0:0:
192,192,132926,1,0,0:0:0:0:
320,192,134972,1,0,0:0:0:0:
448,192,136563,1,0,0:0:0:0:
64,192,138495,1,0,0:0:0:0:
320,192,139858,1,0,0:0:0:0:
448,192,139858,1,0,0:0:0:0:
64,192,140086,1,0,0:0:0:0:
192,192,140086,1,0,0:0:0:0:
448,192,140086,1,0,0:0:0:0:
64,192,140313,1,0,0:0:0:0:
192,192,140540,1,0,0:0:0:0:
320,192,140654,1,0,0:0:0:0:
192,192,140881,1,0,0:0:0:0:
64,192,140995,1,0,0:0:0:0:
448,192,141222,1,0,0:0:0:0:
64,192,141336,1,0,0:0:0:0:
192,192,141449,1,0,0:0:0:0:
64,192,141563,1,0,0:0:0:0:
192,192,141790,1,0,0:0:0:0:
64,192,142131,1,0,0:0:0:0:
320,192,142358,1,0,0:0:0:0:
448,192,142472,1,0,0:0:0:0:
320,192,142699,1,0,0:0:0:0:
192,192,142813,1,0,0:0:0:0:
320,192,143040,1,0,0:0:0:0:
448,192,143267,1,0,0:0:0:0:
320,192,143381,1,0,0:0:0:0:
64,192,143608,1,0,0:0:0:0:
64,192,143949,1,0,0:0:0:0:
320,192,144176,1,0,0:0:0:0:
192,192,144290,1,0,0:0:0:0:
320,192,144517,1,0,0:0:0:0:
64,192,144631,1,0,0:0:0:0:
320,192,144858,1,0,0:0:0:0:
448,192,145086,1,0,0:0:0:0:
320,192,145199,1,0,0:0:0:0:
64,192,145426,1,0,0:0:0:0:
448,192,145540,1,0,0:0:0:0:
64,192,145767,1,0,0:0:0:0:
320,192,145995,1,0,0:0:0:0:
192,192,146108,1,0,0:0:0:0:
448,192,146336,1,0,0:0:0:0:
64,192,146449,1,0,0:0:0:0:
320,192,146676,1,0,0:0:0:0:
192,192,146904,1,0,0:0:0:0:
320,192,147017,1,0,0:0:0:0:
448,192,147245,1,0,0:0:0:0:
192,192,147358,1,0,0:0:0:0:
64,192,147586,1,0,0:0:0:0:
320,192,147813,1,0,0:0:0:0:
192,192,147926,1,0,0:0:0:0:
192,192,148154,1,0,0:0:0:0:
64,192,148267,1,0,0:0:0:0:
192,192,148495,1,0,0:0:0:0:
320,192,148722,1,0,0:0:0:0:
64,192,148836,1,0,0:0:0:0:
192,192,149063,1,0,0:0:0:0:
64,192,149176,1,0,0:0:0:0:
192,192,149404,1,0,0:0:0:0:
320,192,149631,1,0,0:0:0:0:
192,192,149745,1,0,0:0:0:0:
448,192,149972,1,0,0:0:0:0:
192,192,150086,1,0,0:0:0:0:
320,192,150313,1,0,0:0:0:0:
64,192,150540,1,0,0:0:0:0:
448,192,150654,1,0,0:0:0:0:
448,192,150881,1,0,0:0:0:0:
192,192,150995,1,0,0:0:0:0:
64,192,151222,1,0,0:0:0:0:
320,192,151449,1,0,0:0:0:0:
448,192,151563,1,0,0:0:0:0:
192,192,151790,1,0,0:0:0:0:
64,192,151904,1,0,0:0:0:0:
192,192,152131,1,0,0:0:0:0:
320,192,152358,1,0,0:0:0:0:
64,192,152472,1,0,0:0:0:0:
192,192,152699,1,0,0:0:0:0:
64,192,152813,1,0,0:0:0:0:
448,192,152926,1,0,0:0:0:0:
320,192,152983,1,0,0:0:0:0:
192,192,153040,1,0,0:0:0:0:
64,192,153097,1,0,0:0:0:0:
448,192,153154,1,0,0:0:0:0:
320,192,153211,1,0,0:0:0:0:
192,192,153267,1,0,0:0:0:0:
64,192,153324,1,0,0:0:0:0:
448,192,153381,1,0,0:0:0:0:
320,192,153438,1,0,0:0:0:0:
192,192,153495,1,0,0:0:0:0:
64,192,153551,1,0,0:0:0:0:
448,192,153608,1,0,0:0:0:0:
192,192,153665,1,0,0:0:0:0:
320,192,153722,1,0,0:0:0:0:
64,192,153779,1,0,0:0:0:0:
448,192,153836,1,0,0:0:0:0:
192,192,153892,1,0,0:0:0:0:
320,192,153949,1,0,0:0:0:0:
64,192,154006,1,0,0:0:0:0:
320,192,154063,1,0,0:0:0:0:
448,192,154063,1,0,0:0:0:0:
64,192,154120,1,0,0:0:0:0:
192,192,154120,1,0,0:0:0:0:
320,192,154176,1,0,0:0:0:0:
448,192,154176,1,0,0:0:0:0:
64,192,154233,1,0,0:0:0:0:
192,192,154233,1,0,0:0:0:0:
320,192,154290,1,0,0:0:0:0:
448,192,154290,1,0,0:0:0:0:
64,192,154347,1,0,0:0:0:0:
192,192,154347,1,0,0:0:0:0:
320,192,154404,1,0,0:0:0:0:
448,192,154404,1,0,0:0:0:0:
192,192,154517,1,0,0:0:0:0:
64,192,154631,1,0,0:0:0:0:
320,192,154631,1,0,0:0:0:0:
448,192,154631,1,0,0:0:0:0:
320,192,154858,1,0,0:0:0:0:
64,192,155086,1,0,0:0:0:0:
448,192,155086,1,0,0:0:0:0:
320,192,155313,1,0,0:0:0:0:
64,192,155426,1,0,0:0:0:0:
192,192,155426,1,0,0:0:0:0:
320,192,155654,1,0,0:0:0:0:
64,192,155767,1,0,0:0:0:0:
192,192,155767,1,0,0:0:0:0:
320,192,155995,1,0,0:0:0:0:
64,192,156108,1,0,0:0:0:0:
192,192,156108,1,0,0:0:0:0:
320,192,156336,1,0,0:0:0:0:
192,192,156449,1,0,0:0:0:0:
192,192,158267,1,0,0:0:0:0:
320,192,158267,1,0,0:0:0:0:
192,192,158495,1,0,0:0:0:0:
320,192,158495,1,0,0:0:0:0:
64,192,158722,1,0,0:0:0:0:
448,192,158722,1,0,0:0:0:0:
320,192,158949,1,0,0:0:0:0:
64,192,159063,1,0,0:0:0:0:
192,192,159063,1,0,0:0:0:0:
320,192,159290,1,0,0:0:0:0:
64,192,159404,1,0,0:0:0:0:
192,192,159404,1,0,0:0:0:0:
320,192,159631,1,0,0:0:0:0:
64,192,159745,1,0,0:0:0:0:
192,192,159745,1,0,0:0:0:0:
320,192,159972,1,0,0:0:0:0:
192,192,160086,1,0,0:0:0:0:
192,192,161904,1,0,0:0:0:0:
320,192,161904,1,0,0:0:0:0:
192,192,162131,1,0,0:0:0:0:
320,192,162131,1,0,0:0:0:0:
64,192,162358,1,0,0:0:0:0:
448,192,162358,1,0,0:0:0:0:
320,192,162586,1,0,0:0:0:0:
64,192,162699,1,0,0:0:0:0:
192,192,162699,1,0,0:0:0:0:
320,192,162926,1,0,0:0:0:0:
64,192,163040,1,0,0:0:0:0:
192,192,163040,1,0,0:0:0:0:
320,192,163267,1,0,0:0:0:0:
64,192,163381,1,0,0:0:0:0:
192,192,163381,1,0,0:0:0:0:
320,192,163608,1,0,0:0:0:0:
192,192,163722,1,0,0:0:0:0:
192,192,165540,1,0,0:0:0:0:
320,192,165540,1,0,0:0:0:0:
192,192,165767,1,0,0:0:0:0:
320,192,165767,1,0,0:0:0:0:
64,192,165995,1,0,0:0:0:0:
448,192,165995,1,0,0:0:0:0:
320,192,166222,1,0,0:0:0:0:
64,192,166336,1,0,0:0:0:0:
192,192,166336,1,0,0:0:0:0:
320,192,166563,1,0,0:0:0:0:
64,192,166676,1,0,0:0:0:0:
192,192,166676,1,0,0:0:0:0:
320,192,166904,1,0,0:0:0:0:
64,192,167017,1,0,0:0:0:0:
192,192,167017,1,0,0:0:0:0:
320,192,167245,1,0,0:0:0:0:
64,192,167358,1,0,0:0:0:0:
448,192,167358,1,0,0:0:0:0:
320,192,168267,1,0,0:0:0:0:
448,192,168267,1,0,0:0:0:0:
64,192,168343,1,0,0:0:0:0:
192,192,168343,1,0,0:0:0:0:
320,192,168419,1,0,0:0:0:0:
448,192,168419,1,0,0:0:0:0:
64,192,168495,1,0,0:0:0:0:
192,192,168495,1,0,0:0:0:0:
320,192,168570,1,0,0:0:0:0:
448,192,168570,1,0,0:0:0:0:
64,192,168646,1,0,0:0:0:0:
192,192,168646,1,0,0:0:0:0:
64,192,168722,1,0,0:0:0:0:
448,192,168722,1,0,0:0:0:0:
192,192,168798,1,0,0:0:0:0:
320,192,168798,1,0,0:0:0:0:
64,192,168873,1,0,0:0:0:0:
448,192,168873,1,0,0:0:0:0:
192,192,168949,1,0,0:0:0:0:
320,192,168949,1,0,0:0:0:0:
320,192,169063,1,0,0:0:0:0:
448,192,169063,1,0,0:0:0:0:
320,192,169176,1,0,0:0:0:0:
448,192,169176,1,0,0:0:0:0:
192,192,169290,1,0,0:0:0:0:
320,192,169347,1,0,0:0:0:0:
64,192,169404,1,0,0:0:0:0:
448,192,169404,1,0,0:0:0:0:
192,192,169517,1,0,0:0:0:0:
320,192,169574,1,0,0:0:0:0:
64,192,169631,1,0,0:0:0:0:
448,192,169688,1,0,0:0:0:0:
192,192,169745,1,0,0:0:0:0:
192,192,169858,1,0,0:0:0:0:
320,192,169858,1,0,0:0:0:0:
448,192,169972,1,0,0:0:0:0:
64,192,170029,1,0,0:0:0:0:
320,192,170086,1,0,0:0:0:0:
448,192,170313,1,0,0:0:0:0:
448,192,170426,1,0,0:0:0:0:
320,192,170540,1,0,0:0:0:0:
64,192,170995,1,0,0:0:0:0:
192,192,170995,1,0,0:0:0:0:
320,192,171108,1,0,0:0:0:0:
64,192,171222,1,0,0:0:0:0:
448,192,171222,1,0,0:0:0:0:
320,192,171336,1,0,0:0:0:0:
192,192,171392,1,0,0:0:0:0:
448,192,171449,1,0,0:0:0:0:
64,192,171506,1,0,0:0:0:0:
320,192,171563,1,0,0:0:0:0:
192,192,171676,1,0,0:0:0:0:
320,192,171676,1,0,0:0:0:0:
64,192,171790,1,0,0:0:0:0:
448,192,171847,1,0,0:0:0:0:
192,192,171904,1,0,0:0:0:0:
320,192,171904,1,0,0:0:0:0:
448,192,172017,1,0,0:0:0:0:
64,192,172074,1,0,0:0:0:0:
320,192,172131,1,0,0:0:0:0:
192,192,172188,1,0,0:0:0:0:
64,192,172245,1,0,0:0:0:0:
448,192,172245,1,0,0:0:0:0:
320,192,172358,1,0,0:0:0:0:
64,192,172415,1,0,0:0:0:0:
448,192,172472,1,0,0:0:0:0:
192,192,172529,1,0,0:0:0:0:
64,192,172586,1,0,0:0:0:0:
448,192,172586,1,0,0:0:0:0:
192,192,172699,1,0,0:0:0:0:
320,192,172699,1,0,0:0:0:0:
192,192,172756,1,0,0:0:0:0:
320,192,172813,1,0,0:0:0:0:
448,192,172813,1,0,0:0:0:0:
320,192,172926,1,0,0:0:0:0:
448,192,172926,1,0,0:0:0:0:
64,192,173040,1,0,0:0:0:0:
192,192,173154,1,0,0:0:0:0:
320,192,173211,1,0,0:0:0:0:
64,192,173267,1,0,0:0:0:0:
448,192,173324,1,0,0:0:0:0:
64,192,173381,1,0,0:0:0:0:
192,192,173381,1,0,0:0:0:0:
64,192,173495,1,0,0:0:0:0:
448,192,173495,1,0,0:0:0:0:
192,192,173608,1,0,0:0:0:0:
64,192,173665,1,0,0:0:0:0:
320,192,173722,1,0,0:0:0:0:
448,192,173722,1,0,0:0:0:0:
448,192,173949,1,0,0:0:0:0:
448,192,174063,1,0,0:0:0:0:
320,192,174176,1,0,0:0:0:0:
64,192,174631,1,0,0:0:0:0:
192,192,174631,1,0,0:0:0:0:
64,192,174745,1,0,0:0:0:0:
192,192,174745,1,0,0:0:0:0:
64,192,174858,1,0,0:0:0:0:
448,192,174858,1,0,0:0:0:0:
320,192,174972,1,0,0:0:0:0:
192,192,175029,1,0,0:0:0:0:
448,192,175086,1,0,0:0:0:0:
64,192,175142,1,0,0:0:0:0:
320,192,175199,1,0,0:0:0:0:
448,192,175199,1,0,0:0:0:0:
64,192,175313,1,0,0:0:0:0:
448,192,175313,1,0,0:0:0:0:
320,192,175426,1,0,0:0:0:0:
192,192,175483,1,0,0:0:0:0:
64,192,175540,1,0,0:0:0:0:
448,192,175540,1,0,0:0:0:0:
192,192,175616,1,0,0:0:0:0:
320,192,175616,1,0,0:0:0:0:
64,192,175692,1,0,0:0:0:0:
448,192,175692,1,0,0:0:0:0:
192,192,175767,1,0,0:0:0:0:
320,192,175767,1,0,0:0:0:0:
64,192,175843,1,0,0:0:0:0:
448,192,175843,1,0,0:0:0:0:
192,192,175919,1,0,0:0:0:0:
320,192,175919,1,0,0:0:0:0:
64,192,175995,1,0,0:0:0:0:
448,192,175995,1,0,0:0:0:0:
320,192,176108,1,0,0:0:0:0:
192,192,176165,1,0,0:0:0:0:
320,192,176222,1,0,0:0:0:0:
448,192,176222,1,0,0:0:0:0:
64,192,176336,1,0,0:0:0:0:
320,192,176449,1,0,0:0:0:0:
448,192,176449,1,0,0:0:0:0:
320,192,176563,1,0,0:0:0:0:
448,192,176563,1,0,0:0:0:0:
64,192,176676,1,0,0:0:0:0:
448,192,176676,1,0,0:0:0:0:
192,192,176790,1,0,0:0:0:0:
320,192,176847,1,0,0:0:0:0:
64,192,176904,1,0,0:0:0:0:
448,192,176961,1,0,0:0:0:0:
64,192,177017,1,0,0:0:0:0:
192,192,177017,1,0,0:0:0:0:
64,192,177131,1,0,0:0:0:0:
448,192,177131,1,0,0:0:0:0:
320,192,177245,1,0,0:0:0:0:
192,192,177301,1,0,0:0:0:0:
320,192,177358,1,0,0:0:0:0:
448,192,177358,1,0,0:0:0:0:
320,192,177472,1,0,0:0:0:0:
448,192,177472,1,0,0:0:0:0:
64,192,177586,1,0,0:0:0:0:
448,192,177586,1,0,0:0:0:0:
192,192,177699,1,0,0:0:0:0:
320,192,177756,1,0,0:0:0:0:
64,192,177813,1,0,0:0:0:0:
448,192,177870,1,0,0:0:0:0:
64,192,177926,1,0,0:0:0:0:
192,192,177926,1,0,0:0:0:0:
64,192,178040,1,0,0:0:0:0:
448,192,178040,1,0,0:0:0:0:
320,192,178154,1,0,0:0:0:0:
192,192,178211,1,0,0:0:0:0:
320,192,178267,1,0,0:0:0:0:
448,192,178267,1,0,0:0:0:0:
320,192,178381,1,0,0:0:0:0:
448,192,178381,1,0,0:0:0:0:
64,192,178495,1,0,0:0:0:0:
448,192,178495,1,0,0:0:0:0:
192,192,178608,1,0,0:0:0:0:
320,192,178665,1,0,0:0:0:0:
64,192,178722,1,0,0:0:0:0:
448,192,178779,1,0,0:0:0:0:
64,192,178836,1,0,0:0:0:0:
192,192,178836,1,0,0:0:0:0:
64,192,178949,1,0,0:0:0:0:
448,192,178949,1,0,0:0:0:0:
320,192,179063,1,0,0:0:0:0:
192,192,179120,1,0,0:0:0:0:
320,192,179176,1,0,0:0:0:0:
448,192,179176,1,0,0:0:0:0:
320,192,179290,1,0,0:0:0:0:
448,192,179290,1,0,0:0:0:0:
64,192,179404,1,0,0:0:0:0:
448,192,179404,1,0,0:0:0:0:
320,192,179517,1,0,0:0:0:0:
64,192,179574,1,0,0:0:0:0:
192,192,179631,1,0,0:0:0:0:
64,192,179745,1,0,0:0:0:0:
448,192,179745,1,0,0:0:0:0:
320,192,179858,1,0,0:0:0:0:
192,192,179915,1,0,0:0:0:0:
448,192,179972,1,0,0:0:0:0:
64,192,180029,1,0,0:0:0:0:
320,192,180086,1,0,0:0:0:0:
448,192,180086,1,0,0:0:0:0:
320,192,180199,1,0,0:0:0:0:
448,192,180199,1,0,0:0:0:0:
64,192,180313,1,0,0:0:0:0:
448,192,180313,1,0,0:0:0:0:
192,192,180426,1,0,0:0:0:0:
320,192,180483,1,0,0:0:0:0:
64,192,180540,1,0,0:0:0:0:
192,192,180540,1,0,0:0:0:0:
64,192,180654,1,0,0:0:0:0:
192,192,180654,1,0,0:0:0:0:
64,192,180767,1,0,0:0:0:0:
448,192,180767,1,0,0:0:0:0:
320,192,180881,1,0,0:0:0:0:
192,192,180938,1,0,0:0:0:0:
320,192,180995,1,0,0:0:0:0:
448,192,180995,1,0,0:0:0:0:
320,192,181108,1,0,0:0:0:0:
448,192,181108,1,0,0:0:0:0:
64,192,181222,1,0,0:0:0:0:
448,192,181222,1,0,0:0:0:0:
192,192,181336,1,0,0:0:0:0:
320,192,181392,1,0,0:0:0:0:
64,192,181449,1,0,0:0:0:0:
192,192,181449,1,0,0:0:0:0:
64,192,181563,1,0,0:0:0:0:
192,192,181563,1,0,0:0:0:0:
64,192,181676,1,0,0:0:0:0:
448,192,181676,1,0,0:0:0:0:
320,192,181790,1,0,0:0:0:0:
192,192,181847,1,0,0:0:0:0:
320,192,181904,1,0,0:0:0:0:
448,192,181904,1,0,0:0:0:0:
320,192,182017,1,0,0:0:0:0:
448,192,182017,1,0,0:0:0:0:
64,192,182131,1,0,0:0:0:0:
448,192,182131,1,0,0:0:0:0:
192,192,182245,1,0,0:0:0:0:
320,192,182301,1,0,0:0:0:0:
64,192,182358,1,0,0:0:0:0:
192,192,182358,1,0,0:0:0:0:
64,192,182472,1,0,0:0:0:0:
192,192,182472,1,0,0:0:0:0:
64,192,182586,1,0,0:0:0:0:
448,192,182586,1,0,0:0:0:0:
320,192,182699,1,0,0:0:0:0:
192,192,182756,1,0,0:0:0:0:
448,192,182813,1,0,0:0:0:0:
64,192,182983,1,0,0:0:0:0:
192,192,183021,1,0,0:0:0:0:
320,192,183059,1,0,0:0:0:0:
64,192,183097,1,0,0:0:0:0:
448,192,183211,1,0,0:0:0:0:
320,192,183248,1,0,0:0:0:0:
192,192,183286,1,0,0:0:0:0:
448,192,183324,1,0,0:0:0:0:
64,192,183438,1,0,0:0:0:0:
192,192,183476,1,0,0:0:0:0:
448,192,183514,1,0,0:0:0:0:
64,192,183551,1,0,0:0:0:0:
320,192,183608,1,0,0:0:0:0:
192,192,183722,1,0,0:0:0:0:
320,192,183722,1,0,0:0:0:0:
448,192,183722,1,0,0:0:0:0:
64,192,183836,1,0,0:0:0:0:
320,192,183949,1,0,0:0:0:0:
448,192,183949,1,0,0:0:0:0:
192,192,184063,1,0,0:0:0:0:
64,192,184176,1,0,0:0:0:0:
320,192,184176,1,0,0:0:0:0:
320,192,184290,1,0,0:0:0:0:
320,192,184404,1,0,0:0:0:0:
448,192,184404,1,0,0:0:0:0:
192,192,184631,1,0,0:0:0:0:
448,192,184631,1,0,0:0:0:0:
64,192,184745,1,0,0:0:0:0:
320,192,184858,1,0,0:0:0:0:
448,192,184858,1,0,0:0:0:0:
192,192,184972,1,0,0:0:0:0:
64,192,185086,1,0,0:0:0:0:
320,192,185086,1,0,0:0:0:0:
320,192,185199,1,0,0:0:0:0:
320,192,185313,1,0,0:0:0:0:
448,192,185313,1,0,0:0:0:0:
192,192,185540,1,0,0:0:0:0:
448,192,185540,1,0,0:0:0:0:
64,192,185654,1,0,0:0:0:0:
320,192,185767,1,0,0:0:0:0:
448,192,185767,1,0,0:0:0:0:
192,192,185881,1,0,0:0:0:0:
64,192,185995,1,0,0:0:0:0:
320,192,185995,1,0,0:0:0:0:
320,192,186108,1,0,0:0:0:0:
320,192,186222,1,0,0:0:0:0:
448,192,186222,1,0,0:0:0:0:
192,192,186449,1,0,0:0:0:0:
448,192,186449,1,0,0:0:0:0:
64,192,186563,1,0,0:0:0:0:
320,192,186676,1,0,0:0:0:0:
448,192,186676,1,0,0:0:0:0:
192,192,186790,1,0,0:0:0:0:
64,192,186904,1,0,0:0:0:0:
320,192,186904,1,0,0:0:0:0:
320,192,187017,1,0,0:0:0:0:
320,192,187131,1,0,0:0:0:0:
448,192,187131,1,0,0:0:0:0:
192,192,187358,1,0,0:0:0:0:
448,192,187358,1,0,0:0:0:0:
64,192,187472,1,0,0:0:0:0:
320,192,187586,1,0,0:0:0:0:
448,192,187586,1,0,0:0:0:0:
192,192,187699,1,0,0:0:0:0:
64,192,187813,1,0,0:0:0:0:
320,192,187813,1,0,0:0:0:0:
320,192,187926,1,0,0:0:0:0:
320,192,188040,1,0,0:0:0:0:
448,192,188040,1,0,0:0:0:0:
192,192,188267,1,0,0:0:0:0:
448,192,188267,1,0,0:0:0:0:
64,192,188381,1,0,0:0:0:0:
320,192,188495,1,0,0:0:0:0:
448,192,188495,1,0,0:0:0:0:
192,192,188608,1,0,0:0:0:0:
64,192,188722,1,0,0:0:0:0:
320,192,188722,1,0,0:0:0:0:
320,192,188836,1,0,0:0:0:0:
320,192,188949,1,0,0:0:0:0:
448,192,188949,1,0,0:0:0:0:
192,192,189176,1,0,0:0:0:0:
448,192,189176,1,0,0:0:0:0:
64,192,189290,1,0,0:0:0:0:
320,192,189404,1,0,0:0:0:0:
448,192,189404,1,0,0:0:0:0:
192,192,189517,1,0,0:0:0:0:
64,192,189631,1,0,0:0:0:0:
320,192,189631,1,0,0:0:0:0:
320,192,189745,1,0,0:0:0:0:
320,192,189858,1,0,0:0:0:0:
448,192,189858,1,0,0:0:0:0:
192,192,190086,1,0,0:0:0:0:
448,192,190086,1,0,0:0:0:0:
64,192,190199,1,0,0:0:0:0:
320,192,190313,1,0,0:0:0:0:
448,192,190313,1,0,0:0:0:0:
192,192,190426,1,0,0:0:0:0:
64,192,190540,1,0,0:0:0:0:
320,192,190540,1,0,0:0:0:0:
320,192,190654,1,0,0:0:0:0:
320,192,190767,1,0,0:0:0:0:
448,192,190767,1,0,0:0:0:0:
64,192,190995,1,0,0:0:0:0:
448,192,190995,1,0,0:0:0:0:
192,192,191108,1,0,0:0:0:0:
320,192,191222,1,0,0:0:0:0:
448,192,191222,1,0,0:0:0:0:
192,192,191336,1,0,0:0:0:0:
64,192,191449,1,0,0:0:0:0:
448,192,191449,1,0,0:0:0:0:
64,192,191563,1,0,0:0:0:0:
64,192,191676,1,0,0:0:0:0:
192,192,191676,1,0,0:0:0:0:
64,192,191904,1,0,0:0:0:0:
448,192,191904,1,0,0:0:0:0:
192,192,192017,1,0,0:0:0:0:
320,192,192131,1,0,0:0:0:0:
448,192,192131,1,0,0:0:0:0:
192,192,192245,1,0,0:0:0:0:
64,192,192358,1,0,0:0:0:0:
448,192,192358,1,0,0:0:0:0:
64,192,192472,1,0,0:0:0:0:
64,192,192586,1,0,0:0:0:0:
192,192,192586,1,0,0:0:0:0:
192,192,192813,1,0,0:0:0:0:
448,192,192813,1,0,0:0:0:0:
192,192,192926,1,0,0:0:0:0:
320,192,193040,1,0,0:0:0:0:
448,192,193040,1,0,0:0:0:0:
192,192,193154,1,0,0:0:0:0:
64,192,193267,1,0,0:0:0:0:
448,192,193267,1,0,0:0:0:0:
64,192,193381,1,0,0:0:0:0:
64,192,193495,1,0,0:0:0:0:
192,192,193495,1,0,0:0:0:0:
192,192,193722,1,0,0:0:0:0:
448,192,193722,1,0,0:0:0:0:
192,192,193836,1,0,0:0:0:0:
320,192,193949,1,0,0:0:0:0:
448,192,193949,1,0,0:0:0:0:
192,192,194063,1,0,0:0:0:0:
64,192,194176,1,0,0:0:0:0:
448,192,194176,1,0,0:0:0:0:
64,192,194290,1,0,0:0:0:0:
64,192,194404,1,0,0:0:0:0:
192,192,194404,1,0,0:0:0:0:
192,192,194631,1,0,0:0:0:0:
448,192,194631,1,0,0:0:0:0:
192,192,194745,1,0,0:0:0:0:
320,192,194858,1,0,0:0:0:0:
448,192,194858,1,0,0:0:0:0:
320,192,194972,1,0,0:0:0:0:
64,192,195086,1,0,0:0:0:0:
448,192,195086,1,0,0:0:0:0:
64,192,195199,1,0,0:0:0:0:
64,192,195313,1,0,0:0:0:0:
192,192,195313,1,0,0:0:0:0:
192,192,195540,1,0,0:0:0:0:
448,192,195540,1,0,0:0:0:0:
192,192,195654,1,0,0:0:0:0:
320,192,195767,1,0,0:0:0:0:
448,192,195767,1,0,0:0:0:0:
320,192,195881,1,0,0:0:0:0:
64,192,195995,1,0,0:0:0:0:
448,192,195995,1,0,0:0:0:0:
64,192,196108,1,0,0:0:0:0:
64,192,196222,1,0,0:0:0:0:
192,192,196222,1,0,0:0:0:0:
320,192,196449,1,0,0:0:0:0:
448,192,196449,1,0,0:0:0:0:
448,192,196563,1,0,0:0:0:0:
192,192,196676,1,0,0:0:0:0:
320,192,196676,1,0,0:0:0:0:
320,192,196790,1,0,0:0:0:0:
64,192,196904,1,0,0:0:0:0:
448,192,196904,1,0,0:0:0:0:
64,192,197017,1,0,0:0:0:0:
64,192,197131,1,0,0:0:0:0:
192,192,197131,1,0,0:0:0:0:
320,192,197358,1,0,0:0:0:0:
448,192,197358,1,0,0:0:0:0:
448,192,197472,1,0,0:0:0:0:
192,192,197586,1,0,0:0:0:0:
320,192,197586,1,0,0:0:0:0:
320,192,197699,1,0,0:0:0:0:
64,192,197813,1,0,0:0:0:0:
448,192,197813,1,0,0:0:0:0:
64,192,197926,1,0,0:0:0:0:
64,192,198040,1,0,0:0:0:0:
192,192,198040,1,0,0:0:0:0:
64,192,198267,1,0,0:0:0:0:
320,192,198267,1,0,0:0:0:0:
448,192,198267,1,0,0:0:0:0:
64,192,198381,1,0,0:0:0:0:
192,192,198381,1,0,0:0:0:0:
320,192,198438,1,0,0:0:0:0:
448,192,198438,1,0,0:0:0:0:
64,192,198495,1,0,0:0:0:0:
192,192,198495,1,0,0:0:0:0:
320,192,198608,1,0,0:0:0:0:
448,192,198608,1,0,0:0:0:0:
64,192,198665,1,0,0:0:0:0:
192,192,198665,1,0,0:0:0:0:
320,192,198722,1,0,0:0:0:0:
448,192,198722,1,0,0:0:0:0:
64,192,198836,1,0,0:0:0:0:
192,192,198836,1,0,0:0:0:0:
320,192,198892,1,0,0:0:0:0:
448,192,198892,1,0,0:0:0:0:
64,192,198949,1,0,0:0:0:0:
192,192,198949,1,0,0:0:0:0:
320,192,199063,1,0,0:0:0:0:
448,192,199063,1,0,0:0:0:0:
64,192,199120,1,0,0:0:0:0:
192,192,199120,1,0,0:0:0:0:
320,192,199176,1,0,0:0:0:0:
448,192,199176,1,0,0:0:0:0:
64,192,199290,1,0,0:0:0:0:
192,192,199290,1,0,0:0:0:0:
320,192,199347,1,0,0:0:0:0:
448,192,199347,1,0,0:0:0:0:
64,192,199404,1,0,0:0:0:0:
192,192,199404,1,0,0:0:0:0:
320,192,199517,1,0,0:0:0:0:
448,192,199517,1,0,0:0:0:0:
64,192,199574,1,0,0:0:0:0:
192,192,199574,1,0,0:0:0:0:
320,192,199631,1,0,0:0:0:0:
448,192,199631,1,0,0:0:0:0:
64,192,199745,1,0,0:0:0:0:
192,192,199745,1,0,0:0:0:0:
320,192,199801,1,0,0:0:0:0:
448,192,199801,1,0,0:0:0:0:
64,192,199858,1,0,0:0:0:0:
192,192,199858,1,0,0:0:0:0:
320,192,199972,1,0,0:0:0:0:
448,192,199972,1,0,0:0:0:0:
64,192,200029,1,0,0:0:0:0:
192,192,200029,1,0,0:0:0:0:
320,192,200086,1,0,0:0:0:0:
448,192,200086,1,0,0:0:0:0:
320,192,200256,1,0,0:0:0:0:
448,192,200256,1,0,0:0:0:0:
320,192,200426,1,0,0:0:0:0:
448,192,200426,1,0,0:0:0:0:
320,192,200597,1,0,0:0:0:0:
448,192,200597,1,0,0:0:0:0:
320,192,200767,1,0,0:0:0:0:
448,192,200767,1,0,0:0:0:0:
320,192,200881,1,0,0:0:0:0:
448,192,200881,1,0,0:0:0:0:
192,192,200938,1,0,0:0:0:0:
64,192,200995,1,0,0:0:0:0:
448,192,200995,1,0,0:0:0:0:
192,192,201070,1,0,0:0:0:0:
320,192,201070,1,0,0:0:0:0:
64,192,201146,1,0,0:0:0:0:
448,192,201146,1,0,0:0:0:0:
192,192,201222,1,0,0:0:0:0:
320,192,201222,1,0,0:0:0:0:
64,192,201298,1,0,0:0:0:0:
448,192,201298,1,0,0:0:0:0:
192,192,201373,1,0,0:0:0:0:
320,192,201373,1,0,0:0:0:0:
64,192,201449,1,0,0:0:0:0:
448,192,201487,1,0,0:0:0:0:
320,192,201525,1,0,0:0:0:0:
192,192,201563,1,0,0:0:0:0:
64,192,201601,1,0,0:0:0:0:
448,192,201639,1,0,0:0:0:0:
320,192,201676,1,0,0:0:0:0:
192,192,201714,1,0,0:0:0:0:
64,192,201752,1,0,0:0:0:0:
448,192,201790,1,0,0:0:0:0:
320,192,201828,1,0,0:0:0:0:
64,192,201904,1,0,0:0:0:0:
192,192,201904,1,0,0:0:0:0:
448,192,201904,1,0,0:0:0:0:
448,192,202813,1,0,0:0:0:0:
448,192,203040,1,0,0:0:0:0:
448,192,203154,1,0,0:0:0:0:
320,192,203267,1,0,0:0:0:0:
64,192,203495,1,0,0:0:0:0:
192,192,203495,1,0,0:0:0:0:
64,192,203722,1,0,0:0:0:0:
320,192,203722,1,0,0:0:0:0:
448,192,203722,1,0,0:0:0:0:
192,192,203836,1,0,0:0:0:0:
320,192,203892,1,0,0:0:0:0:
64,192,203949,1,0,0:0:0:0:
192,192,203949,1,0,0:0:0:0:
448,192,203949,1,0,0:0:0:0:
320,192,204006,1,0,0:0:0:0:
64,192,204063,1,0,0:0:0:0:
448,192,204120,1,0,0:0:0:0:
192,192,204176,1,0,0:0:0:0:
64,192,204290,1,0,0:0:0:0:
320,192,204290,1,0,0:0:0:0:
448,192,204290,1,0,0:0:0:0:
192,192,204347,1,0,0:0:0:0:
320,192,204404,1,0,0:0:0:0:
64,192,204461,1,0,0:0:0:0:
448,192,204517,1,0,0:0:0:0:
64,192,204574,1,0,0:0:0:0:
192,192,204631,1,0,0:0:0:0:
320,192,204631,1,0,0:0:0:0:
448,192,204631,1,0,0:0:0:0:
64,192,204745,1,0,0:0:0:0:
320,192,204801,1,0,0:0:0:0:
192,192,204858,1,0,0:0:0:0:
448,192,204915,1,0,0:0:0:0:
64,192,204972,1,0,0:0:0:0:
192,192,204972,1,0,0:0:0:0:
320,192,204972,1,0,0:0:0:0:
448,192,205029,1,0,0:0:0:0:
64,192,205086,1,0,0:0:0:0:
320,192,205199,1,0,0:0:0:0:
64,192,205256,1,0,0:0:0:0:
192,192,205313,1,0,0:0:0:0:
320,192,205313,1,0,0:0:0:0:
448,192,205313,1,0,0:0:0:0:
64,192,205370,1,0,0:0:0:0:
320,192,205426,1,0,0:0:0:0:
192,192,205483,1,0,0:0:0:0:
448,192,205540,1,0,0:0:0:0:
64,192,205654,1,0,0:0:0:0:
192,192,205654,1,0,0:0:0:0:
320,192,205654,1,0,0:0:0:0:
448,192,205711,1,0,0:0:0:0:
64,192,205767,1,0,0:0:0:0:
320,192,205824,1,0,0:0:0:0:
192,192,205881,1,0,0:0:0:0:
320,192,205938,1,0,0:0:0:0:
64,192,205995,1,0,0:0:0:0:
192,192,205995,1,0,0:0:0:0:
448,192,205995,1,0,0:0:0:0:
320,192,206108,1,0,0:0:0:0:
64,192,206165,1,0,0:0:0:0:
448,192,206222,1,0,0:0:0:0:
192,192,206279,1,0,0:0:0:0:
64,192,206336,1,0,0:0:0:0:
320,192,206336,1,0,0:0:0:0:
448,192,206336,1,0,0:0:0:0:
192,192,206392,1,0,0:0:0:0:
448,192,206449,1,0,0:0:0:0:
320,192,206563,1,0,0:0:0:0:
64,192,206620,1,0,0:0:0:0:
192,192,206676,1,0,0:0:0:0:
320,192,206676,1,0,0:0:0:0:
448,192,206676,1,0,0:0:0:0:
64,192,206733,1,0,0:0:0:0:
448,192,206790,1,0,0:0:0:0:
192,192,206847,1,0,0:0:0:0:
320,192,206904,1,0,0:0:0:0:
448,192,206904,1,0,0:0:0:0:
64,192,207017,1,0,0:0:0:0:
192,192,207074,1,0,0:0:0:0:
64,192,207131,1,0,0:0:0:0:
320,192,207131,1,0,0:0:0:0:
448,192,207131,1,0,0:0:0:0:
192,192,207188,1,0,0:0:0:0:
320,192,207245,1,0,0:0:0:0:
64,192,207301,1,0,0:0:0:0:
192,192,207301,1,0,0:0:0:0:
320,192,207358,1,0,0:0:0:0:
448,192,207358,1,0,0:0:0:0:
192,192,207472,1,0,0:0:0:0:
320,192,207529,1,0,0:0:0:0:
64,192,207586,1,0,0:0:0:0:
192,192,207586,1,0,0:0:0:0:
448,192,207586,1,0,0:0:0:0:
320,192,207642,1,0,0:0:0:0:
64,192,207699,1,0,0:0:0:0:
448,192,207756,1,0,0:0:0:0:
192,192,207813,1,0,0:0:0:0:
64,192,207926,1,0,0:0:0:0:
320,192,207926,1,0,0:0:0:0:
448,192,207926,1,0,0:0:0:0:
192,192,207983,1,0,0:0:0:0:
320,192,208040,1,0,0:0:0:0:
64,192,208097,1,0,0:0:0:0:
448,192,208154,1,0,0:0:0:0:
64,192,208211,1,0,0:0:0:0:
192,192,208267,1,0,0:0:0:0:
320,192,208267,1,0,0:0:0:0:
448,192,208267,1,0,0:0:0:0:
64,192,208381,1,0,0:0:0:0:
320,192,208438,1,0,0:0:0:0:
192,192,208495,1,0,0:0:0:0:
448,192,208551,1,0,0:0:0:0:
64,192,208608,1,0,0:0:0:0:
192,192,208608,1,0,0:0:0:0:
320,192,208608,1,0,0:0:0:0:
448,192,208665,1,0,0:0:0:0:
64,192,208722,1,0,0:0:0:0:
320,192,208836,1,0,0:0:0:0:
64,192,208892,1,0,0:0:0:0:
192,192,208949,1,0,0:0:0:0:
320,192,208949,1,0,0:0:0:0:
448,192,208949,1,0,0:0:0:0:
64,192,209006,1,0,0:0:0:0:
320,192,209063,1,0,0:0:0:0:
192,192,209120,1,0,0:0:0:0:
448,192,209176,1,0,0:0:0:0:
64,192,209290,1,0,0:0:0:0:
192,192,209290,1,0,0:0:0:0:
320,192,209290,1,0,0:0:0:0:
448,192,209347,1,0,0:0:0:0:
64,192,209404,1,0,0:0:0:0:
320,192,209461,1,0,0:0:0:0:
192,192,209517,1,0,0:0:0:0:
320,192,209574,1,0,0:0:0:0:
64,192,209631,1,0,0:0:0:0:
192,192,209631,1,0,0:0:0:0:
448,192,209631,1,0,0:0:0:0:
320,192,209745,1,0,0:0:0:0:
64,192,209801,1,0,0:0:0:0:
448,192,209858,1,0,0:0:0:0:
192,192,209915,1,0,0:0:0:0:
64,192,209972,1,0,0:0:0:0:
320,192,209972,1,0,0:0:0:0:
448,192,209972,1,0,0:0:0:0:
192,192,210029,1,0,0:0:0:0:
448,192,210086,1,0,0:0:0:0:
320,192,210199,1,0,0:0:0:0:
64,192,210256,1,0,0:0:0:0:
192,192,210256,1,0,0:0:0:0:
320,192,210313,1,0,0:0:0:0:
448,192,210313,1,0,0:0:0:0:
64,192,210370,1,0,0:0:0:0:
448,192,210426,1,0,0:0:0:0:
64,192,210483,1,0,0:0:0:0:
192,192,210483,1,0,0:0:0:0:
320,192,210540,1,0,0:0:0:0:
448,192,210540,1,0,0:0:0:0:
64,192,210654,1,0,0:0:0:0:
192,192,210654,1,0,0:0:0:0:
320,192,210711,1,0,0:0:0:0:
64,192,210767,1,0,0:0:0:0:
192,192,210767,1,0,0:0:0:0:
448,192,210767,1,0,0:0:0:0:
320,192,210824,1,0,0:0:0:0:
64,192,210881,1,0,0:0:0:0:
192,192,210881,1,0,0:0:0:0:
448,192,210938,1,0,0:0:0:0:
64,192,210995,1,0,0:0:0:0:
320,192,210995,1,0,0:0:0:0:
192,192,211108,1,0,0:0:0:0:
320,192,211165,1,0,0:0:0:0:
64,192,211222,1,0,0:0:0:0:
192,192,211222,1,0,0:0:0:0:
448,192,211222,1,0,0:0:0:0:
320,192,211279,1,0,0:0:0:0:
64,192,211336,1,0,0:0:0:0:
448,192,211392,1,0,0:0:0:0:
192,192,211449,1,0,0:0:0:0:
64,192,211563,1,0,0:0:0:0:
320,192,211563,1,0,0:0:0:0:
448,192,211563,1,0,0:0:0:0:
192,192,211620,1,0,0:0:0:0:
320,192,211676,1,0,0:0:0:0:
64,192,211733,1,0,0:0:0:0:
448,192,211790,1,0,0:0:0:0:
64,192,211847,1,0,0:0:0:0:
192,192,211904,1,0,0:0:0:0:
320,192,211904,1,0,0:0:0:0:
448,192,211904,1,0,0:0:0:0:
64,192,212017,1,0,0:0:0:0:
320,192,212074,1,0,0:0:0:0:
192,192,212131,1,0,0:0:0:0:
448,192,212188,1,0,0:0:0:0:
64,192,212245,1,0,0:0:0:0:
192,192,212245,1,0,0:0:0:0:
320,192,212245,1,0,0:0:0:0:
448,192,212301,1,0,0:0:0:0:
64,192,212358,1,0,0:0:0:0:
320,192,212472,1,0,0:0:0:0:
64,192,212529,1,0,0:0:0:0:
192,192,212586,1,0,0:0:0:0:
320,192,212586,1,0,0:0:0:0:
448,192,212586,1,0,0:0:0:0:
64,192,212642,1,0,0:0:0:0:
320,192,212699,1,0,0:0:0:0:
192,192,212756,1,0,0:0:0:0:
448,192,212813,1,0,0:0:0:0:
64,192,212926,1,0,0:0:0:0:
192,192,212926,1,0,0:0:0:0:
320,192,212926,1,0,0:0:0:0:
448,192,212983,1,0,0:0:0:0:
64,192,213040,1,0,0:0:0:0:
320,192,213097,1,0,0:0:0:0:
192,192,213154,1,0,0:0:0:0:
320,192,213211,1,0,0:0:0:0:
64,192,213267,1,0,0:0:0:0:
192,192,213267,1,0,0:0:0:0:
448,192,213267,1,0,0:0:0:0:
320,192,213381,1,0,0:0:0:0:
64,192,213438,1,0,0:0:0:0:
448,192,213495,1,0,0:0:0:0:
192,192,213551,1,0,0:0:0:0:
64,192,213608,1,0,0:0:0:0:
320,192,213608,1,0,0:0:0:0:
448,192,213608,1,0,0:0:0:0:
192,192,213665,1,0,0:0:0:0:
448,192,213722,1,0,0:0:0:0:
64,192,213836,1,0,0:0:0:0:
448,192,213892,1,0,0:0:0:0:
64,192,213949,1,0,0:0:0:0:
192,192,213949,1,0,0:0:0:0:
320,192,213949,1,0,0:0:0:0:
448,192,214006,1,0,0:0:0:0:
192,192,214063,1,0,0:0:0:0:
320,192,214120,1,0,0:0:0:0:
64,192,214176,1,0,0:0:0:0:
192,192,214176,1,0,0:0:0:0:
448,192,214290,1,0,0:0:0:0:
192,192,214347,1,0,0:0:0:0:
64,192,214404,1,0,0:0:0:0:
320,192,214404,1,0,0:0:0:0:
448,192,214404,1,0,0:0:0:0:
192,192,214461,1,0,0:0:0:0:
320,192,214517,1,0,0:0:0:0:
448,192,214517,1,0,0:0:0:0:
64,192,214574,1,0,0:0:0:0:
320,192,214631,1,0,0:0:0:0:
448,192,214631,1,0,0:0:0:0:
192,192,214745,1,0,0:0:0:0:
320,192,214801,1,0,0:0:0:0:
64,192,214858,1,0,0:0:0:0:
192,192,214858,1,0,0:0:0:0:
448,192,214858,1,0,0:0:0:0:
320,192,214915,1,0,0:0:0:0:
64,192,214972,1,0,0:0:0:0:
448,192,215029,1,0,0:0:0:0:
192,192,215086,1,0,0:0:0:0:
64,192,215199,1,0,0:0:0:0:
320,192,215199,1,0,0:0:0:0:
448,192,215199,1,0,0:0:0:0:
192,192,215256,1,0,0:0:0:0:
320,192,215313,1,0,0:0:0:0:
64,192,215370,1,0,0:0:0:0:
448,192,215426,1,0,0:0:0:0:
64,192,215483,1,0,0:0:0:0:
192,192,215540,1,0,0:0:0:0:
320,192,215540,1,0,0:0:0:0:
448,192,215540,1,0,0:0:0:0:
64,192,215654,1,0,0:0:0:0:
320,192,215711,1,0,0:0:0:0:
192,192,215767,1,0,0:0:0:0:
448,192,215824,1,0,0:0:0:0:
64,192,215881,1,0,0:0:0:0:
192,192,215881,1,0,0:0:0:0:
320,192,215881,1,0,0:0:0:0:
448,192,215938,1,0,0:0:0:0:
64,192,215995,1,0,0:0:0:0:
320,192,216108,1,0,0:0:0:0:
64,192,216165,1,0,0:0:0:0:
192,192,216222,1,0,0:0:0:0:
320,192,216222,1,0,0:0:0:0:
448,192,216222,1,0,0:0:0:0:
64,192,216279,1,0,0:0:0:0:
320,192,216336,1,0,0:0:0:0:
192,192,216392,1,0,0:0:0:0:
64,192,216449,1,0,0:0:0:0:
448,192,216449,1,0,0:0:0:0:
64,192,216563,1,0,0:0:0:0:
192,192,216563,1,0,0:0:0:0:
320,192,216563,1,0,0:0:0:0:
448,192,216620,1,0,0:0:0:0:
192,192,216676,1,0,0:0:0:0:
320,192,216733,1,0,0:0:0:0:
64,192,216790,1,0,0:0:0:0:
320,192,216847,1,0,0:0:0:0:
64,192,216904,1,0,0:0:0:0:
192,192,216904,1,0,0:0:0:0:
448,192,216904,1,0,0:0:0:0:
320,192,217017,1,0,0:0:0:0:
64,192,217074,1,0,0:0:0:0:
448,192,217131,1,0,0:0:0:0:
192,192,217188,1,0,0:0:0:0:
64,192,217245,1,0,0:0:0:0:
320,192,217245,1,0,0:0:0:0:
448,192,217245,1,0,0:0:0:0:
192,192,217301,1,0,0:0:0:0:
448,192,217358,1,0,0:0:0:0:
64,192,217472,1,0,0:0:0:0:
320,192,217529,1,0,0:0:0:0:
448,192,217529,1,0,0:0:0:0:
64,192,217586,1,0,0:0:0:0:
192,192,217586,1,0,0:0:0:0:
448,192,217699,1,0,0:0:0:0:
64,192,217756,1,0,0:0:0:0:
192,192,217756,1,0,0:0:0:0:
320,192,217813,1,0,0:0:0:0:
448,192,217813,1,0,0:0:0:0:
64,192,217926,1,0,0:0:0:0:
192,192,217926,1,0,0:0:0:0:
320,192,217983,1,0,0:0:0:0:
64,192,218040,1,0,0:0:0:0:
192,192,218040,1,0,0:0:0:0:
320,192,218154,1,0,0:0:0:0:
64,192,218267,1,0,0:0:0:0:
320,192,218267,1,0,0:0:0:0:
448,192,218267,1,0,0:0:0:0:
192,192,218381,1,0,0:0:0:0:
320,192,218438,1,0,0:0:0:0:
64,192,218495,1,0,0:0:0:0:
192,192,218495,1,0,0:0:0:0:
448,192,218495,1,0,0:0:0:0:
320,192,218551,1,0,0:0:0:0:
64,192,218608,1,0,0:0:0:0:
448,192,218665,1,0,0:0:0:0:
192,192,218722,1,0,0:0:0:0:
64,192,218836,1,0,0:0:0:0:
320,192,218836,1,0,0:0:0:0:
448,192,218836,1,0,0:0:0:0:
192,192,218892,1,0,0:0:0:0:
320,192,218949,1,0,0:0:0:0:
64,192,219006,1,0,0:0:0:0:
448,192,219063,1,0,0:0:0:0:
64,192,219120,1,0,0:0:0:0:
192,192,219176,1,0,0:0:0:0:
320,192,219176,1,0,0:0:0:0:
448,192,219176,1,0,0:0:0:0:
64,192,219290,1,0,0:0:0:0:
320,192,219347,1,0,0:0:0:0:
192,192,219404,1,0,0:0:0:0:
448,192,219461,1,0,0:0:0:0:
64,192,219517,1,0,0:0:0:0:
192,192,219517,1,0,0:0:0:0:
320,192,219517,1,0,0:0:0:0:
448,192,219574,1,0,0:0:0:0:
64,192,219631,1,0,0:0:0:0:
320,192,219745,1,0,0:0:0:0:
64,192,219801,1,0,0:0:0:0:
192,192,219858,1,0,0:0:0:0:
320,192,219858,1,0,0:0:0:0:
448,192,219858,1,0,0:0:0:0:
64,192,219915,1,0,0:0:0:0:
320,192,219972,1,0,0:0:0:0:
192,192,220029,1,0,0:0:0:0:
448,192,220086,1,0,0:0:0:0:
64,192,220199,1,0,0:0:0:0:
192,192,220199,1,0,0:0:0:0:
320,192,220199,1,0,0:0:0:0:
448,192,220256,1,0,0:0:0:0:
192,192,220313,1,0,0:0:0:0:
320,192,220370,1,0,0:0:0:0:
64,192,220426,1,0,0:0:0:0:
320,192,220483,1,0,0:0:0:0:
64,192,220540,1,0,0:0:0:0:
192,192,220540,1,0,0:0:0:0:
448,192,220540,1,0,0:0:0:0:
320,192,220654,1,0,0:0:0:0:
64,192,220711,1,0,0:0:0:0:
448,192,220767,1,0,0:0:0:0:
192,192,220824,1,0,0:0:0:0:
64,192,220881,1,0,0:0:0:0:
320,192,220881,1,0,0:0:0:0:
448,192,220881,1,0,0:0:0:0:
192,192,220938,1,0,0:0:0:0:
448,192,220995,1,0,0:0:0:0:
64,192,221108,1,0,0:0:0:0:
448,192,221165,1,0,0:0:0:0:
64,192,221222,1,0,0:0:0:0:
192,192,221222,1,0,0:0:0:0:
320,192,221222,1,0,0:0:0:0:
448,192,221279,1,0,0:0:0:0:
192,192,221336,1,0,0:0:0:0:
320,192,221392,1,0,0:0:0:0:
64,192,221449,1,0,0:0:0:0:
192,192,221449,1,0,0:0:0:0:
448,192,221563,1,0,0:0:0:0:
192,192,221620,1,0,0:0:0:0:
64,192,221676,1,0,0:0:0:0:
320,192,221676,1,0,0:0:0:0:
448,192,221676,1,0,0:0:0:0:
192,192,221733,1,0,0:0:0:0:
320,192,221790,1,0,0:0:0:0:
448,192,221790,1,0,0:0:0:0:
64,192,221847,1,0,0:0:0:0:
320,192,221904,1,0,0:0:0:0:
448,192,221904,1,0,0:0:0:0:
192,192,222017,1,0,0:0:0:0:
320,192,222074,1,0,0:0:0:0:
64,192,222131,1,0,0:0:0:0:
448,192,222131,1,0,0:0:0:0:
320,192,222188,1,0,0:0:0:0:
64,192,222245,1,0,0:0:0:0:
448,192,222301,1,0,0:0:0:0:
192,192,222358,1,0,0:0:0:0:
64,192,222472,1,0,0:0:0:0:
320,192,222472,1,0,0:0:0:0:
192,192,222529,1,0,0:0:0:0:
320,192,222586,1,0,0:0:0:0:
64,192,222642,1,0,0:0:0:0:
448,192,222699,1,0,0:0:0:0:
64,192,222756,1,0,0:0:0:0:
192,192,222813,1,0,0:0:0:0:
320,192,222813,1,0,0:0:0:0:
448,192,222813,1,0,0:0:0:0:
64,192,222926,1,0,0:0:0:0:
320,192,222983,1,0,0:0:0:0:
192,192,223040,1,0,0:0:0:0:
448,192,223097,1,0,0:0:0:0:
64,192,223154,1,0,0:0:0:0:
192,192,223154,1,0,0:0:0:0:
320,192,223154,1,0,0:0:0:0:
448,192,223211,1,0,0:0:0:0:
64,192,223267,1,0,0:0:0:0:
320,192,223381,1,0,0:0:0:0:
64,192,223438,1,0,0:0:0:0:
192,192,223495,1,0,0:0:0:0:
320,192,223495,1,0,0:0:0:0:
448,192,223495,1,0,0:0:0:0:
64,192,223551,1,0,0:0:0:0:
320,192,223608,1,0,0:0:0:0:
192,192,223665,1,0,0:0:0:0:
448,192,223722,1,0,0:0:0:0:
64,192,223836,1,0,0:0:0:0:
192,192,223836,1,0,0:0:0:0:
320,192,223836,1,0,0:0:0:0:
448,192,223892,1,0,0:0:0:0:
64,192,223949,1,0,0:0:0:0:
320,192,224006,1,0,0:0:0:0:
192,192,224063,1,0,0:0:0:0:
320,192,224120,1,0,0:0:0:0:
64,192,224176,1,0,0:0:0:0:
192,192,224176,1,0,0:0:0:0:
448,192,224176,1,0,0:0:0:0:
320,192,224290,1,0,0:0:0:0:
64,192,224347,1,0,0:0:0:0:
448,192,224404,1,0,0:0:0:0:
192,192,224461,1,0,0:0:0:0:
64,192,224517,1,0,0:0:0:0:
320,192,224517,1,0,0:0:0:0:
448,192,224517,1,0,0:0:0:0:
192,192,224574,1,0,0:0:0:0:
448,192,224631,1,0,0:0:0:0:
320,192,224745,1,0,0:0:0:0:
64,192,224801,1,0,0:0:0:0:
192,192,224801,1,0,0:0:0:0:
320,192,224858,1,0,0:0:0:0:
448,192,224858,1,0,0:0:0:0:
64,192,224915,1,0,0:0:0:0:
448,192,224972,1,0,0:0:0:0:
64,192,225029,1,0,0:0:0:0:
192,192,225029,1,0,0:0:0:0:
320,192,225086,1,0,0:0:0:0:
448,192,225086,1,0,0:0:0:0:
64,192,225199,1,0,0:0:0:0:
192,192,225199,1,0,0:0:0:0:
320,192,225256,1,0,0:0:0:0:
64,192,225313,1,0,0:0:0:0:
192,192,225313,1,0,0:0:0:0:
448,192,225313,1,0,0:0:0:0:
320,192,225370,1,0,0:0:0:0:
64,192,225426,1,0,0:0:0:0:
192,192,225426,1,0,0:0:0:0:
448,192,225483,1,0,0:0:0:0:
64,192,225540,1,0,0:0:0:0:
320,192,225540,1,0,0:0:0:0:
192,192,225654,1,0,0:0:0:0:
320,192,225711,1,0,0:0:0:0:
64,192,225767,1,0,0:0:0:0:
192,192,225767,1,0,0:0:0:0:
448,192,225767,1,0,0:0:0:0:
320,192,225824,1,0,0:0:0:0:
64,192,225881,1,0,0:0:0:0:
448,192,225938,1,0,0:0:0:0:
192,192,225995,1,0,0:0:0:0:
64,192,226108,1,0,0:0:0:0:
320,192,226108,1,0,0:0:0:0:
448,192,226108,1,0,0:0:0:0:
192,192,226165,1,0,0:0:0:0:
320,192,226222,1,0,0:0:0:0:
64,192,226279,1,0,0:0:0:0:
448,192,226336,1,0,0:0:0:0:
64,192,226392,1,0,0:0:0:0:
192,192,226449,1,0,0:0:0:0:
320,192,226449,1,0,0:0:0:0:
448,192,226449,1,0,0:0:0:0:
64,192,226563,1,0,0:0:0:0:
320,192,226620,1,0,0:0:0:0:
192,192,226676,1,0,0:0:0:0:
448,192,226733,1,0,0:0:0:0:
64,192,226790,1,0,0:0:0:0:
192,192,226790,1,0,0:0:0:0:
320,192,226790,1,0,0:0:0:0:
448,192,226847,1,0,0:0:0:0:
64,192,226904,1,0,0:0:0:0:
320,192,227017,1,0,0:0:0:0:
64,192,227074,1,0,0:0:0:0:
192,192,227131,1,0,0:0:0:0:
320,192,227131,1,0,0:0:0:0:
448,192,227131,1,0,0:0:0:0:
64,192,227188,1,0,0:0:0:0:
320,192,227245,1,0,0:0:0:0:
192,192,227301,1,0,0:0:0:0:
448,192,227358,1,0,0:0:0:0:
64,192,227472,1,0,0:0:0:0:
192,192,227472,1,0,0:0:0:0:
320,192,227472,1,0,0:0:0:0:
448,192,227529,1,0,0:0:0:0:
64,192,227586,1,0,0:0:0:0:
320,192,227642,1,0,0:0:0:0:
192,192,227699,1,0,0:0:0:0:
320,192,227756,1,0,0:0:0:0:
64,192,227813,1,0,0:0:0:0:
192,192,227813,1,0,0:0:0:0:
448,192,227813,1,0,0:0:0:0:
320,192,227926,1,0,0:0:0:0:
64,192,227983,1,0,0:0:0:0:
448,192,228040,1,0,0:0:0:0:
192,192,228097,1,0,0:0:0:0:
64,192,228154,1,0,0:0:0:0:
320,192,228154,1,0,0:0:0:0:
448,192,228154,1,0,0:0:0:0:
192,192,228211,1,0,0:0:0:0:
448,192,228267,1,0,0:0:0:0:
192,192,228381,1,0,0:0:0:0:
448,192,228438,1,0,0:0:0:0:
64,192,228495,1,0,0:0:0:0:
192,192,228495,1,0,0:0:0:0:
320,192,228495,1,0,0:0:0:0:
448,192,228551,1,0,0:0:0:0:
64,192,228608,1,0,0:0:0:0:
320,192,228665,1,0,0:0:0:0:
64,192,228722,1,0,0:0:0:0:
192,192,228722,1,0,0:0:0:0:
448,192,228836,1,0,0:0:0:0:
192,192,228892,1,0,0:0:0:0:
64,192,228949,1,0,0:0:0:0:
320,192,228949,1,0,0:0:0:0:
448,192,228949,1,0,0:0:0:0:
192,192,229006,1,0,0:0:0:0:
320,192,229063,1,0,0:0:0:0:
64,192,229120,1,0,0:0:0:0:
448,192,229176,1,0,0:0:0:0:
192,192,229290,1,0,0:0:0:0:
320,192,229347,1,0,0:0:0:0:
64,192,229404,1,0,0:0:0:0:
192,192,229404,1,0,0:0:0:0:
448,192,229404,1,0,0:0:0:0:
320,192,229461,1,0,0:0:0:0:
64,192,229517,1,0,0:0:0:0:
448,192,229574,1,0,0:0:0:0:
192,192,229631,1,0,0:0:0:0:
64,192,229745,1,0,0:0:0:0:
320,192,229745,1,0,0:0:0:0:
448,192,229745,1,0,0:0:0:0:
192,192,229801,1,0,0:0:0:0:
320,192,229858,1,0,0:0:0:0:
64,192,229915,1,0,0:0:0:0:
448,192,229972,1,0,0:0:0:0:
64,192,230029,1,0,0:0:0:0:
192,192,230086,1,0,0:0:0:0:
320,192,230086,1,0,0:0:0:0:
448,192,230086,1,0,0:0:0:0:
64,192,230199,1,0,0:0:0:0:
448,192,230256,1,0,0:0:0:0:
192,192,230313,1,0,0:0:0:0:
448,192,230370,1,0,0:0:0:0:
64,192,230426,1,0,0:0:0:0:
320,192,230426,1,0,0:0:0:0:
192,192,230483,1,0,0:0:0:0:
320,192,230540,1,0,0:0:0:0:
448,192,230654,1,0,0:0:0:0:
64,192,230711,1,0,0:0:0:0:
192,192,230767,1,0,0:0:0:0:
320,192,230767,1,0,0:0:0:0:
64,192,230824,1,0,0:0:0:0:
320,192,230881,1,0,0:0:0:0:
192,192,230938,1,0,0:0:0:0:
64,192,230995,1,0,0:0:0:0:
448,192,230995,1,0,0:0:0:0:
64,192,231108,1,0,0:0:0:0:
192,192,231108,1,0,0:0:0:0:
448,192,231165,1,0,0:0:0:0:
192,192,231222,1,0,0:0:0:0:
320,192,231279,1,0,0:0:0:0:
64,192,231336,1,0,0:0:0:0:
448,192,231392,1,0,0:0:0:0:
192,192,231449,1,0,0:0:0:0:
320,192,231449,1,0,0:0:0:0:
448,192,231563,1,0,0:0:0:0:
64,192,231620,1,0,0:0:0:0:
192,192,231620,1,0,0:0:0:0:
320,192,231676,1,0,0:0:0:0:
448,192,231676,1,0,0:0:0:0:
192,192,231790,1,0,0:0:0:0:
64,192,231828,1,0,0:0:0:0:
448,192,231866,1,0,0:0:0:0:
320,192,231904,1,0,0:0:0:0:
192,192,232017,1,0,0:0:0:0:
64,192,232131,1,0,0:0:0:0:
320,192,232131,1,0,0:0:0:0:
448,192,232245,1,0,0:0:0:0:
64,192,232301,1,0,0:0:0:0:
192,192,232358,1,0,0:0:0:0:
320,192,232358,1,0,0:0:0:0:
64,192,232415,1,0,0:0:0:0:
320,192,232472,1,0,0:0:0:0:
64,192,232586,1,0,0:0:0:0:
192,192,232586,1,0,0:0:0:0:
448,192,232699,1,0,0:0:0:0:
192,192,232756,1,0,0:0:0:0:
64,192,232813,1,0,0:0:0:0:
320,192,232813,1,0,0:0:0:0:
448,192,232813,1,0,0:0:0:0:
192,192,232870,1,0,0:0:0:0:
320,192,232926,1,0,0:0:0:0:
64,192,232983,1,0,0:0:0:0:
192,192,233040,1,0,0:0:0:0:
320,192,233040,1,0,0:0:0:0:
448,192,233040,1,0,0:0:0:0:
64,192,233097,1,0,0:0:0:0:
448,192,233154,1,0,0:0:0:0:
320,192,233211,1,0,0:0:0:0:
192,192,233267,1,0,0:0:0:0:
448,192,233324,1,0,0:0:0:0:
64,192,233381,1,0,0:0:0:0:
192,192,233381,1,0,0:0:0:0:
320,192,233381,1,0,0:0:0:0:
448,192,233438,1,0,0:0:0:0:
64,192,233495,1,0,0:0:0:0:
192,192,233551,1,0,0:0:0:0:
448,192,233608,1,0,0:0:0:0:
64,192,233665,1,0,0:0:0:0:
192,192,233722,1,0,0:0:0:0:
320,192,233722,1,0,0:0:0:0:
448,192,233722,1,0,0:0:0:0:
64,192,233779,1,0,0:0:0:0:
320,192,233836,1,0,0:0:0:0:
448,192,233892,1,0,0:0:0:0:
64,192,233949,1,0,0:0:0:0:
320,192,234006,1,0,0:0:0:0:
64,192,234063,1,0,0:0:0:0:
192,192,234063,1,0,0:0:0:0:
448,192,234063,1,0,0:0:0:0:
320,192,234120,1,0,0:0:0:0:
192,192,234176,1,0,0:0:0:0:
64,192,234233,1,0,0:0:0:0:
448,192,234290,1,0,0:0:0:0:
192,192,234347,1,0,0:0:0:0:
64,192,234404,1,0,0:0:0:0:
320,192,234404,1,0,0:0:0:0:
448,192,234404,1,0,0:0:0:0:
192,192,234461,1,0,0:0:0:0:
320,192,234517,1,0,0:0:0:0:
64,192,234574,1,0,0:0:0:0:
192,192,234631,1,0,0:0:0:0:
448,192,234688,1,0,0:0:0:0:
64,192,234745,1,0,0:0:0:0:
192,192,234745,1,0,0:0:0:0:
320,192,234745,1,0,0:0:0:0:
448,192,234801,1,0,0:0:0:0:
64,192,234858,1,0,0:0:0:0:
192,192,234915,1,0,0:0:0:0:
320,192,234972,1,0,0:0:0:0:
64,192,235029,1,0,0:0:0:0:
192,192,235086,1,0,0:0:0:0:
320,192,235086,1,0,0:0:0:0:
448,192,235086,1,0,0:0:0:0:
64,192,235142,1,0,0:0:0:0:
448,192,235199,1,0,0:0:0:0:
320,192,235256,1,0,0:0:0:0:
64,192,235313,1,0,0:0:0:0:
448,192,235370,1,0,0:0:0:0:
64,192,235426,1,0,0:0:0:0:
192,192,235426,1,0,0:0:0:0:
320,192,235426,1,0,0:0:0:0:
448,192,235483,1,0,0:0:0:0:
192,192,235540,1,0,0:0:0:0:
320,192,235597,1,0,0:0:0:0:
64,192,235654,1,0,0:0:0:0:
192,192,235711,1,0,0:0:0:0:
320,192,235767,1,0,0:0:0:0:
448,192,235767,1,0,0:0:0:0:
64,192,235824,1,0,0:0:0:0:
448,192,235881,1,0,0:0:0:0:
192,192,235938,1,0,0:0:0:0:
64,192,235995,1,0,0:0:0:0:
320,192,235995,1,0,0:0:0:0:
448,192,235995,1,0,0:0:0:0:
192,192,236051,1,0,0:0:0:0:
448,192,236108,1,0,0:0:0:0:
320,192,236165,1,0,0:0:0:0:
64,192,236222,1,0,0:0:0:0:
192,192,236222,1,0,0:0:0:0:
448,192,236279,1,0,0:0:0:0:
64,192,236336,1,0,0:0:0:0:
192,192,236336,1,0,0:0:0:0:
320,192,236392,1,0,0:0:0:0:
448,192,236392,1,0,0:0:0:0:
64,192,236449,1,0,0:0:0:0:
192,192,236449,1,0,0:0:0:0:
448,192,236506,1,0,0:0:0:0:
320,192,236563,1,0,0:0:0:0:
64,192,236620,1,0,0:0:0:0:
192,192,236676,1,0,0:0:0:0:
320,192,236676,1,0,0:0:0:0:
448,192,236676,1,0,0:0:0:0:
64,192,236733,1,0,0:0:0:0:
448,192,236790,1,0,0:0:0:0:
320,192,236847,1,0,0:0:0:0:
192,192,236904,1,0,0:0:0:0:
448,192,236961,1,0,0:0:0:0:
64,192,237017,1,0,0:0:0:0:
192,192,237017,1,0,0:0:0:0:
320,192,237017,1,0,0:0:0:0:
448,192,237074,1,0,0:0:0:0:
64,192,237131,1,0,0:0:0:0:
192,192,237188,1,0,0:0:0:0:
448,192,237245,1,0,0:0:0:0:
64,192,237301,1,0,0:0:0:0:
192,192,237358,1,0,0:0:0:0:
320,192,237358,1,0,0:0:0:0:
448,192,237358,1,0,0:0:0:0:
64,192,237415,1,0,0:0:0:0:
320,192,237472,1,0,0:0:0:0:
448,192,237529,1,0,0:0:0:0:
64,192,237586,1,0,0:0:0:0:
320,192,237642,1,0,0:0:0:0:
64,192,237699,1,0,0:0:0:0:
192,192,237699,1,0,0:0:0:0:
448,192,237699,1,0,0:0:0:0:
320,192,237756,1,0,0:0:0:0:
192,192,237813,1,0,0:0:0:0:
64,192,237870,1,0,0:0:0:0:
448,192,237926,1,0,0:0:0:0:
192,192,237983,1,0,0:0:0:0:
64,192,238040,1,0,0:0:0:0:
320,192,238040,1,0,0:0:0:0:
448,192,238040,1,0,0:0:0:0:
192,192,238097,1,0,0:0:0:0:
320,192,238154,1,0,0:0:0:0:
64,192,238211,1,0,0:0:0:0:
192,192,238267,1,0,0:0:0:0:
448,192,238324,1,0,0:0:0:0:
64,192,238381,1,0,0:0:0:0:
192,192,238381,1,0,0:0:0:0:
320,192,238381,1,0,0:0:0:0:
448,192,238438,1,0,0:0:0:0:
64,192,238495,1,0,0:0:0:0:
192,192,238551,1,0,0:0:0:0:
320,192,238608,1,0,0:0:0:0:
64,192,238665,1,0,0:0:0:0:
192,192,238722,1,0,0:0:0:0:
320,192,238722,1,0,0:0:0:0:
448,192,238722,1,0,0:0:0:0:
64,192,238779,1,0,0:0:0:0:
448,192,238836,1,0,0:0:0:0:
320,192,238892,1,0,0:0:0:0:
64,192,238949,1,0,0:0:0:0:
448,192,239006,1,0,0:0:0:0:
64,192,239063,1,0,0:0:0:0:
192,192,239063,1,0,0:0:0:0:
320,192,239063,1,0,0:0:0:0:
448,192,239120,1,0,0:0:0:0:
192,192,239176,1,0,0:0:0:0:
320,192,239233,1,0,0:0:0:0:
64,192,239290,1,0,0:0:0:0:
192,192,239347,1,0,0:0:0:0:
320,192,239404,1,0,0:0:0:0:
448,192,239404,1,0,0:0:0:0:
64,192,239461,1,0,0:0:0:0:
448,192,239517,1,0,0:0:0:0:
192,192,239574,1,0,0:0:0:0:
64,192,239631,1,0,0:0:0:0:
320,192,239631,1,0,0:0:0:0:
448,192,239631,1,0,0:0:0:0:
192,192,239688,1,0,0:0:0:0:
448,192,239745,1,0,0:0:0:0:
320,192,239801,1,0,0:0:0:0:
64,192,239858,1,0,0:0:0:0:
192,192,239858,1,0,0:0:0:0:
448,192,239915,1,0,0:0:0:0:
64,192,239972,1,0,0:0:0:0:
192,192,239972,1,0,0:0:0:0:
320,192,240029,1,0,0:0:0:0:
64,192,240086,1,0,0:0:0:0:
448,192,240086,1,0,0:0:0:0:
192,192,240142,1,0,0:0:0:0:
320,192,240199,1,0,0:0:0:0:
64,192,240256,1,0,0:0:0:0:
192,192,240313,1,0,0:0:0:0:
320,192,240313,1,0,0:0:0:0:
448,192,240313,1,0,0:0:0:0:
64,192,240370,1,0,0:0:0:0:
448,192,240426,1,0,0:0:0:0:
320,192,240483,1,0,0:0:0:0:
192,192,240540,1,0,0:0:0:0:
448,192,240597,1,0,0:0:0:0:
64,192,240654,1,0,0:0:0:0:
192,192,240654,1,0,0:0:0:0:
320,192,240654,1,0,0:0:0:0:
448,192,240711,1,0,0:0:0:0:
64,192,240767,1,0,0:0:0:0:
192,192,240824,1,0,0:0:0:0:
448,192,240881,1,0,0:0:0:0:
64,192,240938,1,0,0:0:0:0:
192,192,240995,1,0,0:0:0:0:
320,192,240995,1,0,0:0:0:0:
448,192,240995,1,0,0:0:0:0:
64,192,241051,1,0,0:0:0:0:
320,192,241108,1,0,0:0:0:0:
448,192,241165,1,0,0:0:0:0:
64,192,241222,1,0,0:0:0:0:
320,192,241279,1,0,0:0:0:0:
64,192,241336,1,0,0:0:0:0:
192,192,241336,1,0,0:0:0:0:
448,192,241336,1,0,0:0:0:0:
320,192,241392,1,0,0:0:0:0:
192,192,241449,1,0,0:0:0:0:
64,192,241506,1,0,0:0:0:0:
448,192,241563,1,0,0:0:0:0:
192,192,241620,1,0,0:0:0:0:
64,192,241676,1,0,0:0:0:0:
320,192,241676,1,0,0:0:0:0:
448,192,241676,1,0,0:0:0:0:
192,192,241733,1,0,0:0:0:0:
320,192,241790,1,0,0:0:0:0:
64,192,241847,1,0,0:0:0:0:
192,192,241904,1,0,0:0:0:0:
448,192,241961,1,0,0:0:0:0:
64,192,242017,1,0,0:0:0:0:
192,192,242017,1,0,0:0:0:0:
320,192,242017,1,0,0:0:0:0:
448,192,242074,1,0,0:0:0:0:
64,192,242131,1,0,0:0:0:0:
192,192,242188,1,0,0:0:0:0:
320,192,242245,1,0,0:0:0:0:
64,192,242301,1,0,0:0:0:0:
192,192,242358,1,0,0:0:0:0:
320,192,242358,1,0,0:0:0:0:
448,192,242358,1,0,0:0:0:0:
64,192,242415,1,0,0:0:0:0:
448,192,242472,1,0,0:0:0:0:
320,192,242529,1,0,0:0:0:0:
64,192,242586,1,0,0:0:0:0:
448,192,242642,1,0,0:0:0:0:
64,192,242699,1,0,0:0:0:0:
192,192,242699,1,0,0:0:0:0:
320,192,242699,1,0,0:0:0:0:
448,192,242756,1,0,0:0:0:0:
192,192,242813,1,0,0:0:0:0:
320,192,242870,1,0,0:0:0:0:
64,192,242926,1,0,0:0:0:0:
192,192,242983,1,0,0:0:0:0:
320,192,243040,1,0,0:0:0:0:
448,192,243040,1,0,0:0:0:0:
64,192,243097,1,0,0:0:0:0:
448,192,243154,1,0,0:0:0:0:
192,192,243211,1,0,0:0:0:0:
64,192,243267,1,0,0:0:0:0:
320,192,243267,1,0,0:0:0:0:
448,192,243267,1,0,0:0:0:0:
192,192,243324,1,0,0:0:0:0:
448,192,243381,1,0,0:0:0:0:
320,192,243438,1,0,0:0:0:0:
64,192,243495,1,0,0:0:0:0:
192,192,243495,1,0,0:0:0:0:
448,192,243551,1,0,0:0:0:0:
64,192,243608,1,0,0:0:0:0:
192,192,243608,1,0,0:0:0:0:
320,192,243665,1,0,0:0:0:0:
448,192,243665,1,0,0:0:0:0:
64,192,243722,1,0,0:0:0:0:
192,192,243722,1,0,0:0:0:0:
320,192,243779,1,0,0:0:0:0:
64,192,243836,1,0,0:0:0:0:
448,192,243892,1,0,0:0:0:0:
64,192,243949,1,0,0:0:0:0:
192,192,243949,1,0,0:0:0:0:
320,192,244006,1,0,0:0:0:0:
448,192,244063,1,0,0:0:0:0:
64,192,244120,1,0,0:0:0:0:
448,192,244176,1,0,0:0:0:0:
192,192,244233,1,0,0:0:0:0:
320,192,244290,1,0,0:0:0:0:
448,192,244290,1,0,0:0:0:0:
192,192,244347,1,0,0:0:0:0:
64,192,244404,1,0,0:0:0:0:
448,192,244461,1,0,0:0:0:0:
64,192,244517,1,0,0:0:0:0:
320,192,244574,1,0,0:0:0:0:
64,192,244631,1,0,0:0:0:0:
192,192,244631,1,0,0:0:0:0:
320,192,244688,1,0,0:0:0:0:
448,192,244745,1,0,0:0:0:0:
64,192,244801,1,0,0:0:0:0:
448,192,244858,1,0,0:0:0:0:
192,192,244915,1,0,0:0:0:0:
320,192,244972,1,0,0:0:0:0:
448,192,244972,1,0,0:0:0:0:
192,192,245029,1,0,0:0:0:0:
64,192,245086,1,0,0:0:0:0:
320,192,245142,1,0,0:0:0:0:
64,192,245199,1,0,0:0:0:0:
448,192,245256,1,0,0:0:0:0:
64,192,245313,1,0,0:0:0:0:
320,192,245313,1,0,0:0:0:0:
448,192,245370,1,0,0:0:0:0:
192,192,245426,1,0,0:0:0:0:
64,192,245483,1,0,0:0:0:0:
320,192,245540,1,0,0:0:0:0:
448,192,245540,1,0,0:0:0:0:
192,192,245597,1,0,0:0:0:0:
448,192,245654,1,0,0:0:0:0:
192,192,245711,1,0,0:0:0:0:
64,192,245767,1,0,0:0:0:0:
320,192,245767,1,0,0:0:0:0:
448,192,245824,1,0,0:0:0:0:
64,192,245881,1,0,0:0:0:0:
448,192,245938,1,0,0:0:0:0:
192,192,245995,1,0,0:0:0:0:
320,192,245995,1,0,0:0:0:0:
64,192,246051,1,0,0:0:0:0:
320,192,246108,1,0,0:0:0:0:
64,192,246165,1,0,0:0:0:0:
192,192,246222,1,0,0:0:0:0:
448,192,246222,1,0,0:0:0:0:
320,192,246279,1,0,0:0:0:0:
192,192,246336,1,0,0:0:0:0:
320,192,246392,1,0,0:0:0:0:
448,192,246449,1,0,0:0:0:0:
64,192,246506,1,0,0:0:0:0:
448,192,246563,1,0,0:0:0:0:
64,192,246620,1,0,0:0:0:0:
448,192,246676,1,0,0:0:0:0:
64,192,246733,1,0,0:0:0:0:
448,192,246790,1,0,0:0:0:0:
64,192,246847,1,0,0:0:0:0:
320,192,246904,1,0,0:0:0:0:
192,192,246961,1,0,0:0:0:0:
320,192,247017,1,0,0:0:0:0:
192,192,247074,1,0,0:0:0:0:
320,192,247131,1,0,0:0:0:0:
192,192,247188,1,0,0:0:0:0:
320,192,247245,1,0,0:0:0:0:
192,192,247301,1,0,0:0:0:0:
64,192,247358,1,0,0:0:0:0:
320,192,247358,1,0,0:0:0:0:
448,192,247358,1,0,0:0:0:0:
320,192,247586,1,0,0:0:0:0:
64,192,247813,1,0,0:0:0:0:
448,192,247813,1,0,0:0:0:0:
320,192,248040,1,0,0:0:0:0:
64,192,248154,1,0,0:0:0:0:
320,192,248381,1,0,0:0:0:0:
64,192,248495,1,0,0:0:0:0:
320,192,248722,1,0,0:0:0:0:
64,192,248836,1,0,0:0:0:0:
320,192,249063,1,0,0:0:0:0:
64,192,249176,1,0,0:0:0:0:
192,192,250995,1,0,0:0:0:0:
320,192,250995,1,0,0:0:0:0:
192,192,251222,1,0,0:0:0:0:
320,192,251222,1,0,0:0:0:0:
64,192,251449,1,0,0:0:0:0:
448,192,251449,1,0,0:0:0:0:
320,192,251676,1,0,0:0:0:0:
64,192,251790,1,0,0:0:0:0:
192,192,251790,1,0,0:0:0:0:
320,192,252017,1,0,0:0:0:0:
64,192,252131,1,0,0:0:0:0:
192,192,252131,1,0,0:0:0:0:
320,192,252358,1,0,0:0:0:0:
64,192,252472,1,0,0:0:0:0:
192,192,252472,1,0,0:0:0:0:
320,192,252699,1,0,0:0:0:0:
192,192,252813,1,0,0:0:0:0:
64,192,254063,1,0,0:0:0:0:
448,192,254176,1,0,0:0:0:0:
64,192,254404,1,0,0:0:0:0:
448,192,254517,1,0,0:0:0:0:
192,192,254631,1,0,0:0:0:0:
320,192,254631,1,0,0:0:0:0:
192,192,254858,1,0,0:0:0:0:
320,192,254858,1,0,0:0:0:0:
64,192,255086,1,0,0:0:0:0:
448,192,255086,1,0,0:0:0:0:
320,192,255313,1,0,0:0:0:0:
64,192,255426,1,0,0:0:0:0:
192,192,255426,1,0,0:0:0:0:
320,192,255654,1,0,0:0:0:0:
64,192,255767,1,0,0:0:0:0:
192,192,255767,1,0,0:0:0:0:
320,192,255995,1,0,0:0:0:0:
64,192,256108,1,0,0:0:0:0:
192,192,256108,1,0,0:0:0:0:
320,192,256336,1,0,0:0:0:0:
192,192,256449,1,0,0:0:0:0:
192,192,258267,1,0,0:0:0:0:
320,192,258267,1,0,0:0:0:0:
192,192,258495,1,0,0:0:0:0:
320,192,258495,1,0,0:0:0:0:
64,192,258722,1,0,0:0:0:0:
448,192,258722,1,0,0:0:0:0:
320,192,258949,1,0,0:0:0:0:
64,192,259063,1,0,0:0:0:0:
192,192,259063,1,0,0:0:0:0:
320,192,259290,1,0,0:0:0:0:
64,192,259404,1,0,0:0:0:0:
192,192,259404,1,0,0:0:0:0:
320,192,259631,1,0,0:0:0:0:
64,192,259745,1,0,0:0:0:0:
192,192,259745,1,0,0:0:0:0:
320,192,259972,1,0,0:0:0:0:
192,192,260086,1,0,0:0:0:0:
192,192,261336,1,0,0:0:0:0:
320,192,261449,1,0,0:0:0:0:
192,192,261676,1,0,0:0:0:0:
320,192,261790,1,0,0:0:0:0:
64,192,261904,1,0,0:0:0:0:
192,192,261904,1,0,0:0:0:0:
448,192,261904,1,0,0:0:0:0:
