osu file format v14

[General]
AudioFilename: Lay Your Ghosts to Rest.mp3
AudioLeadIn: 0
PreviewTime: 88364
Countdown: 0
SampleSet: None
StackLeniency: 0.7
Mode: 3
LetterboxInBreaks: 0
SpecialStyle: 0
WidescreenStoryboard: 0

[Editor]
DistanceSpacing: 0.8
BeatDivisor: 2
GridSize: 32
TimelineZoom: 1

[Metadata]
Title:Lay Your Ghosts to Rest
TitleUnicode:Lay Your Ghosts to Rest
Artist:Between The Buried And Me
ArtistUnicode:Between The Buried And Me
Creator:XeoStyle
Version:Regrets
Source:
Tags:progressive death metal metalcore deathcore The Parallax II Future Sequence Marathon
BeatmapID:1463221
BeatmapSetID:691415

[Difficulty]
HPDrainRate:8
CircleSize:4
OverallDifficulty:8
ApproachRate:5
SliderMultiplier:1.4
SliderTickRate:1

[Events]
//Background and Video events
0,0,"3.jpg",0,0
//Break Periods
//Storyboard Layer 0 (Background)
//Storyboard Layer 1 (Fail)
//Storyboard Layer 2 (Pass)
//Storyboard Layer 3 (Foreground)
//Storyboard Sound Samples

[TimingPoints]
180,285.714286,4,3,0,15,1,0
180,-161.538461376923,4,3,0,15,0,0
85894,352.941176,4,3,0,15,1,0
85894,-130.76923094359,4,3,0,15,0,0
134953,550.458716,4,3,0,15,1,0
134953,-83.8461537846667,4,3,0,15,0,0
138256,553.505535,4,3,0,15,1,0
138256,-83.3846153929539,4,3,0,15,0,0
144898,548.446069,4,3,0,15,1,0
144898,-84.153846225938,4,3,0,15,0,0
146543,413.793103,4,3,0,15,1,0
146543,-111.538461659295,4,3,0,15,0,0
201164,285.714286,4,3,0,15,1,0
201164,-161.538461376923,4,3,0,15,0,0
205450,444.444444,4,3,0,15,1,0
205450,-103.84615395,4,3,0,15,0,0
242783,292.682927,4,3,0,15,1,0
242783,-157.692307600321,4,3,0,15,0,0
247759,146.341463,4,3,0,15,1,0
247759,-315.384616278205,4,3,0,15,0,0
247905,292.682927,4,3,0,15,1,0
247905,-157.692307600321,4,3,0,15,0,0
252295,146.341463,4,3,0,15,1,0
252295,-315.384616278205,4,3,0,15,0,0
252442,292.682927,4,3,0,15,1,0
252442,-157.692307600321,4,3,0,15,0,0
259173,146.341463,4,3,0,15,1,0
259173,-315.384616278205,4,3,0,15,0,0
259320,292.682927,4,3,0,15,1,0
259320,-157.692307600321,4,3,0,15,0,0
263710,146.341463,4,3,0,15,1,0
263710,-315.384616278205,4,3,0,15,0,0
263856,292.682927,4,3,0,15,1,0
263856,-157.692307600321,4,3,0,15,0,0
272929,146.341463,4,3,0,15,1,0
272929,-315.384616278205,4,3,0,15,0,0
273076,292.682927,4,3,0,15,1,0
273076,-157.692307600321,4,3,0,15,0,0
277466,146.341463,4,3,0,15,1,0
277466,-315.384616278205,4,3,0,15,0,0
277612,292.682927,4,3,0,15,1,0
277612,-157.692307600321,4,3,0,15,0,0
288149,295.566502,4,3,0,15,1,0
288149,-156.153846398487,4,3,0,15,0,0
299380,300,4,3,0,15,1,0
299380,-153.846153846154,4,3,0,15,0,0
321880,307.692308,4,3,0,15,1,0
321880,-149.99999985,4,3,0,15,0,0
330188,300,4,3,0,15,1,0
330188,-153.846153846154,4,3,0,15,0,0
358388,326.086957,4,3,0,15,1,0
358388,-141.538461330872,4,3,0,15,0,0
358714,461.538462,4,3,0,15,1,0
358714,-99.9999999,4,3,0,15,0,0
469945,545.454545,4,3,0,15,1,0
469945,-84.6153846858974,4,3,0,15,0,0
527763,285.714286,4,3,0,15,1,0
527763,-161.538461376923,4,3,0,15,0,0
529477,413.793103,4,3,0,15,1,0
529477,-111.538461659295,4,3,0,15,0,0
585753,276.497696,4,3,0,15,1,0
585753,-166.923076834051,4,3,0,15,0,0

[HitObjects]
64,192,180,5,0,0:0:0:0:
192,192,180,1,0,0:0:0:0:
64,192,322,1,0,0:0:0:0:
192,192,322,1,0,0:0:0:0:
192,192,608,1,0,0:0:0:0:
448,192,608,1,0,0:0:0:0:
192,192,751,1,0,0:0:0:0:
448,192,751,1,0,0:0:0:0:
320,192,894,1,0,0:0:0:0:
64,192,1037,1,0,0:0:0:0:
448,192,1037,1,0,0:0:0:0:
64,192,1180,1,0,0:0:0:0:
448,192,1180,1,0,0:0:0:0:
192,192,1322,1,0,0:0:0:0:
64,192,1465,1,0,0:0:0:0:
320,192,1465,1,0,0:0:0:0:
64,192,1751,1,0,0:0:0:0:
320,192,1751,1,0,0:0:0:0:
64,192,1894,1,0,0:0:0:0:
320,192,1894,1,0,0:0:0:0:
320,192,2180,1,0,0:0:0:0:
448,192,2180,1,0,0:0:0:0:
320,192,2322,1,0,0:0:0:0:
448,192,2322,1,0,0:0:0:0:
192,192,2608,1,0,0:0:0:0:
320,192,2608,1,0,0:0:0:0:
192,192,2751,1,0,0:0:0:0:
320,192,2751,1,0,0:0:0:0:
448,192,2894,1,0,0:0:0:0:
64,192,3037,1,0,0:0:0:0:
192,192,3037,1,0,0:0:0:0:
64,192,3180,1,0,0:0:0:0:
192,192,3180,1,0,0:0:0:0:
320,192,3322,1,0,0:0:0:0:
192,192,3465,1,0,0:0:0:0:
448,192,3465,1,0,0:0:0:0:
192,192,3751,1,0,0:0:0:0:
448,192,3751,1,0,0:0:0:0:
192,192,3894,1,0,0:0:0:0:
448,192,3894,1,0,0:0:0:0:
64,192,4180,1,0,0:0:0:0:
320,192,4180,1,0,0:0:0:0:
64,192,4322,1,0,0:0:0:0:
320,192,4322,1,0,0:0:0:0:
64,192,4608,1,0,0:0:0:0:
448,192,4608,1,0,0:0:0:0:
64,192,4751,1,0,0:0:0:0:
448,192,4751,1,0,0:0:0:0:
192,192,4894,1,0,0:0:0:0:
320,192,5037,1,0,0:0:0:0:
448,192,5037,1,0,0:0:0:0:
320,192,5180,1,0,0:0:0:0:
448,192,5180,1,0,0:0:0:0:
64,192,5322,1,0,0:0:0:0:
192,192,5465,1,0,0:0:0:0:
320,192,5465,1,0,0:0:0:0:
192,192,5751,1,0,0:0:0:0:
320,192,5751,1,0,0:0:0:0:
64,192,5894,1,0,0:0:0:0:
320,192,5894,1,0,0:0:0:0:
192,192,6037,1,0,0:0:0:0:
64,192,6180,1,0,0:0:0:0:
320,192,6251,1,0,0:0:0:0:
64,192,6322,1,0,0:0:0:0:
192,192,6322,1,0,0:0:0:0:
448,192,6465,1,0,0:0:0:0:
448,192,6608,1,0,0:0:0:0:
64,192,6751,1,0,0:0:0:0:
320,192,6751,1,0,0:0:0:0:
192,192,7037,1,0,0:0:0:0:
448,192,7108,1,0,0:0:0:0:
64,192,7180,1,0,0:0:0:0:
192,192,7180,1,0,0:0:0:0:
320,192,7322,1,0,0:0:0:0:
320,192,7465,1,0,0:0:0:0:
64,192,7608,1,0,0:0:0:0:
448,192,7608,1,0,0:0:0:0:
192,192,7680,1,0,0:0:0:0:
320,192,7751,1,0,0:0:0:0:
192,192,7822,1,0,0:0:0:0:
64,192,7894,1,0,0:0:0:0:
320,192,7894,1,0,0:0:0:0:
64,192,8037,1,0,0:0:0:0:
192,192,8180,1,0,0:0:0:0:
448,192,8180,1,0,0:0:0:0:
192,192,8322,1,0,0:0:0:0:
448,192,8322,1,0,0:0:0:0:
64,192,8608,1,0,0:0:0:0:
320,192,8608,1,0,0:0:0:0:
64,192,8751,1,0,0:0:0:0:
320,192,8751,1,0,0:0:0:0:
192,192,8894,1,0,0:0:0:0:
64,192,9037,1,0,0:0:0:0:
448,192,9037,1,0,0:0:0:0:
64,192,9180,1,0,0:0:0:0:
448,192,9180,1,0,0:0:0:0:
320,192,9322,1,0,0:0:0:0:
192,192,9465,1,0,0:0:0:0:
448,192,9465,1,0,0:0:0:0:
192,192,9751,1,0,0:0:0:0:
448,192,9751,1,0,0:0:0:0:
192,192,9894,1,0,0:0:0:0:
448,192,9894,1,0,0:0:0:0:
64,192,10180,1,0,0:0:0:0:
192,192,10180,1,0,0:0:0:0:
64,192,10322,1,0,0:0:0:0:
192,192,10322,1,0,0:0:0:0:
192,192,10608,1,0,0:0:0:0:
320,192,10608,1,0,0:0:0:0:
192,192,10751,1,0,0:0:0:0:
320,192,10751,1,0,0:0:0:0:
64,192,10894,1,0,0:0:0:0:
320,192,11037,1,0,0:0:0:0:
448,192,11037,1,0,0:0:0:0:
320,192,11180,1,0,0:0:0:0:
448,192,11180,1,0,0:0:0:0:
192,192,11322,1,0,0:0:0:0:
64,192,11465,1,0,0:0:0:0:
320,192,11465,1,0,0:0:0:0:
64,192,11751,1,0,0:0:0:0:
320,192,11751,1,0,0:0:0:0:
64,192,11894,1,0,0:0:0:0:
320,192,11894,1,0,0:0:0:0:
192,192,12180,1,0,0:0:0:0:
448,192,12180,1,0,0:0:0:0:
192,192,12322,1,0,0:0:0:0:
448,192,12322,1,0,0:0:0:0:
64,192,12608,1,0,0:0:0:0:
448,192,12608,1,0,0:0:0:0:
64,192,12751,1,0,0:0:0:0:
448,192,12751,1,0,0:0:0:0:
320,192,12894,1,0,0:0:0:0:
64,192,13037,1,0,0:0:0:0:
192,192,13037,1,0,0:0:0:0:
64,192,13180,1,0,0:0:0:0:
192,192,13180,1,0,0:0:0:0:
448,192,13322,1,0,0:0:0:0:
192,192,13465,1,0,0:0:0:0:
320,192,13465,1,0,0:0:0:0:
192,192,13751,1,0,0:0:0:0:
320,192,13751,1,0,0:0:0:0:
192,192,13894,1,0,0:0:0:0:
320,192,13894,1,0,0:0:0:0:
64,192,14037,1,0,0:0:0:0:
192,192,14180,1,0,0:0:0:0:
448,192,14180,1,0,0:0:0:0:
192,192,14322,1,0,0:0:0:0:
448,192,14322,1,0,0:0:0:0:
320,192,14465,1,0,0:0:0:0:
64,192,14608,1,0,0:0:0:0:
448,192,14608,1,0,0:0:0:0:
192,192,14751,1,0,0:0:0:0:
320,192,14894,1,0,0:0:0:0:
448,192,14894,1,0,0:0:0:0:
192,192,15037,1,0,0:0:0:0:
320,192,15037,1,0,0:0:0:0:
448,192,15180,1,0,0:0:0:0:
64,192,15322,1,0,0:0:0:0:
192,192,15322,1,0,0:0:0:0:
192,192,15465,1,0,0:0:0:0:
320,192,15465,1,0,0:0:0:0:
64,192,15608,1,0,0:0:0:0:
320,192,15608,1,0,0:0:0:0:
192,192,15751,1,0,0:0:0:0:
64,192,15894,1,0,0:0:0:0:
320,192,15894,1,0,0:0:0:0:
448,192,15894,1,0,0:0:0:0:
64,192,16037,1,0,0:0:0:0:
320,192,16037,1,0,0:0:0:0:
64,192,16180,1,0,0:0:0:0:
448,192,16180,1,0,0:0:0:0:
192,192,16322,1,0,0:0:0:0:
320,192,16465,1,0,0:0:0:0:
448,192,16465,1,0,0:0:0:0:
320,192,16608,1,0,0:0:0:0:
448,192,16608,1,0,0:0:0:0:
192,192,16894,1,0,0:0:0:0:
448,192,16894,1,0,0:0:0:0:
192,192,17037,1,0,0:0:0:0:
448,192,17037,1,0,0:0:0:0:
320,192,17180,1,0,0:0:0:0:
64,192,17322,1,0,0:0:0:0:
192,192,17322,1,0,0:0:0:0:
64,192,17465,1,0,0:0:0:0:
192,192,17465,1,0,0:0:0:0:
448,192,17608,1,0,0:0:0:0:
192,192,17751,1,0,0:0:0:0:
320,192,17751,1,0,0:0:0:0:
192,192,18037,1,0,0:0:0:0:
320,192,18037,1,0,0:0:0:0:
192,192,18180,1,0,0:0:0:0:
320,192,18180,1,0,0:0:0:0:
64,192,18322,1,0,0:0:0:0:
320,192,18465,1,0,0:0:0:0:
448,192,18465,1,0,0:0:0:0:
320,192,18608,1,0,0:0:0:0:
448,192,18608,1,0,0:0:0:0:
64,192,18894,1,0,0:0:0:0:
320,192,18894,1,0,0:0:0:0:
64,192,19037,1,0,0:0:0:0:
320,192,19037,1,0,0:0:0:0:
192,192,19180,1,0,0:0:0:0:
64,192,19322,1,0,0:0:0:0:
448,192,19322,1,0,0:0:0:0:
64,192,19465,1,0,0:0:0:0:
448,192,19465,1,0,0:0:0:0:
320,192,19608,1,0,0:0:0:0:
192,192,19751,1,0,0:0:0:0:
448,192,19751,1,0,0:0:0:0:
192,192,20037,1,0,0:0:0:0:
448,192,20037,1,0,0:0:0:0:
192,192,20180,1,0,0:0:0:0:
448,192,20180,1,0,0:0:0:0:
320,192,20322,1,0,0:0:0:0:
64,192,20465,1,0,0:0:0:0:
192,192,20465,1,0,0:0:0:0:
64,192,20608,1,0,0:0:0:0:
192,192,20608,1,0,0:0:0:0:
320,192,20894,1,0,0:0:0:0:
448,192,20894,1,0,0:0:0:0:
320,192,21037,1,0,0:0:0:0:
448,192,21037,1,0,0:0:0:0:
192,192,21180,1,0,0:0:0:0:
64,192,21322,1,0,0:0:0:0:
320,192,21322,1,0,0:0:0:0:
64,192,21465,1,0,0:0:0:0:
320,192,21465,1,0,0:0:0:0:
448,192,21608,1,0,0:0:0:0:
64,192,21751,1,0,0:0:0:0:
192,192,21751,1,0,0:0:0:0:
64,192,22037,1,0,0:0:0:0:
192,192,22037,1,0,0:0:0:0:
192,192,22180,1,0,0:0:0:0:
320,192,22180,1,0,0:0:0:0:
64,192,22322,1,0,0:0:0:0:
448,192,22465,1,0,0:0:0:0:
192,192,22537,1,0,0:0:0:0:
320,192,22608,1,0,0:0:0:0:
448,192,22608,1,0,0:0:0:0:
64,192,22751,1,0,0:0:0:0:
64,192,22894,1,0,0:0:0:0:
192,192,23037,1,0,0:0:0:0:
448,192,23037,1,0,0:0:0:0:
320,192,23322,1,0,0:0:0:0:
64,192,23394,1,0,0:0:0:0:
320,192,23465,1,0,0:0:0:0:
448,192,23465,1,0,0:0:0:0:
192,192,23608,1,0,0:0:0:0:
192,192,23751,1,0,0:0:0:0:
64,192,23894,1,0,0:0:0:0:
448,192,23894,1,0,0:0:0:0:
320,192,23965,1,0,0:0:0:0:
192,192,24037,1,0,0:0:0:0:
320,192,24108,1,0,0:0:0:0:
192,192,24180,1,0,0:0:0:0:
448,192,24180,1,0,0:0:0:0:
448,192,24322,1,0,0:0:0:0:
64,192,24465,1,0,0:0:0:0:
192,192,24465,1,0,0:0:0:0:
64,192,24608,1,0,0:0:0:0:
192,192,24608,1,0,0:0:0:0:
64,192,24894,1,0,0:0:0:0:
320,192,24894,1,0,0:0:0:0:
64,192,25037,1,0,0:0:0:0:
320,192,25037,1,0,0:0:0:0:
192,192,25180,1,0,0:0:0:0:
320,192,25322,1,0,0:0:0:0:
448,192,25322,1,0,0:0:0:0:
320,192,25465,1,0,0:0:0:0:
448,192,25465,1,0,0:0:0:0:
64,192,25608,1,0,0:0:0:0:
192,192,25751,1,0,0:0:0:0:
448,192,25751,1,0,0:0:0:0:
192,192,26037,1,0,0:0:0:0:
448,192,26037,1,0,0:0:0:0:
192,192,26180,1,0,0:0:0:0:
448,192,26180,1,0,0:0:0:0:
320,192,26322,1,0,0:0:0:0:
64,192,26465,1,0,0:0:0:0:
192,192,26465,1,0,0:0:0:0:
64,192,26608,1,0,0:0:0:0:
192,192,26608,1,0,0:0:0:0:
192,192,26894,1,0,0:0:0:0:
320,192,26894,1,0,0:0:0:0:
192,192,27037,1,0,0:0:0:0:
320,192,27037,1,0,0:0:0:0:
64,192,27180,1,0,0:0:0:0:
192,192,27322,1,0,0:0:0:0:
448,192,27322,1,0,0:0:0:0:
192,192,27465,1,0,0:0:0:0:
448,192,27465,1,0,0:0:0:0:
320,192,27608,1,0,0:0:0:0:
64,192,27751,1,0,0:0:0:0:
448,192,27751,1,0,0:0:0:0:
64,192,28037,1,0,0:0:0:0:
448,192,28037,1,0,0:0:0:0:
64,192,28180,1,0,0:0:0:0:
448,192,28180,1,0,0:0:0:0:
192,192,28322,1,0,0:0:0:0:
64,192,28465,1,0,0:0:0:0:
320,192,28465,1,0,0:0:0:0:
64,192,28608,1,0,0:0:0:0:
320,192,28608,1,0,0:0:0:0:
192,192,28894,1,0,0:0:0:0:
320,192,28894,1,0,0:0:0:0:
192,192,29037,1,0,0:0:0:0:
320,192,29037,1,0,0:0:0:0:
448,192,29180,1,0,0:0:0:0:
64,192,29322,1,0,0:0:0:0:
320,192,29322,1,0,0:0:0:0:
64,192,29465,1,0,0:0:0:0:
320,192,29465,1,0,0:0:0:0:
192,192,29608,1,0,0:0:0:0:
320,192,29751,1,0,0:0:0:0:
448,192,29751,1,0,0:0:0:0:
320,192,30037,1,0,0:0:0:0:
448,192,30037,1,0,0:0:0:0:
320,192,30180,1,0,0:0:0:0:
448,192,30180,1,0,0:0:0:0:
64,192,30322,1,0,0:0:0:0:
192,192,30465,1,0,0:0:0:0:
320,192,30465,1,0,0:0:0:0:
192,192,30608,1,0,0:0:0:0:
320,192,30608,1,0,0:0:0:0:
448,192,30751,1,0,0:0:0:0:
64,192,30894,1,0,0:0:0:0:
320,192,30894,1,0,0:0:0:0:
448,192,31037,1,0,0:0:0:0:
64,192,31180,1,0,0:0:0:0:
192,192,31180,1,0,0:0:0:0:
192,192,31322,1,0,0:0:0:0:
320,192,31322,1,0,0:0:0:0:
64,192,31465,1,0,0:0:0:0:
320,192,31608,1,0,0:0:0:0:
448,192,31608,1,0,0:0:0:0:
192,192,31751,1,0,0:0:0:0:
320,192,31751,1,0,0:0:0:0:
192,192,31894,1,0,0:0:0:0:
448,192,31894,1,0,0:0:0:0:
320,192,32037,1,0,0:0:0:0:
64,192,32180,1,0,0:0:0:0:
192,192,32180,1,0,0:0:0:0:
192,192,32322,1,0,0:0:0:0:
448,192,32322,1,0,0:0:0:0:
64,192,32465,1,0,0:0:0:0:
448,192,32465,1,0,0:0:0:0:
320,192,32608,1,0,0:0:0:0:
64,192,32751,1,0,0:0:0:0:
192,192,32751,1,0,0:0:0:0:
448,192,32894,1,0,0:0:0:0:
320,192,33037,1,0,0:0:0:0:
64,192,33180,1,0,0:0:0:0:
192,192,33180,1,0,0:0:0:0:
320,192,33322,1,0,0:0:0:0:
64,192,33465,1,0,0:0:0:0:
192,192,33465,1,0,0:0:0:0:
448,192,33608,1,0,0:0:0:0:
320,192,33751,1,0,0:0:0:0:
64,192,33894,1,0,0:0:0:0:
448,192,33894,1,0,0:0:0:0:
192,192,34037,1,0,0:0:0:0:
448,192,34180,1,0,0:0:0:0:
64,192,34322,1,0,0:0:0:0:
320,192,34322,1,0,0:0:0:0:
64,192,34465,1,0,0:0:0:0:
320,192,34465,1,0,0:0:0:0:
192,192,34608,1,0,0:0:0:0:
320,192,34751,1,0,0:0:0:0:
64,192,34894,1,0,0:0:0:0:
448,192,34894,1,0,0:0:0:0:
64,192,35037,1,0,0:0:0:0:
448,192,35037,1,0,0:0:0:0:
320,192,35180,1,0,0:0:0:0:
64,192,35322,1,0,0:0:0:0:
192,192,35465,1,0,0:0:0:0:
448,192,35465,1,0,0:0:0:0:
320,192,35608,1,0,0:0:0:0:
192,192,35751,1,0,0:0:0:0:
448,192,35751,1,0,0:0:0:0:
64,192,35894,1,0,0:0:0:0:
320,192,36037,1,0,0:0:0:0:
64,192,36180,1,0,0:0:0:0:
192,192,36180,1,0,0:0:0:0:
448,192,36322,1,0,0:0:0:0:
64,192,36465,1,0,0:0:0:0:
192,192,36465,1,0,0:0:0:0:
320,192,36608,1,0,0:0:0:0:
64,192,36751,1,0,0:0:0:0:
192,192,36894,1,0,0:0:0:0:
448,192,36894,1,0,0:0:0:0:
192,192,37037,1,0,0:0:0:0:
448,192,37037,1,0,0:0:0:0:
320,192,37180,1,0,0:0:0:0:
192,192,37251,1,0,0:0:0:0:
64,192,37322,1,0,0:0:0:0:
448,192,37322,1,0,0:0:0:0:
320,192,37465,1,0,0:0:0:0:
192,192,37537,1,0,0:0:0:0:
448,192,37608,1,0,0:0:0:0:
320,192,37680,1,0,0:0:0:0:
64,192,37751,1,0,0:0:0:0:
192,192,37751,1,0,0:0:0:0:
320,192,37894,1,0,0:0:0:0:
448,192,37965,1,0,0:0:0:0:
64,192,38037,1,0,0:0:0:0:
192,192,38037,1,0,0:0:0:0:
320,192,38180,1,0,0:0:0:0:
64,192,38251,1,0,0:0:0:0:
448,192,38322,1,0,0:0:0:0:
192,192,38394,1,0,0:0:0:0:
320,192,38465,1,0,0:0:0:0:
448,192,38465,1,0,0:0:0:0:
192,192,38608,1,0,0:0:0:0:
64,192,38680,1,0,0:0:0:0:
320,192,38751,1,0,0:0:0:0:
192,192,38822,1,0,0:0:0:0:
64,192,38894,1,0,0:0:0:0:
448,192,38894,1,0,0:0:0:0:
64,192,39037,1,0,0:0:0:0:
448,192,39037,1,0,0:0:0:0:
320,192,39180,1,0,0:0:0:0:
448,192,39251,1,0,0:0:0:0:
64,192,39322,1,0,0:0:0:0:
192,192,39394,1,0,0:0:0:0:
320,192,39465,1,0,0:0:0:0:
448,192,39465,1,0,0:0:0:0:
320,192,39608,1,0,0:0:0:0:
448,192,39608,1,0,0:0:0:0:
192,192,39751,1,0,0:0:0:0:
320,192,39822,1,0,0:0:0:0:
64,192,39894,1,0,0:0:0:0:
192,192,39965,1,0,0:0:0:0:
64,192,40037,1,0,0:0:0:0:
320,192,40037,1,0,0:0:0:0:
448,192,40180,1,0,0:0:0:0:
192,192,40251,1,0,0:0:0:0:
64,192,40322,1,0,0:0:0:0:
320,192,40322,1,0,0:0:0:0:
192,192,40465,1,0,0:0:0:0:
448,192,40537,1,0,0:0:0:0:
64,192,40608,1,0,0:0:0:0:
320,192,40680,1,0,0:0:0:0:
64,192,40751,1,0,0:0:0:0:
448,192,40751,1,0,0:0:0:0:
192,192,40894,1,0,0:0:0:0:
320,192,40965,1,0,0:0:0:0:
64,192,41037,1,0,0:0:0:0:
448,192,41037,1,0,0:0:0:0:
192,192,41180,1,0,0:0:0:0:
320,192,41251,1,0,0:0:0:0:
64,192,41322,1,0,0:0:0:0:
192,192,41322,1,0,0:0:0:0:
448,192,41394,1,0,0:0:0:0:
64,192,41465,1,0,0:0:0:0:
320,192,41465,1,0,0:0:0:0:
192,192,41537,1,0,0:0:0:0:
64,192,41608,1,0,0:0:0:0:
448,192,41608,1,0,0:0:0:0:
320,192,41680,1,0,0:0:0:0:
192,192,41751,1,0,0:0:0:0:
448,192,41751,1,0,0:0:0:0:
64,192,41822,1,0,0:0:0:0:
320,192,41894,1,0,0:0:0:0:
448,192,41894,1,0,0:0:0:0:
64,192,42037,1,0,0:0:0:0:
192,192,42037,1,0,0:0:0:0:
320,192,42180,128,0,42322:0:0:0:0:
448,192,42180,1,0,0:0:0:0:
64,192,42322,1,0,0:0:0:0:
192,192,42322,1,0,0:0:0:0:
192,192,42465,1,0,0:0:0:0:
448,192,42465,128,0,42608:0:0:0:0:
64,192,42608,1,0,0:0:0:0:
320,192,42608,1,0,0:0:0:0:
64,192,42751,1,0,0:0:0:0:
192,192,42751,128,0,42894:0:0:0:0:
320,192,42894,1,0,0:0:0:0:
448,192,42894,1,0,0:0:0:0:
64,192,43037,128,0,43180:0:0:0:0:
320,192,43037,1,0,0:0:0:0:
192,192,43180,1,0,0:0:0:0:
448,192,43180,1,0,0:0:0:0:
320,192,43322,128,0,43465:0:0:0:0:
448,192,43322,1,0,0:0:0:0:
64,192,43465,1,0,0:0:0:0:
192,192,43465,1,0,0:0:0:0:
192,192,43608,1,0,0:0:0:0:
448,192,43608,128,0,43751:0:0:0:0:
64,192,43751,1,0,0:0:0:0:
320,192,43751,1,0,0:0:0:0:
192,192,43894,128,0,44037:0:0:0:0:
320,192,43894,1,0,0:0:0:0:
64,192,44037,1,0,0:0:0:0:
448,192,44037,1,0,0:0:0:0:
64,192,44180,128,0,44751:0:0:0:0:
320,192,44180,1,0,0:0:0:0:
192,192,44322,1,0,0:0:0:0:
320,192,44322,1,0,0:0:0:0:
448,192,44465,1,0,0:0:0:0:
320,192,44608,1,0,0:0:0:0:
448,192,44608,1,0,0:0:0:0:
192,192,44751,128,0,44894:0:0:0:0:
320,192,44751,1,0,0:0:0:0:
64,192,44894,1,0,0:0:0:0:
448,192,44894,1,0,0:0:0:0:
320,192,45037,128,0,45180:0:0:0:0:
448,192,45037,1,0,0:0:0:0:
64,192,45180,1,0,0:0:0:0:
192,192,45180,1,0,0:0:0:0:
192,192,45322,1,0,0:0:0:0:
448,192,45322,128,0,45894:0:0:0:0:
64,192,45465,1,0,0:0:0:0:
320,192,45465,1,0,0:0:0:0:
192,192,45608,1,0,0:0:0:0:
64,192,45751,1,0,0:0:0:0:
192,192,45751,1,0,0:0:0:0:
320,192,45894,1,0,0:0:0:0:
64,192,46037,128,0,46180:0:0:0:0:
192,192,46037,1,0,0:0:0:0:
448,192,46180,1,0,0:0:0:0:
64,192,46322,1,0,0:0:0:0:
192,192,46322,1,0,0:0:0:0:
320,192,46322,128,0,46608:0:0:0:0:
64,192,46465,1,0,0:0:0:0:
192,192,46465,1,0,0:0:0:0:
64,192,46608,1,0,0:0:0:0:
192,192,46608,1,0,0:0:0:0:
64,192,46751,1,0,0:0:0:0:
192,192,46751,1,0,0:0:0:0:
448,192,46751,128,0,47037:0:0:0:0:
64,192,46894,1,0,0:0:0:0:
192,192,46894,1,0,0:0:0:0:
64,192,47037,128,0,49037:0:0:0:0:
192,192,47037,1,0,0:0:0:0:
320,192,47037,1,0,0:0:0:0:
320,192,47180,1,0,0:0:0:0:
448,192,47465,1,0,0:0:0:0:
448,192,47608,1,0,0:0:0:0:
192,192,47751,1,0,0:0:0:0:
192,192,47894,1,0,0:0:0:0:
448,192,48037,1,0,0:0:0:0:
192,192,48180,1,0,0:0:0:0:
448,192,48180,1,0,0:0:0:0:
320,192,48322,1,0,0:0:0:0:
448,192,48608,1,0,0:0:0:0:
448,192,48751,1,0,0:0:0:0:
192,192,49037,1,0,0:0:0:0:
320,192,49037,1,0,0:0:0:0:
192,192,49180,1,0,0:0:0:0:
320,192,49180,1,0,0:0:0:0:
64,192,49465,1,0,0:0:0:0:
64,192,49608,1,0,0:0:0:0:
320,192,49751,1,0,0:0:0:0:
320,192,49894,1,0,0:0:0:0:
192,192,50037,1,0,0:0:0:0:
192,192,50180,1,0,0:0:0:0:
320,192,50180,1,0,0:0:0:0:
448,192,50322,1,0,0:0:0:0:
320,192,50608,1,0,0:0:0:0:
320,192,50751,1,0,0:0:0:0:
64,192,51037,1,0,0:0:0:0:
448,192,51037,1,0,0:0:0:0:
64,192,51180,1,0,0:0:0:0:
448,192,51180,1,0,0:0:0:0:
320,192,51465,1,0,0:0:0:0:
320,192,51608,1,0,0:0:0:0:
192,192,51751,1,0,0:0:0:0:
192,192,51894,1,0,0:0:0:0:
448,192,52037,1,0,0:0:0:0:
192,192,52180,1,0,0:0:0:0:
448,192,52180,1,0,0:0:0:0:
64,192,52322,1,0,0:0:0:0:
320,192,52608,1,0,0:0:0:0:
320,192,52751,1,0,0:0:0:0:
64,192,53037,1,0,0:0:0:0:
192,192,53037,1,0,0:0:0:0:
64,192,53180,1,0,0:0:0:0:
192,192,53180,1,0,0:0:0:0:
64,192,53465,1,0,0:0:0:0:
448,192,53465,1,0,0:0:0:0:
192,192,53608,1,0,0:0:0:0:
448,192,53751,1,0,0:0:0:0:
64,192,53894,1,0,0:0:0:0:
320,192,54037,1,0,0:0:0:0:
192,192,54180,1,0,0:0:0:0:
192,192,54322,1,0,0:0:0:0:
320,192,54322,1,0,0:0:0:0:
64,192,54465,1,0,0:0:0:0:
448,192,54608,1,0,0:0:0:0:
192,192,54751,1,0,0:0:0:0:
448,192,54751,1,0,0:0:0:0:
64,192,54894,1,0,0:0:0:0:
320,192,55037,1,0,0:0:0:0:
448,192,55037,1,0,0:0:0:0:
320,192,55180,1,0,0:0:0:0:
448,192,55180,1,0,0:0:0:0:
192,192,55465,1,0,0:0:0:0:
448,192,55465,1,0,0:0:0:0:
192,192,55608,1,0,0:0:0:0:
320,192,55751,1,0,0:0:0:0:
448,192,55751,1,0,0:0:0:0:
320,192,55894,1,0,0:0:0:0:
64,192,56037,1,0,0:0:0:0:
448,192,56037,1,0,0:0:0:0:
64,192,56180,1,0,0:0:0:0:
320,192,56180,1,0,0:0:0:0:
448,192,56322,1,0,0:0:0:0:
64,192,56608,1,0,0:0:0:0:
192,192,56608,1,0,0:0:0:0:
64,192,56751,1,0,0:0:0:0:
320,192,56751,1,0,0:0:0:0:
192,192,57037,1,0,0:0:0:0:
448,192,57037,1,0,0:0:0:0:
192,192,57180,1,0,0:0:0:0:
448,192,57180,1,0,0:0:0:0:
64,192,57465,1,0,0:0:0:0:
320,192,57465,1,0,0:0:0:0:
320,192,57608,1,0,0:0:0:0:
64,192,57751,1,0,0:0:0:0:
192,192,57751,1,0,0:0:0:0:
192,192,57894,1,0,0:0:0:0:
64,192,58037,1,0,0:0:0:0:
448,192,58037,1,0,0:0:0:0:
320,192,58180,1,0,0:0:0:0:
448,192,58180,1,0,0:0:0:0:
64,192,58322,1,0,0:0:0:0:
320,192,58608,1,0,0:0:0:0:
448,192,58608,1,0,0:0:0:0:
192,192,58751,1,0,0:0:0:0:
448,192,58751,1,0,0:0:0:0:
64,192,59037,1,0,0:0:0:0:
320,192,59037,1,0,0:0:0:0:
64,192,59180,1,0,0:0:0:0:
320,192,59180,1,0,0:0:0:0:
192,192,59465,1,0,0:0:0:0:
320,192,59465,1,0,0:0:0:0:
192,192,59608,1,0,0:0:0:0:
320,192,59751,1,0,0:0:0:0:
448,192,59751,1,0,0:0:0:0:
448,192,59894,1,0,0:0:0:0:
64,192,60037,1,0,0:0:0:0:
320,192,60037,1,0,0:0:0:0:
64,192,60180,1,0,0:0:0:0:
192,192,60180,1,0,0:0:0:0:
448,192,60322,1,0,0:0:0:0:
64,192,60608,1,0,0:0:0:0:
448,192,60608,1,0,0:0:0:0:
64,192,60751,1,0,0:0:0:0:
320,192,60751,1,0,0:0:0:0:
64,192,61037,1,0,0:0:0:0:
448,192,61037,1,0,0:0:0:0:
64,192,61180,1,0,0:0:0:0:
448,192,61180,1,0,0:0:0:0:
64,192,61465,1,0,0:0:0:0:
320,192,61608,1,0,0:0:0:0:
448,192,61608,1,0,0:0:0:0:
64,192,61751,1,0,0:0:0:0:
192,192,61894,1,0,0:0:0:0:
320,192,61894,1,0,0:0:0:0:
64,192,62037,1,0,0:0:0:0:
192,192,62180,1,0,0:0:0:0:
448,192,62180,1,0,0:0:0:0:
64,192,62322,1,0,0:0:0:0:
320,192,62322,1,0,0:0:0:0:
320,192,62608,1,0,0:0:0:0:
448,192,62608,1,0,0:0:0:0:
64,192,62751,1,0,0:0:0:0:
192,192,62751,1,0,0:0:0:0:
320,192,62894,1,0,0:0:0:0:
64,192,63037,1,0,0:0:0:0:
448,192,63037,1,0,0:0:0:0:
192,192,63180,1,0,0:0:0:0:
448,192,63322,1,0,0:0:0:0:
64,192,63465,1,0,0:0:0:0:
320,192,63608,1,0,0:0:0:0:
448,192,63608,1,0,0:0:0:0:
192,192,63751,1,0,0:0:0:0:
64,192,63894,1,0,0:0:0:0:
320,192,63894,1,0,0:0:0:0:
192,192,64037,1,0,0:0:0:0:
320,192,64037,1,0,0:0:0:0:
448,192,64180,1,0,0:0:0:0:
64,192,64465,128,0,64751:0:0:0:0:
192,192,64465,1,0,0:0:0:0:
320,192,64465,1,0,0:0:0:0:
192,192,64751,1,0,0:0:0:0:
320,192,64751,1,0,0:0:0:0:
448,192,64751,1,0,0:0:0:0:
64,192,64894,1,0,0:0:0:0:
448,192,64894,1,0,0:0:0:0:
192,192,65037,1,0,0:0:0:0:
320,192,65108,1,0,0:0:0:0:
64,192,65180,1,0,0:0:0:0:
192,192,65180,1,0,0:0:0:0:
320,192,65322,1,0,0:0:0:0:
448,192,65322,1,0,0:0:0:0:
64,192,65465,1,0,0:0:0:0:
320,192,65465,1,0,0:0:0:0:
448,192,65608,1,0,0:0:0:0:
192,192,65680,1,0,0:0:0:0:
64,192,65751,1,0,0:0:0:0:
448,192,65751,1,0,0:0:0:0:
192,192,65894,1,0,0:0:0:0:
320,192,65894,1,0,0:0:0:0:
64,192,66037,1,0,0:0:0:0:
320,192,66037,1,0,0:0:0:0:
192,192,66180,1,0,0:0:0:0:
320,192,66251,1,0,0:0:0:0:
192,192,66322,1,0,0:0:0:0:
448,192,66322,1,0,0:0:0:0:
64,192,66465,1,0,0:0:0:0:
320,192,66465,1,0,0:0:0:0:
192,192,66608,1,0,0:0:0:0:
320,192,66608,1,0,0:0:0:0:
448,192,66751,1,0,0:0:0:0:
320,192,66822,1,0,0:0:0:0:
192,192,66894,1,0,0:0:0:0:
448,192,66894,1,0,0:0:0:0:
64,192,67037,1,0,0:0:0:0:
320,192,67037,1,0,0:0:0:0:
64,192,67180,1,0,0:0:0:0:
192,192,67180,1,0,0:0:0:0:
320,192,67322,1,0,0:0:0:0:
192,192,67394,1,0,0:0:0:0:
64,192,67465,1,0,0:0:0:0:
320,192,67465,1,0,0:0:0:0:
192,192,67608,1,0,0:0:0:0:
448,192,67608,1,0,0:0:0:0:
320,192,67751,1,0,0:0:0:0:
448,192,67751,1,0,0:0:0:0:
64,192,67894,1,0,0:0:0:0:
192,192,67965,1,0,0:0:0:0:
64,192,68037,1,0,0:0:0:0:
320,192,68037,1,0,0:0:0:0:
192,192,68180,1,0,0:0:0:0:
448,192,68180,1,0,0:0:0:0:
192,192,68322,1,0,0:0:0:0:
320,192,68322,1,0,0:0:0:0:
64,192,68465,1,0,0:0:0:0:
448,192,68537,1,0,0:0:0:0:
64,192,68608,1,0,0:0:0:0:
320,192,68608,1,0,0:0:0:0:
192,192,68751,1,0,0:0:0:0:
320,192,68751,1,0,0:0:0:0:
448,192,68751,1,0,0:0:0:0:
64,192,69037,1,0,0:0:0:0:
192,192,69037,1,0,0:0:0:0:
448,192,69037,1,0,0:0:0:0:
64,192,69322,1,0,0:0:0:0:
320,192,69322,1,0,0:0:0:0:
448,192,69322,1,0,0:0:0:0:
192,192,69394,1,0,0:0:0:0:
320,192,69465,1,0,0:0:0:0:
64,192,69537,1,0,0:0:0:0:
448,192,69537,1,0,0:0:0:0:
192,192,69608,1,0,0:0:0:0:
320,192,69680,1,0,0:0:0:0:
448,192,69680,1,0,0:0:0:0:
64,192,69751,1,0,0:0:0:0:
192,192,69822,1,0,0:0:0:0:
320,192,69822,1,0,0:0:0:0:
448,192,69894,1,0,0:0:0:0:
64,192,69965,1,0,0:0:0:0:
192,192,69965,1,0,0:0:0:0:
320,192,70037,1,0,0:0:0:0:
64,192,70108,1,0,0:0:0:0:
448,192,70108,1,0,0:0:0:0:
192,192,70180,1,0,0:0:0:0:
320,192,70251,1,0,0:0:0:0:
448,192,70251,1,0,0:0:0:0:
192,192,70322,1,0,0:0:0:0:
64,192,70394,1,0,0:0:0:0:
448,192,70394,1,0,0:0:0:0:
320,192,70465,1,0,0:0:0:0:
64,192,70537,1,0,0:0:0:0:
192,192,70537,1,0,0:0:0:0:
448,192,70608,1,0,0:0:0:0:
192,192,70680,1,0,0:0:0:0:
320,192,70680,1,0,0:0:0:0:
64,192,70751,1,0,0:0:0:0:
320,192,70822,1,0,0:0:0:0:
448,192,70822,1,0,0:0:0:0:
192,192,70894,1,0,0:0:0:0:
64,192,70965,1,0,0:0:0:0:
320,192,70965,1,0,0:0:0:0:
448,192,71037,1,0,0:0:0:0:
64,192,71108,1,0,0:0:0:0:
192,192,71108,1,0,0:0:0:0:
320,192,71180,1,0,0:0:0:0:
64,192,71251,1,0,0:0:0:0:
448,192,71251,1,0,0:0:0:0:
192,192,71322,1,0,0:0:0:0:
320,192,71394,1,0,0:0:0:0:
448,192,71394,1,0,0:0:0:0:
64,192,71465,1,0,0:0:0:0:
192,192,71537,1,0,0:0:0:0:
448,192,71537,1,0,0:0:0:0:
320,192,71608,1,0,0:0:0:0:
64,192,71680,1,0,0:0:0:0:
192,192,71680,1,0,0:0:0:0:
320,192,71751,1,0,0:0:0:0:
64,192,71822,1,0,0:0:0:0:
448,192,71822,1,0,0:0:0:0:
192,192,71894,1,0,0:0:0:0:
320,192,71965,1,0,0:0:0:0:
448,192,71965,1,0,0:0:0:0:
64,192,72037,1,0,0:0:0:0:
192,192,72108,1,0,0:0:0:0:
320,192,72108,1,0,0:0:0:0:
448,192,72180,1,0,0:0:0:0:
64,192,72251,1,0,0:0:0:0:
192,192,72251,1,0,0:0:0:0:
320,192,72322,1,0,0:0:0:0:
192,192,72394,1,0,0:0:0:0:
448,192,72394,1,0,0:0:0:0:
64,192,72465,1,0,0:0:0:0:
320,192,72537,1,0,0:0:0:0:
448,192,72537,1,0,0:0:0:0:
192,192,72608,1,0,0:0:0:0:
64,192,72680,1,0,0:0:0:0:
448,192,72680,1,0,0:0:0:0:
320,192,72751,1,0,0:0:0:0:
64,192,72822,1,0,0:0:0:0:
192,192,72822,1,0,0:0:0:0:
448,192,72894,1,0,0:0:0:0:
192,192,72965,1,0,0:0:0:0:
320,192,72965,1,0,0:0:0:0:
64,192,73037,1,0,0:0:0:0:
320,192,73108,1,0,0:0:0:0:
448,192,73108,1,0,0:0:0:0:
192,192,73180,1,0,0:0:0:0:
64,192,73251,1,0,0:0:0:0:
320,192,73251,1,0,0:0:0:0:
448,192,73322,1,0,0:0:0:0:
64,192,73394,1,0,0:0:0:0:
192,192,73394,1,0,0:0:0:0:
320,192,73465,1,0,0:0:0:0:
64,192,73537,1,0,0:0:0:0:
448,192,73537,1,0,0:0:0:0:
192,192,73608,1,0,0:0:0:0:
320,192,73680,1,0,0:0:0:0:
448,192,73680,1,0,0:0:0:0:
192,192,73751,1,0,0:0:0:0:
448,192,73822,1,0,0:0:0:0:
64,192,73894,1,0,0:0:0:0:
192,192,73894,1,0,0:0:0:0:
320,192,73894,1,0,0:0:0:0:
64,192,74037,1,0,0:0:0:0:
448,192,74037,1,0,0:0:0:0:
192,192,74180,1,0,0:0:0:0:
320,192,74180,1,0,0:0:0:0:
64,192,74322,1,0,0:0:0:0:
320,192,74322,1,0,0:0:0:0:
192,192,74465,1,0,0:0:0:0:
448,192,74465,1,0,0:0:0:0:
320,192,74608,1,0,0:0:0:0:
448,192,74608,1,0,0:0:0:0:
64,192,74751,1,0,0:0:0:0:
192,192,74751,1,0,0:0:0:0:
192,192,74894,1,0,0:0:0:0:
320,192,74894,1,0,0:0:0:0:
64,192,75037,128,0,76180:0:0:0:0:
448,192,75037,1,0,0:0:0:0:
192,192,75180,1,0,0:0:0:0:
320,192,75180,1,0,0:0:0:0:
448,192,75322,1,0,0:0:0:0:
192,192,75465,1,0,0:0:0:0:
448,192,75465,1,0,0:0:0:0:
320,192,75608,1,0,0:0:0:0:
192,192,75751,1,0,0:0:0:0:
320,192,75751,1,0,0:0:0:0:
448,192,75894,1,0,0:0:0:0:
320,192,76037,1,0,0:0:0:0:
448,192,76037,1,0,0:0:0:0:
192,192,76180,1,0,0:0:0:0:
320,192,76180,1,0,0:0:0:0:
64,192,76322,1,0,0:0:0:0:
448,192,76322,1,0,0:0:0:0:
192,192,76465,1,0,0:0:0:0:
320,192,76465,1,0,0:0:0:0:
320,192,76608,1,0,0:0:0:0:
448,192,76608,1,0,0:0:0:0:
64,192,76751,1,0,0:0:0:0:
192,192,76751,1,0,0:0:0:0:
64,192,76894,1,0,0:0:0:0:
448,192,76894,1,0,0:0:0:0:
192,192,77037,1,0,0:0:0:0:
320,192,77037,1,0,0:0:0:0:
64,192,77180,1,0,0:0:0:0:
320,192,77180,1,0,0:0:0:0:
192,192,77322,1,0,0:0:0:0:
448,192,77322,128,0,78465:0:0:0:0:
192,192,77465,1,0,0:0:0:0:
320,192,77465,1,0,0:0:0:0:
64,192,77608,1,0,0:0:0:0:
64,192,77751,1,0,0:0:0:0:
320,192,77751,1,0,0:0:0:0:
192,192,77894,1,0,0:0:0:0:
192,192,78037,1,0,0:0:0:0:
320,192,78037,1,0,0:0:0:0:
64,192,78180,1,0,0:0:0:0:
64,192,78322,1,0,0:0:0:0:
192,192,78322,1,0,0:0:0:0:
320,192,78465,1,0,0:0:0:0:
192,192,78608,1,0,0:0:0:0:
448,192,78608,1,0,0:0:0:0:
64,192,78751,1,0,0:0:0:0:
320,192,78751,1,0,0:0:0:0:
448,192,78751,1,0,0:0:0:0:
64,192,78894,1,0,0:0:0:0:
64,192,79037,1,0,0:0:0:0:
448,192,79037,1,0,0:0:0:0:
192,192,79180,1,0,0:0:0:0:
448,192,79180,1,0,0:0:0:0:
192,192,79322,1,0,0:0:0:0:
320,192,79322,1,0,0:0:0:0:
64,192,79465,1,0,0:0:0:0:
320,192,79465,1,0,0:0:0:0:
64,192,79608,1,0,0:0:0:0:
448,192,79608,1,0,0:0:0:0:
192,192,79751,1,0,0:0:0:0:
448,192,79751,1,0,0:0:0:0:
192,192,79894,1,0,0:0:0:0:
320,192,79894,1,0,0:0:0:0:
320,192,80037,1,0,0:0:0:0:
448,192,80037,1,0,0:0:0:0:
64,192,80180,1,0,0:0:0:0:
448,192,80180,1,0,0:0:0:0:
64,192,80322,1,0,0:0:0:0:
320,192,80322,1,0,0:0:0:0:
192,192,80465,1,0,0:0:0:0:
320,192,80465,1,0,0:0:0:0:
192,192,80608,1,0,0:0:0:0:
448,192,80608,1,0,0:0:0:0:
64,192,80751,1,0,0:0:0:0:
448,192,80751,1,0,0:0:0:0:
64,192,80894,1,0,0:0:0:0:
320,192,80894,1,0,0:0:0:0:
192,192,81037,1,0,0:0:0:0:
320,192,81037,1,0,0:0:0:0:
64,192,81180,1,0,0:0:0:0:
192,192,81180,1,0,0:0:0:0:
64,192,81322,1,0,0:0:0:0:
448,192,81322,1,0,0:0:0:0:
192,192,81465,1,0,0:0:0:0:
448,192,81465,1,0,0:0:0:0:
192,192,81608,1,0,0:0:0:0:
320,192,81608,1,0,0:0:0:0:
320,192,81751,1,0,0:0:0:0:
448,192,81751,1,0,0:0:0:0:
192,192,81894,1,0,0:0:0:0:
448,192,81894,1,0,0:0:0:0:
192,192,82037,1,0,0:0:0:0:
320,192,82037,1,0,0:0:0:0:
64,192,82180,1,0,0:0:0:0:
320,192,82180,1,0,0:0:0:0:
64,192,82322,1,0,0:0:0:0:
192,192,82322,1,0,0:0:0:0:
192,192,82465,1,0,0:0:0:0:
448,192,82465,1,0,0:0:0:0:
320,192,82608,1,0,0:0:0:0:
448,192,82608,1,0,0:0:0:0:
192,192,82751,1,0,0:0:0:0:
320,192,82751,1,0,0:0:0:0:
64,192,82894,1,0,0:0:0:0:
192,192,82894,1,0,0:0:0:0:
64,192,83037,1,0,0:0:0:0:
448,192,83037,1,0,0:0:0:0:
192,192,83180,1,0,0:0:0:0:
448,192,83180,1,0,0:0:0:0:
192,192,83322,1,0,0:0:0:0:
320,192,83322,1,0,0:0:0:0:
64,192,83465,1,0,0:0:0:0:
320,192,83465,1,0,0:0:0:0:
64,192,83608,1,0,0:0:0:0:
448,192,83608,1,0,0:0:0:0:
192,192,83799,1,0,0:0:0:0:
320,192,83799,1,0,0:0:0:0:
448,192,83799,1,0,0:0:0:0:
64,192,83989,1,0,0:0:0:0:
320,192,83989,1,0,0:0:0:0:
448,192,83989,1,0,0:0:0:0:
64,192,84180,1,0,0:0:0:0:
192,192,84180,1,0,0:0:0:0:
320,192,84322,1,0,0:0:0:0:
448,192,84322,1,0,0:0:0:0:
64,192,84465,1,0,0:0:0:0:
320,192,84465,1,0,0:0:0:0:
192,192,84608,1,0,0:0:0:0:
448,192,84608,1,0,0:0:0:0:
64,192,84751,1,0,0:0:0:0:
448,192,84751,1,0,0:0:0:0:
192,192,84894,1,0,0:0:0:0:
320,192,84894,1,0,0:0:0:0:
192,192,85037,1,0,0:0:0:0:
448,192,85037,1,0,0:0:0:0:
64,192,85180,1,0,0:0:0:0:
320,192,85180,1,0,0:0:0:0:
192,192,85322,1,0,0:0:0:0:
448,192,85322,1,0,0:0:0:0:
320,192,85394,1,0,0:0:0:0:
64,192,85465,1,0,0:0:0:0:
448,192,85465,1,0,0:0:0:0:
192,192,85537,1,0,0:0:0:0:
320,192,85608,1,0,0:0:0:0:
448,192,85608,1,0,0:0:0:0:
64,192,85680,1,0,0:0:0:0:
192,192,85680,1,0,0:0:0:0:
320,192,85751,1,0,0:0:0:0:
448,192,85751,1,0,0:0:0:0:
64,192,85822,1,0,0:0:0:0:
192,192,85894,1,0,0:0:0:0:
320,192,85894,1,0,0:0:0:0:
448,192,85894,1,0,0:0:0:0:
64,192,86180,1,0,0:0:0:0:
320,192,86180,1,0,0:0:0:0:
448,192,86180,1,0,0:0:0:0:
64,192,86467,1,0,0:0:0:0:
192,192,86467,1,0,0:0:0:0:
64,192,86658,1,0,0:0:0:0:
448,192,86658,1,0,0:0:0:0:
320,192,86842,1,0,0:0:0:0:
448,192,86842,1,0,0:0:0:0:
192,192,87041,1,0,0:0:0:0:
448,192,87041,1,0,0:0:0:0:
320,192,87099,1,0,0:0:0:0:
192,192,87261,1,0,0:0:0:0:
64,192,87460,1,0,0:0:0:0:
64,192,87680,1,0,0:0:0:0:
448,192,87680,1,0,0:0:0:0:
192,192,87724,1,0,0:0:0:0:
192,192,88011,1,0,0:0:0:0:
320,192,88011,1,0,0:0:0:0:
64,192,88364,1,0,0:0:0:0:
192,192,88364,1,0,0:0:0:0:
448,192,88364,1,0,0:0:0:0:
448,192,88717,128,0,88893:0:0:0:0:
192,192,89070,128,0,89246:0:0:0:0:
448,192,89423,128,0,89599:0:0:0:0:
64,192,89658,1,0,0:0:0:0:
192,192,89658,1,0,0:0:0:0:
192,192,89776,1,0,0:0:0:0:
320,192,89776,1,0,0:0:0:0:
448,192,89776,1,0,0:0:0:0:
64,192,90129,1,0,0:0:0:0:
448,192,90129,128,0,90482:0:0:0:0:
64,192,90482,1,0,0:0:0:0:
192,192,90482,128,0,90835:0:0:0:0:
64,192,90835,1,0,0:0:0:0:
320,192,90835,128,0,91188:0:0:0:0:
448,192,90835,1,0,0:0:0:0:
64,192,91188,128,0,91717:0:0:0:0:
192,192,91188,1,0,0:0:0:0:
192,192,91541,1,0,0:0:0:0:
448,192,91541,1,0,0:0:0:0:
320,192,91717,128,0,91893:0:0:0:0:
64,192,91893,1,0,0:0:0:0:
192,192,91893,128,0,92599:0:0:0:0:
64,192,92246,1,0,0:0:0:0:
320,192,92246,1,0,0:0:0:0:
448,192,92599,1,0,0:0:0:0:
192,192,92952,1,0,0:0:0:0:
320,192,92952,1,0,0:0:0:0:
64,192,93305,1,0,0:0:0:0:
448,192,93305,128,0,93658:0:0:0:0:
64,192,93658,128,0,94011:0:0:0:0:
192,192,93658,1,0,0:0:0:0:
320,192,93658,1,0,0:0:0:0:
192,192,94011,1,0,0:0:0:0:
320,192,94011,128,0,94364:0:0:0:0:
64,192,94364,1,0,0:0:0:0:
192,192,94364,128,0,94717:0:0:0:0:
448,192,94364,1,0,0:0:0:0:
320,192,94717,1,0,0:0:0:0:
448,192,94717,128,0,95070:0:0:0:0:
64,192,95070,1,0,0:0:0:0:
192,192,95070,128,0,95423:0:0:0:0:
320,192,95070,1,0,0:0:0:0:
320,192,95423,128,0,95776:0:0:0:0:
448,192,95423,1,0,0:0:0:0:
64,192,95776,128,0,96129:0:0:0:0:
192,192,95776,1,0,0:0:0:0:
448,192,95776,1,0,0:0:0:0:
192,192,96129,128,0,97893:0:0:0:0:
320,192,96129,1,0,0:0:0:0:
64,192,96482,1,0,0:0:0:0:
320,192,96482,1,0,0:0:0:0:
448,192,96835,1,0,0:0:0:0:
320,192,97188,1,0,0:0:0:0:
448,192,97188,1,0,0:0:0:0:
64,192,97541,1,0,0:0:0:0:
64,192,97893,1,0,0:0:0:0:
320,192,97893,1,0,0:0:0:0:
448,192,97893,128,0,98246:0:0:0:0:
64,192,98246,128,0,98599:0:0:0:0:
192,192,98246,1,0,0:0:0:0:
192,192,98599,128,0,98952:0:0:0:0:
320,192,98599,1,0,0:0:0:0:
448,192,98599,1,0,0:0:0:0:
64,192,98952,1,0,0:0:0:0:
448,192,98952,128,0,99305:0:0:0:0:
64,192,99305,128,0,100364:0:0:0:0:
192,192,99305,1,0,0:0:0:0:
320,192,99305,1,0,0:0:0:0:
192,192,99482,1,0,0:0:0:0:
320,192,99482,1,0,0:0:0:0:
448,192,99658,1,0,0:0:0:0:
448,192,99835,1,0,0:0:0:0:
192,192,100011,1,0,0:0:0:0:
320,192,100011,1,0,0:0:0:0:
448,192,100188,1,0,0:0:0:0:
192,192,100364,1,0,0:0:0:0:
320,192,100364,1,0,0:0:0:0:
448,192,100541,1,0,0:0:0:0:
64,192,100717,1,0,0:0:0:0:
192,192,100717,1,0,0:0:0:0:
448,192,100893,1,0,0:0:0:0:
64,192,101070,1,0,0:0:0:0:
192,192,101070,1,0,0:0:0:0:
320,192,101070,1,0,0:0:0:0:
64,192,101423,128,0,101776:0:0:0:0:
192,192,101423,1,0,0:0:0:0:
320,192,101776,128,0,102129:0:0:0:0:
448,192,101776,1,0,0:0:0:0:
64,192,102129,1,0,0:0:0:0:
192,192,102129,128,0,102482:0:0:0:0:
448,192,102129,1,0,0:0:0:0:
320,192,102482,1,0,0:0:0:0:
448,192,102482,128,0,103011:0:0:0:0:
64,192,102835,1,0,0:0:0:0:
320,192,102835,1,0,0:0:0:0:
192,192,103011,128,0,103188:0:0:0:0:
320,192,103188,128,0,103893:0:0:0:0:
448,192,103188,1,0,0:0:0:0:
64,192,103541,1,0,0:0:0:0:
192,192,103541,1,0,0:0:0:0:
64,192,103893,1,0,0:0:0:0:
192,192,104246,1,0,0:0:0:0:
320,192,104246,1,0,0:0:0:0:
64,192,104599,128,0,104952:0:0:0:0:
448,192,104599,1,0,0:0:0:0:
192,192,104952,1,0,0:0:0:0:
320,192,104952,1,0,0:0:0:0:
448,192,104952,128,0,105305:0:0:0:0:
192,192,105305,128,0,105658:0:0:0:0:
320,192,105305,1,0,0:0:0:0:
64,192,105658,1,0,0:0:0:0:
320,192,105658,128,0,106011:0:0:0:0:
448,192,105658,1,0,0:0:0:0:
64,192,106011,128,0,106364:0:0:0:0:
192,192,106011,1,0,0:0:0:0:
192,192,106364,1,0,0:0:0:0:
320,192,106364,128,0,106717:0:0:0:0:
448,192,106364,1,0,0:0:0:0:
64,192,106717,1,0,0:0:0:0:
192,192,106717,128,0,107070:0:0:0:0:
64,192,107070,1,0,0:0:0:0:
320,192,107070,1,0,0:0:0:0:
448,192,107070,128,0,107423:0:0:0:0:
192,192,107423,1,0,0:0:0:0:
320,192,107423,128,0,109188:0:0:0:0:
192,192,107776,1,0,0:0:0:0:
448,192,107776,1,0,0:0:0:0:
64,192,108129,1,0,0:0:0:0:
64,192,108482,1,0,0:0:0:0:
192,192,108482,1,0,0:0:0:0:
448,192,108835,1,0,0:0:0:0:
64,192,109188,128,0,109541:0:0:0:0:
192,192,109188,1,0,0:0:0:0:
448,192,109188,1,0,0:0:0:0:
320,192,109541,1,0,0:0:0:0:
448,192,109541,128,0,109893:0:0:0:0:
64,192,109893,1,0,0:0:0:0:
192,192,109893,1,0,0:0:0:0:
320,192,109893,128,0,110246:0:0:0:0:
64,192,110246,128,0,110599:0:0:0:0:
448,192,110246,1,0,0:0:0:0:
192,192,110599,1,0,0:0:0:0:
320,192,110599,1,0,0:0:0:0:
448,192,110599,128,0,111658:0:0:0:0:
192,192,110776,1,0,0:0:0:0:
320,192,110776,1,0,0:0:0:0:
64,192,110952,1,0,0:0:0:0:
64,192,111129,1,0,0:0:0:0:
192,192,111305,1,0,0:0:0:0:
320,192,111305,1,0,0:0:0:0:
64,192,111482,1,0,0:0:0:0:
192,192,111658,1,0,0:0:0:0:
320,192,111658,1,0,0:0:0:0:
64,192,111835,1,0,0:0:0:0:
320,192,112011,1,0,0:0:0:0:
448,192,112011,1,0,0:0:0:0:
64,192,112188,1,0,0:0:0:0:
192,192,112364,1,0,0:0:0:0:
320,192,112364,1,0,0:0:0:0:
448,192,112364,1,0,0:0:0:0:
64,192,112717,1,0,0:0:0:0:
448,192,112717,1,0,0:0:0:0:
192,192,112893,1,0,0:0:0:0:
448,192,113070,1,0,0:0:0:0:
64,192,113246,1,0,0:0:0:0:
192,192,113423,1,0,0:0:0:0:
448,192,113423,128,0,113599:0:0:0:0:
320,192,113599,1,0,0:0:0:0:
64,192,113776,1,0,0:0:0:0:
320,192,114129,1,0,0:0:0:0:
448,192,114129,1,0,0:0:0:0:
64,192,114482,1,0,0:0:0:0:
192,192,114599,1,0,0:0:0:0:
320,192,114717,1,0,0:0:0:0:
64,192,114835,1,0,0:0:0:0:
448,192,114835,1,0,0:0:0:0:
192,192,115011,1,0,0:0:0:0:
320,192,115188,1,0,0:0:0:0:
64,192,115541,1,0,0:0:0:0:
192,192,115541,1,0,0:0:0:0:
448,192,115717,1,0,0:0:0:0:
320,192,115893,1,0,0:0:0:0:
64,192,116246,1,0,0:0:0:0:
448,192,116246,1,0,0:0:0:0:
192,192,116423,1,0,0:0:0:0:
320,192,116599,1,0,0:0:0:0:
64,192,116776,1,0,0:0:0:0:
192,192,116952,1,0,0:0:0:0:
448,192,116952,1,0,0:0:0:0:
320,192,117129,1,0,0:0:0:0:
64,192,117305,1,0,0:0:0:0:
448,192,117482,1,0,0:0:0:0:
64,192,117658,1,0,0:0:0:0:
320,192,117658,1,0,0:0:0:0:
448,192,117835,1,0,0:0:0:0:
192,192,118011,1,0,0:0:0:0:
448,192,118188,1,0,0:0:0:0:
192,192,118364,1,0,0:0:0:0:
320,192,118364,1,0,0:0:0:0:
64,192,118541,1,0,0:0:0:0:
448,192,118717,1,0,0:0:0:0:
192,192,118805,1,0,0:0:0:0:
320,192,118893,1,0,0:0:0:0:
64,192,119070,1,0,0:0:0:0:
448,192,119070,1,0,0:0:0:0:
192,192,119246,1,0,0:0:0:0:
320,192,119423,1,0,0:0:0:0:
192,192,119511,1,0,0:0:0:0:
448,192,119599,1,0,0:0:0:0:
64,192,119776,1,0,0:0:0:0:
320,192,119776,1,0,0:0:0:0:
192,192,119952,1,0,0:0:0:0:
448,192,120129,1,0,0:0:0:0:
320,192,120217,1,0,0:0:0:0:
64,192,120305,1,0,0:0:0:0:
192,192,120482,1,0,0:0:0:0:
448,192,120482,1,0,0:0:0:0:
192,192,120658,1,0,0:0:0:0:
320,192,120658,1,0,0:0:0:0:
64,192,120835,1,0,0:0:0:0:
192,192,120835,1,0,0:0:0:0:
320,192,121011,1,0,0:0:0:0:
192,192,121188,1,0,0:0:0:0:
448,192,121188,1,0,0:0:0:0:
320,192,121364,1,0,0:0:0:0:
64,192,121541,1,0,0:0:0:0:
192,192,121717,1,0,0:0:0:0:
320,192,121893,1,0,0:0:0:0:
448,192,121893,1,0,0:0:0:0:
320,192,122070,1,0,0:0:0:0:
448,192,122070,1,0,0:0:0:0:
64,192,122246,1,0,0:0:0:0:
192,192,122246,1,0,0:0:0:0:
320,192,122423,1,0,0:0:0:0:
448,192,122423,1,0,0:0:0:0:
192,192,122599,1,0,0:0:0:0:
320,192,122776,1,0,0:0:0:0:
448,192,122776,1,0,0:0:0:0:
192,192,122952,1,0,0:0:0:0:
320,192,122952,1,0,0:0:0:0:
64,192,123129,1,0,0:0:0:0:
192,192,123129,1,0,0:0:0:0:
64,192,123305,1,0,0:0:0:0:
192,192,123305,1,0,0:0:0:0:
320,192,123482,1,0,0:0:0:0:
448,192,123482,1,0,0:0:0:0:
64,192,123658,1,0,0:0:0:0:
192,192,123658,1,0,0:0:0:0:
448,192,123658,1,0,0:0:0:0:
64,192,124011,1,0,0:0:0:0:
448,192,124011,1,0,0:0:0:0:
320,192,124188,1,0,0:0:0:0:
64,192,124364,1,0,0:0:0:0:
448,192,124541,1,0,0:0:0:0:
64,192,124717,128,0,124893:0:0:0:0:
320,192,124717,1,0,0:0:0:0:
192,192,124893,1,0,0:0:0:0:
448,192,125070,1,0,0:0:0:0:
64,192,125423,1,0,0:0:0:0:
192,192,125423,1,0,0:0:0:0:
448,192,125776,1,0,0:0:0:0:
320,192,125893,1,0,0:0:0:0:
192,192,126011,1,0,0:0:0:0:
64,192,126129,1,0,0:0:0:0:
448,192,126129,1,0,0:0:0:0:
320,192,126305,1,0,0:0:0:0:
192,192,126482,1,0,0:0:0:0:
320,192,126835,1,0,0:0:0:0:
448,192,126835,1,0,0:0:0:0:
64,192,127011,1,0,0:0:0:0:
192,192,127188,1,0,0:0:0:0:
64,192,127541,1,0,0:0:0:0:
448,192,127541,1,0,0:0:0:0:
320,192,127717,1,0,0:0:0:0:
192,192,127893,1,0,0:0:0:0:
448,192,128070,1,0,0:0:0:0:
64,192,128246,1,0,0:0:0:0:
320,192,128246,1,0,0:0:0:0:
192,192,128423,1,0,0:0:0:0:
448,192,128599,1,0,0:0:0:0:
64,192,128776,1,0,0:0:0:0:
192,192,128952,1,0,0:0:0:0:
448,192,128952,1,0,0:0:0:0:
64,192,129129,1,0,0:0:0:0:
320,192,129305,1,0,0:0:0:0:
64,192,129482,1,0,0:0:0:0:
192,192,129658,1,0,0:0:0:0:
320,192,129658,1,0,0:0:0:0:
448,192,129835,1,0,0:0:0:0:
64,192,130011,1,0,0:0:0:0:
320,192,130099,1,0,0:0:0:0:
192,192,130188,1,0,0:0:0:0:
64,192,130364,1,0,0:0:0:0:
448,192,130364,1,0,0:0:0:0:
320,192,130541,1,0,0:0:0:0:
192,192,130717,1,0,0:0:0:0:
320,192,130805,1,0,0:0:0:0:
64,192,130893,1,0,0:0:0:0:
192,192,131070,1,0,0:0:0:0:
448,192,131070,1,0,0:0:0:0:
320,192,131246,1,0,0:0:0:0:
64,192,131423,1,0,0:0:0:0:
192,192,131511,1,0,0:0:0:0:
448,192,131599,1,0,0:0:0:0:
64,192,131776,1,0,0:0:0:0:
320,192,131776,1,0,0:0:0:0:
192,192,131952,1,0,0:0:0:0:
320,192,131952,1,0,0:0:0:0:
320,192,132129,1,0,0:0:0:0:
448,192,132129,1,0,0:0:0:0:
192,192,132305,1,0,0:0:0:0:
64,192,132482,1,0,0:0:0:0:
320,192,132482,1,0,0:0:0:0:
192,192,132658,1,0,0:0:0:0:
448,192,132835,1,0,0:0:0:0:
320,192,133011,1,0,0:0:0:0:
64,192,133188,1,0,0:0:0:0:
192,192,133188,1,0,0:0:0:0:
64,192,133364,1,0,0:0:0:0:
192,192,133364,1,0,0:0:0:0:
192,192,133541,1,0,0:0:0:0:
320,192,133541,1,0,0:0:0:0:
192,192,133717,1,0,0:0:0:0:
448,192,133717,1,0,0:0:0:0:
320,192,133893,1,0,0:0:0:0:
192,192,134070,1,0,0:0:0:0:
448,192,134070,1,0,0:0:0:0:
192,192,134246,1,0,0:0:0:0:
448,192,134246,1,0,0:0:0:0:
320,192,134423,1,0,0:0:0:0:
64,192,134599,1,0,0:0:0:0:
320,192,134599,1,0,0:0:0:0:
192,192,134776,1,0,0:0:0:0:
64,192,134953,1,0,0:0:0:0:
192,192,134953,1,0,0:0:0:0:
448,192,134953,128,0,141577:0:0:0:0:
192,192,138256,128,0,138809:0:0:0:0:
192,192,138901,128,0,141577:0:0:0:0:
320,192,141577,128,0,142130:0:0:0:0:
320,192,142222,128,0,143237:0:0:0:0:
64,192,143237,128,0,143791:0:0:0:0:
64,192,143883,128,0,144898:0:0:0:0:
448,192,144898,128,0,145446:0:0:0:0:
448,192,145537,128,0,146543:0:0:0:0:
64,192,146543,1,0,0:0:0:0:
192,192,146543,1,0,0:0:0:0:
64,192,146680,1,0,0:0:0:0:
192,192,146680,1,0,0:0:0:0:
64,192,146818,1,0,0:0:0:0:
192,192,146818,1,0,0:0:0:0:
320,192,146956,1,0,0:0:0:0:
192,192,147008,1,0,0:0:0:0:
448,192,147094,1,0,0:0:0:0:
448,192,147232,1,0,0:0:0:0:
64,192,147370,1,0,0:0:0:0:
192,192,147370,1,0,0:0:0:0:
64,192,147508,1,0,0:0:0:0:
192,192,147508,1,0,0:0:0:0:
320,192,147577,1,0,0:0:0:0:
448,192,147577,1,0,0:0:0:0:
64,192,147680,1,0,0:0:0:0:
192,192,147680,1,0,0:0:0:0:
320,192,147784,1,0,0:0:0:0:
448,192,147784,1,0,0:0:0:0:
320,192,147922,1,0,0:0:0:0:
448,192,147922,1,0,0:0:0:0:
320,192,148060,1,0,0:0:0:0:
448,192,148060,1,0,0:0:0:0:
64,192,148198,128,0,149025:0:0:0:0:
192,192,148198,1,0,0:0:0:0:
448,192,148198,1,0,0:0:0:0:
448,192,148474,1,0,0:0:0:0:
192,192,148611,1,0,0:0:0:0:
320,192,148611,1,0,0:0:0:0:
448,192,148749,1,0,0:0:0:0:
448,192,148887,1,0,0:0:0:0:
192,192,149025,128,0,150680:0:0:0:0:
320,192,149025,1,0,0:0:0:0:
320,192,149301,1,0,0:0:0:0:
64,192,149439,1,0,0:0:0:0:
448,192,149439,1,0,0:0:0:0:
320,192,149577,1,0,0:0:0:0:
64,192,149853,1,0,0:0:0:0:
64,192,150129,1,0,0:0:0:0:
320,192,150267,1,0,0:0:0:0:
448,192,150267,1,0,0:0:0:0:
64,192,150405,1,0,0:0:0:0:
320,192,150680,1,0,0:0:0:0:
64,192,150818,1,0,0:0:0:0:
320,192,150956,1,0,0:0:0:0:
192,192,151094,1,0,0:0:0:0:
448,192,151094,1,0,0:0:0:0:
320,192,151232,1,0,0:0:0:0:
192,192,151370,1,0,0:0:0:0:
64,192,151508,1,0,0:0:0:0:
448,192,151508,128,0,152336:0:0:0:0:
192,192,151784,1,0,0:0:0:0:
64,192,151922,1,0,0:0:0:0:
320,192,151922,1,0,0:0:0:0:
192,192,152060,1,0,0:0:0:0:
192,192,152198,1,0,0:0:0:0:
64,192,152336,1,0,0:0:0:0:
320,192,152336,128,0,154129:0:0:0:0:
448,192,152611,1,0,0:0:0:0:
64,192,152749,1,0,0:0:0:0:
192,192,152749,1,0,0:0:0:0:
448,192,152887,1,0,0:0:0:0:
192,192,153163,1,0,0:0:0:0:
192,192,153439,1,0,0:0:0:0:
64,192,153577,1,0,0:0:0:0:
448,192,153577,1,0,0:0:0:0:
192,192,153715,1,0,0:0:0:0:
448,192,153991,1,0,0:0:0:0:
64,192,154129,1,0,0:0:0:0:
320,192,154267,1,0,0:0:0:0:
64,192,154405,1,0,0:0:0:0:
192,192,154405,1,0,0:0:0:0:
64,192,154542,1,0,0:0:0:0:
192,192,154542,1,0,0:0:0:0:
64,192,154680,1,0,0:0:0:0:
192,192,154680,1,0,0:0:0:0:
320,192,154818,128,0,155232:0:0:0:0:
448,192,154818,1,0,0:0:0:0:
64,192,155094,1,0,0:0:0:0:
192,192,155232,128,0,155646:0:0:0:0:
448,192,155232,1,0,0:0:0:0:
64,192,155370,1,0,0:0:0:0:
320,192,155646,1,0,0:0:0:0:
448,192,155646,128,0,156060:0:0:0:0:
320,192,155922,1,0,0:0:0:0:
64,192,156060,128,0,157301:0:0:0:0:
192,192,156060,1,0,0:0:0:0:
320,192,156198,1,0,0:0:0:0:
448,192,156474,1,0,0:0:0:0:
448,192,156749,1,0,0:0:0:0:
192,192,156887,1,0,0:0:0:0:
320,192,156887,1,0,0:0:0:0:
448,192,157025,1,0,0:0:0:0:
448,192,157163,1,0,0:0:0:0:
192,192,157301,1,0,0:0:0:0:
192,192,157577,1,0,0:0:0:0:
64,192,157715,128,0,158129:0:0:0:0:
320,192,157715,1,0,0:0:0:0:
448,192,157715,1,0,0:0:0:0:
320,192,157853,1,0,0:0:0:0:
448,192,157853,1,0,0:0:0:0:
320,192,157991,1,0,0:0:0:0:
448,192,157991,1,0,0:0:0:0:
192,192,158129,128,0,158956:0:0:0:0:
448,192,158129,1,0,0:0:0:0:
64,192,158405,1,0,0:0:0:0:
320,192,158405,1,0,0:0:0:0:
64,192,158680,1,0,0:0:0:0:
320,192,158680,1,0,0:0:0:0:
64,192,158956,1,0,0:0:0:0:
448,192,158956,128,0,159370:0:0:0:0:
320,192,159232,1,0,0:0:0:0:
64,192,159370,1,0,0:0:0:0:
192,192,159370,1,0,0:0:0:0:
320,192,159508,1,0,0:0:0:0:
192,192,159646,1,0,0:0:0:0:
192,192,159784,1,0,0:0:0:0:
448,192,159784,128,0,160611:0:0:0:0:
64,192,159922,1,0,0:0:0:0:
320,192,159991,1,0,0:0:0:0:
64,192,160060,1,0,0:0:0:0:
192,192,160060,1,0,0:0:0:0:
64,192,160198,1,0,0:0:0:0:
192,192,160198,1,0,0:0:0:0:
64,192,160336,1,0,0:0:0:0:
192,192,160336,1,0,0:0:0:0:
64,192,160474,1,0,0:0:0:0:
192,192,160474,1,0,0:0:0:0:
192,192,160611,128,0,161439:0:0:0:0:
320,192,160611,1,0,0:0:0:0:
64,192,160749,1,0,0:0:0:0:
320,192,160887,1,0,0:0:0:0:
448,192,160887,1,0,0:0:0:0:
320,192,161025,1,0,0:0:0:0:
448,192,161025,1,0,0:0:0:0:
320,192,161163,1,0,0:0:0:0:
448,192,161163,1,0,0:0:0:0:
64,192,161301,1,0,0:0:0:0:
448,192,161301,1,0,0:0:0:0:
64,192,161439,128,0,162267:0:0:0:0:
320,192,161439,1,0,0:0:0:0:
448,192,161439,1,0,0:0:0:0:
320,192,161853,1,0,0:0:0:0:
448,192,161853,1,0,0:0:0:0:
192,192,162267,1,0,0:0:0:0:
320,192,162267,1,0,0:0:0:0:
448,192,162267,128,0,164336:0:0:0:0:
64,192,162680,1,0,0:0:0:0:
192,192,162680,1,0,0:0:0:0:
192,192,163094,1,0,0:0:0:0:
320,192,163094,1,0,0:0:0:0:
64,192,163508,1,0,0:0:0:0:
320,192,163508,1,0,0:0:0:0:
192,192,163922,1,0,0:0:0:0:
320,192,163922,1,0,0:0:0:0:
64,192,164336,1,0,0:0:0:0:
192,192,164336,1,0,0:0:0:0:
192,192,164474,1,0,0:0:0:0:
192,192,164611,1,0,0:0:0:0:
64,192,164749,1,0,0:0:0:0:
320,192,164749,128,0,165577:0:0:0:0:
448,192,164749,1,0,0:0:0:0:
192,192,165163,1,0,0:0:0:0:
448,192,165163,1,0,0:0:0:0:
64,192,165577,1,0,0:0:0:0:
192,192,165577,128,0,166818:0:0:0:0:
448,192,165577,1,0,0:0:0:0:
320,192,165991,1,0,0:0:0:0:
448,192,165991,1,0,0:0:0:0:
64,192,166405,1,0,0:0:0:0:
448,192,166405,1,0,0:0:0:0:
64,192,166818,1,0,0:0:0:0:
320,192,166818,1,0,0:0:0:0:
448,192,166818,128,0,167646:0:0:0:0:
64,192,167094,1,0,0:0:0:0:
192,192,167163,1,0,0:0:0:0:
64,192,167232,1,0,0:0:0:0:
320,192,167232,1,0,0:0:0:0:
192,192,167439,1,0,0:0:0:0:
320,192,167439,1,0,0:0:0:0:
192,192,167646,1,0,0:0:0:0:
320,192,167646,1,0,0:0:0:0:
192,192,167853,1,0,0:0:0:0:
320,192,167853,1,0,0:0:0:0:
64,192,168060,128,0,168887:0:0:0:0:
192,192,168060,1,0,0:0:0:0:
448,192,168060,1,0,0:0:0:0:
192,192,168474,1,0,0:0:0:0:
320,192,168474,1,0,0:0:0:0:
192,192,168887,128,0,170129:0:0:0:0:
320,192,168887,1,0,0:0:0:0:
448,192,168887,1,0,0:0:0:0:
64,192,169301,1,0,0:0:0:0:
448,192,169301,1,0,0:0:0:0:
64,192,169715,1,0,0:0:0:0:
320,192,169715,1,0,0:0:0:0:
320,192,170129,1,0,0:0:0:0:
448,192,170129,1,0,0:0:0:0:
64,192,170542,1,0,0:0:0:0:
320,192,170542,1,0,0:0:0:0:
448,192,170542,128,0,171370:0:0:0:0:
64,192,170956,1,0,0:0:0:0:
192,192,170956,1,0,0:0:0:0:
192,192,171094,1,0,0:0:0:0:
192,192,171232,1,0,0:0:0:0:
64,192,171370,1,0,0:0:0:0:
320,192,171370,128,0,173025:0:0:0:0:
64,192,171784,1,0,0:0:0:0:
448,192,171784,1,0,0:0:0:0:
192,192,172198,1,0,0:0:0:0:
448,192,172198,1,0,0:0:0:0:
64,192,172611,1,0,0:0:0:0:
192,192,172611,1,0,0:0:0:0:
64,192,173025,1,0,0:0:0:0:
448,192,173025,1,0,0:0:0:0:
192,192,173163,1,0,0:0:0:0:
448,192,173232,1,0,0:0:0:0:
192,192,173301,1,0,0:0:0:0:
192,192,173439,1,0,0:0:0:0:
448,192,173439,1,0,0:0:0:0:
320,192,173577,1,0,0:0:0:0:
64,192,173646,1,0,0:0:0:0:
320,192,173715,1,0,0:0:0:0:
64,192,173853,1,0,0:0:0:0:
320,192,173853,1,0,0:0:0:0:
448,192,173991,1,0,0:0:0:0:
192,192,174060,1,0,0:0:0:0:
448,192,174129,1,0,0:0:0:0:
192,192,174267,1,0,0:0:0:0:
448,192,174267,1,0,0:0:0:0:
64,192,174405,1,0,0:0:0:0:
320,192,174474,1,0,0:0:0:0:
64,192,174542,1,0,0:0:0:0:
64,192,174680,1,0,0:0:0:0:
192,192,174680,1,0,0:0:0:0:
448,192,174680,1,0,0:0:0:0:
320,192,174818,1,0,0:0:0:0:
64,192,174956,1,0,0:0:0:0:
192,192,175094,1,0,0:0:0:0:
448,192,175094,1,0,0:0:0:0:
320,192,175232,1,0,0:0:0:0:
320,192,175370,1,0,0:0:0:0:
64,192,175508,1,0,0:0:0:0:
448,192,175508,1,0,0:0:0:0:
192,192,175646,1,0,0:0:0:0:
448,192,175784,1,0,0:0:0:0:
320,192,175922,1,0,0:0:0:0:
192,192,176060,1,0,0:0:0:0:
64,192,176198,1,0,0:0:0:0:
320,192,176336,1,0,0:0:0:0:
448,192,176336,1,0,0:0:0:0:
192,192,176474,1,0,0:0:0:0:
192,192,176611,1,0,0:0:0:0:
64,192,176749,1,0,0:0:0:0:
448,192,176749,1,0,0:0:0:0:
320,192,176887,1,0,0:0:0:0:
320,192,177025,1,0,0:0:0:0:
192,192,177163,1,0,0:0:0:0:
448,192,177163,1,0,0:0:0:0:
64,192,177301,1,0,0:0:0:0:
192,192,177439,1,0,0:0:0:0:
320,192,177577,1,0,0:0:0:0:
192,192,177715,1,0,0:0:0:0:
320,192,177853,1,0,0:0:0:0:
64,192,177991,1,0,0:0:0:0:
448,192,177991,1,0,0:0:0:0:
192,192,178129,1,0,0:0:0:0:
448,192,178267,1,0,0:0:0:0:
320,192,178405,1,0,0:0:0:0:
192,192,178542,1,0,0:0:0:0:
192,192,178680,1,0,0:0:0:0:
64,192,178818,1,0,0:0:0:0:
320,192,178818,1,0,0:0:0:0:
320,192,178956,1,0,0:0:0:0:
448,192,179094,1,0,0:0:0:0:
64,192,179232,1,0,0:0:0:0:
192,192,179232,1,0,0:0:0:0:
192,192,179370,1,0,0:0:0:0:
448,192,179508,1,0,0:0:0:0:
192,192,179646,1,0,0:0:0:0:
320,192,179646,1,0,0:0:0:0:
64,192,179784,1,0,0:0:0:0:
192,192,179922,1,0,0:0:0:0:
320,192,180060,1,0,0:0:0:0:
64,192,180198,1,0,0:0:0:0:
192,192,180336,1,0,0:0:0:0:
448,192,180474,1,0,0:0:0:0:
64,192,180611,1,0,0:0:0:0:
320,192,180749,1,0,0:0:0:0:
448,192,180887,1,0,0:0:0:0:
192,192,181025,1,0,0:0:0:0:
320,192,181163,1,0,0:0:0:0:
64,192,181301,1,0,0:0:0:0:
448,192,181301,1,0,0:0:0:0:
192,192,181439,1,0,0:0:0:0:
320,192,181577,1,0,0:0:0:0:
64,192,181715,1,0,0:0:0:0:
192,192,181715,1,0,0:0:0:0:
320,192,181853,1,0,0:0:0:0:
192,192,181991,1,0,0:0:0:0:
320,192,182129,1,0,0:0:0:0:
448,192,182129,1,0,0:0:0:0:
64,192,182267,1,0,0:0:0:0:
192,192,182405,1,0,0:0:0:0:
64,192,182542,1,0,0:0:0:0:
320,192,182542,1,0,0:0:0:0:
192,192,182680,1,0,0:0:0:0:
320,192,182818,1,0,0:0:0:0:
64,192,182956,1,0,0:0:0:0:
448,192,182956,1,0,0:0:0:0:
192,192,183094,1,0,0:0:0:0:
320,192,183232,1,0,0:0:0:0:
192,192,183370,1,0,0:0:0:0:
448,192,183370,1,0,0:0:0:0:
64,192,183508,1,0,0:0:0:0:
320,192,183646,1,0,0:0:0:0:
192,192,183784,1,0,0:0:0:0:
448,192,183784,1,0,0:0:0:0:
64,192,183922,1,0,0:0:0:0:
192,192,184060,1,0,0:0:0:0:
320,192,184198,1,0,0:0:0:0:
448,192,184198,1,0,0:0:0:0:
192,192,184336,1,0,0:0:0:0:
320,192,184474,1,0,0:0:0:0:
64,192,184611,1,0,0:0:0:0:
448,192,184611,1,0,0:0:0:0:
192,192,184749,1,0,0:0:0:0:
320,192,184887,1,0,0:0:0:0:
448,192,184887,1,0,0:0:0:0:
64,192,185025,1,0,0:0:0:0:
192,192,185163,1,0,0:0:0:0:
448,192,185163,1,0,0:0:0:0:
320,192,185301,1,0,0:0:0:0:
64,192,185439,1,0,0:0:0:0:
192,192,185439,1,0,0:0:0:0:
320,192,185577,1,0,0:0:0:0:
192,192,185715,1,0,0:0:0:0:
64,192,185853,1,0,0:0:0:0:
448,192,185853,1,0,0:0:0:0:
320,192,185991,1,0,0:0:0:0:
192,192,186129,1,0,0:0:0:0:
64,192,186267,1,0,0:0:0:0:
320,192,186267,1,0,0:0:0:0:
448,192,186405,1,0,0:0:0:0:
192,192,186474,1,0,0:0:0:0:
448,192,186542,1,0,0:0:0:0:
192,192,186680,1,0,0:0:0:0:
448,192,186680,1,0,0:0:0:0:
192,192,186818,1,0,0:0:0:0:
320,192,186818,1,0,0:0:0:0:
64,192,186956,1,0,0:0:0:0:
320,192,186956,1,0,0:0:0:0:
64,192,187094,1,0,0:0:0:0:
448,192,187094,1,0,0:0:0:0:
192,192,187232,1,0,0:0:0:0:
320,192,187370,1,0,0:0:0:0:
448,192,187370,1,0,0:0:0:0:
320,192,187508,1,0,0:0:0:0:
448,192,187508,1,0,0:0:0:0:
320,192,187646,1,0,0:0:0:0:
448,192,187646,1,0,0:0:0:0:
64,192,187784,1,0,0:0:0:0:
64,192,187922,1,0,0:0:0:0:
320,192,187922,1,0,0:0:0:0:
448,192,187922,1,0,0:0:0:0:
192,192,188060,1,0,0:0:0:0:
320,192,188198,1,0,0:0:0:0:
192,192,188336,1,0,0:0:0:0:
448,192,188336,1,0,0:0:0:0:
320,192,188474,1,0,0:0:0:0:
192,192,188611,1,0,0:0:0:0:
64,192,188749,1,0,0:0:0:0:
448,192,188749,1,0,0:0:0:0:
320,192,188887,1,0,0:0:0:0:
192,192,189025,1,0,0:0:0:0:
64,192,189163,1,0,0:0:0:0:
320,192,189163,1,0,0:0:0:0:
448,192,189301,1,0,0:0:0:0:
320,192,189439,1,0,0:0:0:0:
192,192,189577,1,0,0:0:0:0:
448,192,189577,1,0,0:0:0:0:
64,192,189715,1,0,0:0:0:0:
192,192,189853,1,0,0:0:0:0:
64,192,189991,1,0,0:0:0:0:
320,192,189991,1,0,0:0:0:0:
192,192,190129,1,0,0:0:0:0:
320,192,190267,1,0,0:0:0:0:
64,192,190405,1,0,0:0:0:0:
448,192,190405,1,0,0:0:0:0:
192,192,190542,1,0,0:0:0:0:
448,192,190680,1,0,0:0:0:0:
64,192,190818,1,0,0:0:0:0:
320,192,190818,1,0,0:0:0:0:
320,192,190956,1,0,0:0:0:0:
320,192,191094,1,0,0:0:0:0:
192,192,191232,1,0,0:0:0:0:
448,192,191232,1,0,0:0:0:0:
64,192,191370,1,0,0:0:0:0:
192,192,191508,1,0,0:0:0:0:
320,192,191646,1,0,0:0:0:0:
448,192,191646,1,0,0:0:0:0:
192,192,191784,1,0,0:0:0:0:
320,192,191922,1,0,0:0:0:0:
64,192,192060,1,0,0:0:0:0:
448,192,192060,1,0,0:0:0:0:
320,192,192198,1,0,0:0:0:0:
192,192,192336,1,0,0:0:0:0:
64,192,192474,1,0,0:0:0:0:
320,192,192474,1,0,0:0:0:0:
192,192,192611,1,0,0:0:0:0:
320,192,192749,1,0,0:0:0:0:
64,192,192887,1,0,0:0:0:0:
448,192,192887,1,0,0:0:0:0:
192,192,193025,1,0,0:0:0:0:
320,192,193163,1,0,0:0:0:0:
448,192,193163,1,0,0:0:0:0:
192,192,193301,1,0,0:0:0:0:
64,192,193439,1,0,0:0:0:0:
448,192,193439,1,0,0:0:0:0:
192,192,193508,1,0,0:0:0:0:
320,192,193577,1,0,0:0:0:0:
64,192,193646,1,0,0:0:0:0:
192,192,193715,1,0,0:0:0:0:
448,192,193715,1,0,0:0:0:0:
320,192,193853,1,0,0:0:0:0:
64,192,193991,1,0,0:0:0:0:
192,192,193991,1,0,0:0:0:0:
320,192,194129,1,0,0:0:0:0:
64,192,194267,1,0,0:0:0:0:
448,192,194267,1,0,0:0:0:0:
192,192,194405,1,0,0:0:0:0:
320,192,194542,1,0,0:0:0:0:
448,192,194542,1,0,0:0:0:0:
192,192,194680,1,0,0:0:0:0:
64,192,194818,1,0,0:0:0:0:
192,192,194956,1,0,0:0:0:0:
448,192,194956,1,0,0:0:0:0:
64,192,195094,1,0,0:0:0:0:
192,192,195232,1,0,0:0:0:0:
320,192,195370,1,0,0:0:0:0:
448,192,195370,1,0,0:0:0:0:
192,192,195508,1,0,0:0:0:0:
448,192,195646,1,0,0:0:0:0:
64,192,195784,1,0,0:0:0:0:
320,192,195784,1,0,0:0:0:0:
192,192,195922,1,0,0:0:0:0:
320,192,196060,1,0,0:0:0:0:
64,192,196198,1,0,0:0:0:0:
448,192,196198,1,0,0:0:0:0:
192,192,196336,1,0,0:0:0:0:
448,192,196474,1,0,0:0:0:0:
64,192,196611,1,0,0:0:0:0:
320,192,196611,1,0,0:0:0:0:
192,192,196749,1,0,0:0:0:0:
64,192,196887,1,0,0:0:0:0:
192,192,197025,1,0,0:0:0:0:
448,192,197025,1,0,0:0:0:0:
320,192,197163,1,0,0:0:0:0:
192,192,197301,1,0,0:0:0:0:
64,192,197439,1,0,0:0:0:0:
448,192,197439,1,0,0:0:0:0:
448,192,197577,1,0,0:0:0:0:
448,192,197715,1,0,0:0:0:0:
64,192,197853,1,0,0:0:0:0:
192,192,197853,1,0,0:0:0:0:
320,192,197991,1,0,0:0:0:0:
192,192,198129,1,0,0:0:0:0:
448,192,198129,1,0,0:0:0:0:
320,192,198267,1,0,0:0:0:0:
64,192,198405,1,0,0:0:0:0:
448,192,198405,1,0,0:0:0:0:
64,192,198542,1,0,0:0:0:0:
192,192,198680,1,0,0:0:0:0:
448,192,198680,1,0,0:0:0:0:
320,192,198818,1,0,0:0:0:0:
192,192,198956,1,0,0:0:0:0:
64,192,199094,1,0,0:0:0:0:
448,192,199094,1,0,0:0:0:0:
192,192,199232,1,0,0:0:0:0:
320,192,199370,1,0,0:0:0:0:
192,192,199508,1,0,0:0:0:0:
448,192,199508,1,0,0:0:0:0:
320,192,199646,1,0,0:0:0:0:
64,192,199784,1,0,0:0:0:0:
192,192,199784,1,0,0:0:0:0:
320,192,199922,1,0,0:0:0:0:
64,192,200060,1,0,0:0:0:0:
448,192,200060,1,0,0:0:0:0:
192,192,200198,1,0,0:0:0:0:
320,192,200336,1,0,0:0:0:0:
448,192,200336,1,0,0:0:0:0:
64,192,200474,1,0,0:0:0:0:
320,192,200542,1,0,0:0:0:0:
192,192,200611,1,0,0:0:0:0:
448,192,200680,1,0,0:0:0:0:
64,192,200749,1,0,0:0:0:0:
320,192,200749,1,0,0:0:0:0:
192,192,200887,1,0,0:0:0:0:
64,192,201025,1,0,0:0:0:0:
320,192,201025,1,0,0:0:0:0:
64,192,201164,1,0,0:0:0:0:
448,192,201164,1,0,0:0:0:0:
192,192,201306,1,0,0:0:0:0:
320,192,201449,1,0,0:0:0:0:
448,192,201592,1,0,0:0:0:0:
192,192,201735,1,0,0:0:0:0:
448,192,201735,1,0,0:0:0:0:
64,192,201878,1,0,0:0:0:0:
64,192,202021,1,0,0:0:0:0:
448,192,202021,1,0,0:0:0:0:
320,192,202164,1,0,0:0:0:0:
64,192,202306,1,0,0:0:0:0:
320,192,202306,1,0,0:0:0:0:
192,192,202449,1,0,0:0:0:0:
192,192,202592,1,0,0:0:0:0:
448,192,202592,1,0,0:0:0:0:
320,192,202735,1,0,0:0:0:0:
64,192,202878,1,0,0:0:0:0:
320,192,202878,1,0,0:0:0:0:
448,192,203021,1,0,0:0:0:0:
448,192,203164,1,0,0:0:0:0:
64,192,203306,1,0,0:0:0:0:
320,192,203306,1,0,0:0:0:0:
192,192,203449,1,0,0:0:0:0:
320,192,203521,1,0,0:0:0:0:
192,192,203592,1,0,0:0:0:0:
64,192,203735,1,0,0:0:0:0:
320,192,203735,1,0,0:0:0:0:
192,192,203878,1,0,0:0:0:0:
448,192,203949,1,0,0:0:0:0:
192,192,204021,1,0,0:0:0:0:
64,192,204164,1,0,0:0:0:0:
320,192,204164,1,0,0:0:0:0:
448,192,204306,1,0,0:0:0:0:
448,192,204449,1,0,0:0:0:0:
64,192,204592,1,0,0:0:0:0:
320,192,204592,1,0,0:0:0:0:
192,192,204735,1,0,0:0:0:0:
320,192,204806,1,0,0:0:0:0:
192,192,204878,1,0,0:0:0:0:
64,192,205021,1,0,0:0:0:0:
320,192,205021,1,0,0:0:0:0:
448,192,205021,1,0,0:0:0:0:
192,192,205306,1,0,0:0:0:0:
320,192,205306,1,0,0:0:0:0:
448,192,205306,1,0,0:0:0:0:
64,192,205450,1,0,0:0:0:0:
320,192,205450,1,0,0:0:0:0:
448,192,205450,1,0,0:0:0:0:
192,192,205524,1,0,0:0:0:0:
320,192,205598,1,0,0:0:0:0:
64,192,205672,1,0,0:0:0:0:
448,192,205672,1,0,0:0:0:0:
192,192,205746,1,0,0:0:0:0:
320,192,205820,1,0,0:0:0:0:
448,192,205820,1,0,0:0:0:0:
192,192,205894,1,0,0:0:0:0:
64,192,205968,1,0,0:0:0:0:
448,192,205968,1,0,0:0:0:0:
320,192,206042,1,0,0:0:0:0:
64,192,206116,1,0,0:0:0:0:
192,192,206116,1,0,0:0:0:0:
448,192,206190,1,0,0:0:0:0:
192,192,206264,1,0,0:0:0:0:
320,192,206264,1,0,0:0:0:0:
64,192,206338,1,0,0:0:0:0:
448,192,206412,1,0,0:0:0:0:
64,192,206487,1,0,0:0:0:0:
320,192,206487,1,0,0:0:0:0:
192,192,206635,1,0,0:0:0:0:
64,192,206783,1,0,0:0:0:0:
320,192,206783,1,0,0:0:0:0:
192,192,206931,1,0,0:0:0:0:
64,192,207079,1,0,0:0:0:0:
320,192,207079,1,0,0:0:0:0:
192,192,207227,1,0,0:0:0:0:
448,192,207227,1,0,0:0:0:0:
320,192,207301,1,0,0:0:0:0:
192,192,207375,1,0,0:0:0:0:
64,192,207449,1,0,0:0:0:0:
448,192,207449,1,0,0:0:0:0:
320,192,207524,1,0,0:0:0:0:
64,192,207598,1,0,0:0:0:0:
192,192,207598,1,0,0:0:0:0:
448,192,207672,1,0,0:0:0:0:
192,192,207746,1,0,0:0:0:0:
320,192,207746,1,0,0:0:0:0:
64,192,207820,1,0,0:0:0:0:
320,192,207894,1,0,0:0:0:0:
448,192,207894,1,0,0:0:0:0:
192,192,207968,1,0,0:0:0:0:
64,192,208042,1,0,0:0:0:0:
320,192,208042,1,0,0:0:0:0:
448,192,208116,1,0,0:0:0:0:
64,192,208190,1,0,0:0:0:0:
192,192,208190,1,0,0:0:0:0:
320,192,208264,1,0,0:0:0:0:
64,192,208338,1,0,0:0:0:0:
448,192,208338,1,0,0:0:0:0:
192,192,208412,1,0,0:0:0:0:
320,192,208487,1,0,0:0:0:0:
448,192,208487,1,0,0:0:0:0:
64,192,208561,1,0,0:0:0:0:
192,192,208635,1,0,0:0:0:0:
320,192,208635,1,0,0:0:0:0:
448,192,208709,1,0,0:0:0:0:
64,192,208783,1,0,0:0:0:0:
192,192,208783,1,0,0:0:0:0:
320,192,208857,1,0,0:0:0:0:
64,192,208931,1,0,0:0:0:0:
448,192,208931,1,0,0:0:0:0:
192,192,209005,1,0,0:0:0:0:
320,192,209079,1,0,0:0:0:0:
448,192,209079,1,0,0:0:0:0:
192,192,209153,1,0,0:0:0:0:
64,192,209227,1,0,0:0:0:0:
448,192,209227,1,0,0:0:0:0:
320,192,209301,1,0,0:0:0:0:
64,192,209375,1,0,0:0:0:0:
192,192,209375,1,0,0:0:0:0:
448,192,209449,1,0,0:0:0:0:
64,192,209524,1,0,0:0:0:0:
320,192,209524,1,0,0:0:0:0:
192,192,209598,1,0,0:0:0:0:
320,192,209672,1,0,0:0:0:0:
448,192,209672,1,0,0:0:0:0:
64,192,209746,1,0,0:0:0:0:
192,192,209820,1,0,0:0:0:0:
320,192,209894,1,0,0:0:0:0:
448,192,209894,1,0,0:0:0:0:
64,192,209968,1,0,0:0:0:0:
192,192,210042,1,0,0:0:0:0:
448,192,210042,1,0,0:0:0:0:
320,192,210190,1,0,0:0:0:0:
192,192,210338,1,0,0:0:0:0:
448,192,210338,1,0,0:0:0:0:
320,192,210487,1,0,0:0:0:0:
192,192,210635,1,0,0:0:0:0:
448,192,210635,1,0,0:0:0:0:
64,192,210783,1,0,0:0:0:0:
320,192,210783,1,0,0:0:0:0:
192,192,210857,1,0,0:0:0:0:
320,192,210931,1,0,0:0:0:0:
64,192,211005,1,0,0:0:0:0:
448,192,211005,1,0,0:0:0:0:
192,192,211079,1,0,0:0:0:0:
320,192,211153,1,0,0:0:0:0:
64,192,211227,1,0,0:0:0:0:
448,192,211227,1,0,0:0:0:0:
64,192,211375,1,0,0:0:0:0:
192,192,211524,1,0,0:0:0:0:
320,192,211524,1,0,0:0:0:0:
320,192,211672,1,0,0:0:0:0:
64,192,211820,1,0,0:0:0:0:
192,192,211820,1,0,0:0:0:0:
448,192,211820,1,0,0:0:0:0:
64,192,211968,1,0,0:0:0:0:
192,192,211968,1,0,0:0:0:0:
448,192,211968,1,0,0:0:0:0:
320,192,212116,1,0,0:0:0:0:
64,192,212264,1,0,0:0:0:0:
192,192,212264,1,0,0:0:0:0:
64,192,212412,1,0,0:0:0:0:
192,192,212412,1,0,0:0:0:0:
64,192,212561,1,0,0:0:0:0:
192,192,212561,1,0,0:0:0:0:
448,192,212561,1,0,0:0:0:0:
320,192,212635,1,0,0:0:0:0:
192,192,212709,1,0,0:0:0:0:
64,192,212783,1,0,0:0:0:0:
448,192,212783,1,0,0:0:0:0:
320,192,212857,1,0,0:0:0:0:
64,192,212931,1,0,0:0:0:0:
192,192,212931,1,0,0:0:0:0:
320,192,213005,1,0,0:0:0:0:
64,192,213079,1,0,0:0:0:0:
448,192,213079,1,0,0:0:0:0:
192,192,213153,1,0,0:0:0:0:
320,192,213227,1,0,0:0:0:0:
448,192,213227,1,0,0:0:0:0:
64,192,213301,1,0,0:0:0:0:
192,192,213375,1,0,0:0:0:0:
320,192,213375,1,0,0:0:0:0:
448,192,213449,1,0,0:0:0:0:
64,192,213524,1,0,0:0:0:0:
192,192,213598,1,0,0:0:0:0:
448,192,213598,1,0,0:0:0:0:
320,192,213746,1,0,0:0:0:0:
192,192,213894,1,0,0:0:0:0:
448,192,213894,1,0,0:0:0:0:
320,192,214042,1,0,0:0:0:0:
192,192,214190,1,0,0:0:0:0:
448,192,214190,1,0,0:0:0:0:
64,192,214338,1,0,0:0:0:0:
320,192,214338,1,0,0:0:0:0:
192,192,214412,1,0,0:0:0:0:
320,192,214487,1,0,0:0:0:0:
64,192,214561,1,0,0:0:0:0:
448,192,214561,1,0,0:0:0:0:
192,192,214635,1,0,0:0:0:0:
320,192,214709,1,0,0:0:0:0:
448,192,214709,1,0,0:0:0:0:
64,192,214783,1,0,0:0:0:0:
192,192,214857,1,0,0:0:0:0:
320,192,214857,1,0,0:0:0:0:
448,192,214931,1,0,0:0:0:0:
64,192,215005,1,0,0:0:0:0:
192,192,215005,1,0,0:0:0:0:
320,192,215079,1,0,0:0:0:0:
192,192,215153,1,0,0:0:0:0:
448,192,215153,1,0,0:0:0:0:
64,192,215227,1,0,0:0:0:0:
320,192,215301,1,0,0:0:0:0:
448,192,215301,1,0,0:0:0:0:
192,192,215375,1,0,0:0:0:0:
64,192,215449,1,0,0:0:0:0:
448,192,215449,1,0,0:0:0:0:
320,192,215524,1,0,0:0:0:0:
64,192,215598,1,0,0:0:0:0:
192,192,215598,1,0,0:0:0:0:
448,192,215672,1,0,0:0:0:0:
192,192,215746,1,0,0:0:0:0:
320,192,215746,1,0,0:0:0:0:
64,192,215820,1,0,0:0:0:0:
320,192,215894,1,0,0:0:0:0:
448,192,215894,1,0,0:0:0:0:
192,192,215968,1,0,0:0:0:0:
64,192,216042,1,0,0:0:0:0:
448,192,216042,1,0,0:0:0:0:
320,192,216116,1,0,0:0:0:0:
64,192,216190,1,0,0:0:0:0:
192,192,216190,1,0,0:0:0:0:
320,192,216264,1,0,0:0:0:0:
64,192,216338,1,0,0:0:0:0:
448,192,216338,1,0,0:0:0:0:
192,192,216412,1,0,0:0:0:0:
320,192,216487,1,0,0:0:0:0:
448,192,216487,1,0,0:0:0:0:
64,192,216561,1,0,0:0:0:0:
192,192,216635,1,0,0:0:0:0:
448,192,216635,1,0,0:0:0:0:
320,192,216709,1,0,0:0:0:0:
64,192,216783,1,0,0:0:0:0:
192,192,216783,1,0,0:0:0:0:
448,192,216857,1,0,0:0:0:0:
320,192,216931,1,0,0:0:0:0:
64,192,217005,1,0,0:0:0:0:
192,192,217005,1,0,0:0:0:0:
448,192,217079,1,0,0:0:0:0:
64,192,217153,1,0,0:0:0:0:
320,192,217153,1,0,0:0:0:0:
192,192,217301,1,0,0:0:0:0:
64,192,217449,1,0,0:0:0:0:
320,192,217449,1,0,0:0:0:0:
192,192,217598,1,0,0:0:0:0:
64,192,217746,1,0,0:0:0:0:
320,192,217746,1,0,0:0:0:0:
192,192,217894,1,0,0:0:0:0:
448,192,217894,1,0,0:0:0:0:
320,192,217968,1,0,0:0:0:0:
192,192,218042,1,0,0:0:0:0:
64,192,218116,1,0,0:0:0:0:
448,192,218116,1,0,0:0:0:0:
320,192,218190,1,0,0:0:0:0:
192,192,218264,1,0,0:0:0:0:
448,192,218264,1,0,0:0:0:0:
320,192,218338,1,0,0:0:0:0:
64,192,218412,1,0,0:0:0:0:
192,192,218412,1,0,0:0:0:0:
320,192,218487,1,0,0:0:0:0:
64,192,218561,1,0,0:0:0:0:
448,192,218561,1,0,0:0:0:0:
192,192,218635,1,0,0:0:0:0:
320,192,218709,1,0,0:0:0:0:
448,192,218709,1,0,0:0:0:0:
64,192,218783,1,0,0:0:0:0:
192,192,218857,1,0,0:0:0:0:
320,192,218857,1,0,0:0:0:0:
448,192,218931,1,0,0:0:0:0:
64,192,219005,1,0,0:0:0:0:
192,192,219005,1,0,0:0:0:0:
320,192,219079,1,0,0:0:0:0:
192,192,219153,1,0,0:0:0:0:
448,192,219153,1,0,0:0:0:0:
64,192,219227,1,0,0:0:0:0:
320,192,219301,1,0,0:0:0:0:
448,192,219301,1,0,0:0:0:0:
192,192,219375,1,0,0:0:0:0:
64,192,219449,1,0,0:0:0:0:
448,192,219449,1,0,0:0:0:0:
320,192,219524,1,0,0:0:0:0:
64,192,219598,1,0,0:0:0:0:
192,192,219598,1,0,0:0:0:0:
320,192,219672,1,0,0:0:0:0:
448,192,219672,1,0,0:0:0:0:
64,192,219820,1,0,0:0:0:0:
192,192,219820,1,0,0:0:0:0:
320,192,219894,1,0,0:0:0:0:
448,192,219894,1,0,0:0:0:0:
64,192,219968,1,0,0:0:0:0:
192,192,219968,1,0,0:0:0:0:
64,192,220116,1,0,0:0:0:0:
192,192,220116,1,0,0:0:0:0:
64,192,220264,1,0,0:0:0:0:
192,192,220264,1,0,0:0:0:0:
64,192,220412,1,0,0:0:0:0:
192,192,220412,1,0,0:0:0:0:
64,192,220561,1,0,0:0:0:0:
192,192,220561,1,0,0:0:0:0:
320,192,220709,1,0,0:0:0:0:
448,192,220709,1,0,0:0:0:0:
64,192,220783,1,0,0:0:0:0:
192,192,220783,1,0,0:0:0:0:
320,192,220857,1,0,0:0:0:0:
448,192,220857,1,0,0:0:0:0:
320,192,221005,1,0,0:0:0:0:
448,192,221005,1,0,0:0:0:0:
320,192,221153,1,0,0:0:0:0:
448,192,221153,1,0,0:0:0:0:
320,192,221301,1,0,0:0:0:0:
448,192,221301,1,0,0:0:0:0:
320,192,221449,1,0,0:0:0:0:
448,192,221449,1,0,0:0:0:0:
320,192,221598,1,0,0:0:0:0:
448,192,221598,1,0,0:0:0:0:
320,192,221746,1,0,0:0:0:0:
448,192,221746,1,0,0:0:0:0:
64,192,221894,1,0,0:0:0:0:
64,192,222042,1,0,0:0:0:0:
192,192,222042,1,0,0:0:0:0:
64,192,222190,1,0,0:0:0:0:
192,192,222190,1,0,0:0:0:0:
448,192,222338,1,0,0:0:0:0:
192,192,222487,1,0,0:0:0:0:
192,192,222635,1,0,0:0:0:0:
448,192,222635,1,0,0:0:0:0:
320,192,222783,1,0,0:0:0:0:
64,192,222931,1,0,0:0:0:0:
192,192,222931,1,0,0:0:0:0:
64,192,223079,1,0,0:0:0:0:
192,192,223079,1,0,0:0:0:0:
448,192,223227,1,0,0:0:0:0:
64,192,223375,1,0,0:0:0:0:
192,192,223375,1,0,0:0:0:0:
320,192,223524,1,0,0:0:0:0:
64,192,223672,1,0,0:0:0:0:
192,192,223672,1,0,0:0:0:0:
64,192,223820,1,0,0:0:0:0:
192,192,223820,1,0,0:0:0:0:
64,192,223968,1,0,0:0:0:0:
192,192,223968,1,0,0:0:0:0:
64,192,224116,1,0,0:0:0:0:
320,192,224116,1,0,0:0:0:0:
448,192,224116,128,0,225894:0:0:0:0:
192,192,224412,1,0,0:0:0:0:
192,192,224561,1,0,0:0:0:0:
64,192,224709,1,0,0:0:0:0:
64,192,224857,1,0,0:0:0:0:
192,192,225005,1,0,0:0:0:0:
320,192,225005,1,0,0:0:0:0:
64,192,225301,1,0,0:0:0:0:
64,192,225449,1,0,0:0:0:0:
320,192,225598,1,0,0:0:0:0:
320,192,225746,1,0,0:0:0:0:
64,192,225894,1,0,0:0:0:0:
192,192,225894,128,0,227672:0:0:0:0:
320,192,226190,1,0,0:0:0:0:
64,192,226338,1,0,0:0:0:0:
448,192,226338,1,0,0:0:0:0:
320,192,226487,1,0,0:0:0:0:
64,192,226635,1,0,0:0:0:0:
320,192,226783,1,0,0:0:0:0:
448,192,226783,1,0,0:0:0:0:
64,192,226931,1,0,0:0:0:0:
320,192,227079,1,0,0:0:0:0:
64,192,227227,1,0,0:0:0:0:
448,192,227227,1,0,0:0:0:0:
448,192,227524,1,0,0:0:0:0:
320,192,227672,128,0,228116:0:0:0:0:
448,192,227672,1,0,0:0:0:0:
192,192,227968,1,0,0:0:0:0:
64,192,228116,128,0,231227:0:0:0:0:
192,192,228116,1,0,0:0:0:0:
448,192,228264,1,0,0:0:0:0:
448,192,228412,1,0,0:0:0:0:
192,192,228561,1,0,0:0:0:0:
320,192,228561,1,0,0:0:0:0:
448,192,228857,1,0,0:0:0:0:
448,192,229005,1,0,0:0:0:0:
320,192,229153,1,0,0:0:0:0:
320,192,229301,1,0,0:0:0:0:
192,192,229449,1,0,0:0:0:0:
448,192,229449,1,0,0:0:0:0:
320,192,229746,1,0,0:0:0:0:
192,192,229894,1,0,0:0:0:0:
448,192,229894,1,0,0:0:0:0:
448,192,230042,1,0,0:0:0:0:
192,192,230190,1,0,0:0:0:0:
320,192,230190,1,0,0:0:0:0:
192,192,230338,1,0,0:0:0:0:
320,192,230487,1,0,0:0:0:0:
448,192,230487,1,0,0:0:0:0:
192,192,230635,1,0,0:0:0:0:
320,192,230635,1,0,0:0:0:0:
448,192,230783,1,0,0:0:0:0:
192,192,230931,1,0,0:0:0:0:
320,192,230931,1,0,0:0:0:0:
320,192,231079,1,0,0:0:0:0:
448,192,231079,1,0,0:0:0:0:
192,192,231227,1,0,0:0:0:0:
448,192,231227,128,0,232561:0:0:0:0:
320,192,231524,1,0,0:0:0:0:
320,192,231672,1,0,0:0:0:0:
192,192,231820,1,0,0:0:0:0:
192,192,231968,1,0,0:0:0:0:
64,192,232116,1,0,0:0:0:0:
320,192,232116,1,0,0:0:0:0:
192,192,232412,1,0,0:0:0:0:
64,192,232561,1,0,0:0:0:0:
192,192,232561,128,0,233449:0:0:0:0:
320,192,232709,1,0,0:0:0:0:
320,192,232857,1,0,0:0:0:0:
64,192,233005,1,0,0:0:0:0:
448,192,233005,1,0,0:0:0:0:
448,192,233301,1,0,0:0:0:0:
64,192,233449,1,0,0:0:0:0:
320,192,233449,128,0,234338:0:0:0:0:
448,192,233598,1,0,0:0:0:0:
64,192,233746,1,0,0:0:0:0:
192,192,233894,1,0,0:0:0:0:
448,192,233894,1,0,0:0:0:0:
64,192,234042,1,0,0:0:0:0:
448,192,234190,1,0,0:0:0:0:
64,192,234338,128,0,236561:0:0:0:0:
192,192,234338,1,0,0:0:0:0:
448,192,234635,1,0,0:0:0:0:
192,192,234783,1,0,0:0:0:0:
448,192,234783,1,0,0:0:0:0:
320,192,235079,1,0,0:0:0:0:
320,192,235227,1,0,0:0:0:0:
448,192,235375,1,0,0:0:0:0:
448,192,235524,1,0,0:0:0:0:
192,192,235672,1,0,0:0:0:0:
320,192,235672,1,0,0:0:0:0:
448,192,235968,1,0,0:0:0:0:
448,192,236116,1,0,0:0:0:0:
320,192,236264,1,0,0:0:0:0:
320,192,236412,1,0,0:0:0:0:
192,192,236561,1,0,0:0:0:0:
448,192,236561,128,0,238338:0:0:0:0:
64,192,236857,1,0,0:0:0:0:
64,192,237005,1,0,0:0:0:0:
320,192,237153,1,0,0:0:0:0:
320,192,237301,1,0,0:0:0:0:
64,192,237449,1,0,0:0:0:0:
192,192,237449,1,0,0:0:0:0:
320,192,237598,1,0,0:0:0:0:
192,192,237672,1,0,0:0:0:0:
64,192,237746,1,0,0:0:0:0:
320,192,237746,1,0,0:0:0:0:
64,192,237894,1,0,0:0:0:0:
192,192,237894,1,0,0:0:0:0:
64,192,238190,1,0,0:0:0:0:
192,192,238338,1,0,0:0:0:0:
320,192,238338,1,0,0:0:0:0:
448,192,238487,1,0,0:0:0:0:
64,192,238635,1,0,0:0:0:0:
320,192,238635,1,0,0:0:0:0:
192,192,238783,1,0,0:0:0:0:
320,192,238931,1,0,0:0:0:0:
448,192,238931,1,0,0:0:0:0:
64,192,239079,1,0,0:0:0:0:
64,192,239227,1,0,0:0:0:0:
320,192,239227,1,0,0:0:0:0:
192,192,239375,1,0,0:0:0:0:
64,192,239524,1,0,0:0:0:0:
448,192,239524,1,0,0:0:0:0:
320,192,239672,1,0,0:0:0:0:
192,192,239820,1,0,0:0:0:0:
448,192,239820,1,0,0:0:0:0:
320,192,239968,1,0,0:0:0:0:
64,192,240116,1,0,0:0:0:0:
320,192,240116,1,0,0:0:0:0:
192,192,240264,1,0,0:0:0:0:
320,192,240412,1,0,0:0:0:0:
64,192,240561,1,0,0:0:0:0:
448,192,240561,1,0,0:0:0:0:
192,192,240709,1,0,0:0:0:0:
320,192,240783,1,0,0:0:0:0:
192,192,240857,1,0,0:0:0:0:
64,192,241005,1,0,0:0:0:0:
448,192,241005,1,0,0:0:0:0:
320,192,241153,1,0,0:0:0:0:
192,192,241227,1,0,0:0:0:0:
320,192,241301,1,0,0:0:0:0:
192,192,241449,1,0,0:0:0:0:
448,192,241449,1,0,0:0:0:0:
64,192,241598,1,0,0:0:0:0:
320,192,241672,1,0,0:0:0:0:
64,192,241746,1,0,0:0:0:0:
192,192,241894,1,0,0:0:0:0:
320,192,241894,1,0,0:0:0:0:
448,192,242042,1,0,0:0:0:0:
64,192,242116,1,0,0:0:0:0:
448,192,242190,1,0,0:0:0:0:
64,192,242338,1,0,0:0:0:0:
192,192,242338,1,0,0:0:0:0:
320,192,242338,1,0,0:0:0:0:
64,192,242635,1,0,0:0:0:0:
192,192,242635,1,0,0:0:0:0:
64,192,242783,1,0,0:0:0:0:
320,192,242783,1,0,0:0:0:0:
448,192,242783,128,0,243075:0:0:0:0:
192,192,243075,128,0,243368:0:0:0:0:
320,192,243075,1,0,0:0:0:0:
320,192,243368,1,0,0:0:0:0:
448,192,243368,1,0,0:0:0:0:
64,192,243441,1,0,0:0:0:0:
192,192,243441,1,0,0:0:0:0:
320,192,243514,1,0,0:0:0:0:
448,192,243514,1,0,0:0:0:0:
192,192,243587,1,0,0:0:0:0:
64,192,243661,128,0,243953:0:0:0:0:
320,192,243661,1,0,0:0:0:0:
192,192,243953,1,0,0:0:0:0:
448,192,243953,1,0,0:0:0:0:
320,192,244026,1,0,0:0:0:0:
64,192,244100,1,0,0:0:0:0:
448,192,244100,1,0,0:0:0:0:
192,192,244173,1,0,0:0:0:0:
64,192,244246,1,0,0:0:0:0:
320,192,244246,128,0,244539:0:0:0:0:
64,192,244539,1,0,0:0:0:0:
192,192,244539,1,0,0:0:0:0:
448,192,244539,1,0,0:0:0:0:
192,192,244685,1,0,0:0:0:0:
320,192,244685,1,0,0:0:0:0:
64,192,244831,1,0,0:0:0:0:
448,192,244831,1,0,0:0:0:0:
192,192,244904,1,0,0:0:0:0:
320,192,244978,1,0,0:0:0:0:
448,192,244978,1,0,0:0:0:0:
64,192,245124,1,0,0:0:0:0:
192,192,245124,1,0,0:0:0:0:
320,192,245270,1,0,0:0:0:0:
448,192,245270,1,0,0:0:0:0:
64,192,245417,1,0,0:0:0:0:
192,192,245417,1,0,0:0:0:0:
320,192,245490,1,0,0:0:0:0:
64,192,245563,1,0,0:0:0:0:
448,192,245563,1,0,0:0:0:0:
320,192,245709,1,0,0:0:0:0:
448,192,245709,1,0,0:0:0:0:
64,192,245856,1,0,0:0:0:0:
192,192,245856,1,0,0:0:0:0:
64,192,246002,1,0,0:0:0:0:
448,192,246002,1,0,0:0:0:0:
192,192,246075,1,0,0:0:0:0:
320,192,246148,1,0,0:0:0:0:
448,192,246148,1,0,0:0:0:0:
192,192,246295,1,0,0:0:0:0:
64,192,246441,1,0,0:0:0:0:
448,192,246441,1,0,0:0:0:0:
192,192,246587,1,0,0:0:0:0:
320,192,246661,1,0,0:0:0:0:
64,192,246734,1,0,0:0:0:0:
192,192,246734,1,0,0:0:0:0:
448,192,246880,1,0,0:0:0:0:
64,192,247026,1,0,0:0:0:0:
192,192,247026,1,0,0:0:0:0:
448,192,247173,1,0,0:0:0:0:
320,192,247246,1,0,0:0:0:0:
192,192,247319,1,0,0:0:0:0:
448,192,247319,1,0,0:0:0:0:
192,192,247465,1,0,0:0:0:0:
320,192,247465,1,0,0:0:0:0:
64,192,247612,1,0,0:0:0:0:
320,192,247612,1,0,0:0:0:0:
192,192,247759,1,0,0:0:0:0:
448,192,247759,1,0,0:0:0:0:
64,192,247905,1,0,0:0:0:0:
192,192,247905,1,0,0:0:0:0:
448,192,247905,128,0,248197:0:0:0:0:
64,192,248197,128,0,248490:0:0:0:0:
320,192,248197,1,0,0:0:0:0:
320,192,248490,1,0,0:0:0:0:
448,192,248490,1,0,0:0:0:0:
64,192,248563,1,0,0:0:0:0:
192,192,248563,1,0,0:0:0:0:
320,192,248636,1,0,0:0:0:0:
448,192,248636,1,0,0:0:0:0:
64,192,248709,1,0,0:0:0:0:
192,192,248783,1,0,0:0:0:0:
320,192,248783,128,0,249075:0:0:0:0:
64,192,249075,1,0,0:0:0:0:
448,192,249075,1,0,0:0:0:0:
64,192,249222,1,0,0:0:0:0:
192,192,249222,1,0,0:0:0:0:
192,192,249368,1,0,0:0:0:0:
448,192,249368,1,0,0:0:0:0:
320,192,249441,1,0,0:0:0:0:
64,192,249514,1,0,0:0:0:0:
448,192,249514,1,0,0:0:0:0:
192,192,249661,1,0,0:0:0:0:
320,192,249661,1,0,0:0:0:0:
64,192,249807,1,0,0:0:0:0:
448,192,249807,1,0,0:0:0:0:
64,192,249953,1,0,0:0:0:0:
192,192,249953,1,0,0:0:0:0:
448,192,250026,1,0,0:0:0:0:
192,192,250100,1,0,0:0:0:0:
320,192,250100,1,0,0:0:0:0:
320,192,250246,1,0,0:0:0:0:
448,192,250246,1,0,0:0:0:0:
64,192,250392,1,0,0:0:0:0:
192,192,250392,1,0,0:0:0:0:
192,192,250539,1,0,0:0:0:0:
448,192,250539,1,0,0:0:0:0:
64,192,250612,1,0,0:0:0:0:
320,192,250685,1,0,0:0:0:0:
448,192,250685,1,0,0:0:0:0:
64,192,250831,1,0,0:0:0:0:
320,192,250831,1,0,0:0:0:0:
64,192,250978,1,0,0:0:0:0:
192,192,250978,1,0,0:0:0:0:
320,192,251124,1,0,0:0:0:0:
448,192,251124,1,0,0:0:0:0:
192,192,251197,1,0,0:0:0:0:
64,192,251270,1,0,0:0:0:0:
448,192,251270,1,0,0:0:0:0:
192,192,251417,1,0,0:0:0:0:
320,192,251417,1,0,0:0:0:0:
64,192,251563,1,0,0:0:0:0:
320,192,251563,1,0,0:0:0:0:
448,192,251709,1,0,0:0:0:0:
320,192,251783,1,0,0:0:0:0:
192,192,251856,1,0,0:0:0:0:
448,192,251856,1,0,0:0:0:0:
320,192,252002,1,0,0:0:0:0:
64,192,252148,1,0,0:0:0:0:
448,192,252148,1,0,0:0:0:0:
64,192,252295,1,0,0:0:0:0:
320,192,252295,1,0,0:0:0:0:
64,192,252442,128,0,252734:0:0:0:0:
192,192,252442,1,0,0:0:0:0:
448,192,252442,1,0,0:0:0:0:
192,192,252734,1,0,0:0:0:0:
320,192,252734,128,0,253027:0:0:0:0:
64,192,253027,1,0,0:0:0:0:
192,192,253027,1,0,0:0:0:0:
320,192,253100,1,0,0:0:0:0:
448,192,253100,1,0,0:0:0:0:
64,192,253173,1,0,0:0:0:0:
192,192,253173,1,0,0:0:0:0:
448,192,253246,1,0,0:0:0:0:
192,192,253320,128,0,253612:0:0:0:0:
320,192,253320,1,0,0:0:0:0:
64,192,253612,1,0,0:0:0:0:
448,192,253612,1,0,0:0:0:0:
64,192,253759,1,0,0:0:0:0:
320,192,253759,1,0,0:0:0:0:
192,192,253905,1,0,0:0:0:0:
320,192,253905,1,0,0:0:0:0:
192,192,254051,1,0,0:0:0:0:
448,192,254051,1,0,0:0:0:0:
64,192,254198,1,0,0:0:0:0:
448,192,254198,1,0,0:0:0:0:
64,192,254344,1,0,0:0:0:0:
320,192,254344,1,0,0:0:0:0:
192,192,254490,1,0,0:0:0:0:
320,192,254490,1,0,0:0:0:0:
192,192,254637,1,0,0:0:0:0:
448,192,254637,1,0,0:0:0:0:
320,192,254783,1,0,0:0:0:0:
448,192,254783,1,0,0:0:0:0:
64,192,254929,1,0,0:0:0:0:
320,192,254929,1,0,0:0:0:0:
64,192,255076,1,0,0:0:0:0:
192,192,255076,1,0,0:0:0:0:
192,192,255222,1,0,0:0:0:0:
448,192,255222,1,0,0:0:0:0:
64,192,255368,1,0,0:0:0:0:
448,192,255368,1,0,0:0:0:0:
64,192,255515,1,0,0:0:0:0:
320,192,255515,1,0,0:0:0:0:
192,192,255661,1,0,0:0:0:0:
320,192,255661,1,0,0:0:0:0:
192,192,255807,1,0,0:0:0:0:
448,192,255807,1,0,0:0:0:0:
64,192,255954,1,0,0:0:0:0:
320,192,255954,1,0,0:0:0:0:
448,192,255954,1,0,0:0:0:0:
64,192,256100,1,0,0:0:0:0:
320,192,256100,1,0,0:0:0:0:
64,192,256246,1,0,0:0:0:0:
448,192,256246,1,0,0:0:0:0:
192,192,256320,1,0,0:0:0:0:
320,192,256393,1,0,0:0:0:0:
448,192,256393,1,0,0:0:0:0:
192,192,256539,1,0,0:0:0:0:
320,192,256539,1,0,0:0:0:0:
192,192,256685,1,0,0:0:0:0:
448,192,256685,1,0,0:0:0:0:
64,192,256832,1,0,0:0:0:0:
320,192,256832,1,0,0:0:0:0:
448,192,256905,1,0,0:0:0:0:
64,192,256978,1,0,0:0:0:0:
192,192,256978,1,0,0:0:0:0:
320,192,257124,1,0,0:0:0:0:
448,192,257124,1,0,0:0:0:0:
64,192,257271,1,0,0:0:0:0:
192,192,257271,1,0,0:0:0:0:
64,192,257417,1,0,0:0:0:0:
320,192,257417,1,0,0:0:0:0:
192,192,257490,1,0,0:0:0:0:
320,192,257563,1,0,0:0:0:0:
448,192,257563,1,0,0:0:0:0:
192,192,257710,1,0,0:0:0:0:
448,192,257710,1,0,0:0:0:0:
64,192,257856,1,0,0:0:0:0:
320,192,257856,1,0,0:0:0:0:
192,192,258002,1,0,0:0:0:0:
448,192,258076,1,0,0:0:0:0:
64,192,258149,1,0,0:0:0:0:
192,192,258149,1,0,0:0:0:0:
320,192,258295,1,0,0:0:0:0:
64,192,258442,1,0,0:0:0:0:
448,192,258442,1,0,0:0:0:0:
192,192,258588,1,0,0:0:0:0:
448,192,258661,1,0,0:0:0:0:
192,192,258734,1,0,0:0:0:0:
320,192,258734,1,0,0:0:0:0:
448,192,258881,1,0,0:0:0:0:
64,192,259027,1,0,0:0:0:0:
192,192,259027,1,0,0:0:0:0:
64,192,259173,1,0,0:0:0:0:
448,192,259173,1,0,0:0:0:0:
192,192,259320,128,0,259612:0:0:0:0:
320,192,259320,1,0,0:0:0:0:
448,192,259320,1,0,0:0:0:0:
64,192,259612,1,0,0:0:0:0:
448,192,259612,128,0,259905:0:0:0:0:
64,192,259905,1,0,0:0:0:0:
192,192,259905,1,0,0:0:0:0:
320,192,259978,1,0,0:0:0:0:
448,192,259978,1,0,0:0:0:0:
64,192,260051,1,0,0:0:0:0:
192,192,260051,1,0,0:0:0:0:
448,192,260124,1,0,0:0:0:0:
64,192,260198,128,0,260490:0:0:0:0:
320,192,260198,1,0,0:0:0:0:
320,192,260490,1,0,0:0:0:0:
448,192,260490,1,0,0:0:0:0:
192,192,260637,1,0,0:0:0:0:
320,192,260637,1,0,0:0:0:0:
64,192,260783,1,0,0:0:0:0:
448,192,260783,1,0,0:0:0:0:
320,192,260856,1,0,0:0:0:0:
64,192,260929,1,0,0:0:0:0:
192,192,260929,1,0,0:0:0:0:
192,192,261076,1,0,0:0:0:0:
320,192,261076,1,0,0:0:0:0:
64,192,261222,1,0,0:0:0:0:
448,192,261222,1,0,0:0:0:0:
64,192,261368,1,0,0:0:0:0:
320,192,261368,1,0,0:0:0:0:
192,192,261441,1,0,0:0:0:0:
320,192,261515,1,0,0:0:0:0:
448,192,261515,1,0,0:0:0:0:
192,192,261661,1,0,0:0:0:0:
448,192,261661,1,0,0:0:0:0:
64,192,261807,1,0,0:0:0:0:
320,192,261807,1,0,0:0:0:0:
64,192,261954,1,0,0:0:0:0:
192,192,261954,1,0,0:0:0:0:
320,192,262027,1,0,0:0:0:0:
64,192,262100,1,0,0:0:0:0:
448,192,262100,1,0,0:0:0:0:
320,192,262246,1,0,0:0:0:0:
448,192,262246,1,0,0:0:0:0:
64,192,262393,1,0,0:0:0:0:
192,192,262393,1,0,0:0:0:0:
192,192,262539,1,0,0:0:0:0:
448,192,262539,1,0,0:0:0:0:
320,192,262612,1,0,0:0:0:0:
64,192,262685,1,0,0:0:0:0:
448,192,262685,1,0,0:0:0:0:
64,192,262832,1,0,0:0:0:0:
320,192,262832,1,0,0:0:0:0:
192,192,262978,1,0,0:0:0:0:
448,192,262978,1,0,0:0:0:0:
64,192,263124,1,0,0:0:0:0:
192,192,263124,1,0,0:0:0:0:
320,192,263198,1,0,0:0:0:0:
64,192,263271,1,0,0:0:0:0:
448,192,263271,1,0,0:0:0:0:
320,192,263417,1,0,0:0:0:0:
192,192,263563,1,0,0:0:0:0:
448,192,263563,1,0,0:0:0:0:
64,192,263710,1,0,0:0:0:0:
192,192,263710,1,0,0:0:0:0:
64,192,263856,1,0,0:0:0:0:
320,192,263856,128,0,264148:0:0:0:0:
448,192,263856,1,0,0:0:0:0:
192,192,264148,128,0,264441:0:0:0:0:
448,192,264148,1,0,0:0:0:0:
320,192,264441,1,0,0:0:0:0:
448,192,264441,1,0,0:0:0:0:
64,192,264514,1,0,0:0:0:0:
192,192,264514,1,0,0:0:0:0:
320,192,264587,1,0,0:0:0:0:
448,192,264587,1,0,0:0:0:0:
64,192,264660,1,0,0:0:0:0:
192,192,264734,1,0,0:0:0:0:
448,192,264734,128,0,265026:0:0:0:0:
64,192,265026,1,0,0:0:0:0:
192,192,265026,1,0,0:0:0:0:
320,192,265026,1,0,0:0:0:0:
448,192,265173,1,0,0:0:0:0:
64,192,265319,128,0,265904:0:0:0:0:
320,192,265319,1,0,0:0:0:0:
192,192,265465,1,0,0:0:0:0:
320,192,265612,1,0,0:0:0:0:
192,192,265758,1,0,0:0:0:0:
448,192,265758,1,0,0:0:0:0:
320,192,265904,1,0,0:0:0:0:
448,192,265904,128,0,266197:0:0:0:0:
192,192,266051,1,0,0:0:0:0:
192,192,266197,128,0,266782:0:0:0:0:
320,192,266197,1,0,0:0:0:0:
64,192,266343,1,0,0:0:0:0:
320,192,266490,1,0,0:0:0:0:
64,192,266636,1,0,0:0:0:0:
448,192,266636,1,0,0:0:0:0:
64,192,266782,1,0,0:0:0:0:
320,192,266782,128,0,269124:0:0:0:0:
64,192,266929,1,0,0:0:0:0:
448,192,266929,1,0,0:0:0:0:
192,192,267075,1,0,0:0:0:0:
448,192,267221,1,0,0:0:0:0:
64,192,267368,1,0,0:0:0:0:
448,192,267368,1,0,0:0:0:0:
192,192,267514,1,0,0:0:0:0:
64,192,267660,1,0,0:0:0:0:
448,192,267660,1,0,0:0:0:0:
192,192,267807,1,0,0:0:0:0:
192,192,267953,1,0,0:0:0:0:
64,192,268099,1,0,0:0:0:0:
448,192,268099,1,0,0:0:0:0:
64,192,268246,1,0,0:0:0:0:
448,192,268246,1,0,0:0:0:0:
192,192,268392,1,0,0:0:0:0:
192,192,268538,1,0,0:0:0:0:
448,192,268538,1,0,0:0:0:0:
448,192,268685,1,0,0:0:0:0:
64,192,268831,1,0,0:0:0:0:
64,192,269124,1,0,0:0:0:0:
192,192,269124,1,0,0:0:0:0:
320,192,269197,1,0,0:0:0:0:
448,192,269197,1,0,0:0:0:0:
64,192,269270,1,0,0:0:0:0:
192,192,269270,1,0,0:0:0:0:
448,192,269343,1,0,0:0:0:0:
64,192,269416,128,0,269709:0:0:0:0:
320,192,269416,1,0,0:0:0:0:
320,192,269709,1,0,0:0:0:0:
448,192,269709,1,0,0:0:0:0:
192,192,269782,1,0,0:0:0:0:
320,192,269856,1,0,0:0:0:0:
64,192,269929,1,0,0:0:0:0:
448,192,269929,1,0,0:0:0:0:
192,192,270002,1,0,0:0:0:0:
320,192,270075,1,0,0:0:0:0:
448,192,270075,1,0,0:0:0:0:
64,192,270148,1,0,0:0:0:0:
192,192,270221,1,0,0:0:0:0:
320,192,270221,1,0,0:0:0:0:
448,192,270295,1,0,0:0:0:0:
64,192,270368,1,0,0:0:0:0:
192,192,270368,1,0,0:0:0:0:
320,192,270441,1,0,0:0:0:0:
192,192,270514,1,0,0:0:0:0:
448,192,270514,1,0,0:0:0:0:
64,192,270587,1,0,0:0:0:0:
320,192,270660,1,0,0:0:0:0:
448,192,270660,1,0,0:0:0:0:
192,192,270734,1,0,0:0:0:0:
64,192,270807,1,0,0:0:0:0:
448,192,270807,1,0,0:0:0:0:
320,192,270880,1,0,0:0:0:0:
64,192,270953,1,0,0:0:0:0:
192,192,270953,1,0,0:0:0:0:
448,192,271026,1,0,0:0:0:0:
64,192,271099,1,0,0:0:0:0:
320,192,271099,1,0,0:0:0:0:
192,192,271173,1,0,0:0:0:0:
320,192,271246,1,0,0:0:0:0:
448,192,271246,1,0,0:0:0:0:
64,192,271319,1,0,0:0:0:0:
192,192,271392,1,0,0:0:0:0:
448,192,271392,1,0,0:0:0:0:
320,192,271465,1,0,0:0:0:0:
64,192,271538,1,0,0:0:0:0:
192,192,271538,1,0,0:0:0:0:
448,192,271612,1,0,0:0:0:0:
192,192,271685,1,0,0:0:0:0:
320,192,271685,1,0,0:0:0:0:
64,192,271758,1,0,0:0:0:0:
320,192,271831,1,0,0:0:0:0:
448,192,271831,1,0,0:0:0:0:
192,192,271904,1,0,0:0:0:0:
64,192,271977,1,0,0:0:0:0:
448,192,271977,1,0,0:0:0:0:
320,192,272051,1,0,0:0:0:0:
64,192,272124,1,0,0:0:0:0:
192,192,272124,1,0,0:0:0:0:
320,192,272197,1,0,0:0:0:0:
64,192,272270,1,0,0:0:0:0:
448,192,272270,1,0,0:0:0:0:
192,192,272343,1,0,0:0:0:0:
320,192,272416,1,0,0:0:0:0:
448,192,272416,1,0,0:0:0:0:
64,192,272490,1,0,0:0:0:0:
192,192,272563,1,0,0:0:0:0:
448,192,272563,1,0,0:0:0:0:
320,192,272636,1,0,0:0:0:0:
64,192,272709,1,0,0:0:0:0:
192,192,272709,1,0,0:0:0:0:
448,192,272782,1,0,0:0:0:0:
192,192,272856,1,0,0:0:0:0:
320,192,272856,1,0,0:0:0:0:
64,192,272929,1,0,0:0:0:0:
448,192,273002,1,0,0:0:0:0:
64,192,273076,1,0,0:0:0:0:
192,192,273076,1,0,0:0:0:0:
320,192,273076,128,0,273368:0:0:0:0:
192,192,273368,128,0,273661:0:0:0:0:
448,192,273368,1,0,0:0:0:0:
320,192,273661,1,0,0:0:0:0:
448,192,273661,1,0,0:0:0:0:
64,192,273734,1,0,0:0:0:0:
192,192,273734,1,0,0:0:0:0:
320,192,273807,1,0,0:0:0:0:
448,192,273807,1,0,0:0:0:0:
64,192,273880,1,0,0:0:0:0:
192,192,273954,1,0,0:0:0:0:
448,192,273954,128,0,274246:0:0:0:0:
64,192,274246,1,0,0:0:0:0:
192,192,274246,1,0,0:0:0:0:
320,192,274319,1,0,0:0:0:0:
192,192,274393,1,0,0:0:0:0:
64,192,274466,1,0,0:0:0:0:
448,192,274466,1,0,0:0:0:0:
320,192,274539,1,0,0:0:0:0:
64,192,274612,1,0,0:0:0:0:
192,192,274612,1,0,0:0:0:0:
448,192,274685,1,0,0:0:0:0:
192,192,274758,1,0,0:0:0:0:
320,192,274758,1,0,0:0:0:0:
64,192,274832,1,0,0:0:0:0:
320,192,274905,1,0,0:0:0:0:
448,192,274905,1,0,0:0:0:0:
192,192,274978,1,0,0:0:0:0:
64,192,275051,1,0,0:0:0:0:
448,192,275051,1,0,0:0:0:0:
320,192,275124,1,0,0:0:0:0:
64,192,275197,1,0,0:0:0:0:
192,192,275197,1,0,0:0:0:0:
448,192,275271,1,0,0:0:0:0:
64,192,275344,1,0,0:0:0:0:
320,192,275344,1,0,0:0:0:0:
192,192,275417,1,0,0:0:0:0:
320,192,275490,1,0,0:0:0:0:
448,192,275490,1,0,0:0:0:0:
64,192,275563,1,0,0:0:0:0:
192,192,275636,1,0,0:0:0:0:
320,192,275636,1,0,0:0:0:0:
448,192,275710,1,0,0:0:0:0:
64,192,275783,1,0,0:0:0:0:
192,192,275783,1,0,0:0:0:0:
320,192,275856,1,0,0:0:0:0:
64,192,275929,1,0,0:0:0:0:
448,192,275929,1,0,0:0:0:0:
192,192,276002,1,0,0:0:0:0:
320,192,276076,1,0,0:0:0:0:
448,192,276076,1,0,0:0:0:0:
64,192,276149,1,0,0:0:0:0:
192,192,276222,1,0,0:0:0:0:
448,192,276222,1,0,0:0:0:0:
320,192,276295,1,0,0:0:0:0:
64,192,276368,1,0,0:0:0:0:
192,192,276368,1,0,0:0:0:0:
448,192,276441,1,0,0:0:0:0:
192,192,276515,1,0,0:0:0:0:
320,192,276515,1,0,0:0:0:0:
64,192,276588,1,0,0:0:0:0:
320,192,276661,1,0,0:0:0:0:
448,192,276661,1,0,0:0:0:0:
192,192,276734,1,0,0:0:0:0:
64,192,276807,1,0,0:0:0:0:
448,192,276807,1,0,0:0:0:0:
320,192,276880,1,0,0:0:0:0:
64,192,276954,1,0,0:0:0:0:
192,192,276954,1,0,0:0:0:0:
448,192,277027,1,0,0:0:0:0:
64,192,277100,1,0,0:0:0:0:
320,192,277100,1,0,0:0:0:0:
192,192,277173,1,0,0:0:0:0:
320,192,277246,1,0,0:0:0:0:
448,192,277246,1,0,0:0:0:0:
192,192,277319,1,0,0:0:0:0:
64,192,277393,1,0,0:0:0:0:
320,192,277393,1,0,0:0:0:0:
448,192,277466,1,0,0:0:0:0:
192,192,277539,1,0,0:0:0:0:
64,192,277612,1,0,0:0:0:0:
320,192,277612,128,0,277904:0:0:0:0:
448,192,277612,1,0,0:0:0:0:
64,192,277904,128,0,278197:0:0:0:0:
192,192,277904,1,0,0:0:0:0:
320,192,278197,1,0,0:0:0:0:
448,192,278197,1,0,0:0:0:0:
64,192,278270,1,0,0:0:0:0:
192,192,278270,1,0,0:0:0:0:
320,192,278343,1,0,0:0:0:0:
448,192,278343,1,0,0:0:0:0:
64,192,278416,1,0,0:0:0:0:
192,192,278490,128,0,278782:0:0:0:0:
448,192,278490,1,0,0:0:0:0:
64,192,278782,1,0,0:0:0:0:
320,192,278782,1,0,0:0:0:0:
448,192,278782,1,0,0:0:0:0:
192,192,278929,1,0,0:0:0:0:
64,192,279075,1,0,0:0:0:0:
448,192,279075,128,0,279660:0:0:0:0:
320,192,279221,1,0,0:0:0:0:
192,192,279368,1,0,0:0:0:0:
64,192,279514,1,0,0:0:0:0:
320,192,279514,1,0,0:0:0:0:
64,192,279660,128,0,279953:0:0:0:0:
192,192,279660,1,0,0:0:0:0:
320,192,279807,1,0,0:0:0:0:
192,192,279953,1,0,0:0:0:0:
320,192,279953,128,0,280538:0:0:0:0:
448,192,280099,1,0,0:0:0:0:
192,192,280246,1,0,0:0:0:0:
64,192,280392,1,0,0:0:0:0:
448,192,280392,1,0,0:0:0:0:
192,192,280538,128,0,281124:0:0:0:0:
448,192,280538,1,0,0:0:0:0:
64,192,280685,1,0,0:0:0:0:
448,192,280685,1,0,0:0:0:0:
320,192,280831,1,0,0:0:0:0:
64,192,280977,1,0,0:0:0:0:
64,192,281124,1,0,0:0:0:0:
448,192,281124,1,0,0:0:0:0:
320,192,281270,1,0,0:0:0:0:
64,192,281416,128,0,282002:0:0:0:0:
448,192,281416,1,0,0:0:0:0:
192,192,281563,1,0,0:0:0:0:
320,192,281709,1,0,0:0:0:0:
192,192,281855,1,0,0:0:0:0:
448,192,281855,1,0,0:0:0:0:
320,192,282002,1,0,0:0:0:0:
448,192,282002,128,0,282294:0:0:0:0:
192,192,282148,1,0,0:0:0:0:
192,192,282294,128,0,282880:0:0:0:0:
320,192,282294,1,0,0:0:0:0:
320,192,282441,1,0,0:0:0:0:
64,192,282587,1,0,0:0:0:0:
64,192,282733,1,0,0:0:0:0:
320,192,282733,1,0,0:0:0:0:
320,192,282880,1,0,0:0:0:0:
448,192,282880,128,0,283465:0:0:0:0:
64,192,283026,1,0,0:0:0:0:
320,192,283026,1,0,0:0:0:0:
192,192,283172,1,0,0:0:0:0:
64,192,283319,1,0,0:0:0:0:
64,192,283465,1,0,0:0:0:0:
320,192,283465,1,0,0:0:0:0:
192,192,283612,1,0,0:0:0:0:
64,192,283758,1,0,0:0:0:0:
448,192,283758,128,0,284343:0:0:0:0:
192,192,283904,1,0,0:0:0:0:
320,192,284051,1,0,0:0:0:0:
64,192,284197,1,0,0:0:0:0:
192,192,284197,1,0,0:0:0:0:
64,192,284343,128,0,284636:0:0:0:0:
320,192,284343,1,0,0:0:0:0:
448,192,284490,1,0,0:0:0:0:
192,192,284636,1,0,0:0:0:0:
320,192,284636,128,0,285221:0:0:0:0:
448,192,284636,1,0,0:0:0:0:
64,192,284782,1,0,0:0:0:0:
192,192,284929,1,0,0:0:0:0:
64,192,285075,1,0,0:0:0:0:
448,192,285075,1,0,0:0:0:0:
64,192,285221,1,0,0:0:0:0:
192,192,285221,128,0,285807:0:0:0:0:
64,192,285368,1,0,0:0:0:0:
448,192,285368,1,0,0:0:0:0:
320,192,285514,1,0,0:0:0:0:
448,192,285660,1,0,0:0:0:0:
64,192,285807,1,0,0:0:0:0:
448,192,285807,1,0,0:0:0:0:
320,192,285953,1,0,0:0:0:0:
64,192,286099,128,0,286685:0:0:0:0:
192,192,286099,1,0,0:0:0:0:
448,192,286246,1,0,0:0:0:0:
320,192,286392,1,0,0:0:0:0:
192,192,286538,1,0,0:0:0:0:
448,192,286538,1,0,0:0:0:0:
320,192,286685,1,0,0:0:0:0:
448,192,286685,128,0,286977:0:0:0:0:
192,192,286831,1,0,0:0:0:0:
64,192,286977,1,0,0:0:0:0:
192,192,286977,128,0,287563:0:0:0:0:
320,192,286977,1,0,0:0:0:0:
64,192,287124,1,0,0:0:0:0:
320,192,287270,1,0,0:0:0:0:
64,192,287416,1,0,0:0:0:0:
448,192,287416,1,0,0:0:0:0:
64,192,287563,1,0,0:0:0:0:
448,192,287563,1,0,0:0:0:0:
320,192,287709,1,0,0:0:0:0:
192,192,287855,1,0,0:0:0:0:
448,192,287855,1,0,0:0:0:0:
192,192,288002,1,0,0:0:0:0:
448,192,288002,1,0,0:0:0:0:
64,192,288149,128,0,288444:0:0:0:0:
320,192,288149,1,0,0:0:0:0:
448,192,288149,1,0,0:0:0:0:
192,192,288444,1,0,0:0:0:0:
320,192,288444,128,0,288740:0:0:0:0:
64,192,288740,1,0,0:0:0:0:
192,192,288740,1,0,0:0:0:0:
320,192,288814,1,0,0:0:0:0:
448,192,288814,1,0,0:0:0:0:
64,192,288887,1,0,0:0:0:0:
192,192,288887,1,0,0:0:0:0:
448,192,288961,1,0,0:0:0:0:
64,192,289035,128,0,289331:0:0:0:0:
320,192,289035,1,0,0:0:0:0:
320,192,289331,1,0,0:0:0:0:
448,192,289331,1,0,0:0:0:0:
64,192,289405,1,0,0:0:0:0:
192,192,289405,1,0,0:0:0:0:
320,192,289479,1,0,0:0:0:0:
448,192,289479,1,0,0:0:0:0:
192,192,289552,1,0,0:0:0:0:
64,192,289626,1,0,0:0:0:0:
320,192,289626,128,0,289922:0:0:0:0:
64,192,289922,128,0,290217:0:0:0:0:
192,192,289922,1,0,0:0:0:0:
320,192,290217,1,0,0:0:0:0:
448,192,290217,128,0,290513:0:0:0:0:
64,192,290513,1,0,0:0:0:0:
192,192,290513,1,0,0:0:0:0:
320,192,290587,1,0,0:0:0:0:
448,192,290587,1,0,0:0:0:0:
64,192,290661,1,0,0:0:0:0:
192,192,290661,1,0,0:0:0:0:
320,192,290735,1,0,0:0:0:0:
192,192,290809,128,0,291104:0:0:0:0:
448,192,290809,1,0,0:0:0:0:
64,192,291104,1,0,0:0:0:0:
320,192,291104,128,0,291400:0:0:0:0:
64,192,291400,1,0,0:0:0:0:
192,192,291400,1,0,0:0:0:0:
320,192,291474,1,0,0:0:0:0:
64,192,291548,1,0,0:0:0:0:
448,192,291548,1,0,0:0:0:0:
192,192,291621,1,0,0:0:0:0:
320,192,291695,128,0,291991:0:0:0:0:
448,192,291695,1,0,0:0:0:0:
64,192,291991,128,0,292286:0:0:0:0:
192,192,291991,1,0,0:0:0:0:
320,192,292286,1,0,0:0:0:0:
448,192,292286,128,0,292582:0:0:0:0:
64,192,292582,1,0,0:0:0:0:
192,192,292582,1,0,0:0:0:0:
320,192,292656,1,0,0:0:0:0:
448,192,292656,1,0,0:0:0:0:
64,192,292730,1,0,0:0:0:0:
192,192,292730,1,0,0:0:0:0:
448,192,292804,1,0,0:0:0:0:
64,192,292878,1,0,0:0:0:0:
320,192,292878,128,0,293173:0:0:0:0:
64,192,293173,128,0,293469:0:0:0:0:
448,192,293173,1,0,0:0:0:0:
192,192,293469,1,0,0:0:0:0:
448,192,293469,1,0,0:0:0:0:
320,192,293543,1,0,0:0:0:0:
64,192,293616,1,0,0:0:0:0:
448,192,293616,1,0,0:0:0:0:
192,192,293690,1,0,0:0:0:0:
64,192,293764,1,0,0:0:0:0:
320,192,293764,128,0,294060:0:0:0:0:
192,192,294060,128,0,294355:0:0:0:0:
448,192,294060,1,0,0:0:0:0:
320,192,294355,1,0,0:0:0:0:
448,192,294355,1,0,0:0:0:0:
64,192,294429,1,0,0:0:0:0:
192,192,294429,1,0,0:0:0:0:
320,192,294503,1,0,0:0:0:0:
448,192,294503,1,0,0:0:0:0:
64,192,294577,1,0,0:0:0:0:
192,192,294577,1,0,0:0:0:0:
320,192,294651,1,0,0:0:0:0:
448,192,294725,1,0,0:0:0:0:
64,192,294799,1,0,0:0:0:0:
192,192,294873,1,0,0:0:0:0:
320,192,294947,1,0,0:0:0:0:
448,192,294947,1,0,0:0:0:0:
64,192,295020,1,0,0:0:0:0:
192,192,295020,1,0,0:0:0:0:
320,192,295094,1,0,0:0:0:0:
448,192,295094,1,0,0:0:0:0:
64,192,295168,1,0,0:0:0:0:
192,192,295168,1,0,0:0:0:0:
320,192,295242,1,0,0:0:0:0:
64,192,295316,1,0,0:0:0:0:
448,192,295316,1,0,0:0:0:0:
192,192,295390,1,0,0:0:0:0:
320,192,295390,1,0,0:0:0:0:
64,192,295464,1,0,0:0:0:0:
448,192,295464,1,0,0:0:0:0:
320,192,295538,1,0,0:0:0:0:
192,192,295612,1,0,0:0:0:0:
448,192,295685,1,0,0:0:0:0:
320,192,295759,1,0,0:0:0:0:
64,192,295833,1,0,0:0:0:0:
192,192,295833,1,0,0:0:0:0:
320,192,295907,1,0,0:0:0:0:
448,192,295907,1,0,0:0:0:0:
64,192,295981,1,0,0:0:0:0:
192,192,295981,1,0,0:0:0:0:
320,192,296055,1,0,0:0:0:0:
448,192,296055,1,0,0:0:0:0:
64,192,296129,1,0,0:0:0:0:
192,192,296203,1,0,0:0:0:0:
320,192,296277,1,0,0:0:0:0:
448,192,296350,1,0,0:0:0:0:
64,192,296424,1,0,0:0:0:0:
192,192,296424,1,0,0:0:0:0:
320,192,296498,1,0,0:0:0:0:
448,192,296498,1,0,0:0:0:0:
64,192,296572,1,0,0:0:0:0:
192,192,296572,1,0,0:0:0:0:
320,192,296646,1,0,0:0:0:0:
448,192,296646,1,0,0:0:0:0:
192,192,296720,1,0,0:0:0:0:
64,192,296794,1,0,0:0:0:0:
448,192,296868,1,0,0:0:0:0:
320,192,296942,1,0,0:0:0:0:
64,192,297015,1,0,0:0:0:0:
192,192,297015,1,0,0:0:0:0:
320,192,297089,1,0,0:0:0:0:
448,192,297089,1,0,0:0:0:0:
64,192,297163,1,0,0:0:0:0:
192,192,297163,1,0,0:0:0:0:
320,192,297237,1,0,0:0:0:0:
64,192,297311,1,0,0:0:0:0:
448,192,297311,1,0,0:0:0:0:
192,192,297410,1,0,0:0:0:0:
320,192,297508,1,0,0:0:0:0:
448,192,297508,1,0,0:0:0:0:
64,192,297607,1,0,0:0:0:0:
192,192,297607,1,0,0:0:0:0:
320,192,297705,1,0,0:0:0:0:
64,192,297804,1,0,0:0:0:0:
448,192,297804,1,0,0:0:0:0:
64,192,297902,1,0,0:0:0:0:
320,192,297902,128,0,298050:0:0:0:0:
448,192,298198,1,0,0:0:0:0:
320,192,298346,1,0,0:0:0:0:
192,192,298493,1,0,0:0:0:0:
64,192,298641,1,0,0:0:0:0:
192,192,298789,1,0,0:0:0:0:
320,192,298937,1,0,0:0:0:0:
448,192,299084,1,0,0:0:0:0:
64,192,299380,1,0,0:0:0:0:
320,192,299380,1,0,0:0:0:0:
448,192,299380,1,0,0:0:0:0:
192,192,299455,1,0,0:0:0:0:
320,192,299530,1,0,0:0:0:0:
64,192,299605,1,0,0:0:0:0:
448,192,299605,1,0,0:0:0:0:
192,192,299680,1,0,0:0:0:0:
64,192,299755,1,0,0:0:0:0:
320,192,299755,1,0,0:0:0:0:
448,192,299830,1,0,0:0:0:0:
64,192,299905,1,0,0:0:0:0:
192,192,299905,1,0,0:0:0:0:
320,192,299980,1,0,0:0:0:0:
192,192,300055,1,0,0:0:0:0:
448,192,300055,1,0,0:0:0:0:
64,192,300130,1,0,0:0:0:0:
320,192,300205,1,0,0:0:0:0:
448,192,300205,1,0,0:0:0:0:
192,192,300280,1,0,0:0:0:0:
64,192,300355,1,0,0:0:0:0:
448,192,300355,1,0,0:0:0:0:
320,192,300430,1,0,0:0:0:0:
192,192,300505,1,0,0:0:0:0:
448,192,300580,1,0,0:0:0:0:
64,192,300655,1,0,0:0:0:0:
320,192,300655,1,0,0:0:0:0:
192,192,300730,1,0,0:0:0:0:
320,192,300805,1,0,0:0:0:0:
448,192,300805,1,0,0:0:0:0:
64,192,300880,1,0,0:0:0:0:
192,192,300955,1,0,0:0:0:0:
320,192,300955,1,0,0:0:0:0:
448,192,301030,1,0,0:0:0:0:
64,192,301105,1,0,0:0:0:0:
192,192,301105,1,0,0:0:0:0:
320,192,301180,1,0,0:0:0:0:
64,192,301255,1,0,0:0:0:0:
448,192,301255,1,0,0:0:0:0:
192,192,301330,1,0,0:0:0:0:
320,192,301405,1,0,0:0:0:0:
448,192,301405,1,0,0:0:0:0:
64,192,301480,1,0,0:0:0:0:
192,192,301555,1,0,0:0:0:0:
448,192,301555,1,0,0:0:0:0:
320,192,301630,1,0,0:0:0:0:
64,192,301705,1,0,0:0:0:0:
192,192,301780,1,0,0:0:0:0:
320,192,301855,1,0,0:0:0:0:
448,192,301855,1,0,0:0:0:0:
64,192,301930,1,0,0:0:0:0:
192,192,302005,1,0,0:0:0:0:
320,192,302005,1,0,0:0:0:0:
448,192,302080,1,0,0:0:0:0:
64,192,302155,1,0,0:0:0:0:
192,192,302155,1,0,0:0:0:0:
320,192,302230,1,0,0:0:0:0:
64,192,302305,1,0,0:0:0:0:
448,192,302305,1,0,0:0:0:0:
192,192,302380,1,0,0:0:0:0:
320,192,302455,1,0,0:0:0:0:
448,192,302455,1,0,0:0:0:0:
192,192,302530,1,0,0:0:0:0:
64,192,302605,1,0,0:0:0:0:
448,192,302605,1,0,0:0:0:0:
320,192,302680,1,0,0:0:0:0:
64,192,302755,1,0,0:0:0:0:
192,192,302755,1,0,0:0:0:0:
448,192,302830,1,0,0:0:0:0:
192,192,302905,1,0,0:0:0:0:
320,192,302905,1,0,0:0:0:0:
64,192,302980,1,0,0:0:0:0:
320,192,303055,1,0,0:0:0:0:
448,192,303055,1,0,0:0:0:0:
192,192,303130,1,0,0:0:0:0:
320,192,303205,1,0,0:0:0:0:
64,192,303280,1,0,0:0:0:0:
192,192,303355,1,0,0:0:0:0:
448,192,303355,1,0,0:0:0:0:
320,192,303430,1,0,0:0:0:0:
64,192,303505,1,0,0:0:0:0:
448,192,303505,1,0,0:0:0:0:
192,192,303580,1,0,0:0:0:0:
64,192,303655,1,0,0:0:0:0:
320,192,303655,1,0,0:0:0:0:
448,192,303730,1,0,0:0:0:0:
64,192,303805,1,0,0:0:0:0:
192,192,303805,1,0,0:0:0:0:
320,192,303880,1,0,0:0:0:0:
192,192,303955,1,0,0:0:0:0:
448,192,303955,1,0,0:0:0:0:
64,192,304030,1,0,0:0:0:0:
320,192,304105,1,0,0:0:0:0:
448,192,304105,1,0,0:0:0:0:
64,192,304180,1,0,0:0:0:0:
192,192,304255,1,0,0:0:0:0:
448,192,304255,1,0,0:0:0:0:
320,192,304330,1,0,0:0:0:0:
192,192,304405,1,0,0:0:0:0:
64,192,304480,1,0,0:0:0:0:
320,192,304555,1,0,0:0:0:0:
448,192,304555,1,0,0:0:0:0:
192,192,304630,1,0,0:0:0:0:
64,192,304705,1,0,0:0:0:0:
448,192,304705,1,0,0:0:0:0:
320,192,304780,1,0,0:0:0:0:
64,192,304855,1,0,0:0:0:0:
192,192,304855,1,0,0:0:0:0:
448,192,304930,1,0,0:0:0:0:
64,192,305005,1,0,0:0:0:0:
320,192,305005,1,0,0:0:0:0:
192,192,305080,1,0,0:0:0:0:
320,192,305155,1,0,0:0:0:0:
448,192,305155,1,0,0:0:0:0:
64,192,305230,1,0,0:0:0:0:
192,192,305305,1,0,0:0:0:0:
448,192,305305,1,0,0:0:0:0:
320,192,305380,1,0,0:0:0:0:
64,192,305455,1,0,0:0:0:0:
192,192,305455,1,0,0:0:0:0:
448,192,305530,1,0,0:0:0:0:
192,192,305605,1,0,0:0:0:0:
320,192,305605,1,0,0:0:0:0:
64,192,305680,1,0,0:0:0:0:
320,192,305755,1,0,0:0:0:0:
448,192,305755,1,0,0:0:0:0:
64,192,305830,1,0,0:0:0:0:
192,192,305905,1,0,0:0:0:0:
320,192,305905,1,0,0:0:0:0:
448,192,305980,1,0,0:0:0:0:
64,192,306055,1,0,0:0:0:0:
192,192,306055,1,0,0:0:0:0:
320,192,306130,1,0,0:0:0:0:
448,192,306205,1,0,0:0:0:0:
192,192,306280,1,0,0:0:0:0:
320,192,306355,1,0,0:0:0:0:
448,192,306355,1,0,0:0:0:0:
192,192,306430,1,0,0:0:0:0:
64,192,306505,1,0,0:0:0:0:
448,192,306505,1,0,0:0:0:0:
320,192,306580,1,0,0:0:0:0:
64,192,306655,1,0,0:0:0:0:
192,192,306655,1,0,0:0:0:0:
448,192,306730,1,0,0:0:0:0:
192,192,306805,1,0,0:0:0:0:
320,192,306805,1,0,0:0:0:0:
64,192,306880,1,0,0:0:0:0:
320,192,306955,1,0,0:0:0:0:
448,192,306955,1,0,0:0:0:0:
192,192,307030,1,0,0:0:0:0:
64,192,307105,1,0,0:0:0:0:
320,192,307105,1,0,0:0:0:0:
448,192,307180,1,0,0:0:0:0:
64,192,307255,1,0,0:0:0:0:
192,192,307255,1,0,0:0:0:0:
320,192,307330,1,0,0:0:0:0:
448,192,307405,1,0,0:0:0:0:
192,192,307480,1,0,0:0:0:0:
64,192,307555,1,0,0:0:0:0:
320,192,307555,1,0,0:0:0:0:
448,192,307630,1,0,0:0:0:0:
64,192,307705,1,0,0:0:0:0:
192,192,307705,1,0,0:0:0:0:
320,192,307780,1,0,0:0:0:0:
192,192,307855,1,0,0:0:0:0:
448,192,307855,1,0,0:0:0:0:
64,192,307930,1,0,0:0:0:0:
320,192,308005,1,0,0:0:0:0:
448,192,308005,1,0,0:0:0:0:
192,192,308080,1,0,0:0:0:0:
64,192,308155,1,0,0:0:0:0:
448,192,308155,1,0,0:0:0:0:
320,192,308230,1,0,0:0:0:0:
64,192,308305,1,0,0:0:0:0:
192,192,308305,1,0,0:0:0:0:
448,192,308380,1,0,0:0:0:0:
64,192,308455,1,0,0:0:0:0:
320,192,308455,1,0,0:0:0:0:
192,192,308530,1,0,0:0:0:0:
320,192,308605,1,0,0:0:0:0:
64,192,308680,1,0,0:0:0:0:
192,192,308680,1,0,0:0:0:0:
448,192,308680,1,0,0:0:0:0:
320,192,308830,1,0,0:0:0:0:
448,192,308830,1,0,0:0:0:0:
192,192,308980,1,0,0:0:0:0:
448,192,308980,1,0,0:0:0:0:
64,192,309130,1,0,0:0:0:0:
320,192,309130,1,0,0:0:0:0:
64,192,309280,1,0,0:0:0:0:
192,192,309280,1,0,0:0:0:0:
64,192,309430,1,0,0:0:0:0:
448,192,309430,1,0,0:0:0:0:
192,192,309580,1,0,0:0:0:0:
448,192,309580,1,0,0:0:0:0:
64,192,309880,1,0,0:0:0:0:
320,192,309880,1,0,0:0:0:0:
192,192,310030,1,0,0:0:0:0:
320,192,310030,1,0,0:0:0:0:
320,192,310180,1,0,0:0:0:0:
448,192,310180,1,0,0:0:0:0:
64,192,310330,1,0,0:0:0:0:
192,192,310330,1,0,0:0:0:0:
64,192,310480,1,0,0:0:0:0:
320,192,310480,1,0,0:0:0:0:
64,192,310630,1,0,0:0:0:0:
448,192,310630,1,0,0:0:0:0:
192,192,310780,1,0,0:0:0:0:
448,192,310780,1,0,0:0:0:0:
320,192,311080,1,0,0:0:0:0:
448,192,311080,1,0,0:0:0:0:
192,192,311155,1,0,0:0:0:0:
64,192,311230,1,0,0:0:0:0:
448,192,311230,1,0,0:0:0:0:
320,192,311305,1,0,0:0:0:0:
64,192,311380,1,0,0:0:0:0:
192,192,311380,1,0,0:0:0:0:
192,192,311530,1,0,0:0:0:0:
448,192,311530,1,0,0:0:0:0:
192,192,311680,1,0,0:0:0:0:
320,192,311680,1,0,0:0:0:0:
64,192,311830,1,0,0:0:0:0:
448,192,311830,1,0,0:0:0:0:
192,192,311980,1,0,0:0:0:0:
448,192,311980,1,0,0:0:0:0:
320,192,312130,1,0,0:0:0:0:
448,192,312130,1,0,0:0:0:0:
64,192,312280,1,0,0:0:0:0:
320,192,312280,1,0,0:0:0:0:
64,192,312580,1,0,0:0:0:0:
192,192,312580,1,0,0:0:0:0:
320,192,312655,1,0,0:0:0:0:
448,192,312655,1,0,0:0:0:0:
64,192,312730,1,0,0:0:0:0:
320,192,312805,1,0,0:0:0:0:
192,192,312880,1,0,0:0:0:0:
448,192,312955,1,0,0:0:0:0:
64,192,313030,1,0,0:0:0:0:
320,192,313105,1,0,0:0:0:0:
64,192,313180,1,0,0:0:0:0:
320,192,313255,1,0,0:0:0:0:
64,192,313330,1,0,0:0:0:0:
448,192,313405,1,0,0:0:0:0:
64,192,313480,1,0,0:0:0:0:
320,192,313480,1,0,0:0:0:0:
64,192,313780,1,0,0:0:0:0:
448,192,313780,1,0,0:0:0:0:
192,192,313930,1,0,0:0:0:0:
448,192,313930,1,0,0:0:0:0:
192,192,314080,1,0,0:0:0:0:
320,192,314080,1,0,0:0:0:0:
64,192,314230,1,0,0:0:0:0:
320,192,314230,1,0,0:0:0:0:
64,192,314380,1,0,0:0:0:0:
320,192,314380,1,0,0:0:0:0:
448,192,314380,1,0,0:0:0:0:
192,192,314455,1,0,0:0:0:0:
320,192,314530,1,0,0:0:0:0:
64,192,314605,1,0,0:0:0:0:
192,192,314605,1,0,0:0:0:0:
448,192,314680,1,0,0:0:0:0:
192,192,314755,1,0,0:0:0:0:
320,192,314755,1,0,0:0:0:0:
64,192,314830,1,0,0:0:0:0:
320,192,314905,1,0,0:0:0:0:
448,192,314905,1,0,0:0:0:0:
192,192,314980,1,0,0:0:0:0:
64,192,315055,1,0,0:0:0:0:
448,192,315055,1,0,0:0:0:0:
320,192,315130,1,0,0:0:0:0:
192,192,315205,1,0,0:0:0:0:
64,192,315280,1,0,0:0:0:0:
448,192,315280,1,0,0:0:0:0:
64,192,315580,128,0,315655:0:0:0:0:
320,192,315580,1,0,0:0:0:0:
448,192,315580,1,0,0:0:0:0:
64,192,315730,128,0,315805:0:0:0:0:
320,192,315730,1,0,0:0:0:0:
448,192,315730,1,0,0:0:0:0:
64,192,315880,128,0,315955:0:0:0:0:
320,192,315880,1,0,0:0:0:0:
448,192,315880,1,0,0:0:0:0:
64,192,316030,128,0,316105:0:0:0:0:
320,192,316030,1,0,0:0:0:0:
448,192,316030,1,0,0:0:0:0:
64,192,316180,128,0,316255:0:0:0:0:
320,192,316180,1,0,0:0:0:0:
448,192,316180,1,0,0:0:0:0:
64,192,316330,128,0,316405:0:0:0:0:
320,192,316330,1,0,0:0:0:0:
448,192,316330,1,0,0:0:0:0:
64,192,316480,128,0,316555:0:0:0:0:
320,192,316480,1,0,0:0:0:0:
448,192,316480,1,0,0:0:0:0:
320,192,316780,1,0,0:0:0:0:
448,192,316780,1,0,0:0:0:0:
64,192,316855,1,0,0:0:0:0:
192,192,316855,1,0,0:0:0:0:
320,192,316930,1,0,0:0:0:0:
448,192,316930,1,0,0:0:0:0:
64,192,317005,1,0,0:0:0:0:
192,192,317080,1,0,0:0:0:0:
448,192,317080,1,0,0:0:0:0:
320,192,317155,1,0,0:0:0:0:
64,192,317230,1,0,0:0:0:0:
192,192,317305,1,0,0:0:0:0:
448,192,317305,1,0,0:0:0:0:
320,192,317380,1,0,0:0:0:0:
64,192,317455,1,0,0:0:0:0:
448,192,317455,1,0,0:0:0:0:
192,192,317530,1,0,0:0:0:0:
64,192,317605,1,0,0:0:0:0:
320,192,317605,1,0,0:0:0:0:
448,192,317680,1,0,0:0:0:0:
64,192,317755,1,0,0:0:0:0:
192,192,317755,1,0,0:0:0:0:
320,192,317830,1,0,0:0:0:0:
192,192,317905,1,0,0:0:0:0:
448,192,317905,1,0,0:0:0:0:
64,192,317980,1,0,0:0:0:0:
320,192,318055,1,0,0:0:0:0:
448,192,318055,1,0,0:0:0:0:
192,192,318130,1,0,0:0:0:0:
64,192,318205,1,0,0:0:0:0:
448,192,318205,1,0,0:0:0:0:
320,192,318280,1,0,0:0:0:0:
64,192,318355,1,0,0:0:0:0:
192,192,318355,1,0,0:0:0:0:
448,192,318430,1,0,0:0:0:0:
192,192,318505,1,0,0:0:0:0:
320,192,318505,1,0,0:0:0:0:
64,192,318580,1,0,0:0:0:0:
320,192,318655,1,0,0:0:0:0:
448,192,318655,1,0,0:0:0:0:
192,192,318730,1,0,0:0:0:0:
64,192,318805,1,0,0:0:0:0:
448,192,318805,1,0,0:0:0:0:
320,192,318880,1,0,0:0:0:0:
64,192,318955,1,0,0:0:0:0:
192,192,318955,1,0,0:0:0:0:
320,192,319030,1,0,0:0:0:0:
64,192,319105,1,0,0:0:0:0:
448,192,319105,1,0,0:0:0:0:
192,192,319180,1,0,0:0:0:0:
320,192,319255,1,0,0:0:0:0:
448,192,319255,1,0,0:0:0:0:
64,192,319330,1,0,0:0:0:0:
192,192,319405,1,0,0:0:0:0:
448,192,319405,1,0,0:0:0:0:
320,192,319480,1,0,0:0:0:0:
64,192,319555,1,0,0:0:0:0:
192,192,319555,1,0,0:0:0:0:
448,192,319630,1,0,0:0:0:0:
64,192,319705,1,0,0:0:0:0:
320,192,319705,1,0,0:0:0:0:
192,192,319780,1,0,0:0:0:0:
320,192,319855,1,0,0:0:0:0:
448,192,319855,1,0,0:0:0:0:
64,192,319930,1,0,0:0:0:0:
192,192,320005,1,0,0:0:0:0:
320,192,320005,1,0,0:0:0:0:
448,192,320080,1,0,0:0:0:0:
64,192,320155,1,0,0:0:0:0:
192,192,320155,1,0,0:0:0:0:
320,192,320230,1,0,0:0:0:0:
64,192,320305,1,0,0:0:0:0:
448,192,320305,1,0,0:0:0:0:
192,192,320380,1,0,0:0:0:0:
320,192,320455,1,0,0:0:0:0:
448,192,320455,1,0,0:0:0:0:
64,192,320530,1,0,0:0:0:0:
192,192,320605,1,0,0:0:0:0:
448,192,320605,1,0,0:0:0:0:
320,192,320680,1,0,0:0:0:0:
64,192,320755,1,0,0:0:0:0:
192,192,320755,1,0,0:0:0:0:
448,192,320830,1,0,0:0:0:0:
64,192,320905,1,0,0:0:0:0:
320,192,320905,1,0,0:0:0:0:
192,192,320980,1,0,0:0:0:0:
320,192,321055,1,0,0:0:0:0:
448,192,321055,1,0,0:0:0:0:
192,192,321130,1,0,0:0:0:0:
64,192,321205,1,0,0:0:0:0:
448,192,321205,1,0,0:0:0:0:
320,192,321280,1,0,0:0:0:0:
64,192,321355,1,0,0:0:0:0:
192,192,321355,1,0,0:0:0:0:
448,192,321430,1,0,0:0:0:0:
192,192,321505,1,0,0:0:0:0:
320,192,321505,1,0,0:0:0:0:
64,192,321580,1,0,0:0:0:0:
320,192,321655,1,0,0:0:0:0:
448,192,321655,1,0,0:0:0:0:
192,192,321730,1,0,0:0:0:0:
320,192,321805,1,0,0:0:0:0:
64,192,321880,128,0,322726:0:0:0:0:
192,192,321880,1,0,0:0:0:0:
448,192,321880,128,0,322726:0:0:0:0:
64,192,322803,128,0,323726:0:0:0:0:
192,192,322803,1,0,0:0:0:0:
320,192,322803,128,0,323726:0:0:0:0:
448,192,323726,128,0,324187:0:0:0:0:
64,192,324187,128,0,324341:0:0:0:0:
448,192,324649,128,0,325110:0:0:0:0:
320,192,325110,128,0,325264:0:0:0:0:
448,192,325572,128,0,326033:0:0:0:0:
64,192,326033,128,0,326187:0:0:0:0:
448,192,326495,128,0,326956:0:0:0:0:
320,192,326956,128,0,327110:0:0:0:0:
448,192,327418,128,0,327880:0:0:0:0:
64,192,327880,128,0,328033:0:0:0:0:
64,192,328341,128,0,330188:0:0:0:0:
448,192,328341,128,0,328803:0:0:0:0:
320,192,328803,128,0,328956:0:0:0:0:
448,192,329264,128,0,329726:0:0:0:0:
192,192,329726,128,0,329880:0:0:0:0:
320,192,330188,1,0,0:0:0:0:
448,192,330188,1,0,0:0:0:0:
320,192,330288,1,0,0:0:0:0:
448,192,330288,1,0,0:0:0:0:
64,192,330388,1,0,0:0:0:0:
192,192,330488,1,0,0:0:0:0:
448,192,330588,1,0,0:0:0:0:
320,192,330688,1,0,0:0:0:0:
64,192,330788,1,0,0:0:0:0:
192,192,330788,1,0,0:0:0:0:
320,192,330888,1,0,0:0:0:0:
448,192,330888,1,0,0:0:0:0:
64,192,330988,1,0,0:0:0:0:
192,192,330988,1,0,0:0:0:0:
320,192,331088,1,0,0:0:0:0:
448,192,331088,1,0,0:0:0:0:
64,192,331188,1,0,0:0:0:0:
192,192,331188,1,0,0:0:0:0:
448,192,331288,1,0,0:0:0:0:
64,192,331388,1,0,0:0:0:0:
192,192,331388,1,0,0:0:0:0:
320,192,331388,1,0,0:0:0:0:
64,192,331538,1,0,0:0:0:0:
448,192,331538,1,0,0:0:0:0:
192,192,331688,1,0,0:0:0:0:
448,192,331688,1,0,0:0:0:0:
192,192,331838,1,0,0:0:0:0:
320,192,331838,1,0,0:0:0:0:
64,192,331988,1,0,0:0:0:0:
320,192,331988,1,0,0:0:0:0:
64,192,332138,1,0,0:0:0:0:
448,192,332138,1,0,0:0:0:0:
192,192,332288,1,0,0:0:0:0:
448,192,332288,1,0,0:0:0:0:
320,192,332438,1,0,0:0:0:0:
64,192,332588,1,0,0:0:0:0:
448,192,332588,1,0,0:0:0:0:
64,192,332738,1,0,0:0:0:0:
320,192,332738,1,0,0:0:0:0:
192,192,332888,1,0,0:0:0:0:
320,192,332888,1,0,0:0:0:0:
64,192,333038,1,0,0:0:0:0:
448,192,333038,1,0,0:0:0:0:
320,192,333188,1,0,0:0:0:0:
448,192,333188,1,0,0:0:0:0:
192,192,333338,1,0,0:0:0:0:
320,192,333338,1,0,0:0:0:0:
64,192,333488,1,0,0:0:0:0:
192,192,333488,1,0,0:0:0:0:
320,192,333638,1,0,0:0:0:0:
192,192,333788,1,0,0:0:0:0:
448,192,333788,1,0,0:0:0:0:
64,192,333888,1,0,0:0:0:0:
320,192,333888,1,0,0:0:0:0:
192,192,333988,1,0,0:0:0:0:
320,192,334088,1,0,0:0:0:0:
448,192,334088,1,0,0:0:0:0:
192,192,334188,1,0,0:0:0:0:
64,192,334288,1,0,0:0:0:0:
448,192,334288,1,0,0:0:0:0:
192,192,334388,1,0,0:0:0:0:
320,192,334388,128,0,334688:0:0:0:0:
64,192,334688,128,0,334988:0:0:0:0:
448,192,334688,1,0,0:0:0:0:
192,192,334988,1,0,0:0:0:0:
448,192,334988,1,0,0:0:0:0:
320,192,335138,1,0,0:0:0:0:
448,192,335138,1,0,0:0:0:0:
192,192,335288,1,0,0:0:0:0:
448,192,335288,1,0,0:0:0:0:
320,192,335438,1,0,0:0:0:0:
64,192,335588,1,0,0:0:0:0:
448,192,335588,1,0,0:0:0:0:
64,192,335738,1,0,0:0:0:0:
64,192,335888,1,0,0:0:0:0:
448,192,335888,1,0,0:0:0:0:
320,192,336038,1,0,0:0:0:0:
192,192,336188,1,0,0:0:0:0:
448,192,336188,1,0,0:0:0:0:
192,192,336338,1,0,0:0:0:0:
192,192,336488,1,0,0:0:0:0:
448,192,336488,1,0,0:0:0:0:
64,192,336638,1,0,0:0:0:0:
448,192,336638,128,0,337013:0:0:0:0:
192,192,336788,1,0,0:0:0:0:
320,192,336788,1,0,0:0:0:0:
192,192,336938,1,0,0:0:0:0:
64,192,337088,1,0,0:0:0:0:
448,192,337088,128,0,337388:0:0:0:0:
64,192,337238,1,0,0:0:0:0:
192,192,337388,1,0,0:0:0:0:
320,192,337388,1,0,0:0:0:0:
64,192,337538,1,0,0:0:0:0:
448,192,337538,1,0,0:0:0:0:
192,192,337688,1,0,0:0:0:0:
448,192,337688,1,0,0:0:0:0:
192,192,337838,1,0,0:0:0:0:
320,192,337838,1,0,0:0:0:0:
64,192,337988,1,0,0:0:0:0:
320,192,337988,1,0,0:0:0:0:
64,192,338138,1,0,0:0:0:0:
448,192,338138,1,0,0:0:0:0:
192,192,338288,128,0,338588:0:0:0:0:
320,192,338288,1,0,0:0:0:0:
448,192,338288,1,0,0:0:0:0:
320,192,338588,1,0,0:0:0:0:
448,192,338588,1,0,0:0:0:0:
64,192,338663,1,0,0:0:0:0:
192,192,338663,1,0,0:0:0:0:
448,192,338738,1,0,0:0:0:0:
320,192,338813,1,0,0:0:0:0:
64,192,338888,1,0,0:0:0:0:
192,192,338963,1,0,0:0:0:0:
320,192,339038,1,0,0:0:0:0:
448,192,339038,1,0,0:0:0:0:
64,192,339113,1,0,0:0:0:0:
192,192,339113,1,0,0:0:0:0:
448,192,339188,1,0,0:0:0:0:
320,192,339263,1,0,0:0:0:0:
64,192,339338,1,0,0:0:0:0:
192,192,339413,1,0,0:0:0:0:
320,192,339488,1,0,0:0:0:0:
448,192,339488,1,0,0:0:0:0:
64,192,339563,1,0,0:0:0:0:
192,192,339563,1,0,0:0:0:0:
64,192,339788,1,0,0:0:0:0:
448,192,339788,1,0,0:0:0:0:
64,192,340088,1,0,0:0:0:0:
192,192,340088,1,0,0:0:0:0:
448,192,340088,1,0,0:0:0:0:
320,192,340163,1,0,0:0:0:0:
192,192,340238,1,0,0:0:0:0:
64,192,340313,1,0,0:0:0:0:
448,192,340313,1,0,0:0:0:0:
320,192,340388,1,0,0:0:0:0:
64,192,340463,1,0,0:0:0:0:
192,192,340463,1,0,0:0:0:0:
448,192,340538,1,0,0:0:0:0:
192,192,340613,1,0,0:0:0:0:
320,192,340613,1,0,0:0:0:0:
64,192,340688,1,0,0:0:0:0:
320,192,340763,1,0,0:0:0:0:
448,192,340763,1,0,0:0:0:0:
192,192,340838,1,0,0:0:0:0:
64,192,340913,1,0,0:0:0:0:
448,192,340913,1,0,0:0:0:0:
320,192,340988,1,0,0:0:0:0:
192,192,341063,1,0,0:0:0:0:
64,192,341138,1,0,0:0:0:0:
192,192,341213,1,0,0:0:0:0:
448,192,341213,1,0,0:0:0:0:
320,192,341288,1,0,0:0:0:0:
64,192,341363,1,0,0:0:0:0:
448,192,341363,1,0,0:0:0:0:
192,192,341438,1,0,0:0:0:0:
64,192,341513,1,0,0:0:0:0:
320,192,341513,1,0,0:0:0:0:
448,192,341588,1,0,0:0:0:0:
64,192,341663,1,0,0:0:0:0:
192,192,341663,1,0,0:0:0:0:
320,192,341738,1,0,0:0:0:0:
192,192,341813,1,0,0:0:0:0:
448,192,341813,1,0,0:0:0:0:
64,192,341888,1,0,0:0:0:0:
320,192,341963,1,0,0:0:0:0:
448,192,341963,1,0,0:0:0:0:
192,192,342038,1,0,0:0:0:0:
64,192,342113,1,0,0:0:0:0:
448,192,342113,1,0,0:0:0:0:
320,192,342188,1,0,0:0:0:0:
64,192,342263,1,0,0:0:0:0:
192,192,342263,1,0,0:0:0:0:
320,192,342338,1,0,0:0:0:0:
64,192,342413,1,0,0:0:0:0:
320,192,342488,1,0,0:0:0:0:
448,192,342488,1,0,0:0:0:0:
192,192,342588,1,0,0:0:0:0:
448,192,342688,1,0,0:0:0:0:
64,192,342788,1,0,0:0:0:0:
320,192,342888,1,0,0:0:0:0:
64,192,342988,1,0,0:0:0:0:
320,192,343088,1,0,0:0:0:0:
448,192,343088,1,0,0:0:0:0:
64,192,343188,1,0,0:0:0:0:
192,192,343188,1,0,0:0:0:0:
320,192,343288,1,0,0:0:0:0:
448,192,343288,1,0,0:0:0:0:
64,192,343388,1,0,0:0:0:0:
192,192,343488,1,0,0:0:0:0:
320,192,343588,1,0,0:0:0:0:
64,192,343688,1,0,0:0:0:0:
64,192,343838,1,0,0:0:0:0:
64,192,343988,1,0,0:0:0:0:
320,192,344288,1,0,0:0:0:0:
320,192,344588,1,0,0:0:0:0:
192,192,344888,1,0,0:0:0:0:
192,192,345188,1,0,0:0:0:0:
448,192,345338,128,0,345713:0:0:0:0:
448,192,345788,128,0,346088:0:0:0:0:
64,192,346088,1,0,0:0:0:0:
192,192,346088,1,0,0:0:0:0:
320,192,346088,1,0,0:0:0:0:
64,192,346238,1,0,0:0:0:0:
448,192,346238,1,0,0:0:0:0:
64,192,346388,1,0,0:0:0:0:
320,192,346388,1,0,0:0:0:0:
192,192,346538,1,0,0:0:0:0:
320,192,346538,1,0,0:0:0:0:
192,192,346688,1,0,0:0:0:0:
448,192,346688,1,0,0:0:0:0:
64,192,346838,1,0,0:0:0:0:
448,192,346838,1,0,0:0:0:0:
64,192,346988,1,0,0:0:0:0:
320,192,346988,128,0,347288:0:0:0:0:
64,192,347288,1,0,0:0:0:0:
192,192,347288,1,0,0:0:0:0:
320,192,347363,1,0,0:0:0:0:
448,192,347363,1,0,0:0:0:0:
192,192,347438,1,0,0:0:0:0:
64,192,347513,1,0,0:0:0:0:
320,192,347588,1,0,0:0:0:0:
448,192,347663,1,0,0:0:0:0:
64,192,347738,1,0,0:0:0:0:
192,192,347738,1,0,0:0:0:0:
320,192,347813,1,0,0:0:0:0:
448,192,347813,1,0,0:0:0:0:
64,192,347888,1,0,0:0:0:0:
192,192,347963,1,0,0:0:0:0:
448,192,348038,1,0,0:0:0:0:
320,192,348113,1,0,0:0:0:0:
64,192,348188,1,0,0:0:0:0:
192,192,348188,1,0,0:0:0:0:
320,192,348263,1,0,0:0:0:0:
448,192,348263,1,0,0:0:0:0:
64,192,348488,1,0,0:0:0:0:
448,192,348488,1,0,0:0:0:0:
320,192,348788,1,0,0:0:0:0:
448,192,348788,1,0,0:0:0:0:
64,192,348863,1,0,0:0:0:0:
192,192,348863,1,0,0:0:0:0:
320,192,348938,1,0,0:0:0:0:
448,192,349013,1,0,0:0:0:0:
192,192,349088,1,0,0:0:0:0:
64,192,349163,1,0,0:0:0:0:
320,192,349238,1,0,0:0:0:0:
448,192,349238,1,0,0:0:0:0:
64,192,349313,1,0,0:0:0:0:
192,192,349313,1,0,0:0:0:0:
448,192,349388,1,0,0:0:0:0:
320,192,349463,1,0,0:0:0:0:
64,192,349538,1,0,0:0:0:0:
192,192,349613,1,0,0:0:0:0:
320,192,349688,1,0,0:0:0:0:
448,192,349688,1,0,0:0:0:0:
64,192,349763,1,0,0:0:0:0:
192,192,349763,1,0,0:0:0:0:
64,192,350138,1,0,0:0:0:0:
448,192,350138,1,0,0:0:0:0:
192,192,350213,1,0,0:0:0:0:
320,192,350213,1,0,0:0:0:0:
64,192,350588,1,0,0:0:0:0:
320,192,350588,1,0,0:0:0:0:
192,192,350688,1,0,0:0:0:0:
448,192,350688,1,0,0:0:0:0:
64,192,350788,1,0,0:0:0:0:
320,192,350888,1,0,0:0:0:0:
448,192,350888,1,0,0:0:0:0:
64,192,350988,1,0,0:0:0:0:
192,192,350988,1,0,0:0:0:0:
320,192,351088,1,0,0:0:0:0:
64,192,351188,1,0,0:0:0:0:
448,192,351188,1,0,0:0:0:0:
192,192,351288,1,0,0:0:0:0:
320,192,351288,1,0,0:0:0:0:
448,192,351388,1,0,0:0:0:0:
64,192,351488,1,0,0:0:0:0:
192,192,351488,1,0,0:0:0:0:
64,192,351588,1,0,0:0:0:0:
192,192,351588,1,0,0:0:0:0:
64,192,352088,1,0,0:0:0:0:
192,192,352088,1,0,0:0:0:0:
320,192,352163,1,0,0:0:0:0:
448,192,352163,1,0,0:0:0:0:
64,192,352238,1,0,0:0:0:0:
192,192,352238,1,0,0:0:0:0:
320,192,352313,1,0,0:0:0:0:
448,192,352313,1,0,0:0:0:0:
64,192,352388,1,0,0:0:0:0:
192,192,352388,1,0,0:0:0:0:
320,192,352463,1,0,0:0:0:0:
192,192,352538,1,0,0:0:0:0:
64,192,352613,1,0,0:0:0:0:
448,192,352613,1,0,0:0:0:0:
320,192,352688,1,0,0:0:0:0:
64,192,352763,1,0,0:0:0:0:
192,192,352763,1,0,0:0:0:0:
448,192,352838,1,0,0:0:0:0:
192,192,352913,1,0,0:0:0:0:
320,192,352913,1,0,0:0:0:0:
64,192,352988,1,0,0:0:0:0:
320,192,353063,1,0,0:0:0:0:
448,192,353063,1,0,0:0:0:0:
192,192,353138,1,0,0:0:0:0:
64,192,353213,1,0,0:0:0:0:
448,192,353213,1,0,0:0:0:0:
320,192,353288,1,0,0:0:0:0:
64,192,353363,1,0,0:0:0:0:
192,192,353363,1,0,0:0:0:0:
448,192,353438,1,0,0:0:0:0:
64,192,353513,1,0,0:0:0:0:
320,192,353513,1,0,0:0:0:0:
192,192,353588,1,0,0:0:0:0:
320,192,353663,1,0,0:0:0:0:
448,192,353663,1,0,0:0:0:0:
64,192,353738,1,0,0:0:0:0:
192,192,353813,1,0,0:0:0:0:
320,192,353813,1,0,0:0:0:0:
448,192,353888,1,0,0:0:0:0:
64,192,353963,1,0,0:0:0:0:
192,192,353963,1,0,0:0:0:0:
320,192,354038,1,0,0:0:0:0:
64,192,354113,1,0,0:0:0:0:
448,192,354113,1,0,0:0:0:0:
192,192,354188,1,0,0:0:0:0:
320,192,354263,1,0,0:0:0:0:
448,192,354263,1,0,0:0:0:0:
192,192,354338,1,0,0:0:0:0:
64,192,354413,1,0,0:0:0:0:
448,192,354413,1,0,0:0:0:0:
320,192,354488,1,0,0:0:0:0:
64,192,354563,1,0,0:0:0:0:
192,192,354563,1,0,0:0:0:0:
448,192,354638,1,0,0:0:0:0:
64,192,354713,1,0,0:0:0:0:
320,192,354713,1,0,0:0:0:0:
192,192,354788,1,0,0:0:0:0:
320,192,354863,1,0,0:0:0:0:
448,192,354863,1,0,0:0:0:0:
64,192,354938,1,0,0:0:0:0:
192,192,355013,1,0,0:0:0:0:
320,192,355013,1,0,0:0:0:0:
448,192,355088,1,0,0:0:0:0:
64,192,355163,1,0,0:0:0:0:
192,192,355163,1,0,0:0:0:0:
320,192,355238,1,0,0:0:0:0:
64,192,355313,1,0,0:0:0:0:
448,192,355313,1,0,0:0:0:0:
192,192,355388,1,0,0:0:0:0:
320,192,355463,1,0,0:0:0:0:
448,192,355463,1,0,0:0:0:0:
64,192,355538,1,0,0:0:0:0:
192,192,355613,1,0,0:0:0:0:
448,192,355613,1,0,0:0:0:0:
320,192,355688,1,0,0:0:0:0:
64,192,355763,1,0,0:0:0:0:
192,192,355763,1,0,0:0:0:0:
448,192,355838,1,0,0:0:0:0:
192,192,355913,1,0,0:0:0:0:
320,192,355913,1,0,0:0:0:0:
64,192,355988,1,0,0:0:0:0:
320,192,356063,1,0,0:0:0:0:
448,192,356063,1,0,0:0:0:0:
192,192,356138,1,0,0:0:0:0:
64,192,356213,1,0,0:0:0:0:
448,192,356213,1,0,0:0:0:0:
320,192,356288,1,0,0:0:0:0:
64,192,356363,1,0,0:0:0:0:
192,192,356363,1,0,0:0:0:0:
320,192,356438,1,0,0:0:0:0:
64,192,356513,1,0,0:0:0:0:
448,192,356513,1,0,0:0:0:0:
192,192,356588,1,0,0:0:0:0:
320,192,356663,1,0,0:0:0:0:
448,192,356663,1,0,0:0:0:0:
64,192,356738,1,0,0:0:0:0:
192,192,356813,1,0,0:0:0:0:
320,192,356813,1,0,0:0:0:0:
448,192,356888,1,0,0:0:0:0:
64,192,356963,1,0,0:0:0:0:
192,192,356963,1,0,0:0:0:0:
320,192,357038,1,0,0:0:0:0:
64,192,357113,1,0,0:0:0:0:
192,192,357188,128,0,357388:0:0:0:0:
448,192,357188,1,0,0:0:0:0:
64,192,357388,1,0,0:0:0:0:
448,192,357388,128,0,357588:0:0:0:0:
64,192,357588,128,0,357788:0:0:0:0:
320,192,357588,1,0,0:0:0:0:
192,192,357788,1,0,0:0:0:0:
320,192,357788,128,0,358388:0:0:0:0:
64,192,358256,1,0,0:0:0:0:
64,192,358714,1,0,0:0:0:0:
192,192,358714,1,0,0:0:0:0:
320,192,358714,128,0,359406:0:0:0:0:
448,192,358714,128,0,359406:0:0:0:0:
64,192,359175,128,0,359406:0:0:0:0:
192,192,359483,1,0,0:0:0:0:
320,192,359560,1,0,0:0:0:0:
64,192,359637,1,0,0:0:0:0:
192,192,359637,128,0,360329:0:0:0:0:
448,192,359637,128,0,360329:0:0:0:0:
320,192,360098,128,0,360329:0:0:0:0:
64,192,360560,1,0,0:0:0:0:
192,192,360560,1,0,0:0:0:0:
320,192,360560,128,0,361252:0:0:0:0:
448,192,360560,128,0,361252:0:0:0:0:
64,192,361021,128,0,361252:0:0:0:0:
192,192,361329,1,0,0:0:0:0:
320,192,361406,1,0,0:0:0:0:
64,192,361483,128,0,362175:0:0:0:0:
192,192,361483,1,0,0:0:0:0:
448,192,361483,128,0,362175:0:0:0:0:
320,192,361944,128,0,362175:0:0:0:0:
64,192,362406,1,0,0:0:0:0:
192,192,362406,1,0,0:0:0:0:
320,192,362406,128,0,363098:0:0:0:0:
448,192,362406,128,0,363098:0:0:0:0:
64,192,362867,128,0,363098:0:0:0:0:
192,192,363175,1,0,0:0:0:0:
320,192,363252,1,0,0:0:0:0:
64,192,363329,1,0,0:0:0:0:
192,192,363329,128,0,364021:0:0:0:0:
448,192,363329,128,0,364021:0:0:0:0:
320,192,363790,128,0,364021:0:0:0:0:
64,192,364252,1,0,0:0:0:0:
192,192,364252,1,0,0:0:0:0:
320,192,364252,128,0,364944:0:0:0:0:
448,192,364252,128,0,364944:0:0:0:0:
192,192,364483,1,0,0:0:0:0:
64,192,364714,1,0,0:0:0:0:
192,192,364714,1,0,0:0:0:0:
64,192,364944,1,0,0:0:0:0:
192,192,364944,1,0,0:0:0:0:
64,192,365175,128,0,365867:0:0:0:0:
192,192,365175,1,0,0:0:0:0:
448,192,365175,128,0,365867:0:0:0:0:
320,192,365406,1,0,0:0:0:0:
192,192,365637,1,0,0:0:0:0:
320,192,365637,1,0,0:0:0:0:
192,192,365867,1,0,0:0:0:0:
64,192,366098,1,0,0:0:0:0:
192,192,366098,1,0,0:0:0:0:
320,192,366098,128,0,366790:0:0:0:0:
448,192,366098,128,0,366790:0:0:0:0:
64,192,366329,1,0,0:0:0:0:
192,192,366560,1,0,0:0:0:0:
64,192,366790,1,0,0:0:0:0:
192,192,366867,1,0,0:0:0:0:
320,192,366944,1,0,0:0:0:0:
64,192,367021,1,0,0:0:0:0:
192,192,367021,128,0,367714:0:0:0:0:
448,192,367021,128,0,367714:0:0:0:0:
320,192,367483,128,0,367714:0:0:0:0:
64,192,367944,1,0,0:0:0:0:
192,192,367944,1,0,0:0:0:0:
320,192,367944,128,0,368637:0:0:0:0:
448,192,367944,128,0,368637:0:0:0:0:
64,192,368175,1,0,0:0:0:0:
192,192,368406,1,0,0:0:0:0:
64,192,368637,1,0,0:0:0:0:
192,192,368714,1,0,0:0:0:0:
320,192,368790,1,0,0:0:0:0:
64,192,368867,128,0,369560:0:0:0:0:
192,192,368867,1,0,0:0:0:0:
448,192,368867,128,0,369560:0:0:0:0:
320,192,369329,128,0,369560:0:0:0:0:
64,192,369790,1,0,0:0:0:0:
192,192,369790,1,0,0:0:0:0:
320,192,369790,128,0,370483:0:0:0:0:
448,192,369790,128,0,370483:0:0:0:0:
64,192,370021,1,0,0:0:0:0:
192,192,370252,1,0,0:0:0:0:
64,192,370483,1,0,0:0:0:0:
192,192,370560,1,0,0:0:0:0:
320,192,370637,1,0,0:0:0:0:
64,192,370714,1,0,0:0:0:0:
192,192,370714,128,0,371406:0:0:0:0:
448,192,370714,128,0,371406:0:0:0:0:
320,192,371175,128,0,371406:0:0:0:0:
64,192,371637,1,0,0:0:0:0:
192,192,371637,1,0,0:0:0:0:
320,192,371637,128,0,372329:0:0:0:0:
448,192,371637,128,0,372329:0:0:0:0:
64,192,371944,1,0,0:0:0:0:
64,192,372252,1,0,0:0:0:0:
192,192,372406,1,0,0:0:0:0:
320,192,372483,1,0,0:0:0:0:
64,192,372560,128,0,373252:0:0:0:0:
192,192,372560,1,0,0:0:0:0:
448,192,372560,128,0,373252:0:0:0:0:
320,192,372867,1,0,0:0:0:0:
192,192,372944,128,0,373252:0:0:0:0:
64,192,373483,1,0,0:0:0:0:
192,192,373483,1,0,0:0:0:0:
320,192,373483,128,0,374175:0:0:0:0:
448,192,373483,128,0,374175:0:0:0:0:
64,192,373944,128,0,374175:0:0:0:0:
192,192,374252,1,0,0:0:0:0:
320,192,374329,1,0,0:0:0:0:
64,192,374406,1,0,0:0:0:0:
192,192,374406,128,0,375098:0:0:0:0:
448,192,374406,128,0,375098:0:0:0:0:
320,192,374867,128,0,375098:0:0:0:0:
64,192,375329,1,0,0:0:0:0:
192,192,375329,1,0,0:0:0:0:
320,192,375329,128,0,376021:0:0:0:0:
448,192,375329,128,0,376021:0:0:0:0:
64,192,375790,128,0,376021:0:0:0:0:
192,192,376098,1,0,0:0:0:0:
320,192,376175,1,0,0:0:0:0:
64,192,376252,128,0,376944:0:0:0:0:
192,192,376252,1,0,0:0:0:0:
448,192,376252,128,0,376944:0:0:0:0:
320,192,376714,128,0,376944:0:0:0:0:
64,192,377175,1,0,0:0:0:0:
192,192,377175,1,0,0:0:0:0:
320,192,377175,128,0,377867:0:0:0:0:
448,192,377175,128,0,377867:0:0:0:0:
64,192,377637,128,0,377867:0:0:0:0:
192,192,377944,1,0,0:0:0:0:
320,192,378021,1,0,0:0:0:0:
64,192,378098,1,0,0:0:0:0:
192,192,378098,128,0,378790:0:0:0:0:
448,192,378098,128,0,378790:0:0:0:0:
320,192,378560,128,0,378790:0:0:0:0:
64,192,379021,1,0,0:0:0:0:
192,192,379021,1,0,0:0:0:0:
320,192,379021,128,0,379714:0:0:0:0:
448,192,379021,128,0,379714:0:0:0:0:
192,192,379175,1,0,0:0:0:0:
64,192,379329,1,0,0:0:0:0:
64,192,379483,1,0,0:0:0:0:
192,192,379483,1,0,0:0:0:0:
64,192,379637,1,0,0:0:0:0:
192,192,379790,1,0,0:0:0:0:
64,192,379944,128,0,380637:0:0:0:0:
320,192,379944,1,0,0:0:0:0:
448,192,379944,128,0,380098:0:0:0:0:
192,192,380098,1,0,0:0:0:0:
192,192,380252,1,0,0:0:0:0:
448,192,380252,1,0,0:0:0:0:
320,192,380406,1,0,0:0:0:0:
192,192,380560,1,0,0:0:0:0:
320,192,380560,1,0,0:0:0:0:
192,192,380714,1,0,0:0:0:0:
320,192,380714,1,0,0:0:0:0:
64,192,380867,1,0,0:0:0:0:
192,192,380867,1,0,0:0:0:0:
320,192,380867,128,0,381560:0:0:0:0:
448,192,380867,128,0,381560:0:0:0:0:
64,192,381098,1,0,0:0:0:0:
192,192,381329,1,0,0:0:0:0:
64,192,381560,1,0,0:0:0:0:
192,192,381637,1,0,0:0:0:0:
320,192,381714,1,0,0:0:0:0:
64,192,381790,1,0,0:0:0:0:
192,192,381790,128,0,382483:0:0:0:0:
448,192,381790,128,0,382483:0:0:0:0:
320,192,382252,128,0,382483:0:0:0:0:
64,192,382714,1,0,0:0:0:0:
192,192,382714,1,0,0:0:0:0:
320,192,382714,128,0,383406:0:0:0:0:
448,192,382714,128,0,383406:0:0:0:0:
64,192,382944,1,0,0:0:0:0:
192,192,383175,1,0,0:0:0:0:
64,192,383406,1,0,0:0:0:0:
192,192,383483,1,0,0:0:0:0:
320,192,383560,1,0,0:0:0:0:
64,192,383637,128,0,384329:0:0:0:0:
192,192,383637,1,0,0:0:0:0:
448,192,383637,128,0,384329:0:0:0:0:
320,192,384098,128,0,384329:0:0:0:0:
64,192,384560,1,0,0:0:0:0:
192,192,384560,1,0,0:0:0:0:
320,192,384560,128,0,385252:0:0:0:0:
448,192,384560,128,0,385252:0:0:0:0:
64,192,384790,1,0,0:0:0:0:
192,192,385021,1,0,0:0:0:0:
64,192,385252,1,0,0:0:0:0:
192,192,385329,1,0,0:0:0:0:
320,192,385406,1,0,0:0:0:0:
64,192,385483,1,0,0:0:0:0:
192,192,385483,128,0,386175:0:0:0:0:
448,192,385483,128,0,386175:0:0:0:0:
320,192,385944,128,0,386175:0:0:0:0:
64,192,386406,1,0,0:0:0:0:
192,192,386406,1,0,0:0:0:0:
320,192,386406,1,0,0:0:0:0:
448,192,386406,128,0,387098:0:0:0:0:
64,192,386637,1,0,0:0:0:0:
192,192,386867,1,0,0:0:0:0:
320,192,387098,1,0,0:0:0:0:
192,192,387175,1,0,0:0:0:0:
64,192,387252,1,0,0:0:0:0:
320,192,387329,128,0,388021:0:0:0:0:
448,192,387329,128,0,388021:0:0:0:0:
64,192,387637,1,0,0:0:0:0:
192,192,387790,128,0,388021:0:0:0:0:
64,192,387944,1,0,0:0:0:0:
64,192,388252,128,0,390098:0:0:0:0:
320,192,388252,1,0,0:0:0:0:
448,192,388252,128,0,390098:0:0:0:0:
192,192,388714,1,0,0:0:0:0:
192,192,389175,1,0,0:0:0:0:
320,192,389175,1,0,0:0:0:0:
320,192,389637,1,0,0:0:0:0:
192,192,390098,128,0,392867:0:0:0:0:
320,192,390098,1,0,0:0:0:0:
448,192,390560,1,0,0:0:0:0:
64,192,391021,1,0,0:0:0:0:
448,192,391944,1,0,0:0:0:0:
64,192,392406,1,0,0:0:0:0:
320,192,393329,1,0,0:0:0:0:
320,192,393790,1,0,0:0:0:0:
320,192,394714,1,0,0:0:0:0:
64,192,395175,1,0,0:0:0:0:
448,192,396098,1,0,0:0:0:0:
192,192,396560,1,0,0:0:0:0:
448,192,397483,1,0,0:0:0:0:
192,192,397944,1,0,0:0:0:0:
448,192,398867,1,0,0:0:0:0:
64,192,399329,1,0,0:0:0:0:
448,192,400252,1,0,0:0:0:0:
320,192,401175,1,0,0:0:0:0:
64,192,401637,128,0,402560:0:0:0:0:
192,192,401637,1,0,0:0:0:0:
448,192,401637,1,0,0:0:0:0:
448,192,402098,1,0,0:0:0:0:
192,192,402560,1,0,0:0:0:0:
320,192,403021,128,0,403944:0:0:0:0:
448,192,403483,1,0,0:0:0:0:
192,192,403944,1,0,0:0:0:0:
192,192,404406,128,0,405329:0:0:0:0:
320,192,404867,1,0,0:0:0:0:
64,192,405329,1,0,0:0:0:0:
448,192,405790,128,0,406714:0:0:0:0:
192,192,406252,1,0,0:0:0:0:
64,192,406714,1,0,0:0:0:0:
192,192,407175,128,0,407637:0:0:0:0:
320,192,407637,128,0,409021:0:0:0:0:
448,192,407637,1,0,0:0:0:0:
64,192,408098,1,0,0:0:0:0:
448,192,409021,1,0,0:0:0:0:
64,192,409483,1,0,0:0:0:0:
64,192,409944,128,0,410675:0:0:0:0:
448,192,410406,1,0,0:0:0:0:
320,192,410675,128,0,412252:0:0:0:0:
192,192,410867,1,0,0:0:0:0:
448,192,411790,1,0,0:0:0:0:
192,192,412714,1,0,0:0:0:0:
448,192,413175,128,0,414098:0:0:0:0:
320,192,413637,1,0,0:0:0:0:
64,192,414098,1,0,0:0:0:0:
192,192,414560,128,0,415483:0:0:0:0:
448,192,415021,1,0,0:0:0:0:
64,192,415483,1,0,0:0:0:0:
320,192,415944,128,0,416867:0:0:0:0:
448,192,416406,1,0,0:0:0:0:
192,192,416867,1,0,0:0:0:0:
64,192,417329,128,0,418252:0:0:0:0:
320,192,417790,1,0,0:0:0:0:
192,192,418252,1,0,0:0:0:0:
448,192,418714,128,0,419175:0:0:0:0:
192,192,419175,1,0,0:0:0:0:
320,192,419175,128,0,420867:0:0:0:0:
64,192,419637,1,0,0:0:0:0:
448,192,420560,1,0,0:0:0:0:
448,192,420867,128,0,421137:0:0:0:0:
64,192,421021,1,0,0:0:0:0:
192,192,421137,128,0,421396:0:0:0:0:
320,192,421396,128,0,421944:0:0:0:0:
448,192,421944,1,0,0:0:0:0:
64,192,422406,1,0,0:0:0:0:
64,192,422867,128,0,423329:0:0:0:0:
192,192,423329,128,0,423790:0:0:0:0:
448,192,423329,1,0,0:0:0:0:
320,192,423790,128,0,424252:0:0:0:0:
64,192,424252,128,0,424714:0:0:0:0:
192,192,424252,1,0,0:0:0:0:
192,192,424714,1,0,0:0:0:0:
320,192,424714,1,0,0:0:0:0:
448,192,424714,128,0,425637:0:0:0:0:
320,192,425175,1,0,0:0:0:0:
64,192,425406,1,0,0:0:0:0:
192,192,425637,1,0,0:0:0:0:
64,192,426098,1,0,0:0:0:0:
448,192,426560,1,0,0:0:0:0:
320,192,426714,1,0,0:0:0:0:
192,192,426867,1,0,0:0:0:0:
64,192,427021,1,0,0:0:0:0:
192,192,427944,1,0,0:0:0:0:
320,192,428175,1,0,0:0:0:0:
64,192,428406,1,0,0:0:0:0:
448,192,428867,1,0,0:0:0:0:
320,192,429021,1,0,0:0:0:0:
192,192,429175,1,0,0:0:0:0:
320,192,429329,1,0,0:0:0:0:
192,192,429483,1,0,0:0:0:0:
64,192,429637,1,0,0:0:0:0:
448,192,429790,1,0,0:0:0:0:
64,192,430252,1,0,0:0:0:0:
192,192,430714,1,0,0:0:0:0:
320,192,430867,1,0,0:0:0:0:
448,192,431021,1,0,0:0:0:0:
192,192,431175,1,0,0:0:0:0:
64,192,431329,1,0,0:0:0:0:
320,192,431483,1,0,0:0:0:0:
192,192,431637,1,0,0:0:0:0:
320,192,432098,1,0,0:0:0:0:
448,192,432560,1,0,0:0:0:0:
64,192,433021,1,0,0:0:0:0:
192,192,433252,1,0,0:0:0:0:
320,192,433483,1,0,0:0:0:0:
64,192,433714,1,0,0:0:0:0:
448,192,433944,1,0,0:0:0:0:
320,192,434175,1,0,0:0:0:0:
192,192,434406,1,0,0:0:0:0:
448,192,434867,1,0,0:0:0:0:
64,192,435329,1,0,0:0:0:0:
192,192,435483,1,0,0:0:0:0:
320,192,435637,1,0,0:0:0:0:
448,192,435790,1,0,0:0:0:0:
320,192,435944,1,0,0:0:0:0:
192,192,436098,1,0,0:0:0:0:
64,192,436252,1,0,0:0:0:0:
320,192,436252,1,0,0:0:0:0:
448,192,436252,1,0,0:0:0:0:
192,192,436714,1,0,0:0:0:0:
320,192,436944,1,0,0:0:0:0:
64,192,437175,1,0,0:0:0:0:
448,192,437637,1,0,0:0:0:0:
64,192,438098,1,0,0:0:0:0:
192,192,438252,1,0,0:0:0:0:
320,192,438406,1,0,0:0:0:0:
448,192,438560,1,0,0:0:0:0:
320,192,439483,1,0,0:0:0:0:
192,192,439714,1,0,0:0:0:0:
448,192,439944,1,0,0:0:0:0:
64,192,440406,1,0,0:0:0:0:
192,192,440560,1,0,0:0:0:0:
320,192,440714,1,0,0:0:0:0:
192,192,440867,1,0,0:0:0:0:
320,192,441021,1,0,0:0:0:0:
448,192,441175,1,0,0:0:0:0:
64,192,441329,1,0,0:0:0:0:
448,192,441790,1,0,0:0:0:0:
320,192,442252,1,0,0:0:0:0:
192,192,442406,1,0,0:0:0:0:
64,192,442560,1,0,0:0:0:0:
320,192,442714,1,0,0:0:0:0:
448,192,442867,1,0,0:0:0:0:
192,192,443021,1,0,0:0:0:0:
320,192,443175,1,0,0:0:0:0:
192,192,443637,1,0,0:0:0:0:
64,192,444098,1,0,0:0:0:0:
448,192,444560,1,0,0:0:0:0:
320,192,444790,1,0,0:0:0:0:
192,192,445021,1,0,0:0:0:0:
448,192,445252,1,0,0:0:0:0:
64,192,445483,1,0,0:0:0:0:
192,192,445714,1,0,0:0:0:0:
320,192,445944,1,0,0:0:0:0:
64,192,446406,1,0,0:0:0:0:
448,192,446867,1,0,0:0:0:0:
320,192,447021,1,0,0:0:0:0:
192,192,447175,1,0,0:0:0:0:
64,192,447329,1,0,0:0:0:0:
448,192,447329,1,0,0:0:0:0:
192,192,447483,1,0,0:0:0:0:
320,192,447637,1,0,0:0:0:0:
64,192,447790,1,0,0:0:0:0:
192,192,447790,1,0,0:0:0:0:
448,192,447790,128,0,448714:0:0:0:0:
192,192,448252,1,0,0:0:0:0:
320,192,448406,1,0,0:0:0:0:
192,192,448560,1,0,0:0:0:0:
320,192,448714,128,0,448944:0:0:0:0:
64,192,449175,1,0,0:0:0:0:
192,192,449175,128,0,450098:0:0:0:0:
448,192,449175,1,0,0:0:0:0:
320,192,449483,1,0,0:0:0:0:
64,192,449637,1,0,0:0:0:0:
448,192,449790,1,0,0:0:0:0:
64,192,449944,1,0,0:0:0:0:
320,192,450098,1,0,0:0:0:0:
448,192,450252,1,0,0:0:0:0:
192,192,450406,1,0,0:0:0:0:
192,192,450560,1,0,0:0:0:0:
320,192,450560,128,0,451483:0:0:0:0:
64,192,450714,1,0,0:0:0:0:
448,192,450867,1,0,0:0:0:0:
64,192,451021,1,0,0:0:0:0:
192,192,451175,1,0,0:0:0:0:
448,192,451329,1,0,0:0:0:0:
192,192,451483,128,0,451714:0:0:0:0:
64,192,451944,128,0,452867:0:0:0:0:
320,192,451944,1,0,0:0:0:0:
448,192,451944,1,0,0:0:0:0:
192,192,452252,1,0,0:0:0:0:
448,192,452406,1,0,0:0:0:0:
192,192,452560,1,0,0:0:0:0:
320,192,452714,1,0,0:0:0:0:
448,192,452867,1,0,0:0:0:0:
192,192,453021,1,0,0:0:0:0:
64,192,453175,1,0,0:0:0:0:
64,192,453329,1,0,0:0:0:0:
320,192,453329,128,0,453790:0:0:0:0:
448,192,453483,1,0,0:0:0:0:
64,192,453637,1,0,0:0:0:0:
192,192,453790,128,0,455175:0:0:0:0:
448,192,453790,1,0,0:0:0:0:
64,192,453944,1,0,0:0:0:0:
320,192,454098,1,0,0:0:0:0:
448,192,454252,128,0,454483:0:0:0:0:
64,192,454714,1,0,0:0:0:0:
320,192,454714,1,0,0:0:0:0:
448,192,455021,1,0,0:0:0:0:
64,192,455175,1,0,0:0:0:0:
320,192,455329,1,0,0:0:0:0:
192,192,455483,1,0,0:0:0:0:
320,192,455637,1,0,0:0:0:0:
64,192,455790,1,0,0:0:0:0:
192,192,455944,1,0,0:0:0:0:
192,192,456098,1,0,0:0:0:0:
448,192,456098,128,0,456867:0:0:0:0:
320,192,456252,1,0,0:0:0:0:
64,192,456406,1,0,0:0:0:0:
320,192,456560,1,0,0:0:0:0:
64,192,456714,1,0,0:0:0:0:
192,192,456867,128,0,458406:0:0:0:0:
320,192,456867,1,0,0:0:0:0:
448,192,457021,128,0,457252:0:0:0:0:
64,192,457483,1,0,0:0:0:0:
320,192,457483,1,0,0:0:0:0:
448,192,457637,1,0,0:0:0:0:
64,192,457714,1,0,0:0:0:0:
448,192,457790,1,0,0:0:0:0:
320,192,457944,128,0,458098:0:0:0:0:
320,192,458252,128,0,458406:0:0:0:0:
64,192,458560,1,0,0:0:0:0:
448,192,458637,1,0,0:0:0:0:
64,192,458714,1,0,0:0:0:0:
192,192,458867,128,0,459098:0:0:0:0:
320,192,459175,1,0,0:0:0:0:
448,192,459175,1,0,0:0:0:0:
64,192,459329,128,0,460252:0:0:0:0:
192,192,459329,1,0,0:0:0:0:
448,192,459329,1,0,0:0:0:0:
320,192,459790,1,0,0:0:0:0:
192,192,459944,1,0,0:0:0:0:
320,192,460098,1,0,0:0:0:0:
192,192,460252,128,0,460483:0:0:0:0:
64,192,460714,1,0,0:0:0:0:
320,192,460714,128,0,461637:0:0:0:0:
448,192,460714,1,0,0:0:0:0:
192,192,461021,1,0,0:0:0:0:
448,192,461175,1,0,0:0:0:0:
64,192,461329,1,0,0:0:0:0:
448,192,461483,1,0,0:0:0:0:
192,192,461637,1,0,0:0:0:0:
448,192,461790,1,0,0:0:0:0:
320,192,461944,1,0,0:0:0:0:
192,192,462098,128,0,463021:0:0:0:0:
320,192,462098,1,0,0:0:0:0:
448,192,462252,1,0,0:0:0:0:
64,192,462406,1,0,0:0:0:0:
448,192,462560,1,0,0:0:0:0:
320,192,462714,1,0,0:0:0:0:
64,192,462867,1,0,0:0:0:0:
320,192,463021,128,0,463252:0:0:0:0:
64,192,463483,1,0,0:0:0:0:
320,192,463483,1,0,0:0:0:0:
448,192,463483,128,0,464406:0:0:0:0:
192,192,463790,1,0,0:0:0:0:
64,192,463944,1,0,0:0:0:0:
320,192,464098,1,0,0:0:0:0:
192,192,464252,1,0,0:0:0:0:
320,192,464406,1,0,0:0:0:0:
64,192,464560,1,0,0:0:0:0:
448,192,464714,1,0,0:0:0:0:
64,192,464867,128,0,465483:0:0:0:0:
448,192,464867,1,0,0:0:0:0:
192,192,465021,1,0,0:0:0:0:
320,192,465175,1,0,0:0:0:0:
448,192,465175,1,0,0:0:0:0:
320,192,465329,1,0,0:0:0:0:
448,192,465329,1,0,0:0:0:0:
192,192,465483,128,0,466252:0:0:0:0:
320,192,465483,1,0,0:0:0:0:
448,192,465637,1,0,0:0:0:0:
64,192,465790,1,0,0:0:0:0:
448,192,465790,1,0,0:0:0:0:
64,192,465944,1,0,0:0:0:0:
320,192,466098,1,0,0:0:0:0:
448,192,466098,1,0,0:0:0:0:
64,192,466252,1,0,0:0:0:0:
320,192,466252,128,0,467483:0:0:0:0:
64,192,466598,1,0,0:0:0:0:
192,192,466829,1,0,0:0:0:0:
448,192,467031,1,0,0:0:0:0:
64,192,467252,1,0,0:0:0:0:
192,192,467483,1,0,0:0:0:0:
448,192,467483,128,0,469021:0:0:0:0:
192,192,467723,1,0,0:0:0:0:
320,192,467839,128,0,468098:0:0:0:0:
192,192,468098,128,0,468560:0:0:0:0:
64,192,468762,1,0,0:0:0:0:
192,192,468819,1,0,0:0:0:0:
320,192,468877,1,0,0:0:0:0:
64,192,468935,1,0,0:0:0:0:
192,192,469021,1,0,0:0:0:0:
448,192,469329,1,0,0:0:0:0:
320,192,469598,1,0,0:0:0:0:
64,192,469714,1,0,0:0:0:0:
448,192,469790,1,0,0:0:0:0:
64,192,469867,1,0,0:0:0:0:
320,192,469945,1,0,0:0:0:0:
448,192,469945,128,0,470944:0:0:0:0:
64,192,470944,1,0,0:0:0:0:
192,192,471069,1,0,0:0:0:0:
320,192,471172,128,0,473763:0:0:0:0:
192,192,474308,1,0,0:0:0:0:
448,192,474581,1,0,0:0:0:0:
320,192,474854,1,0,0:0:0:0:
192,192,475126,1,0,0:0:0:0:
64,192,475399,1,0,0:0:0:0:
192,192,475672,1,0,0:0:0:0:
448,192,475944,1,0,0:0:0:0:
320,192,476217,1,0,0:0:0:0:
64,192,476490,1,0,0:0:0:0:
192,192,476763,1,0,0:0:0:0:
448,192,477035,1,0,0:0:0:0:
64,192,477308,1,0,0:0:0:0:
320,192,477581,1,0,0:0:0:0:
64,192,477854,1,0,0:0:0:0:
192,192,478126,1,0,0:0:0:0:
448,192,478399,1,0,0:0:0:0:
320,192,478672,1,0,0:0:0:0:
192,192,478944,1,0,0:0:0:0:
64,192,479217,1,0,0:0:0:0:
192,192,479490,1,0,0:0:0:0:
448,192,479763,1,0,0:0:0:0:
320,192,480035,1,0,0:0:0:0:
64,192,480308,1,0,0:0:0:0:
192,192,480581,1,0,0:0:0:0:
448,192,480854,1,0,0:0:0:0:
64,192,481126,1,0,0:0:0:0:
320,192,481399,1,0,0:0:0:0:
64,192,481672,1,0,0:0:0:0:
192,192,481944,1,0,0:0:0:0:
320,192,481944,1,0,0:0:0:0:
448,192,481944,128,0,485763:0:0:0:0:
64,192,482217,1,0,0:0:0:0:
320,192,482490,1,0,0:0:0:0:
192,192,482763,1,0,0:0:0:0:
64,192,483035,1,0,0:0:0:0:
192,192,483308,1,0,0:0:0:0:
64,192,483581,1,0,0:0:0:0:
320,192,483854,1,0,0:0:0:0:
64,192,484126,1,0,0:0:0:0:
192,192,484399,1,0,0:0:0:0:
320,192,484672,1,0,0:0:0:0:
64,192,484944,1,0,0:0:0:0:
192,192,485217,1,0,0:0:0:0:
64,192,485490,1,0,0:0:0:0:
64,192,485763,128,0,489581:0:0:0:0:
192,192,485763,1,0,0:0:0:0:
320,192,485763,1,0,0:0:0:0:
448,192,486035,1,0,0:0:0:0:
320,192,486308,1,0,0:0:0:0:
192,192,486581,1,0,0:0:0:0:
448,192,486854,1,0,0:0:0:0:
192,192,487126,1,0,0:0:0:0:
448,192,487399,1,0,0:0:0:0:
320,192,487672,1,0,0:0:0:0:
448,192,487944,1,0,0:0:0:0:
192,192,488217,1,0,0:0:0:0:
320,192,488490,1,0,0:0:0:0:
192,192,488763,1,0,0:0:0:0:
320,192,489035,1,0,0:0:0:0:
448,192,489035,1,0,0:0:0:0:
320,192,489308,1,0,0:0:0:0:
448,192,489308,1,0,0:0:0:0:
192,192,489581,1,0,0:0:0:0:
320,192,489581,128,0,493399:0:0:0:0:
448,192,489581,1,0,0:0:0:0:
448,192,489854,1,0,0:0:0:0:
64,192,490126,1,0,0:0:0:0:
448,192,490399,1,0,0:0:0:0:
64,192,490672,1,0,0:0:0:0:
192,192,490944,1,0,0:0:0:0:
448,192,491217,1,0,0:0:0:0:
192,192,491490,1,0,0:0:0:0:
64,192,491763,1,0,0:0:0:0:
448,192,492035,1,0,0:0:0:0:
192,192,492308,1,0,0:0:0:0:
448,192,492581,1,0,0:0:0:0:
64,192,492854,1,0,0:0:0:0:
192,192,493126,1,0,0:0:0:0:
64,192,493399,1,0,0:0:0:0:
192,192,493399,128,0,495308:0:0:0:0:
448,192,493399,1,0,0:0:0:0:
448,192,493672,1,0,0:0:0:0:
320,192,493944,1,0,0:0:0:0:
448,192,494217,1,0,0:0:0:0:
64,192,494490,1,0,0:0:0:0:
448,192,494763,1,0,0:0:0:0:
320,192,495035,1,0,0:0:0:0:
64,192,495308,128,0,495581:0:0:0:0:
448,192,495308,1,0,0:0:0:0:
320,192,495581,1,0,0:0:0:0:
448,192,495581,128,0,496126:0:0:0:0:
192,192,495854,1,0,0:0:0:0:
64,192,496126,1,0,0:0:0:0:
448,192,496399,1,0,0:0:0:0:
192,192,496672,1,0,0:0:0:0:
320,192,496672,128,0,497217:0:0:0:0:
448,192,496944,1,0,0:0:0:0:
64,192,497217,128,0,501035:0:0:0:0:
192,192,497217,1,0,0:0:0:0:
448,192,497217,1,0,0:0:0:0:
192,192,497354,1,0,0:0:0:0:
448,192,497354,1,0,0:0:0:0:
320,192,497490,1,0,0:0:0:0:
320,192,497626,1,0,0:0:0:0:
192,192,497763,1,0,0:0:0:0:
448,192,497763,1,0,0:0:0:0:
192,192,497899,1,0,0:0:0:0:
448,192,498035,1,0,0:0:0:0:
448,192,498172,1,0,0:0:0:0:
192,192,498308,1,0,0:0:0:0:
320,192,498308,1,0,0:0:0:0:
192,192,498444,1,0,0:0:0:0:
320,192,498581,1,0,0:0:0:0:
320,192,498717,1,0,0:0:0:0:
192,192,498854,1,0,0:0:0:0:
448,192,498854,1,0,0:0:0:0:
448,192,498990,1,0,0:0:0:0:
192,192,499126,1,0,0:0:0:0:
320,192,499126,1,0,0:0:0:0:
192,192,499263,1,0,0:0:0:0:
448,192,499399,1,0,0:0:0:0:
448,192,499535,1,0,0:0:0:0:
192,192,499672,1,0,0:0:0:0:
192,192,499808,1,0,0:0:0:0:
320,192,499944,1,0,0:0:0:0:
448,192,499944,1,0,0:0:0:0:
448,192,500081,1,0,0:0:0:0:
320,192,500217,1,0,0:0:0:0:
320,192,500354,1,0,0:0:0:0:
192,192,500490,1,0,0:0:0:0:
448,192,500490,1,0,0:0:0:0:
448,192,500626,1,0,0:0:0:0:
192,192,500763,1,0,0:0:0:0:
192,192,500899,1,0,0:0:0:0:
320,192,501035,1,0,0:0:0:0:
448,192,501035,1,0,0:0:0:0:
320,192,501172,1,0,0:0:0:0:
448,192,501172,1,0,0:0:0:0:
64,192,501308,1,0,0:0:0:0:
64,192,501444,1,0,0:0:0:0:
192,192,501581,1,0,0:0:0:0:
448,192,501581,1,0,0:0:0:0:
448,192,501717,1,0,0:0:0:0:
64,192,501854,1,0,0:0:0:0:
64,192,501990,1,0,0:0:0:0:
192,192,502126,1,0,0:0:0:0:
320,192,502126,1,0,0:0:0:0:
320,192,502263,1,0,0:0:0:0:
192,192,502399,1,0,0:0:0:0:
192,192,502535,1,0,0:0:0:0:
64,192,502672,1,0,0:0:0:0:
448,192,502672,1,0,0:0:0:0:
448,192,502808,1,0,0:0:0:0:
192,192,502944,1,0,0:0:0:0:
320,192,502944,1,0,0:0:0:0:
192,192,503081,1,0,0:0:0:0:
64,192,503217,1,0,0:0:0:0:
448,192,503217,1,0,0:0:0:0:
448,192,503354,1,0,0:0:0:0:
192,192,503490,1,0,0:0:0:0:
192,192,503626,1,0,0:0:0:0:
64,192,503763,1,0,0:0:0:0:
320,192,503763,1,0,0:0:0:0:
320,192,503899,1,0,0:0:0:0:
64,192,504035,1,0,0:0:0:0:
64,192,504172,1,0,0:0:0:0:
192,192,504308,1,0,0:0:0:0:
448,192,504308,1,0,0:0:0:0:
64,192,504444,1,0,0:0:0:0:
448,192,504444,1,0,0:0:0:0:
64,192,504581,1,0,0:0:0:0:
320,192,504581,1,0,0:0:0:0:
192,192,504717,1,0,0:0:0:0:
320,192,504717,1,0,0:0:0:0:
64,192,504854,1,0,0:0:0:0:
192,192,504854,1,0,0:0:0:0:
64,192,504990,1,0,0:0:0:0:
192,192,504990,1,0,0:0:0:0:
448,192,505126,1,0,0:0:0:0:
448,192,505263,1,0,0:0:0:0:
64,192,505399,1,0,0:0:0:0:
320,192,505399,1,0,0:0:0:0:
64,192,505535,1,0,0:0:0:0:
448,192,505672,1,0,0:0:0:0:
448,192,505808,1,0,0:0:0:0:
192,192,505944,1,0,0:0:0:0:
320,192,505944,1,0,0:0:0:0:
192,192,506081,1,0,0:0:0:0:
320,192,506217,1,0,0:0:0:0:
320,192,506354,1,0,0:0:0:0:
64,192,506490,1,0,0:0:0:0:
448,192,506490,1,0,0:0:0:0:
64,192,506626,1,0,0:0:0:0:
192,192,506763,1,0,0:0:0:0:
320,192,506763,1,0,0:0:0:0:
320,192,506899,1,0,0:0:0:0:
64,192,507035,1,0,0:0:0:0:
448,192,507035,1,0,0:0:0:0:
64,192,507172,1,0,0:0:0:0:
320,192,507308,1,0,0:0:0:0:
320,192,507444,1,0,0:0:0:0:
192,192,507581,1,0,0:0:0:0:
448,192,507581,1,0,0:0:0:0:
192,192,507717,1,0,0:0:0:0:
448,192,507854,1,0,0:0:0:0:
448,192,507990,1,0,0:0:0:0:
64,192,508126,1,0,0:0:0:0:
320,192,508126,1,0,0:0:0:0:
64,192,508263,1,0,0:0:0:0:
320,192,508399,1,0,0:0:0:0:
320,192,508535,1,0,0:0:0:0:
192,192,508672,1,0,0:0:0:0:
448,192,508672,1,0,0:0:0:0:
192,192,508808,1,0,0:0:0:0:
448,192,508808,1,0,0:0:0:0:
320,192,508944,1,0,0:0:0:0:
320,192,509081,1,0,0:0:0:0:
64,192,509217,1,0,0:0:0:0:
448,192,509217,1,0,0:0:0:0:
64,192,509354,1,0,0:0:0:0:
448,192,509490,1,0,0:0:0:0:
448,192,509626,1,0,0:0:0:0:
192,192,509763,1,0,0:0:0:0:
320,192,509763,1,0,0:0:0:0:
192,192,509899,1,0,0:0:0:0:
448,192,510035,1,0,0:0:0:0:
448,192,510172,1,0,0:0:0:0:
64,192,510308,1,0,0:0:0:0:
320,192,510308,1,0,0:0:0:0:
320,192,510444,1,0,0:0:0:0:
192,192,510581,1,0,0:0:0:0:
448,192,510581,1,0,0:0:0:0:
192,192,510717,1,0,0:0:0:0:
448,192,510717,1,0,0:0:0:0:
64,192,510990,1,0,0:0:0:0:
320,192,511126,1,0,0:0:0:0:
448,192,511126,1,0,0:0:0:0:
64,192,511263,1,0,0:0:0:0:
192,192,511399,1,0,0:0:0:0:
320,192,511399,1,0,0:0:0:0:
64,192,511535,1,0,0:0:0:0:
192,192,511672,1,0,0:0:0:0:
448,192,511672,1,0,0:0:0:0:
64,192,511808,1,0,0:0:0:0:
320,192,511808,1,0,0:0:0:0:
320,192,512081,1,0,0:0:0:0:
448,192,512081,1,0,0:0:0:0:
64,192,512217,1,0,0:0:0:0:
192,192,512217,1,0,0:0:0:0:
64,192,512490,1,0,0:0:0:0:
448,192,512490,1,0,0:0:0:0:
64,192,512626,1,0,0:0:0:0:
448,192,512626,1,0,0:0:0:0:
192,192,512763,1,0,0:0:0:0:
192,192,512899,1,0,0:0:0:0:
64,192,513035,1,0,0:0:0:0:
320,192,513035,1,0,0:0:0:0:
320,192,513172,1,0,0:0:0:0:
64,192,513308,1,0,0:0:0:0:
64,192,513444,1,0,0:0:0:0:
192,192,513581,1,0,0:0:0:0:
448,192,513581,1,0,0:0:0:0:
448,192,513717,1,0,0:0:0:0:
192,192,513854,1,0,0:0:0:0:
192,192,513990,1,0,0:0:0:0:
64,192,514126,1,0,0:0:0:0:
320,192,514126,1,0,0:0:0:0:
64,192,514263,1,0,0:0:0:0:
192,192,514399,1,0,0:0:0:0:
320,192,514399,1,0,0:0:0:0:
320,192,514535,1,0,0:0:0:0:
64,192,514672,1,0,0:0:0:0:
64,192,514808,1,0,0:0:0:0:
448,192,514944,1,0,0:0:0:0:
448,192,515081,1,0,0:0:0:0:
64,192,515217,1,0,0:0:0:0:
320,192,515217,1,0,0:0:0:0:
64,192,515354,1,0,0:0:0:0:
192,192,515490,1,0,0:0:0:0:
192,192,515626,1,0,0:0:0:0:
64,192,515763,1,0,0:0:0:0:
448,192,515763,1,0,0:0:0:0:
64,192,515899,1,0,0:0:0:0:
320,192,516035,1,0,0:0:0:0:
320,192,516172,1,0,0:0:0:0:
64,192,516308,1,0,0:0:0:0:
192,192,516308,1,0,0:0:0:0:
64,192,516444,1,0,0:0:0:0:
192,192,516444,1,0,0:0:0:0:
448,192,516581,1,0,0:0:0:0:
448,192,516717,1,0,0:0:0:0:
64,192,516854,1,0,0:0:0:0:
320,192,516854,1,0,0:0:0:0:
64,192,516990,1,0,0:0:0:0:
448,192,517126,1,0,0:0:0:0:
448,192,517263,1,0,0:0:0:0:
192,192,517399,1,0,0:0:0:0:
320,192,517399,1,0,0:0:0:0:
192,192,517535,1,0,0:0:0:0:
320,192,517672,1,0,0:0:0:0:
320,192,517808,1,0,0:0:0:0:
64,192,517944,1,0,0:0:0:0:
448,192,517944,1,0,0:0:0:0:
64,192,518081,1,0,0:0:0:0:
192,192,518217,1,0,0:0:0:0:
320,192,518217,1,0,0:0:0:0:
320,192,518354,1,0,0:0:0:0:
64,192,518490,1,0,0:0:0:0:
448,192,518490,1,0,0:0:0:0:
64,192,518626,1,0,0:0:0:0:
320,192,518763,1,0,0:0:0:0:
320,192,518899,1,0,0:0:0:0:
192,192,519035,1,0,0:0:0:0:
448,192,519035,1,0,0:0:0:0:
192,192,519172,1,0,0:0:0:0:
448,192,519308,1,0,0:0:0:0:
448,192,519444,1,0,0:0:0:0:
64,192,519581,1,0,0:0:0:0:
320,192,519581,1,0,0:0:0:0:
64,192,519717,1,0,0:0:0:0:
448,192,519717,1,0,0:0:0:0:
192,192,519854,1,0,0:0:0:0:
448,192,519854,1,0,0:0:0:0:
192,192,519990,1,0,0:0:0:0:
320,192,519990,1,0,0:0:0:0:
320,192,520126,1,0,0:0:0:0:
448,192,520126,1,0,0:0:0:0:
320,192,520263,1,0,0:0:0:0:
448,192,520263,1,0,0:0:0:0:
64,192,520399,1,0,0:0:0:0:
64,192,520535,1,0,0:0:0:0:
192,192,520672,1,0,0:0:0:0:
448,192,520672,1,0,0:0:0:0:
448,192,520808,1,0,0:0:0:0:
64,192,520944,1,0,0:0:0:0:
64,192,521081,1,0,0:0:0:0:
192,192,521217,1,0,0:0:0:0:
320,192,521217,1,0,0:0:0:0:
320,192,521354,1,0,0:0:0:0:
192,192,521490,1,0,0:0:0:0:
192,192,521626,1,0,0:0:0:0:
64,192,521763,1,0,0:0:0:0:
448,192,521763,1,0,0:0:0:0:
448,192,521899,1,0,0:0:0:0:
192,192,522035,1,0,0:0:0:0:
320,192,522035,1,0,0:0:0:0:
192,192,522172,1,0,0:0:0:0:
64,192,522308,1,0,0:0:0:0:
448,192,522308,1,0,0:0:0:0:
448,192,522444,1,0,0:0:0:0:
192,192,522581,1,0,0:0:0:0:
192,192,522717,1,0,0:0:0:0:
64,192,522854,1,0,0:0:0:0:
320,192,522854,1,0,0:0:0:0:
320,192,522990,1,0,0:0:0:0:
64,192,523126,1,0,0:0:0:0:
64,192,523263,1,0,0:0:0:0:
192,192,523399,1,0,0:0:0:0:
448,192,523399,1,0,0:0:0:0:
448,192,523535,1,0,0:0:0:0:
192,192,523672,1,0,0:0:0:0:
192,192,523808,1,0,0:0:0:0:
64,192,523944,1,0,0:0:0:0:
320,192,523944,1,0,0:0:0:0:
64,192,524081,1,0,0:0:0:0:
320,192,524081,1,0,0:0:0:0:
192,192,524217,1,0,0:0:0:0:
192,192,524354,1,0,0:0:0:0:
64,192,524490,1,0,0:0:0:0:
448,192,524490,1,0,0:0:0:0:
448,192,524626,1,0,0:0:0:0:
64,192,524763,1,0,0:0:0:0:
64,192,524899,1,0,0:0:0:0:
192,192,525035,1,0,0:0:0:0:
320,192,525035,1,0,0:0:0:0:
320,192,525172,1,0,0:0:0:0:
64,192,525308,1,0,0:0:0:0:
64,192,525444,1,0,0:0:0:0:
192,192,525581,1,0,0:0:0:0:
448,192,525581,1,0,0:0:0:0:
192,192,525717,1,0,0:0:0:0:
64,192,525854,1,0,0:0:0:0:
320,192,525854,1,0,0:0:0:0:
64,192,525990,1,0,0:0:0:0:
320,192,525990,1,0,0:0:0:0:
448,192,526263,1,0,0:0:0:0:
64,192,526399,1,0,0:0:0:0:
192,192,526399,1,0,0:0:0:0:
448,192,526535,1,0,0:0:0:0:
192,192,526672,1,0,0:0:0:0:
320,192,526672,1,0,0:0:0:0:
448,192,526808,1,0,0:0:0:0:
64,192,526944,1,0,0:0:0:0:
320,192,526944,1,0,0:0:0:0:
192,192,527081,1,0,0:0:0:0:
448,192,527081,1,0,0:0:0:0:
64,192,527354,1,0,0:0:0:0:
192,192,527354,1,0,0:0:0:0:
320,192,527490,1,0,0:0:0:0:
448,192,527490,1,0,0:0:0:0:
64,192,527763,1,0,0:0:0:0:
448,192,527763,1,0,0:0:0:0:
64,192,527905,1,0,0:0:0:0:
448,192,527905,1,0,0:0:0:0:
192,192,528048,1,0,0:0:0:0:
320,192,528048,1,0,0:0:0:0:
64,192,528191,1,0,0:0:0:0:
320,192,528191,1,0,0:0:0:0:
64,192,528334,1,0,0:0:0:0:
192,192,528334,1,0,0:0:0:0:
192,192,528477,1,0,0:0:0:0:
320,192,528477,1,0,0:0:0:0:
64,192,528620,1,0,0:0:0:0:
448,192,528620,1,0,0:0:0:0:
64,192,528763,1,0,0:0:0:0:
448,192,528763,1,0,0:0:0:0:
192,192,528905,1,0,0:0:0:0:
320,192,528905,1,0,0:0:0:0:
192,192,529048,1,0,0:0:0:0:
448,192,529048,1,0,0:0:0:0:
320,192,529191,1,0,0:0:0:0:
448,192,529191,1,0,0:0:0:0:
192,192,529334,1,0,0:0:0:0:
320,192,529334,1,0,0:0:0:0:
64,192,529477,128,0,529890:0:0:0:0:
448,192,529477,1,0,0:0:0:0:
192,192,529614,1,0,0:0:0:0:
448,192,529752,1,0,0:0:0:0:
192,192,529890,128,0,530304:0:0:0:0:
320,192,529890,1,0,0:0:0:0:
448,192,530028,1,0,0:0:0:0:
64,192,530166,1,0,0:0:0:0:
320,192,530304,1,0,0:0:0:0:
448,192,530304,128,0,531959:0:0:0:0:
64,192,530442,1,0,0:0:0:0:
192,192,530580,1,0,0:0:0:0:
320,192,530718,1,0,0:0:0:0:
192,192,530856,1,0,0:0:0:0:
64,192,530994,1,0,0:0:0:0:
320,192,531132,1,0,0:0:0:0:
64,192,531270,1,0,0:0:0:0:
192,192,531408,1,0,0:0:0:0:
320,192,531545,1,0,0:0:0:0:
64,192,531821,1,0,0:0:0:0:
192,192,531890,1,0,0:0:0:0:
64,192,531959,1,0,0:0:0:0:
320,192,531959,1,0,0:0:0:0:
192,192,532097,1,0,0:0:0:0:
64,192,532235,1,0,0:0:0:0:
448,192,532235,1,0,0:0:0:0:
320,192,532373,1,0,0:0:0:0:
192,192,532511,1,0,0:0:0:0:
448,192,532511,1,0,0:0:0:0:
64,192,532649,1,0,0:0:0:0:
192,192,532787,1,0,0:0:0:0:
320,192,532787,1,0,0:0:0:0:
448,192,532787,128,0,533614:0:0:0:0:
192,192,533201,1,0,0:0:0:0:
320,192,533201,1,0,0:0:0:0:
64,192,533339,1,0,0:0:0:0:
64,192,533476,1,0,0:0:0:0:
192,192,533614,1,0,0:0:0:0:
320,192,533614,128,0,535270:0:0:0:0:
64,192,534028,1,0,0:0:0:0:
448,192,534028,1,0,0:0:0:0:
448,192,534304,1,0,0:0:0:0:
192,192,534442,1,0,0:0:0:0:
448,192,534442,1,0,0:0:0:0:
64,192,534856,1,0,0:0:0:0:
192,192,534856,1,0,0:0:0:0:
64,192,535270,1,0,0:0:0:0:
192,192,535270,1,0,0:0:0:0:
448,192,535408,1,0,0:0:0:0:
192,192,535545,1,0,0:0:0:0:
64,192,535683,1,0,0:0:0:0:
320,192,535683,1,0,0:0:0:0:
448,192,535821,1,0,0:0:0:0:
320,192,535959,1,0,0:0:0:0:
64,192,536097,128,0,536925:0:0:0:0:
192,192,536097,1,0,0:0:0:0:
192,192,536511,1,0,0:0:0:0:
448,192,536511,1,0,0:0:0:0:
320,192,536649,1,0,0:0:0:0:
320,192,536787,1,0,0:0:0:0:
192,192,536925,128,0,538718:0:0:0:0:
448,192,536925,1,0,0:0:0:0:
320,192,537339,1,0,0:0:0:0:
448,192,537339,1,0,0:0:0:0:
64,192,537614,1,0,0:0:0:0:
64,192,537752,1,0,0:0:0:0:
320,192,537752,1,0,0:0:0:0:
64,192,538166,1,0,0:0:0:0:
448,192,538166,1,0,0:0:0:0:
320,192,538580,1,0,0:0:0:0:
448,192,538580,1,0,0:0:0:0:
64,192,538718,1,0,0:0:0:0:
448,192,538856,1,0,0:0:0:0:
64,192,538994,1,0,0:0:0:0:
320,192,538994,1,0,0:0:0:0:
192,192,539132,1,0,0:0:0:0:
448,192,539270,1,0,0:0:0:0:
64,192,539408,1,0,0:0:0:0:
192,192,539408,128,0,539821:0:0:0:0:
64,192,539821,1,0,0:0:0:0:
320,192,539821,128,0,540235:0:0:0:0:
64,192,540235,128,0,540649:0:0:0:0:
192,192,540235,1,0,0:0:0:0:
448,192,540235,1,0,0:0:0:0:
320,192,540649,1,0,0:0:0:0:
448,192,540649,128,0,541890:0:0:0:0:
192,192,540925,1,0,0:0:0:0:
192,192,541063,1,0,0:0:0:0:
320,192,541063,1,0,0:0:0:0:
64,192,541476,1,0,0:0:0:0:
320,192,541476,1,0,0:0:0:0:
192,192,541614,1,0,0:0:0:0:
192,192,541752,1,0,0:0:0:0:
64,192,541890,1,0,0:0:0:0:
320,192,541890,1,0,0:0:0:0:
192,192,542304,1,0,0:0:0:0:
448,192,542304,128,0,542718:0:0:0:0:
64,192,542580,1,0,0:0:0:0:
64,192,542718,1,0,0:0:0:0:
192,192,542718,1,0,0:0:0:0:
320,192,542718,128,0,543545:0:0:0:0:
192,192,542994,1,0,0:0:0:0:
448,192,542994,1,0,0:0:0:0:
192,192,543270,1,0,0:0:0:0:
448,192,543270,1,0,0:0:0:0:
64,192,543545,128,0,543959:0:0:0:0:
192,192,543545,1,0,0:0:0:0:
448,192,543545,1,0,0:0:0:0:
320,192,543821,1,0,0:0:0:0:
192,192,544097,1,0,0:0:0:0:
320,192,544235,1,0,0:0:0:0:
64,192,544373,128,0,545201:0:0:0:0:
192,192,544373,1,0,0:0:0:0:
320,192,544373,1,0,0:0:0:0:
192,192,544787,1,0,0:0:0:0:
448,192,544787,1,0,0:0:0:0:
320,192,545063,1,0,0:0:0:0:
192,192,545201,1,0,0:0:0:0:
320,192,545201,128,0,546028:0:0:0:0:
448,192,545201,1,0,0:0:0:0:
448,192,545339,1,0,0:0:0:0:
64,192,545476,1,0,0:0:0:0:
192,192,545476,1,0,0:0:0:0:
64,192,545614,1,0,0:0:0:0:
192,192,545614,1,0,0:0:0:0:
448,192,545752,1,0,0:0:0:0:
192,192,545890,1,0,0:0:0:0:
64,192,546028,1,0,0:0:0:0:
448,192,546028,128,0,546856:0:0:0:0:
64,192,546442,1,0,0:0:0:0:
192,192,546442,1,0,0:0:0:0:
64,192,546856,128,0,548925:0:0:0:0:
192,192,546856,1,0,0:0:0:0:
320,192,546856,1,0,0:0:0:0:
320,192,547270,1,0,0:0:0:0:
448,192,547270,1,0,0:0:0:0:
192,192,547683,1,0,0:0:0:0:
320,192,547683,1,0,0:0:0:0:
192,192,548097,1,0,0:0:0:0:
448,192,548097,1,0,0:0:0:0:
192,192,548511,1,0,0:0:0:0:
320,192,548511,1,0,0:0:0:0:
320,192,548925,1,0,0:0:0:0:
448,192,548925,1,0,0:0:0:0:
320,192,549063,1,0,0:0:0:0:
320,192,549201,1,0,0:0:0:0:
64,192,549339,1,0,0:0:0:0:
192,192,549339,128,0,550166:0:0:0:0:
448,192,549339,1,0,0:0:0:0:
64,192,549752,1,0,0:0:0:0:
320,192,549752,1,0,0:0:0:0:
64,192,550166,1,0,0:0:0:0:
320,192,550166,128,0,551408:0:0:0:0:
448,192,550166,1,0,0:0:0:0:
64,192,550580,1,0,0:0:0:0:
192,192,550580,1,0,0:0:0:0:
64,192,550994,1,0,0:0:0:0:
448,192,550994,1,0,0:0:0:0:
64,192,551408,128,0,552235:0:0:0:0:
192,192,551408,1,0,0:0:0:0:
448,192,551408,1,0,0:0:0:0:
448,192,551683,1,0,0:0:0:0:
320,192,551752,1,0,0:0:0:0:
192,192,551821,1,0,0:0:0:0:
448,192,551821,1,0,0:0:0:0:
192,192,552028,1,0,0:0:0:0:
320,192,552028,1,0,0:0:0:0:
192,192,552235,1,0,0:0:0:0:
320,192,552235,1,0,0:0:0:0:
192,192,552442,1,0,0:0:0:0:
320,192,552442,1,0,0:0:0:0:
64,192,552649,1,0,0:0:0:0:
320,192,552649,1,0,0:0:0:0:
448,192,552649,128,0,553476:0:0:0:0:
192,192,553063,1,0,0:0:0:0:
320,192,553063,1,0,0:0:0:0:
64,192,553476,1,0,0:0:0:0:
192,192,553476,1,0,0:0:0:0:
320,192,553476,128,0,554718:0:0:0:0:
64,192,553890,1,0,0:0:0:0:
448,192,553890,1,0,0:0:0:0:
192,192,554304,1,0,0:0:0:0:
448,192,554304,1,0,0:0:0:0:
64,192,554718,1,0,0:0:0:0:
192,192,554718,1,0,0:0:0:0:
64,192,555132,128,0,555959:0:0:0:0:
192,192,555132,1,0,0:0:0:0:
448,192,555132,1,0,0:0:0:0:
320,192,555545,1,0,0:0:0:0:
448,192,555545,1,0,0:0:0:0:
320,192,555683,1,0,0:0:0:0:
320,192,555821,1,0,0:0:0:0:
192,192,555959,128,0,557614:0:0:0:0:
448,192,555959,1,0,0:0:0:0:
64,192,556373,1,0,0:0:0:0:
448,192,556373,1,0,0:0:0:0:
64,192,556787,1,0,0:0:0:0:
320,192,556787,1,0,0:0:0:0:
320,192,557201,1,0,0:0:0:0:
448,192,557201,1,0,0:0:0:0:
64,192,557614,1,0,0:0:0:0:
448,192,557614,1,0,0:0:0:0:
320,192,557752,1,0,0:0:0:0:
64,192,557821,1,0,0:0:0:0:
320,192,557890,1,0,0:0:0:0:
64,192,558028,1,0,0:0:0:0:
448,192,558028,1,0,0:0:0:0:
64,192,558166,1,0,0:0:0:0:
448,192,558166,1,0,0:0:0:0:
64,192,558304,1,0,0:0:0:0:
448,192,558304,1,0,0:0:0:0:
320,192,558442,1,0,0:0:0:0:
64,192,558580,1,0,0:0:0:0:
192,192,558580,1,0,0:0:0:0:
320,192,558718,1,0,0:0:0:0:
448,192,558718,1,0,0:0:0:0:
320,192,558856,1,0,0:0:0:0:
448,192,558856,1,0,0:0:0:0:
320,192,558994,1,0,0:0:0:0:
448,192,558994,1,0,0:0:0:0:
192,192,559132,1,0,0:0:0:0:
448,192,559132,1,0,0:0:0:0:
64,192,559270,128,0,560097:0:0:0:0:
192,192,559270,1,0,0:0:0:0:
320,192,559270,1,0,0:0:0:0:
448,192,559545,1,0,0:0:0:0:
192,192,559683,1,0,0:0:0:0:
320,192,559683,1,0,0:0:0:0:
448,192,559821,1,0,0:0:0:0:
448,192,559959,1,0,0:0:0:0:
192,192,560097,128,0,561752:0:0:0:0:
320,192,560097,1,0,0:0:0:0:
320,192,560373,1,0,0:0:0:0:
64,192,560511,1,0,0:0:0:0:
448,192,560511,1,0,0:0:0:0:
320,192,560649,1,0,0:0:0:0:
64,192,560925,1,0,0:0:0:0:
64,192,561201,1,0,0:0:0:0:
320,192,561339,1,0,0:0:0:0:
448,192,561339,1,0,0:0:0:0:
64,192,561476,1,0,0:0:0:0:
320,192,561752,1,0,0:0:0:0:
64,192,561890,1,0,0:0:0:0:
320,192,562028,1,0,0:0:0:0:
192,192,562166,1,0,0:0:0:0:
448,192,562166,1,0,0:0:0:0:
320,192,562304,1,0,0:0:0:0:
192,192,562442,1,0,0:0:0:0:
64,192,562580,1,0,0:0:0:0:
448,192,562580,128,0,563408:0:0:0:0:
192,192,562856,1,0,0:0:0:0:
64,192,562994,1,0,0:0:0:0:
320,192,562994,1,0,0:0:0:0:
192,192,563132,1,0,0:0:0:0:
192,192,563270,1,0,0:0:0:0:
64,192,563408,1,0,0:0:0:0:
320,192,563408,128,0,565201:0:0:0:0:
448,192,563683,1,0,0:0:0:0:
64,192,563821,1,0,0:0:0:0:
192,192,563821,1,0,0:0:0:0:
448,192,563959,1,0,0:0:0:0:
192,192,564235,1,0,0:0:0:0:
192,192,564511,1,0,0:0:0:0:
64,192,564649,1,0,0:0:0:0:
448,192,564649,1,0,0:0:0:0:
192,192,564787,1,0,0:0:0:0:
448,192,565063,1,0,0:0:0:0:
64,192,565201,1,0,0:0:0:0:
320,192,565339,1,0,0:0:0:0:
64,192,565476,1,0,0:0:0:0:
192,192,565476,1,0,0:0:0:0:
64,192,565614,1,0,0:0:0:0:
192,192,565614,1,0,0:0:0:0:
64,192,565752,1,0,0:0:0:0:
192,192,565752,1,0,0:0:0:0:
320,192,565890,128,0,566304:0:0:0:0:
448,192,565890,1,0,0:0:0:0:
64,192,566166,1,0,0:0:0:0:
192,192,566304,128,0,566718:0:0:0:0:
448,192,566304,1,0,0:0:0:0:
64,192,566442,1,0,0:0:0:0:
320,192,566718,1,0,0:0:0:0:
448,192,566718,128,0,567132:0:0:0:0:
320,192,566994,1,0,0:0:0:0:
64,192,567132,128,0,568373:0:0:0:0:
192,192,567132,1,0,0:0:0:0:
320,192,567270,1,0,0:0:0:0:
448,192,567545,1,0,0:0:0:0:
448,192,567821,1,0,0:0:0:0:
192,192,567959,1,0,0:0:0:0:
320,192,567959,1,0,0:0:0:0:
448,192,568097,1,0,0:0:0:0:
448,192,568235,1,0,0:0:0:0:
192,192,568373,1,0,0:0:0:0:
192,192,568649,1,0,0:0:0:0:
64,192,568787,128,0,569201:0:0:0:0:
320,192,568787,1,0,0:0:0:0:
448,192,568787,1,0,0:0:0:0:
320,192,568925,1,0,0:0:0:0:
448,192,568925,1,0,0:0:0:0:
320,192,569063,1,0,0:0:0:0:
448,192,569063,1,0,0:0:0:0:
192,192,569201,128,0,570028:0:0:0:0:
448,192,569201,1,0,0:0:0:0:
64,192,569476,1,0,0:0:0:0:
320,192,569476,1,0,0:0:0:0:
64,192,569752,1,0,0:0:0:0:
320,192,569752,1,0,0:0:0:0:
64,192,570028,1,0,0:0:0:0:
448,192,570028,128,0,570442:0:0:0:0:
320,192,570304,1,0,0:0:0:0:
64,192,570442,1,0,0:0:0:0:
192,192,570442,1,0,0:0:0:0:
320,192,570580,1,0,0:0:0:0:
192,192,570718,1,0,0:0:0:0:
192,192,570856,1,0,0:0:0:0:
448,192,570856,128,0,571683:0:0:0:0:
64,192,570994,1,0,0:0:0:0:
320,192,571063,1,0,0:0:0:0:
64,192,571132,1,0,0:0:0:0:
192,192,571132,1,0,0:0:0:0:
64,192,571270,1,0,0:0:0:0:
192,192,571270,1,0,0:0:0:0:
64,192,571408,1,0,0:0:0:0:
192,192,571408,1,0,0:0:0:0:
64,192,571545,1,0,0:0:0:0:
192,192,571545,1,0,0:0:0:0:
192,192,571683,128,0,572511:0:0:0:0:
320,192,571683,1,0,0:0:0:0:
64,192,571821,1,0,0:0:0:0:
320,192,571959,1,0,0:0:0:0:
448,192,571959,1,0,0:0:0:0:
320,192,572097,1,0,0:0:0:0:
448,192,572097,1,0,0:0:0:0:
320,192,572235,1,0,0:0:0:0:
448,192,572235,1,0,0:0:0:0:
64,192,572373,1,0,0:0:0:0:
448,192,572373,1,0,0:0:0:0:
64,192,572511,128,0,573339:0:0:0:0:
448,192,572511,1,0,0:0:0:0:
320,192,572649,1,0,0:0:0:0:
192,192,572787,1,0,0:0:0:0:
320,192,572925,1,0,0:0:0:0:
448,192,572925,1,0,0:0:0:0:
192,192,573063,1,0,0:0:0:0:
448,192,573201,1,0,0:0:0:0:
192,192,573339,1,0,0:0:0:0:
320,192,573339,1,0,0:0:0:0:
448,192,573339,128,0,575408:0:0:0:0:
64,192,573476,1,0,0:0:0:0:
320,192,573614,1,0,0:0:0:0:
64,192,573752,1,0,0:0:0:0:
192,192,573752,1,0,0:0:0:0:
320,192,573890,1,0,0:0:0:0:
64,192,574028,1,0,0:0:0:0:
192,192,574166,1,0,0:0:0:0:
320,192,574166,1,0,0:0:0:0:
64,192,574304,1,0,0:0:0:0:
192,192,574442,1,0,0:0:0:0:
64,192,574580,1,0,0:0:0:0:
320,192,574580,1,0,0:0:0:0:
192,192,574718,1,0,0:0:0:0:
64,192,574856,1,0,0:0:0:0:
192,192,574994,1,0,0:0:0:0:
320,192,574994,1,0,0:0:0:0:
64,192,575132,1,0,0:0:0:0:
320,192,575270,1,0,0:0:0:0:
64,192,575408,1,0,0:0:0:0:
192,192,575408,1,0,0:0:0:0:
192,192,575545,1,0,0:0:0:0:
192,192,575683,1,0,0:0:0:0:
64,192,575821,1,0,0:0:0:0:
320,192,575821,128,0,576649:0:0:0:0:
448,192,575821,1,0,0:0:0:0:
192,192,575959,1,0,0:0:0:0:
64,192,576097,1,0,0:0:0:0:
192,192,576235,1,0,0:0:0:0:
448,192,576235,1,0,0:0:0:0:
64,192,576373,1,0,0:0:0:0:
448,192,576511,1,0,0:0:0:0:
64,192,576649,1,0,0:0:0:0:
192,192,576649,128,0,577890:0:0:0:0:
448,192,576649,1,0,0:0:0:0:
320,192,576787,1,0,0:0:0:0:
64,192,576925,1,0,0:0:0:0:
320,192,577063,1,0,0:0:0:0:
448,192,577063,1,0,0:0:0:0:
64,192,577201,1,0,0:0:0:0:
320,192,577339,1,0,0:0:0:0:
64,192,577476,1,0,0:0:0:0:
448,192,577476,1,0,0:0:0:0:
320,192,577614,1,0,0:0:0:0:
448,192,577752,1,0,0:0:0:0:
64,192,577890,1,0,0:0:0:0:
320,192,577890,1,0,0:0:0:0:
448,192,577890,128,0,578718:0:0:0:0:
192,192,578028,1,0,0:0:0:0:
64,192,578166,1,0,0:0:0:0:
192,192,578235,1,0,0:0:0:0:
64,192,578304,1,0,0:0:0:0:
320,192,578304,1,0,0:0:0:0:
192,192,578442,1,0,0:0:0:0:
64,192,578580,1,0,0:0:0:0:
320,192,578580,1,0,0:0:0:0:
192,192,578718,1,0,0:0:0:0:
64,192,578856,1,0,0:0:0:0:
320,192,578856,1,0,0:0:0:0:
448,192,578994,1,0,0:0:0:0:
64,192,579132,128,0,579959:0:0:0:0:
192,192,579132,1,0,0:0:0:0:
448,192,579132,1,0,0:0:0:0:
320,192,579270,1,0,0:0:0:0:
448,192,579408,1,0,0:0:0:0:
192,192,579545,1,0,0:0:0:0:
320,192,579545,1,0,0:0:0:0:
448,192,579683,1,0,0:0:0:0:
192,192,579821,1,0,0:0:0:0:
192,192,579959,128,0,581201:0:0:0:0:
320,192,579959,1,0,0:0:0:0:
448,192,579959,1,0,0:0:0:0:
64,192,580097,1,0,0:0:0:0:
320,192,580235,1,0,0:0:0:0:
64,192,580373,1,0,0:0:0:0:
448,192,580373,1,0,0:0:0:0:
320,192,580511,1,0,0:0:0:0:
64,192,580649,1,0,0:0:0:0:
320,192,580787,1,0,0:0:0:0:
448,192,580787,1,0,0:0:0:0:
64,192,580925,1,0,0:0:0:0:
320,192,581063,1,0,0:0:0:0:
64,192,581201,1,0,0:0:0:0:
448,192,581201,1,0,0:0:0:0:
320,192,581339,1,0,0:0:0:0:
192,192,581476,1,0,0:0:0:0:
64,192,581614,1,0,0:0:0:0:
320,192,581614,1,0,0:0:0:0:
448,192,581614,128,0,582442:0:0:0:0:
192,192,581752,1,0,0:0:0:0:
320,192,581890,1,0,0:0:0:0:
64,192,582028,1,0,0:0:0:0:
192,192,582028,1,0,0:0:0:0:
192,192,582166,1,0,0:0:0:0:
192,192,582304,1,0,0:0:0:0:
64,192,582442,1,0,0:0:0:0:
320,192,582442,128,0,584097:0:0:0:0:
448,192,582580,1,0,0:0:0:0:
192,192,582718,1,0,0:0:0:0:
64,192,582856,1,0,0:0:0:0:
448,192,582856,1,0,0:0:0:0:
192,192,582994,1,0,0:0:0:0:
64,192,583132,1,0,0:0:0:0:
192,192,583270,1,0,0:0:0:0:
448,192,583270,1,0,0:0:0:0:
64,192,583408,1,0,0:0:0:0:
448,192,583545,1,0,0:0:0:0:
64,192,583683,1,0,0:0:0:0:
192,192,583683,1,0,0:0:0:0:
448,192,583821,1,0,0:0:0:0:
64,192,583959,1,0,0:0:0:0:
192,192,583959,1,0,0:0:0:0:
64,192,584097,1,0,0:0:0:0:
448,192,584097,1,0,0:0:0:0:
192,192,584235,1,0,0:0:0:0:
320,192,584373,1,0,0:0:0:0:
448,192,584373,1,0,0:0:0:0:
64,192,584511,1,0,0:0:0:0:
448,192,584511,1,0,0:0:0:0:
192,192,584649,1,0,0:0:0:0:
64,192,584787,1,0,0:0:0:0:
320,192,584787,1,0,0:0:0:0:
192,192,584925,1,0,0:0:0:0:
320,192,584925,1,0,0:0:0:0:
192,192,585063,1,0,0:0:0:0:
448,192,585063,1,0,0:0:0:0:
320,192,585201,1,0,0:0:0:0:
64,192,585339,1,0,0:0:0:0:
192,192,585339,1,0,0:0:0:0:
448,192,585339,1,0,0:0:0:0:
64,192,585614,1,0,0:0:0:0:
64,192,585753,1,0,0:0:0:0:
448,192,585753,1,0,0:0:0:0:
320,192,585891,1,0,0:0:0:0:
192,192,586029,1,0,0:0:0:0:
64,192,586167,1,0,0:0:0:0:
64,192,586305,1,0,0:0:0:0:
320,192,586305,1,0,0:0:0:0:
448,192,586444,1,0,0:0:0:0:
64,192,586582,1,0,0:0:0:0:
448,192,586582,1,0,0:0:0:0:
192,192,586720,1,0,0:0:0:0:
192,192,586858,1,0,0:0:0:0:
448,192,586858,1,0,0:0:0:0:
320,192,586997,1,0,0:0:0:0:
64,192,587135,1,0,0:0:0:0:
320,192,587135,1,0,0:0:0:0:
192,192,587273,1,0,0:0:0:0:
192,192,587411,1,0,0:0:0:0:
448,192,587411,1,0,0:0:0:0:
64,192,587550,1,0,0:0:0:0:
64,192,587688,1,0,0:0:0:0:
192,192,587826,1,0,0:0:0:0:
448,192,587826,1,0,0:0:0:0:
320,192,587964,1,0,0:0:0:0:
192,192,588034,1,0,0:0:0:0:
320,192,588103,1,0,0:0:0:0:
192,192,588241,1,0,0:0:0:0:
448,192,588241,1,0,0:0:0:0:
320,192,588379,1,0,0:0:0:0:
64,192,588448,1,0,0:0:0:0:
320,192,588517,1,0,0:0:0:0:
192,192,588656,1,0,0:0:0:0:
448,192,588656,1,0,0:0:0:0:
64,192,588794,1,0,0:0:0:0:
320,192,588863,1,0,0:0:0:0:
64,192,588932,1,0,0:0:0:0:
192,192,589070,1,0,0:0:0:0:
320,192,589070,1,0,0:0:0:0:
448,192,589070,1,0,0:0:0:0:
192,192,589209,1,0,0:0:0:0:
320,192,589209,1,0,0:0:0:0:
448,192,589209,1,0,0:0:0:0:
192,192,589347,1,0,0:0:0:0:
320,192,589347,1,0,0:0:0:0:
448,192,589347,1,0,0:0:0:0:
192,192,589485,128,0,589900:0:0:0:0:
320,192,589485,1,0,0:0:0:0:
448,192,589485,1,0,0:0:0:0:
320,192,589762,1,0,0:0:0:0:
64,192,589900,128,0,595430:0:0:0:0:
320,192,589900,1,0,0:0:0:0:
448,192,589900,128,0,595430:0:0:0:0:
