osu file format v14

[General]
AudioFilename: Goodbye to Everything.mp3
AudioLeadIn: 0
PreviewTime: 9421
Countdown: 0
SampleSet: Soft
StackLeniency: 0.7
Mode: 2
LetterboxInBreaks: 0
WidescreenStoryboard: 0

[Editor]
Bookmarks: 831,9558,27012,53194,79376,88103,94909,98327
DistanceSpacing: 1.1
BeatDivisor: 2
GridSize: 4
TimelineZoom: 1.5

[Metadata]
Title:Goodbye to Everything
TitleUnicode:Goodbye to Everything
Artist:Between The Buried And Me
ArtistUnicode:Between The Buried And Me
Creator:JBHyperion
Version:Salad
Source:
Tags:progressive rock metal metalcore The Parallax II Two Future Sequence Blade Records Astral Body Dan Briggs Blake Richardson Tommy Giles Rogers Paul Waggoner Dustie Waring
BeatmapID:1863453
BeatmapSetID:891438

[Difficulty]
HPDrainRate:4
CircleSize:3.9
OverallDifficulty:6
ApproachRate:6
SliderMultiplier:1.8
SliderTickRate:1

[Events]
//Background and Video events
0,0,"parallax.jpg",0,0
//Break Periods
//Storyboard Layer 0 (Background)
//Storyboard Layer 1 (Fail)
//Storyboard Layer 2 (Pass)
//Storyboard Layer 3 (Foreground)
//Storyboard Sound Samples

[TimingPoints]
831,545.454545454546,4,2,1,25,1,0
20467,-100,4,2,1,35,0,0
21558,-100,4,2,1,40,0,0
22649,-133.333333333333,4,2,1,50,0,0
23740,-100,4,2,1,50,0,0
24831,-100,4,2,1,45,0,0
25921,-100,4,2,1,40,0,0
27012,-100,4,2,1,35,0,0
31376,-125,4,2,1,40,0,0
32740,-100,4,2,1,40,0,0
33558,-100,4,2,1,35,0,0
34649,-100,4,2,1,30,0,0
35194,-100,4,2,1,25,0,0
35740,-100,4,2,1,35,0,0
40103,-100,4,2,1,45,0,0
41194,-100,4,2,1,40,0,0
42285,-100,4,2,1,35,0,0
43376,-100,4,2,1,30,0,0
44467,-133.333333333333,4,2,1,50,0,0
45558,-133.333333333333,4,2,1,45,0,0
46103,-133.333333333333,4,2,1,45,0,0
46649,-133.333333333333,4,2,2,40,0,0
47740,-133.333333333333,4,2,2,35,0,0
48285,-100,4,2,1,35,0,0
51012,-100,4,2,1,40,0,0
53194,-100,4,2,1,30,0,0
56194,-100,4,2,1,40,0,0
57558,-100,4,2,1,30,0,0
59740,-100,4,2,1,40,0,0
62467,-100,4,2,1,30,0,0
66285,-100,4,2,1,40,0,0
67376,-100,4,2,1,45,0,0
68467,-100,4,2,1,50,0,0
70103,-100,4,2,1,55,0,0
70649,-100,4,2,1,45,0,0
71740,-100,4,2,1,40,0,0
72831,-100,4,2,1,45,0,0
76103,-100,4,2,1,35,0,0
78285,-100,4,2,1,40,0,0
87012,-100,4,2,1,35,0,0
88103,631.578947368421,3,2,1,30,1,0
88103,-200,3,2,1,30,0,0
89997,631.578947368421,4,2,1,40,1,0
90470,-105.263157894737,4,2,1,45,0,0
91102,-111.111111111111,4,2,1,40,0,0
91733,-117.647058823529,4,2,1,45,0,0
91891,740.740740740741,4,2,1,20,1,0
92631,759.493670886076,3,2,1,50,1,0
92631,-133.333333333333,3,2,1,50,0,0
95289,-133.333333333333,3,2,1,30,0,0
96808,-133.333333333333,3,2,1,25,0,0
97187,-133.333333333333,3,2,1,20,0,0
97567,-133.333333333333,3,2,1,15,0,0
97947,-133.333333333333,3,2,1,10,0,0
98327,-133.333333333333,3,2,1,5,0,0

[Colours]
Combo1 : 95,255,255
Combo2 : 255,175,210

[HitObjects]
248,192,831,6,0,L|92:96,1,180,2|0,0:0|0:0,0:0:0:0:
276,100,1921,1,2,0:0:0:0:
60,100,2467,1,0,0:0:0:0:
152,100,2740,6,0,P|244:172|152:260,1,270,2|0,0:0|0:0,0:0:0:0:
340,256,4103,2,0,L|432:256,2,90,2|0|0,0:0|0:0|0:0,0:0:0:0:
248,256,4921,1,0,0:0:0:0:
356,256,5194,6,0,P|416:240|464:120,1,180,2|0,0:0|0:0,0:0:0:0:
288,140,6285,1,2,0:0:0:0:
504,140,6831,1,0,0:0:0:0:
412,140,7103,6,0,P|304:184|256:320,1,270,2|0,0:0|0:0,0:0:0:0:
460,320,8467,2,0,L|468:216,1,90,2|0,0:0|0:0,0:0:0:0:
360,232,9012,2,0,L|280:192,1,90,0|0,0:0|0:0,0:0:0:0:
44,192,9558,6,0,P|12:136|132:8,1,270,2|0,0:0|0:0,0:0:0:0:
240,8,10649,2,0,P|292:68|236:132,1,180,2|0,0:0|0:0,0:0:0:0:
128,132,11467,1,2,0:0:0:0:
344,132,12285,5,0,0:0:0:0:
164,132,12831,2,0,L|264:132,1,90,2|0,0:0|0:0,0:0:0:0:
320,200,13376,1,0,0:0:0:0:
296,288,13649,1,0,0:0:0:0:
60,288,13921,6,0,B|4:260|4:168|60:140|60:140|244:140,1,360,2|0,0:0|0:0,0:0:0:0:
60,288,15558,2,0,L|48:184,1,90,8|0,0:0|0:0,0:0:0:0:
156,200,16103,5,8,0:0:0:0:
372,200,16649,1,8,0:0:0:0:
192,200,17194,1,8,0:0:0:0:
48,200,17740,2,0,L|140:200,1,90,8|0,0:0|0:0,0:0:0:0:
392,200,18285,6,0,B|480:200|480:200|480:108,1,180,2|0,0:0|0:0,0:0:0:0:
388,108,19103,1,0,0:0:0:0:
280,108,19376,2,0,P|312:192|392:200,1,180,2|0,0:0|0:0,0:0:0:0:
452,108,20194,1,0,0:0:0:0:
216,104,20467,6,0,B|124:104|124:104|44:164,1,180,2|0,0:0|0:0,0:0:0:0:
268,196,21558,2,0,L|276:104,1,90,2|0,0:0|0:0,0:0:0:0:
168,196,22103,2,0,L|76:152,1,90,8|0,0:0|0:0,0:0:0:0:
340,108,22649,6,0,B|384:240|336:372|336:372|196:372,1,405.000015449525,8|8,0:0|0:0,0:0:0:0:
128,372,24558,1,2,0:0:0:0:
56,372,24831,5,8,0:0:0:0:
236,372,25376,1,8,0:0:0:0:
20,372,25921,1,8,0:0:0:0:
272,372,26467,2,0,L|280:260,1,90,8|0,0:0|0:0,0:0:0:0:
44,192,27012,6,0,P|60:268|148:312,1,180,8|0,0:0|0:0,0:0:0:0:
380,312,28103,1,2,0:0:0:0:
192,312,28649,1,0,0:0:0:0:
300,312,28921,6,0,P|272:240|100:256,1,270,2|0,0:0|0:0,0:0:0:0:
300,312,30285,1,2,0:0:0:0:
380,272,30558,1,0,0:0:0:0:
380,172,30831,1,0,0:0:0:0:
300,136,31103,1,0,0:0:0:0:
40,24,31376,6,0,P|182:158|328:24,1,432,2|8,0:0|0:0,0:0:0:0:
116,312,33558,6,0,L|12:164,1,180,8|8,0:0|0:0,0:0:0:0:
248,168,34649,1,8,0:0:0:0:
48,168,35194,1,8,0:0:0:0:
480,168,35740,6,0,P|432:264|360:284,1,180,2|0,0:0|0:0,0:0:0:0:
160,284,36831,2,0,B|72:284|72:284|8:216,1,180,2|0,0:0|0:0,0:0:0:0:
116,216,37649,6,0,P|244:164|284:36,1,270,2|0,0:0|0:0,0:0:0:0:
68,48,39012,2,0,L|172:48,2,90,2|0|0,0:0|0:0|0:0,0:0:0:0:
176,48,39831,1,0,0:0:0:0:
428,48,40103,6,0,P|490:104|432:152,1,180,2|0,0:0|0:0,0:0:0:0:
216,208,41194,2,0,P|256:120|336:96,1,180,0|0,0:0|0:0,0:0:0:0:
148,208,42285,6,0,P|112:136|144:48,1,180,2|0,0:0|0:0,0:0:0:0:
324,52,43376,1,0,0:0:0:0:
468,100,43921,2,0,L|448:192,1,90,8|0,0:0|0:0,0:0:0:0:
180,52,44467,6,0,B|160:188|180:320|180:320|452:320|452:320|452:140|304:140|304:140|212:140|212:216,1,945.000036048891,8|0,0:0|0:0,0:0:0:0:
304,216,48558,1,0,0:0:0:0:
344,144,48694,1,0,0:0:0:0:
304,72,48831,6,0,B|256:8|256:8|152:8,1,180,8|0,0:0|0:0,0:0:0:0:
336,8,49921,2,0,P|420:40|452:120,1,180,2|0,0:0|0:0,0:0:0:0:
344,116,50740,1,0,0:0:0:0:
92,296,51012,6,0,L|76:116,1,180,4|0,0:0|0:0,0:0:0:0:
344,296,52103,2,0,L|492:193,1,180,4|0,0:0|0:0,0:0:0:0:
60,180,53194,6,0,P|72:244|164:300,1,180,2|0,0:0|0:0,0:0:0:0:
380,300,54285,2,0,L|196:300,1,180,2|0,0:0|0:0,0:0:0:0:
104,248,55103,1,0,0:0:0:0:
200,200,55376,6,0,L|288:152,2,90,2|0|0,0:0|0:0|0:0,0:0:0:0:
72,200,56194,2,0,P|92:124|180:80,1,180,2|0,0:0|0:0,0:0:0:0:
284,80,57012,1,0,0:0:0:0:
177,80,57285,1,0,0:0:0:0:
412,80,57558,6,0,P|459:111|504:228,1,180,4|0,0:0|0:0,0:0:0:0:
288,220,58649,2,0,L|496:220,1,180,2|0,0:0|0:0,0:0:0:0:
36,220,59740,6,0,P|60:128|120:72,1,180,2|0,0:0|0:0,0:0:0:0:
280,220,60831,2,0,L|88:220,1,180,2|0,0:0|0:0,0:0:0:0:
496,220,61921,5,4,0:0:0:0:
280,220,62467,2,0,L|268:112,1,90,0|0,0:0|0:0,0:0:0:0:
160,220,63012,2,0,P|80:176|56:96,1,180,2|0,0:0|0:0,0:0:0:0:
270,130,64103,5,2,0:0:0:0:
88,132,64649,2,0,L|76:244,1,90,2|0,0:0|0:0,0:0:0:0:
188,224,65194,2,0,L|200:336,1,90,2|0,0:0|0:0,0:0:0:0:
88,312,65740,1,0,0:0:0:0:
484,312,66285,6,0,L|496:204,1,90,2|0,0:0|0:0,0:0:0:0:
384,224,66831,2,0,L|280:224,1,90,0|0,0:0|0:0,0:0:0:0:
60,192,67376,2,0,P|4:128|60:72,1,180,2|0,0:0|0:0,0:0:0:0:
492,24,68467,6,0,P|380:140|268:24,1,360,2|0,0:0|0:0,0:0:0:0:
492,24,70103,2,0,L|476:124,1,90,2|0,0:0|0:0,0:0:0:0:
224,116,70649,6,0,B|136:116|136:116|84:192,1,180,4|0,0:0|0:0,0:0:0:0:
300,192,71740,2,0,L|480:192,1,180,2|0,0:0|0:0,0:0:0:0:
48,360,72831,6,0,P|12:212|80:20,1,360,2|0,0:0|0:0,0:0:0:0:
488,24,75012,6,0,P|496:96|472:220,1,180,4|0,0:0|0:0,0:0:0:0:
264,204,76103,2,0,P|256:276|280:400,1,180,2|0,0:0|0:0,0:0:0:0:
488,380,77194,6,0,L|387:322,1,90,2|0,0:0|0:0,0:0:0:0:
300,336,77740,2,0,L|200:278,1,90,0|0,0:0|0:0,0:0:0:0:
332,292,78285,1,2,0:0:0:0:
96,292,78831,1,2,0:0:0:0:
500,292,79376,6,0,P|468:208|388:176,1,180,2|0,0:0|0:0,0:0:0:0:
172,176,80467,2,0,P|216:96|300:72,1,180,2|0,0:0|0:0,0:0:0:0:
44,96,81558,6,0,P|16:200|136:300,1,270,2|0,0:0|0:0,0:0:0:0:
232,296,82649,2,0,P|184:212|100:196,1,180,2|0,0:0|0:0,0:0:0:0:
484,296,83740,6,0,L|500:116,1,180,2|0,0:0|0:0,0:0:0:0:
284,116,84831,2,0,L|476:116,1,180,2|0,0:0|0:0,0:0:0:0:
356,32,85649,1,0,0:0:0:0:
116,32,85921,6,0,P|56:92|116:136,1,180,2|0,0:0|0:0,0:0:0:0:
256,192,87012,2,0,L|76:192,1,180,2|0,0:0|0:0,0:0:0:0:
188,192,87831,1,0,0:0:0:0:
444,356,88103,6,0,P|460:264|416:92,1,270,4|8,0:0|0:0,0:0:0:0:
228,92,90628,5,8,0:0:0:0:
392,92,91260,1,8,0:0:0:0:
208,92,91891,1,8,0:0:0:0:
316,92,92631,2,0,P|228:236|140:92,1,405.000015449525,8|2,0:0|0:0,0:0:0:0:
256,192,95289,12,0,98327,0:0:0:0:
