osu file format v14

[General]
AudioFilename: Goodbye to Everything.mp3
AudioLeadIn: 0
PreviewTime: 9421
Countdown: 0
SampleSet: Soft
StackLeniency: 0.7
Mode: 2
LetterboxInBreaks: 0
WidescreenStoryboard: 0

[Editor]
Bookmarks: 831,9558,27012,53194,79376,88103,94909
DistanceSpacing: 1.6
BeatDivisor: 4
GridSize: 4
TimelineZoom: 2.899999

[Metadata]
Title:Goodbye to Everything
TitleUnicode:Goodbye to Everything
Artist:Between The Buried And Me
ArtistUnicode:Between The Buried And Me
Creator:JBHyperion
Version:Rain
Source:
Tags:progressive rock metal metalcore The Parallax II Two Future Sequence Blade Records Astral Body Dan Briggs Blake Richardson Tommy Giles Rogers Paul Waggoner Dustie Waring
BeatmapID:1863452
BeatmapSetID:891438

[Difficulty]
HPDrainRate:6
CircleSize:5.5
OverallDifficulty:8
ApproachRate:8
SliderMultiplier:2.2
SliderTickRate:1

[Events]
//Background and Video events
0,0,"parallax.jpg",0,0
//Break Periods
//Storyboard Layer 0 (Background)
//Storyboard Layer 1 (Fail)
//Storyboard Layer 2 (Pass)
//Storyboard Layer 3 (Foreground)
//Storyboard Sound Samples

[TimingPoints]
831,545.454545454546,4,2,1,25,1,0
20467,-100,4,2,1,35,0,0
21558,-100,4,2,1,40,0,0
22649,-100,4,2,1,50,0,0
23740,-90.9090909090909,4,2,1,50,0,0
24012,-100,4,2,1,50,0,0
24831,-100,4,2,1,45,0,0
25921,-100,4,2,1,40,0,0
26331,-100,4,2,1,10,0,0
26467,-100,4,2,1,40,0,0
27012,-100,4,2,1,35,0,0
29194,-90.9090909090909,4,2,1,35,0,0
30012,-100,4,2,1,35,0,0
31376,-80,4,2,1,40,0,0
31921,-100,4,2,1,40,0,0
33558,-100,4,2,1,35,0,0
34649,-100,4,2,1,30,0,0
35058,-100,4,2,1,10,0,0
35194,-100,4,2,1,25,0,0
35740,-100,4,2,1,35,0,0
40103,-100,4,2,1,45,0,0
41194,-100,4,2,1,40,0,0
42285,-100,4,2,1,35,0,0
43376,-100,4,2,1,30,0,0
44467,-100,4,2,1,50,0,0
45558,-100,4,2,1,45,0,0
46103,-100,4,2,1,45,0,0
46649,-100,4,2,1,40,0,0
47740,-100,4,2,1,35,0,0
48285,-100,4,2,1,35,0,0
51012,-100,4,2,1,40,0,0
53194,-100,4,2,1,30,0,0
56194,-100,4,2,1,40,0,0
57558,-100,4,2,1,30,0,0
59740,-100,4,2,1,40,0,0
60831,-80,4,2,1,40,0,0
61376,-100,4,2,1,40,0,0
62467,-100,4,2,1,30,0,0
66285,-100,4,2,1,40,0,0
67376,-100,4,2,1,45,0,0
68467,-100,4,2,1,50,0,0
70103,-100,4,2,1,55,0,0
70649,-100,4,2,1,45,0,0
71740,-100,4,2,1,40,0,0
72831,-100,4,2,1,45,0,0
75012,-80,4,2,1,45,0,0
76103,-100,4,2,1,35,0,0
78285,-100,4,2,1,40,0,0
87012,-100,4,2,1,35,0,0
88103,631.578947368421,3,2,1,30,1,0
88103,-200,3,2,1,30,0,0
89997,631.578947368421,4,2,1,40,1,0
90470,-105.263157894737,4,2,1,45,0,0
91102,-111.111111111111,4,2,1,40,0,0
91733,-117.647058823529,4,2,1,45,0,0
91891,740.740740740741,4,2,1,20,1,0
92631,759.493670886076,3,2,1,50,1,0
92631,-133.333333333333,3,2,1,50,0,0
95099,-133.333333333333,3,2,1,30,0,0
96808,-133.333333333333,3,2,1,25,0,0
97187,-133.333333333333,3,2,1,20,0,0
97567,-133.333333333333,3,2,1,15,0,0
97947,-133.333333333333,3,2,1,10,0,0
98327,-133.333333333333,3,2,1,5,0,0

[Colours]
Combo1 : 95,255,255
Combo2 : 255,175,210

[HitObjects]
128,192,603,6,0,L|120:160,2,18.3333333333333
160,192,762,1,0,0:0:0:0:
192,192,831,2,0,P|256:268|192:352,1,220,2|0,0:0|0:0,0:0:0:0:
416,348,1921,1,2,0:0:0:0:
152,352,2467,1,0,0:0:0:0:
472,348,2740,6,0,P|460:280|336:204,1,220,2|0,0:0|0:0,0:0:0:0:
484,204,3558,2,0,L|368:204,1,110
152,208,4103,1,2,0:0:0:0:
44,208,4376,1,0,0:0:0:0:
144,208,4649,1,0,0:0:0:0:
364,208,4921,1,0,0:0:0:0:
44,208,5194,6,0,B|44:96|44:96|140:44,1,220,2|0,0:0|0:0,0:0:0:0:
404,192,6285,1,2,0:0:0:0:
116,192,6831,1,0,0:0:0:0:
436,192,7104,6,0,P|504:252|428:328,1,220,2|0,0:0|0:0,0:0:0:0:
288,328,7922,2,0,L|400:328,1,110
176,328,8467,2,0,L|64:328,2,110,2|0|0,0:0|0:0|0:0,0:0:0:0:
12,328,9285,1,0,0:0:0:0:
356,328,9558,6,0,B|468:328|468:328|468:220,1,220,2|0,0:0|0:0,0:0:0:0:
336,220,10376,1,0,0:0:0:0:
116,220,10649,2,0,L|344:220,1,220,2|0,0:0|0:0,0:0:0:0:
16,160,11467,2,0,L|244:160,1,220,2|0,0:0|0:0,0:0:0:0:
392,160,12285,6,0,L|280:160,1,110
72,160,12831,2,0,L|164:100,1,110,2|0,0:0|0:0,0:0:0:0:
296,100,13376,1,0,0:0:0:0:
88,100,13649,1,0,0:0:0:0:
412,100,13921,6,0,B|500:192|416:296|416:296|304:296,1,330,2|0,0:0|0:0,0:0:0:0:
84,296,15012,2,0,L|196:296,1,110
400,296,15558,2,0,L|408:184,1,110,8|0,0:0|0:0,0:0:0:0:
176,192,16103,6,0,L|60:192,1,110,8|0,0:0|0:0,0:0:0:0:
288,192,16649,2,0,L|400:192,1,110,8|0,0:0|0:0,0:0:0:0:
188,192,17194,2,0,L|176:80,1,110,8|0,0:0|0:0,0:0:0:0:
340,84,17740,1,8,0:0:0:0:
132,80,18012,1,0,0:0:0:0:
456,216,18285,6,0,B|456:104|456:104|348:84,1,220,2|0,0:0|0:0,0:0:0:0:
208,84,19103,1,0,0:0:0:0:
428,88,19376,2,0,L|432:204,1,110,2|0,0:0|0:0,0:0:0:0:
232,200,19921,1,0,0:0:0:0:
376,200,20194,1,0,0:0:0:0:
44,200,20467,6,0,L|160:200,2,110,2|0|0,0:0|0:0|0:0,0:0:0:0:
176,200,21285,1,0,0:0:0:0:
496,200,21558,2,0,L|384:200,1,110,2|0,0:0|0:0,0:0:0:0:
144,200,22103,2,0,L|156:84,1,110,8|0,0:0|0:0,0:0:0:0:
476,200,22649,6,0,B|476:88|476:88|368:88|368:88|368:200,1,330,8|0,0:0|0:0,0:0:0:0:
148,200,23740,2,0,L|24:200,1,121.000003692627
248,200,24285,1,8,0:0:0:0:
48,200,24558,1,0,0:0:0:0:
368,328,24831,6,0,L|372:212,1,110,8|0,0:0|0:0,0:0:0:0:
140,200,25376,1,8,0:0:0:0:
500,200,25921,2,0,L|328:200,1,165,8|0,0:0|0:0,0:0:0:0:
244,108,26467,2,0,L|356:108,1,110,8|0,0:0|0:0,0:0:0:0:
32,108,27012,6,0,P|40:180|152:264,1,220,8|0,0:0|0:0,0:0:0:0:
280,264,27831,1,0,0:0:0:0:
488,264,28103,1,2,0:0:0:0:
224,264,28649,1,0,0:0:0:0:
400,264,28921,1,2,0:0:0:0:
184,264,29194,6,0,P|144:228|184:192,1,121.000003692627
272,264,29603,2,0,P|276:195|184:192,1,181.500005538941
428,96,30285,2,0,L|432:208,1,110,2|0,0:0|0:0,0:0:0:0:
276,208,30831,1,0,0:0:0:0:
496,204,31103,1,0,0:0:0:0:
96,32,31376,6,0,P|152:168|264:208,1,275,2|0,0:0|0:0,0:0:0:0:
424,216,32194,1,0,0:0:0:0:
216,216,32467,2,0,L|104:216,1,110
348,216,33012,2,0,L|356:328,1,110,8|0,0:0|0:0,0:0:0:0:
36,328,33558,5,8,0:0:0:0:
192,328,33831,1,0,0:0:0:0:
16,328,34103,1,8,0:0:0:0:
416,328,34649,2,0,P|464:272|416:208,1,165,8|0,0:0|0:0,0:0:0:0:
252,208,35194,1,8,0:0:0:0:
396,208,35467,1,0,0:0:0:0:
76,208,35740,6,0,P|8:136|80:64,1,220,2|0,0:0|0:0,0:0:0:0:
208,64,36558,1,0,0:0:0:0:
428,64,36831,2,0,L|316:64,1,110,2|0,0:0|0:0,0:0:0:0:
460,64,37376,1,0,0:0:0:0:
260,64,37649,1,2,0:0:0:0:
60,64,37921,6,0,L|56:124,1,55,8|0,0:0|0:0,0:0:0:0:
220,192,38331,1,0,0:0:0:0:
76,192,38467,2,0,L|68:304,1,110
288,192,39012,2,0,L|400:192,2,110,2|0|0,0:0|0:0|0:0,0:0:0:0:
88,192,39831,1,0,0:0:0:0:
416,52,40103,6,0,B|428:272,1,220,2|0,0:0|0:0,0:0:0:0:
76,328,41194,2,0,P|112:228|216:188,1,220
68,188,42012,1,0,0:0:0:0:
300,188,42285,6,0,L|416:188,2,110,2|0|0,0:0|0:0|0:0,0:0:0:0:
112,188,43376,1,0,0:0:0:0:
484,192,43921,2,0,L|488:80,1,110,8|0,0:0|0:0,0:0:0:0:
168,80,44467,6,0,B|56:80|56:80|56:188,1,220,8|0,0:0|0:0,0:0:0:0:
388,304,45558,2,0,B|388:192|388:192|280:192,1,220,8|0,0:0|0:0,0:0:0:0:
136,192,46376,1,0,0:0:0:0:
368,192,46649,6,0,L|256:192,1,110,8|0,0:0|0:0,0:0:0:0:
116,192,47194,1,0,0:0:0:0:
448,192,47740,2,0,P|504:124|436:32,1,220,8|0,0:0|0:0,0:0:0:0:
236,36,48558,1,0,0:0:0:0:
160,36,48694,1,0,0:0:0:0:
384,36,48831,6,0,P|448:92|384:188,1,220,8|0,0:0|0:0,0:0:0:0:
56,192,49921,2,0,L|280:192,1,220,2|0,0:0|0:0,0:0:0:0:
76,192,50740,1,0,0:0:0:0:
396,192,51012,6,0,L|404:312,1,110,4|0,0:0|0:0,0:0:0:0:
260,304,51558,2,0,L|144:304,1,110
472,300,52103,2,0,P|508:208|460:96,1,220,4|0,0:0|0:0,0:0:0:0:
344,100,52921,1,0,0:0:0:0:
24,100,53194,6,0,B|24:212|24:212|120:264,1,220,2|0,0:0|0:0,0:0:0:0:
252,264,54012,1,0,0:0:0:0:
32,260,54285,2,0,B|32:148|32:148|128:100,1,220,2|0,0:0|0:0,0:0:0:0:
272,100,55103,1,0,0:0:0:0:
33,44,55376,6,0,L|133:102,2,110,2|0|0,0:0|0:0|0:0,0:0:0:0:
352,44,56194,1,2,0:0:0:0:
232,44,56467,2,0,L|120:44,1,110
288,44,57012,1,0,0:0:0:0:
80,44,57285,1,0,0:0:0:0:
400,44,57558,6,0,L|512:44,1,110,4|0,0:0|0:0,0:0:0:0:
344,132,58103,2,0,L|228:132,1,110
468,44,58649,2,0,L|248:44,1,220,2|0,0:0|0:0,0:0:0:0:
380,44,59467,1,0,0:0:0:0:
60,44,59740,6,0,P|28:156|108:192,1,220,2|0,0:0|0:0,0:0:0:0:
432,192,60831,2,0,P|356:96|294:193,1,275,2|0,0:0|0:0,0:0:0:0:
424,192,61649,1,0,0:0:0:0:
104,192,61921,5,4,0:0:0:0:
324,192,62467,2,0,L|332:304,1,110
100,304,63012,2,0,L|212:304,1,110,2|0,0:0|0:0,0:0:0:0:
331,301,63558,1,0,0:0:0:0:
176,304,63831,1,0,0:0:0:0:
384,208,64103,5,2,0:0:0:0:
240,212,64376,1,0,0:0:0:0:
460,128,64649,2,0,L|344:128,1,110,2|0,0:0|0:0,0:0:0:0:
128,128,65194,2,0,L|240:128,1,110,2|0,0:0|0:0,0:0:0:0:
16,128,65740,2,0,L|12:252,1,110
332,236,66285,6,0,L|444:236,1,110,2|0,0:0|0:0,0:0:0:0:
200,236,66831,2,0,L|176:348,1,110
496,344,67376,2,0,L|380:344,1,110,2|0,0:0|0:0,0:0:0:0:
176,343,67921,1,0,0:0:0:0:
376,344,68194,1,0,0:0:0:0:
56,344,68467,6,0,P|8:288|88:192,1,220,2|0,0:0|0:0,0:0:0:0:
220,192,69285,1,0,0:0:0:0:
440,192,69558,2,0,L|448:304,1,110
228,304,70103,2,0,L|116:304,1,110,2|0,0:0|0:0,0:0:0:0:
440,192,70649,6,0,P|500:120|424:44,1,220,4|0,0:0|0:0,0:0:0:0:
72,44,71740,2,0,L|265:156,1,220,2|0,0:0|0:0,0:0:0:0:
120,156,72558,1,0,0:0:0:0:
484,332,72831,6,0,B|484:220|484:220|376:220|376:220|376:108|376:108|268:108|268:108|376:108|376:108|376:220|376:220|456:144,1,770,2|0,0:0|0:0,0:0:0:0:
120,108,75012,6,0,P|28:188|116:272,1,275,4|0,0:0|0:0,0:0:0:0:
468,272,76103,2,0,L|248:272,1,220,2|0,0:0|0:0,0:0:0:0:
392,272,76921,1,0,0:0:0:0:
240,348,77194,6,0,L|352:348,1,110,2|0,0:0|0:0,0:0:0:0:
196,348,77740,2,0,L|84:348,1,110
316,348,78285,2,0,L|320:236,1,110,2|0,0:0|0:0,0:0:0:0:
80,236,78831,2,0,L|76:124,1,110,2|0,0:0|0:0,0:0:0:0:
396,124,79376,6,0,L|512:124,1,110,2|0,0:0|0:0,0:0:0:0:
276,124,79921,2,0,L|164:124,1,110
396,124,80467,2,0,P|360:228|264:264,1,220,2|0,0:0|0:0,0:0:0:0:
416,260,81285,1,0,0:0:0:0:
172,264,81558,6,0,P|100:200|172:128,1,220,2|0,0:0|0:0,0:0:0:0:
300,128,82376,1,0,0:0:0:0:
56,128,82649,2,0,L|40:348,1,220,2|0,0:0|0:0,0:0:0:0:
172,348,83467,1,0,0:0:0:0:
492,348,83740,6,0,L|376:348,1,110,2|0,0:0|0:0,0:0:0:0:
160,280,84285,2,0,L|48:280,1,110
292,280,84831,2,0,L|404:280,1,110,2|0,0:0|0:0,0:0:0:0:
180,280,85376,1,0,0:0:0:0:
344,280,85649,1,0,0:0:0:0:
104,280,85921,6,0,L|4:232,2,110,2|0|0,0:0|0:0|0:0,0:0:0:0:
432,280,87012,2,0,P|408:188|304:128,1,220,2|0,0:0|0:0,0:0:0:0:
492,128,87831,1,0,0:0:0:0:
104,128,88103,6,0,L|104:348,1,220,4|0,0:0|0:0,0:0:0:0:
204,348,89681,1,0,0:0:0:0:
468,348,89997,2,0,L|472:232,1,110,8|0,0:0|0:0,0:0:0:0:
168,244,90628,6,8,L|56:244,1,104.499997209549,8|0,0:0|0:0,0:0:0:0:
332,240,91260,2,0,L|420:192,1,98.9999969787599,8|0,0:0|0:0,0:0:0:0:
136,192,91891,2,0,L|128:80,1,110,8|0,0:0|0:0,0:0:0:0:
418,192,92631,2,0,P|274:26|136:192,1,495.000018882752,8|2,0:0|0:0,0:0:0:0:
256,192,95099,12,0,98327,0:0:0:0:
