osu file format v14

[General]
AudioFilename: Goodbye to Everything.mp3
AudioLeadIn: 0
PreviewTime: 9421
Countdown: 0
SampleSet: Soft
StackLeniency: 0.7
Mode: 2
LetterboxInBreaks: 0
WidescreenStoryboard: 0

[Editor]
Bookmarks: 831,9558,27012,53194,79376,88103,94909
DistanceSpacing: 1.6
BeatDivisor: 8
GridSize: 4
TimelineZoom: 3.599998

[Metadata]
Title:Goodbye to Everything
TitleUnicode:Goodbye to Everything
Artist:Between The Buried And Me
ArtistUnicode:Between The Buried And Me
Creator:JBHyperion
Version:Platter
Source:
Tags:progressive rock metal metalcore The Parallax II Two Future Sequence Blade Records Astral Body Dan Briggs Blake Richardson Tommy Giles Rogers Paul Waggoner Dustie Waring
BeatmapID:1863451
BeatmapSetID:891438

[Difficulty]
HPDrainRate:5
CircleSize:4.8
OverallDifficulty:7
ApproachRate:7
SliderMultiplier:2
SliderTickRate:1

[Events]
//Background and Video events
0,0,"parallax.jpg",0,0
//Break Periods
//Storyboard Layer 0 (Background)
//Storyboard Layer 1 (Fail)
//Storyboard Layer 2 (Pass)
//Storyboard Layer 3 (Foreground)
//Storyboard Sound Samples

[TimingPoints]
831,545.454545454546,4,2,1,25,1,0
20467,-100,4,2,1,35,0,0
21558,-100,4,2,1,40,0,0
22649,-100,4,2,1,50,0,0
24831,-100,4,2,1,45,0,0
25921,-100,4,2,1,40,0,0
27012,-100,4,2,1,35,0,0
31376,-125,4,2,1,40,0,0
32740,-100,4,2,1,40,0,0
33558,-100,4,2,1,35,0,0
34649,-100,4,2,1,30,0,0
35194,-100,4,2,1,25,0,0
35740,-100,4,2,1,35,0,0
40103,-100,4,2,1,45,0,0
41194,-100,4,2,1,40,0,0
42285,-100,4,2,1,35,0,0
43376,-100,4,2,1,30,0,0
44467,-133.333333333333,4,2,1,50,0,0
45558,-133.333333333333,4,2,1,45,0,0
46103,-133.333333333333,4,2,1,45,0,0
46649,-133.333333333333,4,2,2,40,0,0
47740,-133.333333333333,4,2,2,35,0,0
48285,-100,4,2,1,35,0,0
51012,-100,4,2,1,40,0,0
53194,-100,4,2,1,30,0,0
56194,-100,4,2,1,40,0,0
57558,-100,4,2,1,30,0,0
59740,-100,4,2,1,40,0,0
62467,-100,4,2,1,30,0,0
66285,-100,4,2,1,40,0,0
67376,-100,4,2,1,45,0,0
68467,-100,4,2,1,50,0,0
70103,-100,4,2,1,55,0,0
70649,-100,4,2,1,45,0,0
71740,-100,4,2,1,40,0,0
72831,-100,4,2,1,45,0,0
76103,-100,4,2,1,35,0,0
78285,-100,4,2,1,40,0,0
87012,-100,4,2,1,35,0,0
88103,631.578947368421,3,2,1,30,1,0
88103,-200,3,2,1,30,0,0
89997,631.578947368421,4,2,1,40,1,0
90470,-105.263157894737,4,2,1,45,0,0
91102,-111.111111111111,4,2,1,40,0,0
91733,-117.647058823529,4,2,1,45,0,0
91891,740.740740740741,4,2,1,20,1,0
92631,759.493670886076,3,2,1,50,1,0
92631,-133.333333333333,3,2,1,50,0,0
95099,-133.333333333333,3,2,1,30,0,0
96808,-133.333333333333,3,2,1,25,0,0
97187,-133.333333333333,3,2,1,20,0,0
97567,-133.333333333333,3,2,1,15,0,0
97947,-133.333333333333,3,2,1,10,0,0
98327,-133.333333333333,3,2,1,5,0,0

[Colours]
Combo1 : 95,255,255
Combo2 : 255,175,210

[HitObjects]
312,144,694,6,0,L|284:168,1,25
264,192,831,2,0,B|264:292|264:292|360:320,1,200,2|0,0:0|0:0,0:0:0:0:
120,328,1921,1,2,0:0:0:0:
360,328,2467,1,0,0:0:0:0:
120,328,2740,6,0,P|76:304|128:192,1,200,2|0,0:0|0:0,0:0:0:0:
244,192,3558,2,0,L|344:192,1,100
104,192,4103,1,2,0:0:0:0:
24,132,4376,1,0,0:0:0:0:
40,28,4649,1,0,0:0:0:0:
140,28,4921,1,0,0:0:0:0:
380,24,5194,6,0,P|364:84|248:144,1,200,2|0,0:0|0:0,0:0:0:0:
488,192,6285,1,2,0:0:0:0:
208,192,6831,1,0,0:0:0:0:
444,192,7104,6,0,P|488:216|436:328,1,200,2|0,0:0|0:0,0:0:0:0:
320,328,7922,2,0,L|420:328,1,100
180,328,8467,2,0,L|172:224,1,100,2|0,0:0|0:0,0:0:0:0:
48,192,9012,2,0,L|40:92,1,100
372,192,9558,6,0,B|472:192|472:192|492:92,1,200,2|0,0:0|0:0,0:0:0:0:
372,52,10376,1,0,0:0:0:0:
136,52,10649,2,0,P|83:127|149:191,1,200,2|0,0:0|0:0,0:0:0:0:
388,192,11467,2,0,P|460:224|472:352,1,200,2|0,0:0|0:0,0:0:0:0:
356,336,12285,6,0,L|252:336,1,100
480,336,12831,2,0,L|496:236,1,100,2|0,0:0|0:0,0:0:0:0:
468,140,13376,1,0,0:0:0:0:
368,100,13649,1,0,0:0:0:0:
40,100,13921,6,0,B|-16:128|-16:224|96:224|96:224|20:288,1,300,2|0,0:0|0:0,0:0:0:0:
240,288,15012,2,0,L|340:288,1,100
108,288,15558,2,0,L|96:184,1,100,8|0,0:0|0:0,0:0:0:0:
316,192,16103,6,0,L|304:88,1,100,8|0,0:0|0:0,0:0:0:0:
80,92,16649,1,8,0:0:0:0:
320,96,17194,2,0,L|416:136,1,100,8|0,0:0|0:0,0:0:0:0:
240,192,17740,1,8,0:0:0:0:
360,192,18012,1,0,0:0:0:0:
28,192,18285,6,0,B|28:92|28:92|128:72,1,200,2|0,0:0|0:0,0:0:0:0:
248,72,19103,1,0,0:0:0:0:
484,72,19376,2,0,P|456:160|360:192,1,200,2|0,0:0|0:0,0:0:0:0:
240,192,20194,1,0,0:0:0:0:
480,192,20467,6,0,P|500:260|440:368,1,200,2|0,0:0|0:0,0:0:0:0:
320,368,21285,1,0,0:0:0:0:
80,280,21558,2,0,L|172:236,1,100,2|0,0:0|0:0,0:0:0:0:
412,236,22103,2,0,L|504:192,1,100,8|0,0:0|0:0,0:0:0:0:
170,236,22649,6,0,B|96:168|96:168|214:75|214:75|332:168|332:168|258:236,1,500,8|0,0:0|0:0,0:0:0:0:
36,236,24285,2,0,L|20:348,1,100,8|0,0:0|0:0,0:0:0:0:
244,332,24831,5,8,0:0:0:0:
144,240,25376,1,8,0:0:0:0:
344,240,25921,1,8,0:0:0:0:
84,240,26467,2,0,L|76:128,1,100,8|0,0:0|0:0,0:0:0:0:
328,140,27012,6,0,P|392:200|328:268,1,200,8|0,0:0|0:0,0:0:0:0:
88,316,28103,1,2,0:0:0:0:
368,316,28649,1,0,0:0:0:0:
132,316,28922,6,0,P|88:292|140:180,1,200,2|0,0:0|0:0,0:0:0:0:
256,180,29740,2,0,L|156:180,1,100
396,180,30285,1,2,0:0:0:0:
488,140,30558,1,0,0:0:0:0:
488,40,30831,1,0,0:0:0:0:
396,4,31103,1,0,0:0:0:0:
64,8,31376,6,0,B|64:220|288:60|288:288,1,400,2|0,0:0|0:0,0:0:0:0:
148,288,33012,2,0,L|132:180,1,100,8|0,0:0|0:0,0:0:0:0:
384,192,33558,6,0,P|448:176|504:64,1,200,8|8,0:0|0:0,0:0:0:0:
264,64,34649,1,8,0:0:0:0:
464,64,35194,1,8,0:0:0:0:
84,68,35740,6,0,P|0:152|100:268,1,300,2|0,0:0|0:0,0:0:0:0:
320,196,36831,2,0,L|412:240,1,100,2|0,0:0|0:0,0:0:0:0:
272,240,37376,1,0,0:0:0:0:
492,240,37649,6,0,P|492:188|384:100,1,200,2|0,0:0|0:0,0:0:0:0:
268,100,38467,2,0,L|176:144,1,100
404,168,39012,2,0,L|300:168,2,100,2|0|0,0:0|0:0|0:0,0:0:0:0:
504,168,39831,1,0,0:0:0:0:
152,168,40103,6,0,B|52:168|52:168|52:268,1,200,2|0,0:0|0:0,0:0:0:0:
292,264,41194,2,0,P|236:172|152:168,1,200
396,168,42285,6,0,P|464:144|508:32,1,200,2|0,0:0|0:0,0:0:0:0:
288,32,43376,1,0,0:0:0:0:
68,32,43921,2,0,L|60:148,1,100,8|0,0:0|0:0,0:0:0:0:
392,32,44467,6,0,B|412:180|392:332|392:332|92:332|92:332|276:332|276:148|276:148|124:148,1,1050.00004005432,8|0,0:0|0:0,0:0:0:0:
268,148,48558,1,0,0:0:0:0:
160,148,48694,1,0,0:0:0:0:
52,148,48831,6,0,P|32:248|92:324,1,200,8|0,0:0|0:0,0:0:0:0:
344,320,49921,2,0,P|260:288|216:192,1,200,2|0,0:0|0:0,0:0:0:0:
340,192,50740,1,0,0:0:0:0:
92,192,51012,6,0,P|72:120|128:12,1,200,4|0,0:0|0:0,0:0:0:0:
368,12,52103,2,0,L|168:12,1,200,4|0,0:0|0:0,0:0:0:0:
68,76,52921,1,0,0:0:0:0:
308,76,53194,6,0,P|372:88|440:196,1,200,2|0,0:0|0:0,0:0:0:0:
200,192,54285,2,0,P|136:204|68:312,1,200,2|0,0:0|0:0,0:0:0:0:
188,312,55103,1,0,0:0:0:0:
308,312,55376,6,0,L|396:264,2,100,2|0|0,0:0|0:0|0:0,0:0:0:0:
68,312,56194,2,0,P|88:236|192:184,1,200,2|0,0:0|0:0,0:0:0:0:
312,184,57012,1,0,0:0:0:0:
140,184,57285,1,0,0:0:0:0:
380,184,57558,6,0,P|420:104|336:48,1,200,4|0,0:0|0:0,0:0:0:0:
104,48,58649,2,0,L|312:48,1,200,2|0,0:0|0:0,0:0:0:0:
404,112,59467,1,0,0:0:0:0:
164,112,59740,6,0,P|80:224|160:344,1,300,2|0,0:0|0:0,0:0:0:0:
296,344,60831,2,0,P|227:238|158:345,1,300,2|0,0:0|0:0,0:0:0:0:
396,340,61921,5,4,0:0:0:0:
156,340,62467,2,0,L|144:232,1,100
364,244,63012,2,0,L|376:136,1,100,2|0,0:0|0:0,0:0:0:0:
145,240,63558,2,0,L|233:192,1,100
472,192,64103,5,2,0:0:0:0:
492,72,64376,1,0,0:0:0:0:
372,72,64649,2,0,L|280:120,1,100,2|0,0:0|0:0,0:0:0:0:
164,144,65194,2,0,L|256:192,1,100,2|0,0:0|0:0,0:0:0:0:
132,220,65740,2,0,L|40:268,1,100
376,268,66285,6,0,L|388:376,1,100,2|0,0:0|0:0,0:0:0:0:
148,368,66831,2,0,L|48:368,1,100
307,367,67376,2,0,L|407:367,2,100,2|0|0,0:0|0:0|0:0,0:0:0:0:
468,368,68194,1,0,0:0:0:0:
136,164,68467,6,0,P|32:100|144:36,1,300,2|0,0:0|0:0,0:0:0:0:
304,32,69558,2,0,L|392:88,1,100
148,84,70103,2,0,L|132:184,1,100,2|0,0:0|0:0,0:0:0:0:
464,180,70649,6,0,P|500:236|424:332,1,200,4|0,0:0|0:0,0:0:0:0:
188,332,71740,2,0,L|388:332,1,200,2|0,0:0|0:0,0:0:0:0:
28,332,72831,6,0,B|28:192|28:0|164:192|288:384|336:192|264:36|264:36|156:36,1,700,2|0,0:0|0:0,0:0:0:0:
492,32,75012,6,0,P|500:104|476:228,1,200,4|0,0:0|0:0,0:0:0:0:
116,128,76103,2,0,P|108:200|132:324,1,200,2|0,0:0|0:0,0:0:0:0:
252,324,76921,1,0,0:0:0:0:
372,324,77194,6,0,L|271:266,1,100,2|0,0:0|0:0,0:0:0:0:
164,240,77740,2,0,L|264:182,1,100
372,192,78285,1,2,0:0:0:0:
132,192,78831,1,2,0:0:0:0:
492,192,79376,6,0,L|480:88,1,100,2|0,0:0|0:0,0:0:0:0:
360,92,79921,2,0,L|256:92,1,100
140,92,80467,2,0,P|168:180|260:224,1,200,2|0,0:0|0:0,0:0:0:0:
380,224,81285,1,0,0:0:0:0:
140,224,81558,6,0,P|76:288|136:360,1,200,2|0,0:0|0:0,0:0:0:0:
256,360,82376,1,0,0:0:0:0:
488,192,82649,2,0,P|412:212|360:316,1,200,2|0,0:0|0:0,0:0:0:0:
480,312,83467,1,0,0:0:0:0:
240,312,83740,6,0,L|252:208,1,100,2|0,0:0|0:0,0:0:0:0:
372,212,84285,2,0,L|476:212,1,100
352,212,84831,2,0,P|264:184|220:92,1,200,2|0,0:0|0:0,0:0:0:0:
340,92,85649,1,0,0:0:0:0:
100,88,85921,6,0,P|68:168|92:284,1,200,2|0,0:0|0:0,0:0:0:0:
448,324,87012,2,0,L|248:324,1,200,2|0,0:0|0:0,0:0:0:0:
388,324,87831,1,0,0:0:0:0:
64,60,88103,6,0,L|248:296,1,300,4|8,0:0|0:0,0:0:0:0:
20,296,90628,5,8,0:0:0:0:
220,296,91260,1,8,0:0:0:0:
388,296,91891,1,8,0:0:0:0:
240,296,92631,2,0,P|80:168|224:44,1,450.000017166138,8|2,0:0|0:0,0:0:0:0:
256,192,95099,12,0,98327,0:0:0:0:
