osu file format v14

[General]
AudioFilename: Goodbye to Everything.mp3
AudioLeadIn: 0
PreviewTime: 9421
Countdown: 0
SampleSet: Soft
StackLeniency: 0.7
Mode: 2
LetterboxInBreaks: 0
WidescreenStoryboard: 0

[Editor]
Bookmarks: 831,9558,27012,53194,79376,88103,94909,98327
DistanceSpacing: 1.1
BeatDivisor: 2
GridSize: 4
TimelineZoom: 2.799999

[Metadata]
Title:Goodbye to Everything
TitleUnicode:Goodbye to Everything
Artist:Between The Buried And Me
ArtistUnicode:Between The Buried And Me
Creator:JBHyperion
Version:Cup
Source:
Tags:progressive rock metal metalcore The Parallax II Two Future Sequence Blade Records Astral Body Dan Briggs Blake Richardson Tommy Giles Rogers Paul Waggoner Dustie Waring
BeatmapID:1863450
BeatmapSetID:891438

[Difficulty]
HPDrainRate:3
CircleSize:3
OverallDifficulty:5
ApproachRate:5
SliderMultiplier:1.6
SliderTickRate:1

[Events]
//Background and Video events
0,0,"parallax.jpg",0,0
//Break Periods
//Storyboard Layer 0 (Background)
//Storyboard Layer 1 (Fail)
//Storyboard Layer 2 (Pass)
//Storyboard Layer 3 (Foreground)
//Storyboard Sound Samples

[TimingPoints]
831,545.454545454546,4,2,1,25,1,0
20467,-100,4,2,1,35,0,0
21558,-100,4,2,1,40,0,0
22649,-100,4,2,1,50,0,0
24831,-100,4,2,1,45,0,0
25921,-100,4,2,1,40,0,0
26331,-100,4,2,1,40,0,0
26467,-100,4,2,1,40,0,0
27012,-100,4,2,1,35,0,0
31376,-80,4,2,1,40,0,0
31921,-100,4,2,1,40,0,0
33558,-100,4,2,1,35,0,0
34649,-100,4,2,1,30,0,0
35058,-100,4,2,1,30,0,0
35194,-100,4,2,1,25,0,0
35740,-100,4,2,1,35,0,0
40103,-100,4,2,1,45,0,0
41194,-100,4,2,1,40,0,0
42285,-100,4,2,1,35,0,0
43376,-100,4,2,1,30,0,0
44467,-100,4,2,1,50,0,0
45558,-100,4,2,1,45,0,0
46103,-100,4,2,1,45,0,0
46649,-100,4,2,2,40,0,0
47740,-100,4,2,2,35,0,0
48285,-100,4,2,1,35,0,0
51012,-100,4,2,1,40,0,0
53194,-100,4,2,1,30,0,0
56194,-100,4,2,1,40,0,0
57558,-100,4,2,1,30,0,0
59740,-100,4,2,1,40,0,0
60831,-80,4,2,1,40,0,0
61376,-100,4,2,1,40,0,0
62467,-100,4,2,1,30,0,0
66285,-100,4,2,1,40,0,0
67376,-100,4,2,1,45,0,0
68467,-100,4,2,1,50,0,0
70103,-100,4,2,1,55,0,0
70649,-100,4,2,1,45,0,0
71740,-100,4,2,1,40,0,0
72831,-100,4,2,1,45,0,0
76103,-100,4,2,1,35,0,0
78285,-100,4,2,1,40,0,0
87012,-100,4,2,1,35,0,0
88103,631.578947368421,3,2,1,30,1,0
88103,-200,3,2,1,30,0,0
89997,631.578947368421,4,2,1,40,1,0
90470,-105.263157894737,4,2,1,45,0,0
91102,-111.111111111111,4,2,1,40,0,0
91733,-117.647058823529,4,2,1,45,0,0
91891,740.740740740741,4,2,1,20,1,0
92631,759.493670886076,3,2,1,50,1,0
92631,-133.333333333333,3,2,1,50,0,0
95289,-133.333333333333,3,2,1,30,0,0
96808,-133.333333333333,3,2,1,25,0,0
97187,-133.333333333333,3,2,1,20,0,0
97567,-133.333333333333,3,2,1,15,0,0
97947,-133.333333333333,3,2,1,10,0,0
98327,-133.333333333333,3,2,1,5,0,0

[Colours]
Combo1 : 95,255,255
Combo2 : 255,175,210

[HitObjects]
324,272,831,6,0,L|328:112,1,160,2|0,0:0|0:0,0:0:0:0:
136,112,1921,2,0,L|274:192,1,160,2|0,0:0|0:0,0:0:0:0:
372,112,2740,6,0,L|233:192,1,160,2|0,0:0|0:0,0:0:0:0:
136,192,3558,1,0,0:0:0:0:
328,112,4103,2,0,L|336:192,1,80,2|0,0:0|0:0,0:0:0:0:
224,192,4921,1,0,0:0:0:0:
336,192,5194,6,0,B|416:192|416:192|416:272,1,160,2|0,0:0|0:0,0:0:0:0:
224,276,6285,2,0,L|85:196,1,160,2|0,0:0|0:0,0:0:0:0:
180,276,7103,6,0,L|318:196,1,160,2|0,0:0|0:0,0:0:0:0:
384,168,7921,1,0,0:0:0:0:
416,104,8194,1,0,0:0:0:0:
384,40,8467,1,2,0:0:0:0:
317,23,8739,1,0,0:0:0:0:
164,24,9285,1,0,0:0:0:0:
272,24,9558,6,0,B|432:24|432:24|432:188,1,320,2|2,0:0|0:0,0:0:0:0:
270,184,11194,1,0,0:0:0:0:
158,184,11467,6,0,L|150:24,1,160,2|0,0:0|0:0,0:0:0:0:
256,104,12285,2,0,L|394:23,2,160,0|2|0,0:0|0:0|0:0,0:0:0:0:
48,104,13921,6,0,B|48:264|48:264|212:264,1,320,2|0,0:0|0:0,0:0:0:0:
352,264,15558,1,8,0:0:0:0:
176,264,16103,6,0,L|32:192,1,160,8|8,0:0|0:0,0:0:0:0:
212,192,17194,2,0,L|244:36,1,160,8|8,0:0|0:0,0:0:0:0:
36,36,18285,6,0,L|313:196,1,320,2|2,0:0|0:0,0:0:0:0:
472,192,19921,2,0,L|476:280,1,80,0|0,0:0|0:0,0:0:0:0:
380,272,20467,6,0,L|237:190,1,160,2|0,0:0|0:0,0:0:0:0:
48,192,21558,2,0,L|208:192,1,160,2|8,0:0|0:0,0:0:0:0:
432,192,22649,6,0,B|432:32|432:32|432:192|432:192|272:192,1,480,8|0,0:0|0:0,0:0:0:0:
192,192,24558,1,0,0:0:0:0:
112,192,24831,5,8,0:0:0:0:
276,192,25376,1,8,0:0:0:0:
92,192,25921,1,8,0:0:0:0:
292,192,26467,1,8,0:0:0:0:
76,192,27012,6,0,B|76:352|76:352|244:352,1,320,8|2,0:0|0:0,0:0:0:0:
412,352,28649,2,0,L|416:264,1,80,0|2,0:0|0:0,0:0:0:0:
224,300,29740,6,0,L|220:220,1,80,0|0,0:0|0:0,0:0:0:0:
324,192,30285,2,0,L|412:192,1,80,2|0,0:0|0:0,0:0:0:0:
276,96,31103,1,0,0:0:0:0:
164,96,31376,6,0,P|36:192|164:344,1,400,2|0,0:0|0:0,0:0:0:0:
320,344,33012,1,8,0:0:0:0:
496,192,33558,6,0,L|350:276,1,160,8|8,0:0|0:0,0:0:0:0:
180,192,34649,2,0,L|325:276,1,160,8|8,0:0|0:0,0:0:0:0:
384,192,35467,1,0,0:0:0:0:
316,124,35740,6,0,B|156:124|156:124|156:284,1,320,2|2,0:0|0:0,0:0:0:0:
316,280,37376,2,0,L|324:188,1,80,0|2,0:0|0:0,0:0:0:0:
228,200,37921,6,0,B|148:200|148:200|148:120,1,160,0|0,0:0|0:0,0:0:0:0:
308,120,39012,2,0,L|344:48,2,80,2|0|0,0:0|0:0|0:0,0:0:0:0:
116,120,40103,6,0,L|112:280,1,160,2|0,0:0|0:0,0:0:0:0:
304,280,41194,2,0,L|440:192,1,160,0|0,0:0|0:0,0:0:0:0:
344,192,42012,1,0,0:0:0:0:
248,192,42285,6,0,P|236:108|248:32,1,160,2|0,0:0|0:0,0:0:0:0:
87,34,43376,2,0,L|251:34,1,160,0|8,0:0|0:0,0:0:0:0:
328,34,44194,1,0,0:0:0:0:
224,32,44467,6,0,B|65:34|65:34|65:194|65:194|225:194|225:194|225:354|225:354|385:354|385:354|385:194|385:194|225:194|225:194|225:114,1,1200,8|0,0:0|0:0,0:0:0:0:
233,74,48694,1,0,0:0:0:0:
241,34,48831,1,8,0:0:0:0:
404,36,49921,6,0,L|408:212,1,160,2|0,0:0|0:0,0:0:0:0:
312,200,50740,1,0,0:0:0:0:
216,200,51012,6,0,L|77:120,1,160,4|0,0:0|0:0,0:0:0:0:
268,120,52103,2,0,L|406:40,1,160,4|0,0:0|0:0,0:0:0:0:
311,36,52921,1,0,0:0:0:0:
216,36,53194,6,0,L|212:204,1,160,2|0,0:0|0:0,0:0:0:0:
404,200,54285,2,0,L|408:368,1,160,2|0,0:0|0:0,0:0:0:0:
232,360,55376,6,0,L|152:360,2,80,2|0|0,0:0|0:0|0:0,0:0:0:0:
328,360,56194,2,0,P|409:347|456:288,1,160,2|0,0:0|0:0,0:0:0:0:
454,210,57012,1,0,0:0:0:0:
401,152,57284,1,0,0:0:0:0:
323,144,57558,6,0,L|168:192,1,160,4|0,0:0|0:0,0:0:0:0:
12,80,58649,2,0,L|167:32,1,160,2|0,0:0|0:0,0:0:0:0:
348,32,59740,6,0,B|508:32|508:32|508:192|508:192|348:192,1,480,2|0,0:0|0:0,0:0:0:0:
260,192,61649,1,0,0:0:0:0:
172,192,61921,5,4,0:0:0:0:
348,272,62467,2,0,L|488:192,2,160,0|2|0,0:0|0:0|0:0,0:0:0:0:
260,272,63831,1,0,0:0:0:0:
192,216,64103,5,2,0:0:0:0:
192,128,64376,1,0,0:0:0:0:
260,72,64649,1,2,0:0:0:0:
452,72,65194,1,2,0:0:0:0:
292,72,65740,1,0,0:0:0:0:
84,72,66285,6,0,L|88:240,1,160,2|0,0:0|0:0,0:0:0:0:
184,232,67103,1,0,0:0:0:0:
280,236,67376,2,0,L|436:192,1,160,2|0,0:0|0:0,0:0:0:0:
240,72,68467,6,0,P|256:168|432:284,1,320,2|0,0:0|0:0,0:0:0:0:
240,284,70103,2,0,L|80:284,1,160,2|4,0:0|0:0,0:0:0:0:
216,196,71194,5,0,0:0:0:0:
352,196,71740,2,0,L|356:32,1,160,2|0,0:0|0:0,0:0:0:0:
164,40,72831,6,0,P|8:184|164:332,1,480,2|0,0:0|0:0,0:0:0:0:
372,332,75012,6,0,L|212:332,1,160,4|0,0:0|0:0,0:0:0:0:
52,332,76103,2,0,L|212:332,1,160,2|0,0:0|0:0,0:0:0:0:
388,332,77194,5,2,0:0:0:0:
432,238,77466,1,0,0:0:0:0:
392,143,77739,1,0,0:0:0:0:
293,111,78012,1,0,0:0:0:0:
196,112,78285,2,0,L|188:280,1,160,2|2,0:0|0:0,0:0:0:0:
396,272,79376,6,0,L|256:192,1,160,2|0,0:0|0:0,0:0:0:0:
64,192,80467,2,0,L|204:112,1,160,2|0,0:0|0:0,0:0:0:0:
380,116,81558,6,0,P|340:232|236:272,1,240,2|0,0:0|0:0,0:0:0:0:
156,272,82649,2,0,L|296:192,1,160,2|0,0:0|0:0,0:0:0:0:
104,192,83740,6,0,L|244:112,1,160,2|0,0:0|0:0,0:0:0:0:
436,192,84831,1,2,0:0:0:0:
268,192,85376,1,0,0:0:0:0:
460,192,85921,6,0,P|464:108|416:48,1,160,2|0,0:0|0:0,0:0:0:0:
204,48,87012,2,0,P|200:132|248:192,1,160,2|0,0:0|0:0,0:0:0:0:
328,212,87831,1,0,0:0:0:0:
216,188,88103,6,0,P|120:159|64:35,1,240,4|8,0:0|0:0,0:0:0:0:
304,40,90628,6,0,L|308:192,1,151.999995941162,8|8,0:0|0:0,0:0:0:0:
144,192,91891,1,8,0:0:0:0:
368,192,92631,6,0,P|279:318|196:192,1,360.000013732911,8|2,0:0|0:0,0:0:0:0:
256,192,95289,12,0,98327,0:0:0:0:
