osu file format v14

[General]
AudioFilename: Astral Body.mp3
AudioLeadIn: 0
PreviewTime: 30448
Countdown: 0
SampleSet: None
StackLeniency: 0.7
Mode: 3
LetterboxInBreaks: 0
SpecialStyle: 0
WidescreenStoryboard: 0

[Editor]
DistanceSpacing: 0.8
BeatDivisor: 2
GridSize: 32
TimelineZoom: 1

[Metadata]
Title:Astral Body
TitleUnicode:Astral Body
Artist:Between The Buried And Me
ArtistUnicode:Between The Buried And Me
Creator:XeoStyle
Version:Self Dissection
Source:
Tags:progressive death metal metalcore deathcore The Parallax II Future Sequence Marathon
BeatmapID:1481482
BeatmapSetID:699659

[Difficulty]
HPDrainRate:8
CircleSize:4
OverallDifficulty:8
ApproachRate:5
SliderMultiplier:1.4
SliderTickRate:1

[Events]
//Background and Video events
0,0,"BG.jpg",0,0
//Break Periods
//Storyboard Layer 0 (Background)
//Storyboard Layer 1 (Fail)
//Storyboard Layer 2 (Pass)
//Storyboard Layer 3 (Foreground)
//Storyboard Sound Samples

[TimingPoints]
39,272.727273,4,3,0,15,1,0
39,-99.9999999,4,3,0,15,0,0
87312,285.714286,4,3,0,15,1,0
87312,-95.4545453590909,4,3,0,15,0,0
97883,272.727273,4,3,0,15,1,0
97883,-99.9999999,4,3,0,15,0,0
143701,285.714286,4,3,0,15,1,0
143701,-95.4545453590909,4,3,0,15,0,0
146558,300,4,3,0,15,1,0
146558,-90.9090909090909,4,3,0,15,0,0
147158,150,4,3,0,15,1,0
147158,-181.818181818182,4,3,0,15,0,0
147308,300,4,3,0,15,1,0
147308,-90.9090909090909,4,3,0,15,0,0
148208,150,4,3,0,15,1,0
148208,-181.818181818182,4,3,0,15,0,0
148358,300,4,3,0,15,1,0
148358,-90.9090909090909,4,3,0,15,0,0
149258,150,4,3,0,15,1,0
149258,-181.818181818182,4,3,0,15,0,0
149408,300,4,3,0,15,1,0
149408,-90.9090909090909,4,3,0,15,0,0
152708,150,4,3,0,15,1,0
152708,-181.818181818182,4,3,0,15,0,0
152858,300,4,3,0,15,1,0
152858,-90.9090909090909,4,3,0,15,0,0
157958,150,4,3,0,15,1,0
157958,-181.818181818182,4,3,0,15,0,0
158108,300,4,3,0,15,1,0
158108,-90.9090909090909,4,3,0,15,0,0
161408,150,4,3,0,15,1,0
161408,-181.818181818182,4,3,0,15,0,0
161558,300,4,3,0,15,1,0
161558,-90.9090909090909,4,3,0,15,0,0
162158,150,4,3,0,15,1,0
162158,-181.818181818182,4,3,0,15,0,0
162308,300,4,3,0,15,1,0
162308,-90.9090909090909,4,3,0,15,0,0
174608,150,4,3,0,15,1,0
174608,-181.818181818182,4,3,0,15,0,0
174758,300,4,3,0,15,1,0
174758,-90.9090909090909,4,3,0,15,0,0
190658,150,4,3,0,15,1,0
190658,-181.818181818182,4,3,0,15,0,0
190808,300,4,3,0,15,1,0
190808,-90.9090909090909,4,3,0,15,0,0
195908,310.077519,4,3,0,15,1,0
195908,-87.9545455622898,4,3,0,15,0,0
197149,306.905371,4,3,0,15,1,0
197149,-88.863636318464,4,3,0,15,0,0
198070,307.692308,4,3,0,15,1,0
198070,-88.6363635477273,4,3,0,15,0,0
227916,315.789474,4,3,0,15,1,0
227916,-86.3636362772727,4,3,0,15,0,0
231705,474.3083,4,3,0,15,1,0
231705,-57.5000000479167,4,3,0,15,0,0
232654,500,4,3,0,15,1,0
232654,-54.5454545454545,4,3,0,15,0,0
280654,571.428571,4,3,0,15,1,0
280654,-47.7272727630682,4,3,0,15,0,0

[HitObjects]
192,192,39,5,0,0:0:0:0:
320,192,175,1,0,0:0:0:0:
192,192,311,1,0,0:0:0:0:
448,192,448,1,0,0:0:0:0:
192,192,584,1,0,0:0:0:0:
320,192,720,1,0,0:0:0:0:
192,192,857,1,0,0:0:0:0:
64,192,993,1,0,0:0:0:0:
192,192,1129,1,0,0:0:0:0:
320,192,1266,1,0,0:0:0:0:
192,192,1402,1,0,0:0:0:0:
448,192,1539,1,0,0:0:0:0:
192,192,1675,1,0,0:0:0:0:
320,192,1811,1,0,0:0:0:0:
192,192,1948,1,0,0:0:0:0:
64,192,2084,1,0,0:0:0:0:
192,192,2220,1,0,0:0:0:0:
320,192,2357,1,0,0:0:0:0:
192,192,2493,1,0,0:0:0:0:
448,192,2629,1,0,0:0:0:0:
192,192,2766,1,0,0:0:0:0:
320,192,2902,1,0,0:0:0:0:
192,192,3039,1,0,0:0:0:0:
64,192,3175,1,0,0:0:0:0:
192,192,3311,1,0,0:0:0:0:
320,192,3448,1,0,0:0:0:0:
192,192,3584,1,0,0:0:0:0:
448,192,3720,1,0,0:0:0:0:
192,192,3857,1,0,0:0:0:0:
320,192,3993,1,0,0:0:0:0:
192,192,4129,1,0,0:0:0:0:
64,192,4266,1,0,0:0:0:0:
192,192,4402,1,0,0:0:0:0:
320,192,4539,1,0,0:0:0:0:
192,192,4675,1,0,0:0:0:0:
448,192,4811,1,0,0:0:0:0:
192,192,4948,1,0,0:0:0:0:
320,192,5084,1,0,0:0:0:0:
192,192,5220,1,0,0:0:0:0:
64,192,5357,1,0,0:0:0:0:
192,192,5493,1,0,0:0:0:0:
320,192,5629,1,0,0:0:0:0:
192,192,5766,1,0,0:0:0:0:
448,192,5902,1,0,0:0:0:0:
192,192,6039,1,0,0:0:0:0:
320,192,6175,1,0,0:0:0:0:
192,192,6311,1,0,0:0:0:0:
64,192,6448,1,0,0:0:0:0:
192,192,6584,1,0,0:0:0:0:
320,192,6720,1,0,0:0:0:0:
192,192,6857,1,0,0:0:0:0:
448,192,6993,1,0,0:0:0:0:
192,192,7129,1,0,0:0:0:0:
320,192,7266,1,0,0:0:0:0:
192,192,7402,1,0,0:0:0:0:
64,192,7539,1,0,0:0:0:0:
320,192,7675,1,0,0:0:0:0:
448,192,7675,1,0,0:0:0:0:
192,192,7720,1,0,0:0:0:0:
320,192,7811,1,0,0:0:0:0:
192,192,7948,1,0,0:0:0:0:
448,192,7948,1,0,0:0:0:0:
320,192,8084,1,0,0:0:0:0:
64,192,8220,1,0,0:0:0:0:
192,192,8220,1,0,0:0:0:0:
320,192,8266,1,0,0:0:0:0:
64,192,8357,1,0,0:0:0:0:
192,192,8357,1,0,0:0:0:0:
192,192,8493,1,0,0:0:0:0:
320,192,8493,1,0,0:0:0:0:
64,192,8629,1,0,0:0:0:0:
448,192,8629,128,0,8766:0:0:0:0:
192,192,8766,1,0,0:0:0:0:
320,192,8902,1,0,0:0:0:0:
192,192,9039,1,0,0:0:0:0:
448,192,9175,1,0,0:0:0:0:
64,192,9311,128,0,12175:0:0:0:0:
192,192,9311,128,0,12175:0:0:0:0:
320,192,9311,128,0,12175:0:0:0:0:
64,192,12311,1,0,0:0:0:0:
448,192,12311,1,0,0:0:0:0:
64,192,12448,1,0,0:0:0:0:
448,192,12448,1,0,0:0:0:0:
192,192,12584,1,0,0:0:0:0:
320,192,12720,1,0,0:0:0:0:
192,192,12857,1,0,0:0:0:0:
64,192,12993,1,0,0:0:0:0:
192,192,13129,128,0,13402:0:0:0:0:
320,192,13129,128,0,13402:0:0:0:0:
448,192,13129,128,0,13402:0:0:0:0:
64,192,13402,1,0,0:0:0:0:
448,192,13539,1,0,0:0:0:0:
192,192,13675,1,0,0:0:0:0:
320,192,13811,1,0,0:0:0:0:
192,192,13948,1,0,0:0:0:0:
64,192,14084,1,0,0:0:0:0:
192,192,14220,1,0,0:0:0:0:
320,192,14357,1,0,0:0:0:0:
192,192,14493,1,0,0:0:0:0:
448,192,14629,1,0,0:0:0:0:
192,192,14766,1,0,0:0:0:0:
320,192,14902,1,0,0:0:0:0:
192,192,15039,1,0,0:0:0:0:
64,192,15175,1,0,0:0:0:0:
192,192,15311,1,0,0:0:0:0:
320,192,15448,1,0,0:0:0:0:
192,192,15584,1,0,0:0:0:0:
448,192,15720,1,0,0:0:0:0:
64,192,15857,1,0,0:0:0:0:
192,192,15857,1,0,0:0:0:0:
64,192,15993,1,0,0:0:0:0:
448,192,15993,1,0,0:0:0:0:
320,192,16129,1,0,0:0:0:0:
192,192,16266,1,0,0:0:0:0:
448,192,16266,1,0,0:0:0:0:
192,192,16402,1,0,0:0:0:0:
320,192,16539,1,0,0:0:0:0:
64,192,16675,1,0,0:0:0:0:
448,192,16675,1,0,0:0:0:0:
64,192,16811,128,0,16948:0:0:0:0:
448,192,16811,128,0,16948:0:0:0:0:
192,192,16948,1,0,0:0:0:0:
320,192,17084,1,0,0:0:0:0:
192,192,17220,1,0,0:0:0:0:
64,192,17357,1,0,0:0:0:0:
192,192,17493,1,0,0:0:0:0:
320,192,17493,1,0,0:0:0:0:
448,192,17493,1,0,0:0:0:0:
192,192,17629,1,0,0:0:0:0:
320,192,17629,1,0,0:0:0:0:
448,192,17629,1,0,0:0:0:0:
64,192,17766,1,0,0:0:0:0:
192,192,17834,1,0,0:0:0:0:
64,192,17902,1,0,0:0:0:0:
320,192,17902,1,0,0:0:0:0:
448,192,17902,1,0,0:0:0:0:
64,192,18039,1,0,0:0:0:0:
320,192,18039,1,0,0:0:0:0:
448,192,18039,1,0,0:0:0:0:
192,192,18175,1,0,0:0:0:0:
320,192,18243,1,0,0:0:0:0:
64,192,18311,1,0,0:0:0:0:
192,192,18311,1,0,0:0:0:0:
448,192,18311,1,0,0:0:0:0:
64,192,18448,1,0,0:0:0:0:
192,192,18448,1,0,0:0:0:0:
448,192,18448,1,0,0:0:0:0:
64,192,18584,128,0,18720:0:0:0:0:
192,192,18584,128,0,18720:0:0:0:0:
448,192,18584,128,0,18720:0:0:0:0:
320,192,18720,1,0,0:0:0:0:
192,192,18857,1,0,0:0:0:0:
448,192,18993,1,0,0:0:0:0:
64,192,19129,1,0,0:0:0:0:
320,192,19129,1,0,0:0:0:0:
192,192,19198,1,0,0:0:0:0:
320,192,19266,1,0,0:0:0:0:
448,192,19266,1,0,0:0:0:0:
64,192,19402,1,0,0:0:0:0:
192,192,19402,1,0,0:0:0:0:
64,192,19539,1,0,0:0:0:0:
320,192,19539,1,0,0:0:0:0:
192,192,19675,1,0,0:0:0:0:
320,192,19675,1,0,0:0:0:0:
448,192,19675,1,0,0:0:0:0:
192,192,19811,128,0,19948:0:0:0:0:
448,192,19811,1,0,0:0:0:0:
64,192,19948,1,0,0:0:0:0:
448,192,20084,1,0,0:0:0:0:
192,192,20220,1,0,0:0:0:0:
320,192,20357,1,0,0:0:0:0:
192,192,20493,1,0,0:0:0:0:
64,192,20629,1,0,0:0:0:0:
64,192,20766,1,0,0:0:0:0:
192,192,20766,1,0,0:0:0:0:
320,192,20811,1,0,0:0:0:0:
192,192,20902,1,0,0:0:0:0:
64,192,21039,1,0,0:0:0:0:
320,192,21039,1,0,0:0:0:0:
192,192,21175,1,0,0:0:0:0:
320,192,21311,1,0,0:0:0:0:
448,192,21311,1,0,0:0:0:0:
192,192,21357,1,0,0:0:0:0:
320,192,21448,1,0,0:0:0:0:
448,192,21448,1,0,0:0:0:0:
192,192,21584,1,0,0:0:0:0:
320,192,21584,1,0,0:0:0:0:
64,192,21720,128,0,21857:0:0:0:0:
448,192,21720,1,0,0:0:0:0:
192,192,21857,1,0,0:0:0:0:
320,192,21993,1,0,0:0:0:0:
192,192,22129,1,0,0:0:0:0:
448,192,22266,1,0,0:0:0:0:
64,192,22402,128,0,23357:0:0:0:0:
192,192,22402,128,0,23357:0:0:0:0:
320,192,22402,128,0,23357:0:0:0:0:
448,192,22948,1,0,0:0:0:0:
64,192,23493,128,0,23902:0:0:0:0:
320,192,23493,128,0,23902:0:0:0:0:
448,192,23493,128,0,23902:0:0:0:0:
192,192,24039,128,0,25402:0:0:0:0:
320,192,24039,128,0,25402:0:0:0:0:
448,192,24039,128,0,25402:0:0:0:0:
64,192,24448,1,0,0:0:0:0:
64,192,24720,1,0,0:0:0:0:
64,192,24993,1,0,0:0:0:0:
64,192,25129,1,0,0:0:0:0:
64,192,25402,1,0,0:0:0:0:
320,192,25539,1,0,0:0:0:0:
64,192,25675,1,0,0:0:0:0:
448,192,25675,1,0,0:0:0:0:
192,192,25709,1,0,0:0:0:0:
64,192,25948,1,0,0:0:0:0:
320,192,25948,1,0,0:0:0:0:
64,192,26220,128,0,27448:0:0:0:0:
192,192,26220,128,0,27448:0:0:0:0:
448,192,26220,128,0,27448:0:0:0:0:
320,192,26629,1,0,0:0:0:0:
320,192,26902,1,0,0:0:0:0:
320,192,27175,1,0,0:0:0:0:
320,192,27311,1,0,0:0:0:0:
320,192,27584,1,0,0:0:0:0:
448,192,27584,1,0,0:0:0:0:
320,192,27720,1,0,0:0:0:0:
64,192,27857,1,0,0:0:0:0:
192,192,27857,1,0,0:0:0:0:
64,192,27993,1,0,0:0:0:0:
192,192,27993,1,0,0:0:0:0:
320,192,28129,1,0,0:0:0:0:
448,192,28129,1,0,0:0:0:0:
448,192,28266,1,0,0:0:0:0:
64,192,28402,1,0,0:0:0:0:
192,192,28402,128,0,28675:0:0:0:0:
320,192,28402,128,0,28675:0:0:0:0:
64,192,28675,1,0,0:0:0:0:
448,192,28675,1,0,0:0:0:0:
320,192,28811,1,0,0:0:0:0:
64,192,28948,1,0,0:0:0:0:
192,192,28948,1,0,0:0:0:0:
448,192,28948,1,0,0:0:0:0:
320,192,29084,1,0,0:0:0:0:
192,192,29220,1,0,0:0:0:0:
448,192,29220,1,0,0:0:0:0:
192,192,29357,1,0,0:0:0:0:
64,192,29493,128,0,29766:0:0:0:0:
320,192,29493,1,0,0:0:0:0:
448,192,29493,128,0,29766:0:0:0:0:
192,192,29766,1,0,0:0:0:0:
320,192,29766,1,0,0:0:0:0:
448,192,29902,1,0,0:0:0:0:
64,192,30039,1,0,0:0:0:0:
192,192,30039,1,0,0:0:0:0:
320,192,30039,1,0,0:0:0:0:
448,192,30175,1,0,0:0:0:0:
64,192,30311,1,0,0:0:0:0:
192,192,30311,1,0,0:0:0:0:
64,192,30448,1,0,0:0:0:0:
192,192,30584,128,0,32357:0:0:0:0:
320,192,30584,128,0,32357:0:0:0:0:
448,192,30584,128,0,32357:0:0:0:0:
64,192,32493,1,0,0:0:0:0:
320,192,32493,1,0,0:0:0:0:
448,192,32493,1,0,0:0:0:0:
64,192,32629,1,0,0:0:0:0:
320,192,32629,1,0,0:0:0:0:
448,192,32629,1,0,0:0:0:0:
192,192,32766,1,0,0:0:0:0:
320,192,32902,1,0,0:0:0:0:
64,192,33039,128,0,33311:0:0:0:0:
192,192,33039,128,0,33311:0:0:0:0:
448,192,33039,128,0,33311:0:0:0:0:
320,192,33311,1,0,0:0:0:0:
448,192,33448,1,0,0:0:0:0:
192,192,33584,1,0,0:0:0:0:
64,192,33720,1,0,0:0:0:0:
192,192,33857,1,0,0:0:0:0:
320,192,33993,1,0,0:0:0:0:
192,192,34129,1,0,0:0:0:0:
448,192,34266,1,0,0:0:0:0:
192,192,34402,1,0,0:0:0:0:
320,192,34539,1,0,0:0:0:0:
64,192,34675,1,0,0:0:0:0:
192,192,34743,1,0,0:0:0:0:
64,192,34811,1,0,0:0:0:0:
320,192,34811,1,0,0:0:0:0:
448,192,34948,1,0,0:0:0:0:
192,192,35084,1,0,0:0:0:0:
64,192,35152,1,0,0:0:0:0:
320,192,35220,1,0,0:0:0:0:
448,192,35220,1,0,0:0:0:0:
64,192,35357,1,0,0:0:0:0:
192,192,35493,1,0,0:0:0:0:
320,192,35561,1,0,0:0:0:0:
64,192,35629,128,0,35766:0:0:0:0:
448,192,35629,128,0,35766:0:0:0:0:
192,192,35766,1,0,0:0:0:0:
64,192,35902,1,0,0:0:0:0:
192,192,36039,1,0,0:0:0:0:
320,192,36175,1,0,0:0:0:0:
64,192,36311,1,0,0:0:0:0:
448,192,36311,1,0,0:0:0:0:
192,192,36379,1,0,0:0:0:0:
320,192,36448,1,0,0:0:0:0:
448,192,36448,1,0,0:0:0:0:
64,192,36584,1,0,0:0:0:0:
320,192,36584,1,0,0:0:0:0:
64,192,36720,1,0,0:0:0:0:
192,192,36720,1,0,0:0:0:0:
320,192,36857,1,0,0:0:0:0:
448,192,36857,1,0,0:0:0:0:
192,192,36993,1,0,0:0:0:0:
448,192,36993,1,0,0:0:0:0:
64,192,37129,128,0,37266:0:0:0:0:
192,192,37129,128,0,37266:0:0:0:0:
320,192,37129,128,0,37266:0:0:0:0:
192,192,37402,1,0,0:0:0:0:
448,192,37539,1,0,0:0:0:0:
192,192,37675,1,0,0:0:0:0:
320,192,37811,1,0,0:0:0:0:
192,192,37948,1,0,0:0:0:0:
64,192,38084,1,0,0:0:0:0:
320,192,38220,1,0,0:0:0:0:
448,192,38220,1,0,0:0:0:0:
192,192,38266,1,0,0:0:0:0:
320,192,38357,1,0,0:0:0:0:
64,192,38493,1,0,0:0:0:0:
448,192,38493,1,0,0:0:0:0:
320,192,38629,1,0,0:0:0:0:
64,192,38766,1,0,0:0:0:0:
192,192,38766,1,0,0:0:0:0:
320,192,38811,1,0,0:0:0:0:
64,192,38902,1,0,0:0:0:0:
192,192,38902,1,0,0:0:0:0:
192,192,39039,1,0,0:0:0:0:
448,192,39039,1,0,0:0:0:0:
64,192,39175,1,0,0:0:0:0:
320,192,39175,1,0,0:0:0:0:
192,192,39311,1,0,0:0:0:0:
320,192,39448,1,0,0:0:0:0:
192,192,39584,1,0,0:0:0:0:
448,192,39720,1,0,0:0:0:0:
64,192,39857,128,0,40811:0:0:0:0:
192,192,39857,128,0,40811:0:0:0:0:
320,192,39857,128,0,40811:0:0:0:0:
448,192,40402,1,0,0:0:0:0:
64,192,40948,128,0,41357:0:0:0:0:
192,192,40948,128,0,41357:0:0:0:0:
448,192,40948,128,0,41357:0:0:0:0:
64,192,41493,128,0,42857:0:0:0:0:
320,192,41493,128,0,42857:0:0:0:0:
448,192,41493,128,0,42857:0:0:0:0:
192,192,41902,1,0,0:0:0:0:
192,192,42175,1,0,0:0:0:0:
192,192,42448,1,0,0:0:0:0:
192,192,42584,1,0,0:0:0:0:
192,192,42857,1,0,0:0:0:0:
448,192,42993,1,0,0:0:0:0:
64,192,43129,1,0,0:0:0:0:
192,192,43129,1,0,0:0:0:0:
192,192,43402,1,0,0:0:0:0:
448,192,43402,1,0,0:0:0:0:
64,192,43675,128,0,44902:0:0:0:0:
192,192,43675,128,0,44902:0:0:0:0:
448,192,43675,128,0,44902:0:0:0:0:
320,192,44084,1,0,0:0:0:0:
320,192,44357,1,0,0:0:0:0:
320,192,44629,1,0,0:0:0:0:
320,192,44766,1,0,0:0:0:0:
64,192,45039,1,0,0:0:0:0:
448,192,45039,1,0,0:0:0:0:
320,192,45107,1,0,0:0:0:0:
64,192,45175,1,0,0:0:0:0:
192,192,45175,1,0,0:0:0:0:
192,192,45311,1,0,0:0:0:0:
320,192,45311,1,0,0:0:0:0:
320,192,45448,1,0,0:0:0:0:
448,192,45448,1,0,0:0:0:0:
64,192,45584,1,0,0:0:0:0:
192,192,45584,1,0,0:0:0:0:
64,192,45720,1,0,0:0:0:0:
192,192,45857,128,0,46129:0:0:0:0:
320,192,45857,128,0,46129:0:0:0:0:
448,192,45857,1,0,0:0:0:0:
64,192,46129,1,0,0:0:0:0:
448,192,46129,1,0,0:0:0:0:
192,192,46266,1,0,0:0:0:0:
64,192,46402,1,0,0:0:0:0:
320,192,46402,1,0,0:0:0:0:
448,192,46402,1,0,0:0:0:0:
192,192,46539,1,0,0:0:0:0:
64,192,46675,1,0,0:0:0:0:
320,192,46675,1,0,0:0:0:0:
320,192,46811,1,0,0:0:0:0:
64,192,46948,128,0,47220:0:0:0:0:
192,192,46948,1,0,0:0:0:0:
448,192,46948,128,0,47220:0:0:0:0:
192,192,47220,1,0,0:0:0:0:
320,192,47220,1,0,0:0:0:0:
64,192,47357,1,0,0:0:0:0:
192,192,47493,1,0,0:0:0:0:
320,192,47493,1,0,0:0:0:0:
448,192,47493,1,0,0:0:0:0:
64,192,47629,1,0,0:0:0:0:
320,192,47766,1,0,0:0:0:0:
448,192,47766,1,0,0:0:0:0:
448,192,47902,1,0,0:0:0:0:
64,192,48039,128,0,48720:0:0:0:0:
192,192,48039,128,0,48720:0:0:0:0:
320,192,48039,128,0,48720:0:0:0:0:
64,192,48857,1,0,0:0:0:0:
448,192,48857,1,0,0:0:0:0:
192,192,48925,1,0,0:0:0:0:
320,192,48993,1,0,0:0:0:0:
448,192,48993,1,0,0:0:0:0:
192,192,49129,1,0,0:0:0:0:
320,192,49129,1,0,0:0:0:0:
64,192,49266,1,0,0:0:0:0:
192,192,49266,1,0,0:0:0:0:
320,192,49402,1,0,0:0:0:0:
448,192,49402,1,0,0:0:0:0:
448,192,49539,1,0,0:0:0:0:
64,192,49675,1,0,0:0:0:0:
192,192,49675,1,0,0:0:0:0:
320,192,49675,1,0,0:0:0:0:
192,192,49811,1,0,0:0:0:0:
64,192,49948,1,0,0:0:0:0:
320,192,49948,1,0,0:0:0:0:
448,192,49948,1,0,0:0:0:0:
320,192,50084,1,0,0:0:0:0:
64,192,50220,1,0,0:0:0:0:
192,192,50220,1,0,0:0:0:0:
448,192,50220,1,0,0:0:0:0:
64,192,50357,1,0,0:0:0:0:
192,192,50357,1,0,0:0:0:0:
320,192,50425,1,0,0:0:0:0:
448,192,50425,1,0,0:0:0:0:
64,192,50493,1,0,0:0:0:0:
192,192,50493,1,0,0:0:0:0:
320,192,50629,1,0,0:0:0:0:
448,192,50629,1,0,0:0:0:0:
64,192,50766,1,0,0:0:0:0:
192,192,50766,1,0,0:0:0:0:
320,192,50766,1,0,0:0:0:0:
448,192,50902,1,0,0:0:0:0:
320,192,50970,1,0,0:0:0:0:
192,192,51039,1,0,0:0:0:0:
448,192,51039,1,0,0:0:0:0:
64,192,51175,1,0,0:0:0:0:
192,192,51175,1,0,0:0:0:0:
64,192,51311,1,0,0:0:0:0:
320,192,51311,1,0,0:0:0:0:
448,192,51311,1,0,0:0:0:0:
192,192,51448,1,0,0:0:0:0:
320,192,51516,1,0,0:0:0:0:
64,192,51584,1,0,0:0:0:0:
448,192,51584,1,0,0:0:0:0:
64,192,51720,1,0,0:0:0:0:
192,192,51720,1,0,0:0:0:0:
192,192,51857,1,0,0:0:0:0:
320,192,51857,1,0,0:0:0:0:
448,192,51857,1,0,0:0:0:0:
320,192,51993,1,0,0:0:0:0:
64,192,52061,1,0,0:0:0:0:
192,192,52129,1,0,0:0:0:0:
448,192,52129,1,0,0:0:0:0:
64,192,52266,1,0,0:0:0:0:
448,192,52266,1,0,0:0:0:0:
64,192,52402,128,0,53902:0:0:0:0:
192,192,52402,128,0,53902:0:0:0:0:
320,192,52402,128,0,53902:0:0:0:0:
448,192,52948,1,0,0:0:0:0:
448,192,53493,1,0,0:0:0:0:
64,192,54039,128,0,54448:0:0:0:0:
320,192,54039,128,0,54448:0:0:0:0:
448,192,54039,128,0,54448:0:0:0:0:
192,192,54584,128,0,54789:0:0:0:0:
320,192,54584,128,0,54789:0:0:0:0:
448,192,54584,128,0,54789:0:0:0:0:
320,192,54857,1,0,0:0:0:0:
448,192,54857,1,0,0:0:0:0:
320,192,54993,1,0,0:0:0:0:
448,192,54993,1,0,0:0:0:0:
192,192,55129,1,0,0:0:0:0:
320,192,55266,1,0,0:0:0:0:
64,192,55402,1,0,0:0:0:0:
448,192,55402,1,0,0:0:0:0:
64,192,55539,1,0,0:0:0:0:
320,192,55675,1,0,0:0:0:0:
448,192,55675,1,0,0:0:0:0:
192,192,55811,1,0,0:0:0:0:
64,192,55948,1,0,0:0:0:0:
448,192,55948,1,0,0:0:0:0:
448,192,56084,1,0,0:0:0:0:
64,192,56220,1,0,0:0:0:0:
192,192,56220,1,0,0:0:0:0:
64,192,56493,1,0,0:0:0:0:
320,192,56493,1,0,0:0:0:0:
64,192,56766,128,0,57993:0:0:0:0:
192,192,56766,128,0,57993:0:0:0:0:
448,192,56766,128,0,57993:0:0:0:0:
320,192,57175,1,0,0:0:0:0:
320,192,57448,1,0,0:0:0:0:
320,192,57720,1,0,0:0:0:0:
320,192,57857,1,0,0:0:0:0:
64,192,58129,1,0,0:0:0:0:
448,192,58129,1,0,0:0:0:0:
320,192,58198,1,0,0:0:0:0:
64,192,58266,1,0,0:0:0:0:
192,192,58266,1,0,0:0:0:0:
192,192,58402,1,0,0:0:0:0:
448,192,58402,1,0,0:0:0:0:
64,192,58539,1,0,0:0:0:0:
448,192,58539,1,0,0:0:0:0:
192,192,58675,1,0,0:0:0:0:
320,192,58675,1,0,0:0:0:0:
192,192,58811,1,0,0:0:0:0:
64,192,58948,128,0,59220:0:0:0:0:
320,192,58948,128,0,59220:0:0:0:0:
448,192,58948,1,0,0:0:0:0:
192,192,59220,1,0,0:0:0:0:
448,192,59220,1,0,0:0:0:0:
320,192,59357,1,0,0:0:0:0:
64,192,59493,1,0,0:0:0:0:
192,192,59493,1,0,0:0:0:0:
448,192,59493,1,0,0:0:0:0:
320,192,59629,1,0,0:0:0:0:
192,192,59766,1,0,0:0:0:0:
448,192,59766,1,0,0:0:0:0:
192,192,59902,1,0,0:0:0:0:
64,192,60039,1,0,0:0:0:0:
320,192,60039,1,0,0:0:0:0:
448,192,60039,1,0,0:0:0:0:
192,192,60175,1,0,0:0:0:0:
192,192,60311,1,0,0:0:0:0:
320,192,60311,1,0,0:0:0:0:
320,192,60448,1,0,0:0:0:0:
448,192,60448,1,0,0:0:0:0:
64,192,60584,1,0,0:0:0:0:
448,192,60584,1,0,0:0:0:0:
64,192,60720,1,0,0:0:0:0:
320,192,60720,1,0,0:0:0:0:
192,192,60857,1,0,0:0:0:0:
320,192,60857,1,0,0:0:0:0:
192,192,60993,1,0,0:0:0:0:
448,192,60993,1,0,0:0:0:0:
192,192,61129,1,0,0:0:0:0:
320,192,61129,1,0,0:0:0:0:
448,192,61129,1,0,0:0:0:0:
64,192,61266,1,0,0:0:0:0:
320,192,61402,1,0,0:0:0:0:
192,192,61539,1,0,0:0:0:0:
64,192,61675,1,0,0:0:0:0:
192,192,61675,1,0,0:0:0:0:
448,192,61675,1,0,0:0:0:0:
320,192,61811,1,0,0:0:0:0:
64,192,61948,1,0,0:0:0:0:
192,192,62084,1,0,0:0:0:0:
448,192,62084,1,0,0:0:0:0:
192,192,62220,1,0,0:0:0:0:
320,192,62357,1,0,0:0:0:0:
192,192,62493,1,0,0:0:0:0:
320,192,62629,1,0,0:0:0:0:
448,192,62629,1,0,0:0:0:0:
64,192,62766,1,0,0:0:0:0:
192,192,62902,1,0,0:0:0:0:
64,192,63039,1,0,0:0:0:0:
320,192,63039,1,0,0:0:0:0:
192,192,63175,1,0,0:0:0:0:
320,192,63175,1,0,0:0:0:0:
448,192,63175,1,0,0:0:0:0:
64,192,63311,1,0,0:0:0:0:
448,192,63448,1,0,0:0:0:0:
192,192,63584,1,0,0:0:0:0:
320,192,63720,1,0,0:0:0:0:
64,192,63857,1,0,0:0:0:0:
320,192,63857,1,0,0:0:0:0:
448,192,63857,1,0,0:0:0:0:
192,192,63993,1,0,0:0:0:0:
320,192,64129,1,0,0:0:0:0:
64,192,64266,1,0,0:0:0:0:
448,192,64266,1,0,0:0:0:0:
64,192,64402,1,0,0:0:0:0:
448,192,64539,1,0,0:0:0:0:
192,192,64675,1,0,0:0:0:0:
64,192,64811,1,0,0:0:0:0:
320,192,64811,1,0,0:0:0:0:
448,192,64948,1,0,0:0:0:0:
192,192,65084,1,0,0:0:0:0:
320,192,65220,1,0,0:0:0:0:
448,192,65220,1,0,0:0:0:0:
64,192,65357,1,0,0:0:0:0:
192,192,65357,1,0,0:0:0:0:
448,192,65357,1,0,0:0:0:0:
320,192,65493,1,0,0:0:0:0:
192,192,65629,1,0,0:0:0:0:
64,192,65766,1,0,0:0:0:0:
448,192,65902,1,0,0:0:0:0:
64,192,66039,1,0,0:0:0:0:
320,192,66039,1,0,0:0:0:0:
448,192,66039,1,0,0:0:0:0:
192,192,66175,1,0,0:0:0:0:
320,192,66311,1,0,0:0:0:0:
64,192,66448,1,0,0:0:0:0:
448,192,66448,1,0,0:0:0:0:
64,192,66584,1,0,0:0:0:0:
320,192,66720,1,0,0:0:0:0:
192,192,66857,1,0,0:0:0:0:
64,192,66993,1,0,0:0:0:0:
448,192,66993,1,0,0:0:0:0:
320,192,67129,1,0,0:0:0:0:
64,192,67266,1,0,0:0:0:0:
192,192,67402,1,0,0:0:0:0:
448,192,67402,1,0,0:0:0:0:
64,192,67539,1,0,0:0:0:0:
320,192,67539,1,0,0:0:0:0:
448,192,67539,1,0,0:0:0:0:
192,192,67675,1,0,0:0:0:0:
320,192,67811,1,0,0:0:0:0:
64,192,67948,1,0,0:0:0:0:
448,192,68084,1,0,0:0:0:0:
64,192,68220,1,0,0:0:0:0:
192,192,68220,1,0,0:0:0:0:
448,192,68220,1,0,0:0:0:0:
320,192,68357,1,0,0:0:0:0:
192,192,68493,1,0,0:0:0:0:
192,192,68629,1,0,0:0:0:0:
448,192,68629,1,0,0:0:0:0:
320,192,68766,1,0,0:0:0:0:
64,192,68902,1,0,0:0:0:0:
448,192,68970,1,0,0:0:0:0:
64,192,69039,1,0,0:0:0:0:
320,192,69175,1,0,0:0:0:0:
448,192,69175,1,0,0:0:0:0:
64,192,69311,1,0,0:0:0:0:
192,192,69311,1,0,0:0:0:0:
320,192,69448,1,0,0:0:0:0:
448,192,69448,1,0,0:0:0:0:
64,192,69584,1,0,0:0:0:0:
192,192,69720,1,0,0:0:0:0:
64,192,69857,1,0,0:0:0:0:
320,192,69857,1,0,0:0:0:0:
448,192,69857,1,0,0:0:0:0:
192,192,69993,1,0,0:0:0:0:
448,192,70129,1,0,0:0:0:0:
64,192,70266,1,0,0:0:0:0:
320,192,70266,1,0,0:0:0:0:
64,192,70402,1,0,0:0:0:0:
192,192,70402,1,0,0:0:0:0:
448,192,70402,1,0,0:0:0:0:
320,192,70539,1,0,0:0:0:0:
192,192,70675,1,0,0:0:0:0:
448,192,70811,1,0,0:0:0:0:
64,192,70948,1,0,0:0:0:0:
320,192,70948,1,0,0:0:0:0:
192,192,71084,1,0,0:0:0:0:
448,192,71220,1,0,0:0:0:0:
64,192,71357,1,0,0:0:0:0:
192,192,71357,1,0,0:0:0:0:
64,192,71493,1,0,0:0:0:0:
320,192,71493,1,0,0:0:0:0:
448,192,71493,1,0,0:0:0:0:
192,192,71629,1,0,0:0:0:0:
320,192,71766,1,0,0:0:0:0:
448,192,71902,1,0,0:0:0:0:
64,192,72039,1,0,0:0:0:0:
192,192,72039,1,0,0:0:0:0:
320,192,72175,1,0,0:0:0:0:
192,192,72311,1,0,0:0:0:0:
64,192,72448,1,0,0:0:0:0:
448,192,72448,1,0,0:0:0:0:
192,192,72584,1,0,0:0:0:0:
320,192,72584,1,0,0:0:0:0:
448,192,72584,1,0,0:0:0:0:
64,192,72720,1,0,0:0:0:0:
320,192,72857,1,0,0:0:0:0:
192,192,72993,1,0,0:0:0:0:
320,192,73129,1,0,0:0:0:0:
448,192,73129,1,0,0:0:0:0:
64,192,73266,1,0,0:0:0:0:
192,192,73402,1,0,0:0:0:0:
64,192,73539,1,0,0:0:0:0:
320,192,73539,1,0,0:0:0:0:
64,192,73675,1,0,0:0:0:0:
192,192,73675,1,0,0:0:0:0:
448,192,73675,1,0,0:0:0:0:
320,192,73811,1,0,0:0:0:0:
192,192,73948,1,0,0:0:0:0:
448,192,74084,1,0,0:0:0:0:
64,192,74220,1,0,0:0:0:0:
320,192,74220,1,0,0:0:0:0:
192,192,74357,1,0,0:0:0:0:
320,192,74493,1,0,0:0:0:0:
64,192,74629,1,0,0:0:0:0:
448,192,74629,1,0,0:0:0:0:
64,192,74766,1,0,0:0:0:0:
192,192,74766,1,0,0:0:0:0:
320,192,74766,1,0,0:0:0:0:
448,192,74902,1,0,0:0:0:0:
192,192,75039,1,0,0:0:0:0:
320,192,75175,1,0,0:0:0:0:
64,192,75311,1,0,0:0:0:0:
192,192,75311,1,0,0:0:0:0:
448,192,75448,1,0,0:0:0:0:
320,192,75584,1,0,0:0:0:0:
64,192,75720,1,0,0:0:0:0:
192,192,75720,1,0,0:0:0:0:
64,192,75857,1,0,0:0:0:0:
320,192,75857,1,0,0:0:0:0:
448,192,75857,1,0,0:0:0:0:
192,192,75993,1,0,0:0:0:0:
448,192,76129,1,0,0:0:0:0:
64,192,76266,1,0,0:0:0:0:
192,192,76402,1,0,0:0:0:0:
448,192,76402,1,0,0:0:0:0:
320,192,76539,1,0,0:0:0:0:
192,192,76675,1,0,0:0:0:0:
64,192,76811,1,0,0:0:0:0:
320,192,76811,1,0,0:0:0:0:
64,192,76948,1,0,0:0:0:0:
192,192,76948,1,0,0:0:0:0:
448,192,76948,1,0,0:0:0:0:
320,192,77084,1,0,0:0:0:0:
192,192,77220,1,0,0:0:0:0:
448,192,77357,1,0,0:0:0:0:
64,192,77493,1,0,0:0:0:0:
320,192,77493,1,0,0:0:0:0:
192,192,77629,1,0,0:0:0:0:
320,192,77698,1,0,0:0:0:0:
64,192,77766,1,0,0:0:0:0:
192,192,77766,1,0,0:0:0:0:
320,192,77902,1,0,0:0:0:0:
448,192,77902,1,0,0:0:0:0:
64,192,78039,1,0,0:0:0:0:
192,192,78039,1,0,0:0:0:0:
320,192,78175,1,0,0:0:0:0:
448,192,78175,1,0,0:0:0:0:
64,192,78311,1,0,0:0:0:0:
192,192,78311,1,0,0:0:0:0:
320,192,78448,1,0,0:0:0:0:
448,192,78448,1,0,0:0:0:0:
64,192,78584,1,0,0:0:0:0:
192,192,78584,1,0,0:0:0:0:
448,192,78584,1,0,0:0:0:0:
64,192,78720,1,0,0:0:0:0:
320,192,78720,1,0,0:0:0:0:
192,192,78857,1,0,0:0:0:0:
320,192,78857,1,0,0:0:0:0:
192,192,78993,1,0,0:0:0:0:
448,192,78993,1,0,0:0:0:0:
64,192,79129,1,0,0:0:0:0:
320,192,79129,1,0,0:0:0:0:
448,192,79129,1,0,0:0:0:0:
64,192,79266,1,0,0:0:0:0:
192,192,79266,1,0,0:0:0:0:
192,192,79402,1,0,0:0:0:0:
448,192,79402,1,0,0:0:0:0:
64,192,79539,1,0,0:0:0:0:
448,192,79539,1,0,0:0:0:0:
192,192,79675,1,0,0:0:0:0:
320,192,79675,1,0,0:0:0:0:
64,192,79811,1,0,0:0:0:0:
192,192,79811,1,0,0:0:0:0:
64,192,79948,1,0,0:0:0:0:
320,192,79948,1,0,0:0:0:0:
192,192,80084,1,0,0:0:0:0:
320,192,80084,1,0,0:0:0:0:
64,192,80220,1,0,0:0:0:0:
192,192,80220,1,0,0:0:0:0:
448,192,80220,1,0,0:0:0:0:
320,192,80357,1,0,0:0:0:0:
448,192,80357,1,0,0:0:0:0:
64,192,80493,1,0,0:0:0:0:
320,192,80493,1,0,0:0:0:0:
64,192,80629,1,0,0:0:0:0:
448,192,80629,1,0,0:0:0:0:
192,192,80766,1,0,0:0:0:0:
320,192,80766,1,0,0:0:0:0:
64,192,80902,1,0,0:0:0:0:
320,192,80902,1,0,0:0:0:0:
64,192,81039,1,0,0:0:0:0:
192,192,81039,1,0,0:0:0:0:
192,192,81175,1,0,0:0:0:0:
448,192,81175,1,0,0:0:0:0:
64,192,81311,1,0,0:0:0:0:
320,192,81311,1,0,0:0:0:0:
448,192,81311,1,0,0:0:0:0:
192,192,81448,1,0,0:0:0:0:
320,192,81448,1,0,0:0:0:0:
192,192,81584,1,0,0:0:0:0:
448,192,81584,1,0,0:0:0:0:
320,192,81720,1,0,0:0:0:0:
448,192,81720,1,0,0:0:0:0:
64,192,81857,1,0,0:0:0:0:
192,192,81857,1,0,0:0:0:0:
64,192,81993,1,0,0:0:0:0:
448,192,81993,1,0,0:0:0:0:
192,192,82129,1,0,0:0:0:0:
448,192,82129,1,0,0:0:0:0:
192,192,82266,1,0,0:0:0:0:
320,192,82266,1,0,0:0:0:0:
64,192,82402,1,0,0:0:0:0:
320,192,82402,1,0,0:0:0:0:
448,192,82402,1,0,0:0:0:0:
64,192,82539,1,0,0:0:0:0:
192,192,82539,1,0,0:0:0:0:
192,192,82675,1,0,0:0:0:0:
448,192,82675,1,0,0:0:0:0:
64,192,82811,1,0,0:0:0:0:
448,192,82811,1,0,0:0:0:0:
192,192,82948,1,0,0:0:0:0:
320,192,82948,1,0,0:0:0:0:
192,192,83084,1,0,0:0:0:0:
448,192,83084,1,0,0:0:0:0:
320,192,83220,1,0,0:0:0:0:
448,192,83220,1,0,0:0:0:0:
64,192,83357,1,0,0:0:0:0:
320,192,83357,1,0,0:0:0:0:
64,192,83493,1,0,0:0:0:0:
192,192,83493,1,0,0:0:0:0:
448,192,83493,1,0,0:0:0:0:
320,192,83629,1,0,0:0:0:0:
448,192,83629,1,0,0:0:0:0:
64,192,83766,1,0,0:0:0:0:
320,192,83766,1,0,0:0:0:0:
64,192,83902,1,0,0:0:0:0:
448,192,83902,1,0,0:0:0:0:
192,192,84039,1,0,0:0:0:0:
320,192,84039,1,0,0:0:0:0:
64,192,84175,1,0,0:0:0:0:
320,192,84175,1,0,0:0:0:0:
64,192,84311,1,0,0:0:0:0:
448,192,84311,1,0,0:0:0:0:
192,192,84448,1,0,0:0:0:0:
448,192,84448,1,0,0:0:0:0:
64,192,84584,1,0,0:0:0:0:
192,192,84584,1,0,0:0:0:0:
320,192,84584,1,0,0:0:0:0:
64,192,84720,1,0,0:0:0:0:
448,192,84720,1,0,0:0:0:0:
192,192,84857,1,0,0:0:0:0:
448,192,84857,1,0,0:0:0:0:
192,192,84993,1,0,0:0:0:0:
320,192,84993,1,0,0:0:0:0:
64,192,85129,1,0,0:0:0:0:
448,192,85129,1,0,0:0:0:0:
192,192,85266,1,0,0:0:0:0:
448,192,85266,1,0,0:0:0:0:
192,192,85402,1,0,0:0:0:0:
320,192,85402,1,0,0:0:0:0:
64,192,85539,1,0,0:0:0:0:
320,192,85539,1,0,0:0:0:0:
64,192,85675,1,0,0:0:0:0:
192,192,85675,1,0,0:0:0:0:
448,192,85675,1,0,0:0:0:0:
192,192,85811,1,0,0:0:0:0:
320,192,85811,1,0,0:0:0:0:
64,192,85948,1,0,0:0:0:0:
320,192,85948,1,0,0:0:0:0:
64,192,86084,1,0,0:0:0:0:
192,192,86084,1,0,0:0:0:0:
320,192,86220,1,0,0:0:0:0:
448,192,86220,1,0,0:0:0:0:
192,192,86357,1,0,0:0:0:0:
320,192,86357,1,0,0:0:0:0:
64,192,86493,1,0,0:0:0:0:
192,192,86493,1,0,0:0:0:0:
320,192,86629,1,0,0:0:0:0:
448,192,86629,1,0,0:0:0:0:
64,192,86766,1,0,0:0:0:0:
192,192,86766,1,0,0:0:0:0:
320,192,86902,1,0,0:0:0:0:
448,192,86902,1,0,0:0:0:0:
64,192,87039,1,0,0:0:0:0:
192,192,87039,1,0,0:0:0:0:
320,192,87175,1,0,0:0:0:0:
448,192,87175,1,0,0:0:0:0:
64,192,87312,1,0,0:0:0:0:
192,192,87312,1,0,0:0:0:0:
320,192,87454,1,0,0:0:0:0:
448,192,87597,1,0,0:0:0:0:
64,192,87740,1,0,0:0:0:0:
320,192,87883,1,0,0:0:0:0:
448,192,87883,1,0,0:0:0:0:
320,192,88026,1,0,0:0:0:0:
448,192,88026,1,0,0:0:0:0:
64,192,88169,128,0,88454:0:0:0:0:
448,192,88169,1,0,0:0:0:0:
448,192,88454,1,0,0:0:0:0:
320,192,88597,1,0,0:0:0:0:
448,192,88740,1,0,0:0:0:0:
64,192,88883,1,0,0:0:0:0:
192,192,88883,1,0,0:0:0:0:
64,192,89026,1,0,0:0:0:0:
320,192,89026,1,0,0:0:0:0:
64,192,89169,1,0,0:0:0:0:
448,192,89169,1,0,0:0:0:0:
64,192,89312,1,0,0:0:0:0:
320,192,89312,1,0,0:0:0:0:
64,192,89454,1,0,0:0:0:0:
192,192,89454,1,0,0:0:0:0:
320,192,89597,1,0,0:0:0:0:
448,192,89740,1,0,0:0:0:0:
320,192,89883,1,0,0:0:0:0:
64,192,90026,1,0,0:0:0:0:
192,192,90026,1,0,0:0:0:0:
64,192,90169,1,0,0:0:0:0:
448,192,90169,1,0,0:0:0:0:
64,192,90312,1,0,0:0:0:0:
320,192,90312,1,0,0:0:0:0:
192,192,90454,1,0,0:0:0:0:
320,192,90454,1,0,0:0:0:0:
448,192,90454,1,0,0:0:0:0:
64,192,90597,1,0,0:0:0:0:
448,192,90597,1,0,0:0:0:0:
64,192,90740,1,0,0:0:0:0:
448,192,90740,1,0,0:0:0:0:
192,192,90883,1,0,0:0:0:0:
320,192,90883,1,0,0:0:0:0:
64,192,91026,1,0,0:0:0:0:
320,192,91026,1,0,0:0:0:0:
64,192,91169,1,0,0:0:0:0:
192,192,91169,1,0,0:0:0:0:
320,192,91312,1,0,0:0:0:0:
448,192,91312,1,0,0:0:0:0:
192,192,91454,1,0,0:0:0:0:
320,192,91454,1,0,0:0:0:0:
64,192,91597,1,0,0:0:0:0:
192,192,91597,1,0,0:0:0:0:
64,192,91740,1,0,0:0:0:0:
192,192,91740,1,0,0:0:0:0:
64,192,91883,1,0,0:0:0:0:
320,192,91883,1,0,0:0:0:0:
448,192,91883,1,0,0:0:0:0:
192,192,92026,1,0,0:0:0:0:
320,192,92169,1,0,0:0:0:0:
448,192,92169,1,0,0:0:0:0:
320,192,92312,1,0,0:0:0:0:
448,192,92312,1,0,0:0:0:0:
64,192,92454,1,0,0:0:0:0:
192,192,92454,1,0,0:0:0:0:
320,192,92550,1,0,0:0:0:0:
448,192,92550,1,0,0:0:0:0:
192,192,92645,1,0,0:0:0:0:
64,192,92740,1,0,0:0:0:0:
448,192,92835,1,0,0:0:0:0:
320,192,92931,1,0,0:0:0:0:
64,192,93026,1,0,0:0:0:0:
192,192,93026,1,0,0:0:0:0:
320,192,93121,1,0,0:0:0:0:
448,192,93121,1,0,0:0:0:0:
192,192,93216,1,0,0:0:0:0:
64,192,93312,1,0,0:0:0:0:
448,192,93312,1,0,0:0:0:0:
320,192,93407,1,0,0:0:0:0:
192,192,93502,1,0,0:0:0:0:
64,192,93597,1,0,0:0:0:0:
448,192,93597,1,0,0:0:0:0:
320,192,93692,1,0,0:0:0:0:
192,192,93788,1,0,0:0:0:0:
64,192,93883,128,0,94073:0:0:0:0:
320,192,93883,1,0,0:0:0:0:
448,192,93883,1,0,0:0:0:0:
320,192,94073,128,0,94264:0:0:0:0:
448,192,94073,1,0,0:0:0:0:
64,192,94264,1,0,0:0:0:0:
192,192,94264,128,0,94454:0:0:0:0:
320,192,94454,1,0,0:0:0:0:
448,192,94454,128,0,94740:0:0:0:0:
64,192,94740,128,0,95026:0:0:0:0:
192,192,94740,1,0,0:0:0:0:
320,192,95026,128,0,95312:0:0:0:0:
448,192,95026,1,0,0:0:0:0:
64,192,95312,1,0,0:0:0:0:
192,192,95312,128,0,95597:0:0:0:0:
320,192,95597,1,0,0:0:0:0:
448,192,95597,128,0,96740:0:0:0:0:
192,192,96169,1,0,0:0:0:0:
64,192,96740,128,0,97407:0:0:0:0:
320,192,96740,1,0,0:0:0:0:
64,192,97883,1,0,0:0:0:0:
320,192,97883,1,0,0:0:0:0:
448,192,97883,1,0,0:0:0:0:
192,192,98019,1,0,0:0:0:0:
320,192,98155,1,0,0:0:0:0:
64,192,98292,1,0,0:0:0:0:
192,192,98428,1,0,0:0:0:0:
320,192,98428,1,0,0:0:0:0:
448,192,98428,1,0,0:0:0:0:
64,192,98564,1,0,0:0:0:0:
448,192,98701,1,0,0:0:0:0:
192,192,98837,1,0,0:0:0:0:
64,192,98973,1,0,0:0:0:0:
320,192,98973,1,0,0:0:0:0:
192,192,99110,1,0,0:0:0:0:
320,192,99246,1,0,0:0:0:0:
448,192,99383,1,0,0:0:0:0:
64,192,99519,1,0,0:0:0:0:
192,192,99519,1,0,0:0:0:0:
320,192,99519,1,0,0:0:0:0:
448,192,99655,1,0,0:0:0:0:
64,192,99792,1,0,0:0:0:0:
192,192,99928,1,0,0:0:0:0:
64,192,100064,1,0,0:0:0:0:
448,192,100064,1,0,0:0:0:0:
320,192,100201,1,0,0:0:0:0:
64,192,100337,1,0,0:0:0:0:
320,192,100337,1,0,0:0:0:0:
64,192,100473,1,0,0:0:0:0:
192,192,100473,1,0,0:0:0:0:
320,192,100610,1,0,0:0:0:0:
448,192,100610,1,0,0:0:0:0:
192,192,100746,1,0,0:0:0:0:
64,192,100883,1,0,0:0:0:0:
320,192,101019,1,0,0:0:0:0:
64,192,101155,1,0,0:0:0:0:
192,192,101155,1,0,0:0:0:0:
448,192,101155,1,0,0:0:0:0:
320,192,101292,1,0,0:0:0:0:
192,192,101428,1,0,0:0:0:0:
448,192,101564,1,0,0:0:0:0:
64,192,101701,1,0,0:0:0:0:
320,192,101701,1,0,0:0:0:0:
192,192,101837,1,0,0:0:0:0:
320,192,101973,1,0,0:0:0:0:
64,192,102110,1,0,0:0:0:0:
192,192,102246,1,0,0:0:0:0:
320,192,102246,1,0,0:0:0:0:
448,192,102246,1,0,0:0:0:0:
320,192,102383,1,0,0:0:0:0:
192,192,102519,1,0,0:0:0:0:
192,192,102655,1,0,0:0:0:0:
64,192,102792,1,0,0:0:0:0:
448,192,102792,1,0,0:0:0:0:
320,192,102928,1,0,0:0:0:0:
320,192,103064,1,0,0:0:0:0:
192,192,103201,1,0,0:0:0:0:
64,192,103337,1,0,0:0:0:0:
192,192,103337,1,0,0:0:0:0:
448,192,103337,1,0,0:0:0:0:
448,192,103473,1,0,0:0:0:0:
64,192,103610,1,0,0:0:0:0:
64,192,103746,1,0,0:0:0:0:
192,192,103883,1,0,0:0:0:0:
320,192,103883,1,0,0:0:0:0:
320,192,104019,1,0,0:0:0:0:
64,192,104155,1,0,0:0:0:0:
192,192,104155,1,0,0:0:0:0:
64,192,104292,1,0,0:0:0:0:
192,192,104292,1,0,0:0:0:0:
64,192,104428,1,0,0:0:0:0:
448,192,104428,1,0,0:0:0:0:
320,192,104564,1,0,0:0:0:0:
192,192,104701,1,0,0:0:0:0:
448,192,104837,1,0,0:0:0:0:
64,192,104973,1,0,0:0:0:0:
192,192,104973,1,0,0:0:0:0:
320,192,104973,1,0,0:0:0:0:
448,192,105110,1,0,0:0:0:0:
64,192,105246,1,0,0:0:0:0:
192,192,105383,1,0,0:0:0:0:
320,192,105519,1,0,0:0:0:0:
448,192,105519,1,0,0:0:0:0:
192,192,105655,1,0,0:0:0:0:
448,192,105792,1,0,0:0:0:0:
64,192,105928,1,0,0:0:0:0:
192,192,106064,1,0,0:0:0:0:
320,192,106064,1,0,0:0:0:0:
448,192,106064,1,0,0:0:0:0:
64,192,106201,1,0,0:0:0:0:
192,192,106337,1,0,0:0:0:0:
320,192,106473,1,0,0:0:0:0:
64,192,106610,1,0,0:0:0:0:
448,192,106610,1,0,0:0:0:0:
192,192,106746,1,0,0:0:0:0:
320,192,106883,1,0,0:0:0:0:
448,192,106883,1,0,0:0:0:0:
320,192,107019,1,0,0:0:0:0:
448,192,107019,1,0,0:0:0:0:
64,192,107155,1,0,0:0:0:0:
192,192,107155,1,0,0:0:0:0:
320,192,107292,1,0,0:0:0:0:
64,192,107428,1,0,0:0:0:0:
448,192,107564,1,0,0:0:0:0:
64,192,107701,1,0,0:0:0:0:
192,192,107701,1,0,0:0:0:0:
320,192,107701,1,0,0:0:0:0:
448,192,107837,1,0,0:0:0:0:
192,192,107973,1,0,0:0:0:0:
320,192,108110,1,0,0:0:0:0:
192,192,108246,1,0,0:0:0:0:
448,192,108383,1,0,0:0:0:0:
64,192,108519,1,0,0:0:0:0:
320,192,108519,1,0,0:0:0:0:
64,192,108655,1,0,0:0:0:0:
320,192,108655,1,0,0:0:0:0:
64,192,108792,1,0,0:0:0:0:
192,192,108792,128,0,109064:0:0:0:0:
320,192,109064,1,0,0:0:0:0:
448,192,109064,1,0,0:0:0:0:
320,192,109201,1,0,0:0:0:0:
448,192,109201,1,0,0:0:0:0:
64,192,109337,128,0,109610:0:0:0:0:
320,192,109337,1,0,0:0:0:0:
192,192,109610,1,0,0:0:0:0:
448,192,109610,1,0,0:0:0:0:
192,192,109746,1,0,0:0:0:0:
448,192,109746,1,0,0:0:0:0:
192,192,109883,1,0,0:0:0:0:
320,192,109883,128,0,110155:0:0:0:0:
64,192,110155,1,0,0:0:0:0:
448,192,110155,1,0,0:0:0:0:
320,192,110292,1,0,0:0:0:0:
64,192,110428,1,0,0:0:0:0:
192,192,110428,1,0,0:0:0:0:
64,192,110564,1,0,0:0:0:0:
192,192,110564,1,0,0:0:0:0:
320,192,110701,1,0,0:0:0:0:
448,192,110701,1,0,0:0:0:0:
192,192,110837,1,0,0:0:0:0:
64,192,110973,1,0,0:0:0:0:
448,192,110973,1,0,0:0:0:0:
64,192,111246,1,0,0:0:0:0:
320,192,111246,1,0,0:0:0:0:
448,192,111246,1,0,0:0:0:0:
192,192,111383,1,0,0:0:0:0:
320,192,111519,1,0,0:0:0:0:
448,192,111655,1,0,0:0:0:0:
64,192,111792,1,0,0:0:0:0:
320,192,111792,1,0,0:0:0:0:
192,192,111928,1,0,0:0:0:0:
64,192,112064,1,0,0:0:0:0:
448,192,112064,128,0,112337:0:0:0:0:
320,192,112201,1,0,0:0:0:0:
64,192,112337,1,0,0:0:0:0:
192,192,112337,1,0,0:0:0:0:
320,192,112473,1,0,0:0:0:0:
64,192,112610,128,0,112883:0:0:0:0:
448,192,112610,1,0,0:0:0:0:
192,192,112746,1,0,0:0:0:0:
320,192,112883,1,0,0:0:0:0:
448,192,112883,1,0,0:0:0:0:
192,192,112951,1,0,0:0:0:0:
448,192,113019,1,0,0:0:0:0:
64,192,113087,1,0,0:0:0:0:
192,192,113155,1,0,0:0:0:0:
320,192,113155,128,0,113428:0:0:0:0:
448,192,113155,1,0,0:0:0:0:
64,192,113428,1,0,0:0:0:0:
192,192,113428,1,0,0:0:0:0:
448,192,113428,1,0,0:0:0:0:
320,192,113564,1,0,0:0:0:0:
192,192,113701,1,0,0:0:0:0:
448,192,113837,1,0,0:0:0:0:
64,192,113973,1,0,0:0:0:0:
192,192,113973,1,0,0:0:0:0:
320,192,113973,1,0,0:0:0:0:
448,192,114110,1,0,0:0:0:0:
64,192,114246,1,0,0:0:0:0:
320,192,114383,1,0,0:0:0:0:
192,192,114519,1,0,0:0:0:0:
448,192,114519,1,0,0:0:0:0:
320,192,114655,1,0,0:0:0:0:
192,192,114792,1,0,0:0:0:0:
64,192,114928,1,0,0:0:0:0:
192,192,115064,1,0,0:0:0:0:
320,192,115064,1,0,0:0:0:0:
448,192,115064,1,0,0:0:0:0:
64,192,115201,1,0,0:0:0:0:
448,192,115337,1,0,0:0:0:0:
320,192,115473,1,0,0:0:0:0:
64,192,115610,1,0,0:0:0:0:
448,192,115610,1,0,0:0:0:0:
320,192,115746,1,0,0:0:0:0:
192,192,115883,1,0,0:0:0:0:
448,192,115883,1,0,0:0:0:0:
320,192,116019,1,0,0:0:0:0:
448,192,116019,1,0,0:0:0:0:
64,192,116155,1,0,0:0:0:0:
192,192,116155,1,0,0:0:0:0:
320,192,116292,1,0,0:0:0:0:
448,192,116428,1,0,0:0:0:0:
192,192,116564,1,0,0:0:0:0:
64,192,116701,1,0,0:0:0:0:
320,192,116701,1,0,0:0:0:0:
448,192,116701,1,0,0:0:0:0:
192,192,116837,1,0,0:0:0:0:
320,192,116973,1,0,0:0:0:0:
64,192,117110,1,0,0:0:0:0:
192,192,117246,1,0,0:0:0:0:
448,192,117246,1,0,0:0:0:0:
320,192,117383,1,0,0:0:0:0:
192,192,117519,1,0,0:0:0:0:
448,192,117655,1,0,0:0:0:0:
64,192,117792,1,0,0:0:0:0:
192,192,117792,1,0,0:0:0:0:
320,192,117792,1,0,0:0:0:0:
192,192,117928,1,0,0:0:0:0:
320,192,118064,1,0,0:0:0:0:
320,192,118201,1,0,0:0:0:0:
64,192,118337,1,0,0:0:0:0:
448,192,118337,1,0,0:0:0:0:
192,192,118473,1,0,0:0:0:0:
192,192,118610,1,0,0:0:0:0:
320,192,118746,1,0,0:0:0:0:
64,192,118883,1,0,0:0:0:0:
320,192,118883,1,0,0:0:0:0:
448,192,118883,1,0,0:0:0:0:
64,192,119019,1,0,0:0:0:0:
448,192,119155,1,0,0:0:0:0:
448,192,119292,1,0,0:0:0:0:
64,192,119428,1,0,0:0:0:0:
192,192,119428,1,0,0:0:0:0:
64,192,119564,1,0,0:0:0:0:
192,192,119564,1,0,0:0:0:0:
320,192,119701,1,0,0:0:0:0:
448,192,119701,1,0,0:0:0:0:
320,192,119837,1,0,0:0:0:0:
448,192,119837,1,0,0:0:0:0:
64,192,119973,1,0,0:0:0:0:
320,192,119973,1,0,0:0:0:0:
192,192,120110,1,0,0:0:0:0:
320,192,120246,1,0,0:0:0:0:
64,192,120383,1,0,0:0:0:0:
192,192,120519,1,0,0:0:0:0:
320,192,120519,1,0,0:0:0:0:
448,192,120519,1,0,0:0:0:0:
64,192,120655,1,0,0:0:0:0:
448,192,120792,1,0,0:0:0:0:
320,192,120928,1,0,0:0:0:0:
64,192,121064,1,0,0:0:0:0:
192,192,121064,1,0,0:0:0:0:
320,192,121201,1,0,0:0:0:0:
64,192,121337,1,0,0:0:0:0:
448,192,121337,1,0,0:0:0:0:
192,192,121473,1,0,0:0:0:0:
64,192,121610,1,0,0:0:0:0:
320,192,121610,1,0,0:0:0:0:
448,192,121610,1,0,0:0:0:0:
192,192,121746,1,0,0:0:0:0:
320,192,121883,1,0,0:0:0:0:
448,192,121883,1,0,0:0:0:0:
192,192,122019,1,0,0:0:0:0:
64,192,122155,1,0,0:0:0:0:
448,192,122155,1,0,0:0:0:0:
320,192,122292,1,0,0:0:0:0:
64,192,122428,1,0,0:0:0:0:
192,192,122428,1,0,0:0:0:0:
64,192,122564,1,0,0:0:0:0:
192,192,122564,1,0,0:0:0:0:
320,192,122701,1,0,0:0:0:0:
448,192,122701,1,0,0:0:0:0:
192,192,122837,1,0,0:0:0:0:
448,192,122973,1,0,0:0:0:0:
64,192,123110,1,0,0:0:0:0:
192,192,123246,1,0,0:0:0:0:
320,192,123246,1,0,0:0:0:0:
448,192,123246,1,0,0:0:0:0:
64,192,123383,1,0,0:0:0:0:
320,192,123519,1,0,0:0:0:0:
192,192,123655,1,0,0:0:0:0:
448,192,123792,1,0,0:0:0:0:
64,192,123928,1,0,0:0:0:0:
192,192,124064,1,0,0:0:0:0:
448,192,124064,1,0,0:0:0:0:
192,192,124201,1,0,0:0:0:0:
448,192,124201,1,0,0:0:0:0:
192,192,124337,1,0,0:0:0:0:
320,192,124337,1,0,0:0:0:0:
64,192,124473,1,0,0:0:0:0:
448,192,124610,1,0,0:0:0:0:
64,192,124746,1,0,0:0:0:0:
192,192,124746,1,0,0:0:0:0:
320,192,124883,1,0,0:0:0:0:
448,192,124883,1,0,0:0:0:0:
64,192,125019,1,0,0:0:0:0:
192,192,125019,1,0,0:0:0:0:
320,192,125155,1,0,0:0:0:0:
192,192,125292,1,0,0:0:0:0:
64,192,125428,1,0,0:0:0:0:
192,192,125428,1,0,0:0:0:0:
448,192,125564,1,0,0:0:0:0:
64,192,125701,1,0,0:0:0:0:
192,192,125701,1,0,0:0:0:0:
320,192,125837,1,0,0:0:0:0:
448,192,125973,1,0,0:0:0:0:
64,192,126110,1,0,0:0:0:0:
192,192,126110,1,0,0:0:0:0:
320,192,126246,1,0,0:0:0:0:
192,192,126383,1,0,0:0:0:0:
64,192,126519,1,0,0:0:0:0:
192,192,126519,1,0,0:0:0:0:
448,192,126655,1,0,0:0:0:0:
64,192,126792,1,0,0:0:0:0:
192,192,126792,1,0,0:0:0:0:
320,192,126928,1,0,0:0:0:0:
320,192,127064,1,0,0:0:0:0:
64,192,127201,1,0,0:0:0:0:
192,192,127201,1,0,0:0:0:0:
320,192,127337,1,0,0:0:0:0:
64,192,127473,1,0,0:0:0:0:
192,192,127473,1,0,0:0:0:0:
448,192,127610,1,0,0:0:0:0:
64,192,127746,1,0,0:0:0:0:
320,192,127746,1,0,0:0:0:0:
192,192,127883,128,0,128155:0:0:0:0:
320,192,127883,1,0,0:0:0:0:
448,192,127883,1,0,0:0:0:0:
64,192,128155,1,0,0:0:0:0:
448,192,128155,1,0,0:0:0:0:
320,192,128292,1,0,0:0:0:0:
192,192,128428,1,0,0:0:0:0:
320,192,128564,1,0,0:0:0:0:
448,192,128564,1,0,0:0:0:0:
64,192,128701,1,0,0:0:0:0:
320,192,128837,1,0,0:0:0:0:
448,192,128837,1,0,0:0:0:0:
192,192,128973,1,0,0:0:0:0:
320,192,129110,1,0,0:0:0:0:
448,192,129110,1,0,0:0:0:0:
64,192,129246,1,0,0:0:0:0:
192,192,129246,1,0,0:0:0:0:
320,192,129383,1,0,0:0:0:0:
64,192,129519,1,0,0:0:0:0:
192,192,129519,1,0,0:0:0:0:
448,192,129519,128,0,129792:0:0:0:0:
64,192,129792,1,0,0:0:0:0:
192,192,129928,1,0,0:0:0:0:
320,192,129928,1,0,0:0:0:0:
64,192,130064,1,0,0:0:0:0:
320,192,130064,1,0,0:0:0:0:
64,192,130201,1,0,0:0:0:0:
448,192,130201,1,0,0:0:0:0:
192,192,130337,128,0,130883:0:0:0:0:
320,192,130337,128,0,130883:0:0:0:0:
448,192,130337,1,0,0:0:0:0:
64,192,130883,1,0,0:0:0:0:
448,192,130883,128,0,131292:0:0:0:0:
64,192,131428,128,0,132246:0:0:0:0:
192,192,131428,1,0,0:0:0:0:
448,192,131428,1,0,0:0:0:0:
320,192,131564,1,0,0:0:0:0:
192,192,131701,1,0,0:0:0:0:
320,192,131837,1,0,0:0:0:0:
448,192,131973,1,0,0:0:0:0:
192,192,132110,1,0,0:0:0:0:
320,192,132246,1,0,0:0:0:0:
448,192,132246,128,0,133064:0:0:0:0:
192,192,132314,1,0,0:0:0:0:
64,192,132383,1,0,0:0:0:0:
320,192,132451,1,0,0:0:0:0:
64,192,132519,1,0,0:0:0:0:
192,192,132519,1,0,0:0:0:0:
320,192,132655,1,0,0:0:0:0:
64,192,132792,1,0,0:0:0:0:
192,192,132928,1,0,0:0:0:0:
64,192,133064,128,0,133883:0:0:0:0:
320,192,133064,1,0,0:0:0:0:
192,192,133201,1,0,0:0:0:0:
320,192,133337,1,0,0:0:0:0:
448,192,133473,1,0,0:0:0:0:
192,192,133610,1,0,0:0:0:0:
320,192,133610,1,0,0:0:0:0:
448,192,133746,1,0,0:0:0:0:
192,192,133883,1,0,0:0:0:0:
320,192,133883,128,0,134973:0:0:0:0:
64,192,134019,1,0,0:0:0:0:
192,192,134019,1,0,0:0:0:0:
448,192,134155,1,0,0:0:0:0:
64,192,134292,1,0,0:0:0:0:
192,192,134428,1,0,0:0:0:0:
448,192,134564,1,0,0:0:0:0:
64,192,134701,1,0,0:0:0:0:
192,192,134701,1,0,0:0:0:0:
448,192,134837,1,0,0:0:0:0:
64,192,134973,1,0,0:0:0:0:
192,192,135042,1,0,0:0:0:0:
448,192,135110,1,0,0:0:0:0:
320,192,135178,1,0,0:0:0:0:
64,192,135246,1,0,0:0:0:0:
192,192,135246,1,0,0:0:0:0:
448,192,135246,1,0,0:0:0:0:
192,192,135383,1,0,0:0:0:0:
320,192,135519,1,0,0:0:0:0:
64,192,135655,1,0,0:0:0:0:
192,192,135792,1,0,0:0:0:0:
320,192,135792,1,0,0:0:0:0:
448,192,135792,1,0,0:0:0:0:
320,192,135928,1,0,0:0:0:0:
192,192,136064,1,0,0:0:0:0:
192,192,136201,1,0,0:0:0:0:
64,192,136337,1,0,0:0:0:0:
448,192,136337,1,0,0:0:0:0:
320,192,136473,1,0,0:0:0:0:
320,192,136610,1,0,0:0:0:0:
64,192,136746,1,0,0:0:0:0:
192,192,136746,1,0,0:0:0:0:
64,192,136883,1,0,0:0:0:0:
320,192,136883,1,0,0:0:0:0:
448,192,136883,1,0,0:0:0:0:
448,192,137019,1,0,0:0:0:0:
64,192,137155,1,0,0:0:0:0:
64,192,137292,1,0,0:0:0:0:
320,192,137292,1,0,0:0:0:0:
192,192,137428,1,0,0:0:0:0:
320,192,137428,1,0,0:0:0:0:
192,192,137564,1,0,0:0:0:0:
320,192,137701,1,0,0:0:0:0:
448,192,137701,1,0,0:0:0:0:
320,192,137837,1,0,0:0:0:0:
448,192,137837,1,0,0:0:0:0:
64,192,137973,1,0,0:0:0:0:
192,192,137973,128,0,138655:0:0:0:0:
448,192,137973,1,0,0:0:0:0:
320,192,138110,1,0,0:0:0:0:
64,192,138246,1,0,0:0:0:0:
448,192,138383,1,0,0:0:0:0:
64,192,138519,1,0,0:0:0:0:
320,192,138519,1,0,0:0:0:0:
448,192,138655,128,0,139610:0:0:0:0:
64,192,138792,1,0,0:0:0:0:
192,192,138860,1,0,0:0:0:0:
320,192,138928,1,0,0:0:0:0:
64,192,138996,1,0,0:0:0:0:
192,192,139064,1,0,0:0:0:0:
320,192,139064,1,0,0:0:0:0:
64,192,139201,1,0,0:0:0:0:
192,192,139337,1,0,0:0:0:0:
64,192,139473,1,0,0:0:0:0:
192,192,139610,128,0,140428:0:0:0:0:
320,192,139610,1,0,0:0:0:0:
64,192,139746,1,0,0:0:0:0:
320,192,139883,1,0,0:0:0:0:
448,192,140019,1,0,0:0:0:0:
64,192,140155,1,0,0:0:0:0:
448,192,140292,1,0,0:0:0:0:
64,192,140428,128,0,141519:0:0:0:0:
320,192,140428,1,0,0:0:0:0:
320,192,140564,1,0,0:0:0:0:
448,192,140564,1,0,0:0:0:0:
192,192,140701,1,0,0:0:0:0:
320,192,140837,1,0,0:0:0:0:
448,192,140973,1,0,0:0:0:0:
192,192,141110,1,0,0:0:0:0:
320,192,141246,1,0,0:0:0:0:
448,192,141246,1,0,0:0:0:0:
192,192,141383,1,0,0:0:0:0:
320,192,141519,1,0,0:0:0:0:
448,192,141655,1,0,0:0:0:0:
64,192,141792,1,0,0:0:0:0:
448,192,141928,1,0,0:0:0:0:
64,192,142064,1,0,0:0:0:0:
320,192,142064,1,0,0:0:0:0:
192,192,142201,1,0,0:0:0:0:
64,192,142337,1,0,0:0:0:0:
320,192,142337,1,0,0:0:0:0:
448,192,142337,1,0,0:0:0:0:
192,192,142473,1,0,0:0:0:0:
64,192,142610,1,0,0:0:0:0:
448,192,142610,1,0,0:0:0:0:
320,192,142746,1,0,0:0:0:0:
64,192,142883,1,0,0:0:0:0:
192,192,142883,1,0,0:0:0:0:
64,192,143019,1,0,0:0:0:0:
192,192,143019,1,0,0:0:0:0:
192,192,143155,1,0,0:0:0:0:
320,192,143155,128,0,143428:0:0:0:0:
448,192,143155,1,0,0:0:0:0:
64,192,143428,128,0,143701:0:0:0:0:
192,192,143428,1,0,0:0:0:0:
320,192,143701,1,0,0:0:0:0:
448,192,143701,1,0,0:0:0:0:
192,192,143772,1,0,0:0:0:0:
448,192,143843,1,0,0:0:0:0:
320,192,143915,1,0,0:0:0:0:
64,192,143986,1,0,0:0:0:0:
320,192,144129,1,0,0:0:0:0:
64,192,144272,1,0,0:0:0:0:
448,192,144272,1,0,0:0:0:0:
64,192,144415,1,0,0:0:0:0:
320,192,144415,1,0,0:0:0:0:
192,192,144486,1,0,0:0:0:0:
320,192,144558,1,0,0:0:0:0:
192,192,144701,1,0,0:0:0:0:
64,192,144843,1,0,0:0:0:0:
448,192,144843,1,0,0:0:0:0:
192,192,144986,1,0,0:0:0:0:
448,192,144986,1,0,0:0:0:0:
320,192,145129,1,0,0:0:0:0:
192,192,145201,1,0,0:0:0:0:
448,192,145272,1,0,0:0:0:0:
64,192,145415,1,0,0:0:0:0:
192,192,145415,1,0,0:0:0:0:
192,192,145558,1,0,0:0:0:0:
320,192,145558,1,0,0:0:0:0:
448,192,145701,1,0,0:0:0:0:
64,192,145843,1,0,0:0:0:0:
192,192,145843,1,0,0:0:0:0:
320,192,145915,1,0,0:0:0:0:
448,192,145915,1,0,0:0:0:0:
64,192,145986,1,0,0:0:0:0:
192,192,145986,1,0,0:0:0:0:
64,192,146129,1,0,0:0:0:0:
192,192,146129,1,0,0:0:0:0:
320,192,146272,128,0,146558:0:0:0:0:
448,192,146272,1,0,0:0:0:0:
64,192,146558,1,0,0:0:0:0:
192,192,146558,1,0,0:0:0:0:
448,192,146558,1,0,0:0:0:0:
320,192,146658,1,0,0:0:0:0:
192,192,146758,1,0,0:0:0:0:
448,192,146858,1,0,0:0:0:0:
64,192,147008,1,0,0:0:0:0:
192,192,147158,1,0,0:0:0:0:
320,192,147308,1,0,0:0:0:0:
448,192,147308,1,0,0:0:0:0:
64,192,147383,1,0,0:0:0:0:
192,192,147383,1,0,0:0:0:0:
320,192,147458,1,0,0:0:0:0:
448,192,147458,1,0,0:0:0:0:
64,192,147608,1,0,0:0:0:0:
192,192,147608,1,0,0:0:0:0:
320,192,147683,1,0,0:0:0:0:
448,192,147683,1,0,0:0:0:0:
64,192,147758,1,0,0:0:0:0:
192,192,147758,1,0,0:0:0:0:
320,192,147908,1,0,0:0:0:0:
192,192,148058,1,0,0:0:0:0:
64,192,148208,1,0,0:0:0:0:
192,192,148358,1,0,0:0:0:0:
448,192,148358,1,0,0:0:0:0:
64,192,148508,1,0,0:0:0:0:
448,192,148508,1,0,0:0:0:0:
192,192,148658,1,0,0:0:0:0:
320,192,148658,1,0,0:0:0:0:
192,192,148808,1,0,0:0:0:0:
448,192,148808,1,0,0:0:0:0:
192,192,149258,1,0,0:0:0:0:
448,192,149258,1,0,0:0:0:0:
320,192,149333,1,0,0:0:0:0:
448,192,149408,128,0,149558:0:0:0:0:
64,192,149558,1,0,0:0:0:0:
192,192,149708,1,0,0:0:0:0:
448,192,149708,128,0,149858:0:0:0:0:
320,192,150008,1,0,0:0:0:0:
192,192,150158,1,0,0:0:0:0:
320,192,150308,1,0,0:0:0:0:
448,192,150458,1,0,0:0:0:0:
64,192,150608,1,0,0:0:0:0:
192,192,150758,1,0,0:0:0:0:
320,192,150908,1,0,0:0:0:0:
64,192,151058,1,0,0:0:0:0:
64,192,151208,1,0,0:0:0:0:
448,192,151208,1,0,0:0:0:0:
320,192,151358,1,0,0:0:0:0:
192,192,151508,1,0,0:0:0:0:
448,192,151508,1,0,0:0:0:0:
320,192,151658,1,0,0:0:0:0:
64,192,151808,1,0,0:0:0:0:
192,192,151808,1,0,0:0:0:0:
64,192,151958,1,0,0:0:0:0:
192,192,151958,1,0,0:0:0:0:
320,192,152108,1,0,0:0:0:0:
64,192,152258,1,0,0:0:0:0:
448,192,152258,1,0,0:0:0:0:
64,192,152408,1,0,0:0:0:0:
448,192,152408,1,0,0:0:0:0:
192,192,152558,1,0,0:0:0:0:
64,192,152708,1,0,0:0:0:0:
320,192,152708,1,0,0:0:0:0:
192,192,152783,1,0,0:0:0:0:
64,192,152858,128,0,153008:0:0:0:0:
448,192,153008,1,0,0:0:0:0:
64,192,153158,128,0,153308:0:0:0:0:
320,192,153158,1,0,0:0:0:0:
192,192,153458,1,0,0:0:0:0:
448,192,153608,128,0,153908:0:0:0:0:
320,192,153908,128,0,154208:0:0:0:0:
192,192,154208,128,0,154508:0:0:0:0:
64,192,154508,1,0,0:0:0:0:
320,192,154508,1,0,0:0:0:0:
192,192,154658,1,0,0:0:0:0:
320,192,154658,1,0,0:0:0:0:
192,192,154958,1,0,0:0:0:0:
448,192,154958,128,0,155108:0:0:0:0:
64,192,155108,1,0,0:0:0:0:
320,192,155183,1,0,0:0:0:0:
192,192,155258,1,0,0:0:0:0:
320,192,155408,1,0,0:0:0:0:
64,192,155558,1,0,0:0:0:0:
192,192,155558,1,0,0:0:0:0:
64,192,155708,1,0,0:0:0:0:
448,192,155708,1,0,0:0:0:0:
320,192,155858,1,0,0:0:0:0:
64,192,156008,1,0,0:0:0:0:
192,192,156008,128,0,156158:0:0:0:0:
320,192,156158,1,0,0:0:0:0:
64,192,156233,1,0,0:0:0:0:
320,192,156308,1,0,0:0:0:0:
64,192,156383,1,0,0:0:0:0:
448,192,156458,1,0,0:0:0:0:
192,192,156533,1,0,0:0:0:0:
320,192,156608,1,0,0:0:0:0:
64,192,156683,1,0,0:0:0:0:
320,192,156758,1,0,0:0:0:0:
64,192,156833,1,0,0:0:0:0:
192,192,156908,1,0,0:0:0:0:
448,192,156908,1,0,0:0:0:0:
192,192,157058,1,0,0:0:0:0:
448,192,157058,1,0,0:0:0:0:
320,192,157208,1,0,0:0:0:0:
64,192,157358,1,0,0:0:0:0:
192,192,157358,1,0,0:0:0:0:
192,192,157508,1,0,0:0:0:0:
320,192,157508,1,0,0:0:0:0:
320,192,157658,1,0,0:0:0:0:
448,192,157658,1,0,0:0:0:0:
64,192,157808,1,0,0:0:0:0:
192,192,157808,1,0,0:0:0:0:
192,192,157958,1,0,0:0:0:0:
448,192,157958,1,0,0:0:0:0:
320,192,158033,1,0,0:0:0:0:
448,192,158108,128,0,158258:0:0:0:0:
64,192,158258,1,0,0:0:0:0:
192,192,158408,1,0,0:0:0:0:
448,192,158408,128,0,158558:0:0:0:0:
320,192,158708,1,0,0:0:0:0:
64,192,158858,1,0,0:0:0:0:
192,192,158858,1,0,0:0:0:0:
320,192,159008,1,0,0:0:0:0:
448,192,159158,1,0,0:0:0:0:
64,192,159308,1,0,0:0:0:0:
320,192,159308,1,0,0:0:0:0:
192,192,159458,1,0,0:0:0:0:
320,192,159608,1,0,0:0:0:0:
64,192,159758,1,0,0:0:0:0:
64,192,159908,1,0,0:0:0:0:
448,192,159908,1,0,0:0:0:0:
320,192,160058,1,0,0:0:0:0:
192,192,160208,1,0,0:0:0:0:
448,192,160208,1,0,0:0:0:0:
320,192,160358,1,0,0:0:0:0:
64,192,160508,1,0,0:0:0:0:
192,192,160508,1,0,0:0:0:0:
64,192,160658,1,0,0:0:0:0:
192,192,160658,1,0,0:0:0:0:
320,192,160808,1,0,0:0:0:0:
64,192,160958,1,0,0:0:0:0:
448,192,160958,1,0,0:0:0:0:
64,192,161108,1,0,0:0:0:0:
448,192,161108,1,0,0:0:0:0:
192,192,161258,1,0,0:0:0:0:
64,192,161408,1,0,0:0:0:0:
320,192,161408,1,0,0:0:0:0:
192,192,161483,1,0,0:0:0:0:
64,192,161558,128,0,161708:0:0:0:0:
448,192,161708,1,0,0:0:0:0:
64,192,161858,128,0,162008:0:0:0:0:
320,192,161858,1,0,0:0:0:0:
64,192,162158,1,0,0:0:0:0:
320,192,162158,1,0,0:0:0:0:
448,192,162158,1,0,0:0:0:0:
64,192,162308,1,0,0:0:0:0:
192,192,162308,1,0,0:0:0:0:
192,192,162458,1,0,0:0:0:0:
320,192,162458,1,0,0:0:0:0:
64,192,162608,128,0,162908:0:0:0:0:
320,192,162608,1,0,0:0:0:0:
320,192,162908,1,0,0:0:0:0:
448,192,162908,1,0,0:0:0:0:
192,192,163058,1,0,0:0:0:0:
320,192,163058,1,0,0:0:0:0:
192,192,163208,1,0,0:0:0:0:
448,192,163208,128,0,163508:0:0:0:0:
64,192,163508,1,0,0:0:0:0:
320,192,163508,1,0,0:0:0:0:
192,192,163658,1,0,0:0:0:0:
320,192,163808,1,0,0:0:0:0:
448,192,163958,1,0,0:0:0:0:
64,192,164108,1,0,0:0:0:0:
192,192,164108,1,0,0:0:0:0:
320,192,164108,1,0,0:0:0:0:
192,192,164258,1,0,0:0:0:0:
320,192,164408,1,0,0:0:0:0:
448,192,164408,1,0,0:0:0:0:
320,192,164558,1,0,0:0:0:0:
448,192,164558,1,0,0:0:0:0:
64,192,164708,128,0,165008:0:0:0:0:
192,192,164708,1,0,0:0:0:0:
448,192,165008,1,0,0:0:0:0:
192,192,165158,1,0,0:0:0:0:
320,192,165158,1,0,0:0:0:0:
64,192,165308,1,0,0:0:0:0:
448,192,165308,128,0,165608:0:0:0:0:
64,192,165608,1,0,0:0:0:0:
320,192,165608,1,0,0:0:0:0:
192,192,165683,1,0,0:0:0:0:
64,192,165758,1,0,0:0:0:0:
448,192,165758,1,0,0:0:0:0:
320,192,165908,1,0,0:0:0:0:
64,192,166058,1,0,0:0:0:0:
192,192,166058,1,0,0:0:0:0:
320,192,166208,1,0,0:0:0:0:
64,192,166358,1,0,0:0:0:0:
448,192,166508,1,0,0:0:0:0:
320,192,166658,1,0,0:0:0:0:
64,192,166808,1,0,0:0:0:0:
192,192,166808,1,0,0:0:0:0:
320,192,166958,1,0,0:0:0:0:
192,192,167108,1,0,0:0:0:0:
64,192,167258,1,0,0:0:0:0:
320,192,167408,1,0,0:0:0:0:
192,192,167483,1,0,0:0:0:0:
64,192,167558,1,0,0:0:0:0:
448,192,167558,1,0,0:0:0:0:
320,192,167708,1,0,0:0:0:0:
64,192,167858,1,0,0:0:0:0:
192,192,167858,1,0,0:0:0:0:
448,192,168008,1,0,0:0:0:0:
64,192,168158,1,0,0:0:0:0:
320,192,168158,1,0,0:0:0:0:
192,192,168308,1,0,0:0:0:0:
320,192,168308,1,0,0:0:0:0:
64,192,168458,1,0,0:0:0:0:
192,192,168608,1,0,0:0:0:0:
320,192,168608,1,0,0:0:0:0:
320,192,168758,1,0,0:0:0:0:
448,192,168758,1,0,0:0:0:0:
192,192,168908,1,0,0:0:0:0:
64,192,169058,1,0,0:0:0:0:
320,192,169058,1,0,0:0:0:0:
64,192,169208,1,0,0:0:0:0:
192,192,169208,1,0,0:0:0:0:
320,192,169283,1,0,0:0:0:0:
192,192,169358,1,0,0:0:0:0:
64,192,169508,1,0,0:0:0:0:
448,192,169508,1,0,0:0:0:0:
320,192,169658,1,0,0:0:0:0:
192,192,169808,1,0,0:0:0:0:
448,192,169808,1,0,0:0:0:0:
64,192,169958,128,0,170258:0:0:0:0:
320,192,169958,1,0,0:0:0:0:
448,192,170108,1,0,0:0:0:0:
192,192,170258,128,0,170558:0:0:0:0:
320,192,170258,1,0,0:0:0:0:
448,192,170408,1,0,0:0:0:0:
64,192,170558,1,0,0:0:0:0:
320,192,170558,128,0,170858:0:0:0:0:
448,192,170708,1,0,0:0:0:0:
64,192,170858,1,0,0:0:0:0:
192,192,170858,1,0,0:0:0:0:
64,192,171008,1,0,0:0:0:0:
448,192,171008,1,0,0:0:0:0:
192,192,171158,1,0,0:0:0:0:
64,192,171308,1,0,0:0:0:0:
320,192,171308,1,0,0:0:0:0:
448,192,171458,1,0,0:0:0:0:
192,192,171533,1,0,0:0:0:0:
448,192,171608,1,0,0:0:0:0:
320,192,171758,1,0,0:0:0:0:
64,192,171908,1,0,0:0:0:0:
192,192,171908,1,0,0:0:0:0:
64,192,172058,1,0,0:0:0:0:
320,192,172058,1,0,0:0:0:0:
192,192,172208,1,0,0:0:0:0:
64,192,172358,1,0,0:0:0:0:
448,192,172358,1,0,0:0:0:0:
320,192,172508,1,0,0:0:0:0:
320,192,172658,1,0,0:0:0:0:
192,192,172808,1,0,0:0:0:0:
448,192,172808,1,0,0:0:0:0:
64,192,172958,1,0,0:0:0:0:
64,192,173108,1,0,0:0:0:0:
320,192,173258,1,0,0:0:0:0:
448,192,173258,1,0,0:0:0:0:
64,192,173408,1,0,0:0:0:0:
320,192,173408,1,0,0:0:0:0:
192,192,173558,1,0,0:0:0:0:
64,192,173708,1,0,0:0:0:0:
448,192,173708,1,0,0:0:0:0:
192,192,173858,1,0,0:0:0:0:
448,192,173858,1,0,0:0:0:0:
192,192,174008,1,0,0:0:0:0:
320,192,174008,1,0,0:0:0:0:
64,192,174158,1,0,0:0:0:0:
320,192,174158,1,0,0:0:0:0:
64,192,174308,1,0,0:0:0:0:
192,192,174308,1,0,0:0:0:0:
320,192,174458,1,0,0:0:0:0:
448,192,174458,1,0,0:0:0:0:
64,192,174533,1,0,0:0:0:0:
320,192,174608,1,0,0:0:0:0:
192,192,174758,128,0,175058:0:0:0:0:
448,192,174758,1,0,0:0:0:0:
320,192,175058,1,0,0:0:0:0:
448,192,175058,1,0,0:0:0:0:
64,192,175208,1,0,0:0:0:0:
192,192,175358,1,0,0:0:0:0:
320,192,175508,1,0,0:0:0:0:
192,192,175658,1,0,0:0:0:0:
320,192,175808,1,0,0:0:0:0:
448,192,175958,1,0,0:0:0:0:
192,192,176108,1,0,0:0:0:0:
64,192,176258,1,0,0:0:0:0:
320,192,176258,1,0,0:0:0:0:
192,192,176408,1,0,0:0:0:0:
64,192,176558,1,0,0:0:0:0:
448,192,176558,1,0,0:0:0:0:
320,192,176708,1,0,0:0:0:0:
192,192,176858,1,0,0:0:0:0:
448,192,176858,1,0,0:0:0:0:
192,192,177008,1,0,0:0:0:0:
320,192,177008,1,0,0:0:0:0:
64,192,177158,1,0,0:0:0:0:
320,192,177308,1,0,0:0:0:0:
448,192,177308,1,0,0:0:0:0:
192,192,177458,1,0,0:0:0:0:
448,192,177458,1,0,0:0:0:0:
320,192,177608,1,0,0:0:0:0:
64,192,177758,1,0,0:0:0:0:
192,192,177758,1,0,0:0:0:0:
64,192,177908,1,0,0:0:0:0:
448,192,177908,1,0,0:0:0:0:
192,192,177983,1,0,0:0:0:0:
320,192,178058,1,0,0:0:0:0:
192,192,178208,1,0,0:0:0:0:
448,192,178208,1,0,0:0:0:0:
320,192,178358,1,0,0:0:0:0:
64,192,178508,1,0,0:0:0:0:
192,192,178508,1,0,0:0:0:0:
320,192,178658,1,0,0:0:0:0:
448,192,178658,1,0,0:0:0:0:
320,192,178808,1,0,0:0:0:0:
448,192,178808,1,0,0:0:0:0:
192,192,178958,128,0,179258:0:0:0:0:
320,192,178958,1,0,0:0:0:0:
320,192,179258,1,0,0:0:0:0:
448,192,179258,1,0,0:0:0:0:
320,192,179408,1,0,0:0:0:0:
448,192,179408,1,0,0:0:0:0:
64,192,179558,128,0,179858:0:0:0:0:
448,192,179558,1,0,0:0:0:0:
320,192,179858,1,0,0:0:0:0:
448,192,179858,1,0,0:0:0:0:
192,192,180008,1,0,0:0:0:0:
320,192,180158,1,0,0:0:0:0:
64,192,180308,1,0,0:0:0:0:
192,192,180458,1,0,0:0:0:0:
448,192,180458,1,0,0:0:0:0:
320,192,180608,1,0,0:0:0:0:
64,192,180758,1,0,0:0:0:0:
192,192,180758,1,0,0:0:0:0:
64,192,180908,1,0,0:0:0:0:
192,192,180908,1,0,0:0:0:0:
64,192,181058,1,0,0:0:0:0:
448,192,181058,128,0,181358:0:0:0:0:
192,192,181358,1,0,0:0:0:0:
320,192,181358,1,0,0:0:0:0:
320,192,181508,1,0,0:0:0:0:
448,192,181508,1,0,0:0:0:0:
64,192,181658,1,0,0:0:0:0:
192,192,181658,128,0,181958:0:0:0:0:
64,192,181958,1,0,0:0:0:0:
448,192,181958,1,0,0:0:0:0:
320,192,182033,1,0,0:0:0:0:
192,192,182108,1,0,0:0:0:0:
448,192,182108,1,0,0:0:0:0:
64,192,182258,1,0,0:0:0:0:
320,192,182408,1,0,0:0:0:0:
448,192,182408,1,0,0:0:0:0:
192,192,182558,1,0,0:0:0:0:
448,192,182708,1,0,0:0:0:0:
64,192,182858,1,0,0:0:0:0:
192,192,183008,1,0,0:0:0:0:
320,192,183158,1,0,0:0:0:0:
448,192,183158,1,0,0:0:0:0:
192,192,183308,1,0,0:0:0:0:
320,192,183458,1,0,0:0:0:0:
448,192,183608,1,0,0:0:0:0:
192,192,183758,1,0,0:0:0:0:
320,192,183833,1,0,0:0:0:0:
64,192,183908,1,0,0:0:0:0:
448,192,183908,1,0,0:0:0:0:
192,192,184058,1,0,0:0:0:0:
64,192,184208,1,0,0:0:0:0:
320,192,184208,1,0,0:0:0:0:
448,192,184358,1,0,0:0:0:0:
64,192,184508,1,0,0:0:0:0:
192,192,184508,1,0,0:0:0:0:
192,192,184658,1,0,0:0:0:0:
320,192,184658,1,0,0:0:0:0:
64,192,184808,1,0,0:0:0:0:
192,192,184958,1,0,0:0:0:0:
320,192,184958,1,0,0:0:0:0:
192,192,185108,1,0,0:0:0:0:
448,192,185108,1,0,0:0:0:0:
320,192,185258,1,0,0:0:0:0:
64,192,185408,1,0,0:0:0:0:
448,192,185408,1,0,0:0:0:0:
320,192,185558,1,0,0:0:0:0:
448,192,185558,1,0,0:0:0:0:
192,192,185633,1,0,0:0:0:0:
64,192,185708,1,0,0:0:0:0:
192,192,185858,1,0,0:0:0:0:
320,192,185858,1,0,0:0:0:0:
448,192,186008,1,0,0:0:0:0:
64,192,186158,1,0,0:0:0:0:
192,192,186158,1,0,0:0:0:0:
64,192,186308,1,0,0:0:0:0:
448,192,186308,128,0,186608:0:0:0:0:
192,192,186458,1,0,0:0:0:0:
64,192,186608,1,0,0:0:0:0:
320,192,186608,128,0,186908:0:0:0:0:
192,192,186758,1,0,0:0:0:0:
64,192,186908,128,0,187208:0:0:0:0:
448,192,186908,1,0,0:0:0:0:
192,192,187058,1,0,0:0:0:0:
320,192,187208,1,0,0:0:0:0:
448,192,187208,1,0,0:0:0:0:
192,192,187358,1,0,0:0:0:0:
448,192,187358,1,0,0:0:0:0:
320,192,187508,1,0,0:0:0:0:
64,192,187658,1,0,0:0:0:0:
192,192,187658,1,0,0:0:0:0:
448,192,187808,1,0,0:0:0:0:
64,192,187883,1,0,0:0:0:0:
448,192,187958,1,0,0:0:0:0:
192,192,188108,1,0,0:0:0:0:
64,192,188183,1,0,0:0:0:0:
320,192,188258,1,0,0:0:0:0:
448,192,188258,1,0,0:0:0:0:
64,192,188408,1,0,0:0:0:0:
448,192,188408,1,0,0:0:0:0:
192,192,188558,1,0,0:0:0:0:
64,192,188708,1,0,0:0:0:0:
320,192,188708,1,0,0:0:0:0:
192,192,188858,1,0,0:0:0:0:
192,192,189008,1,0,0:0:0:0:
64,192,189158,1,0,0:0:0:0:
448,192,189158,1,0,0:0:0:0:
320,192,189308,1,0,0:0:0:0:
320,192,189458,1,0,0:0:0:0:
64,192,189608,1,0,0:0:0:0:
192,192,189608,1,0,0:0:0:0:
192,192,189758,1,0,0:0:0:0:
448,192,189758,1,0,0:0:0:0:
320,192,189908,1,0,0:0:0:0:
64,192,190058,1,0,0:0:0:0:
448,192,190058,1,0,0:0:0:0:
64,192,190208,1,0,0:0:0:0:
320,192,190208,1,0,0:0:0:0:
192,192,190358,1,0,0:0:0:0:
320,192,190358,1,0,0:0:0:0:
192,192,190508,1,0,0:0:0:0:
448,192,190508,1,0,0:0:0:0:
320,192,190658,1,0,0:0:0:0:
448,192,190658,1,0,0:0:0:0:
64,192,190808,1,0,0:0:0:0:
192,192,190808,1,0,0:0:0:0:
320,192,190883,1,0,0:0:0:0:
192,192,190958,1,0,0:0:0:0:
64,192,191108,1,0,0:0:0:0:
320,192,191108,128,0,191408:0:0:0:0:
64,192,191408,1,0,0:0:0:0:
192,192,191408,1,0,0:0:0:0:
448,192,191558,1,0,0:0:0:0:
320,192,191708,1,0,0:0:0:0:
192,192,191858,1,0,0:0:0:0:
320,192,192008,1,0,0:0:0:0:
448,192,192008,1,0,0:0:0:0:
192,192,192158,1,0,0:0:0:0:
64,192,192308,1,0,0:0:0:0:
320,192,192458,1,0,0:0:0:0:
192,192,192533,1,0,0:0:0:0:
64,192,192608,1,0,0:0:0:0:
448,192,192608,1,0,0:0:0:0:
320,192,192758,1,0,0:0:0:0:
192,192,192908,1,0,0:0:0:0:
448,192,192908,1,0,0:0:0:0:
64,192,193058,1,0,0:0:0:0:
320,192,193208,1,0,0:0:0:0:
448,192,193208,1,0,0:0:0:0:
192,192,193358,1,0,0:0:0:0:
320,192,193358,1,0,0:0:0:0:
448,192,193508,1,0,0:0:0:0:
192,192,193658,1,0,0:0:0:0:
320,192,193658,1,0,0:0:0:0:
64,192,193808,1,0,0:0:0:0:
320,192,193808,1,0,0:0:0:0:
192,192,193958,1,0,0:0:0:0:
64,192,194108,1,0,0:0:0:0:
448,192,194108,1,0,0:0:0:0:
64,192,194258,1,0,0:0:0:0:
192,192,194258,1,0,0:0:0:0:
320,192,194333,1,0,0:0:0:0:
448,192,194408,1,0,0:0:0:0:
192,192,194558,1,0,0:0:0:0:
320,192,194558,1,0,0:0:0:0:
64,192,194708,1,0,0:0:0:0:
320,192,194858,1,0,0:0:0:0:
448,192,194858,1,0,0:0:0:0:
64,192,195008,1,0,0:0:0:0:
192,192,195008,1,0,0:0:0:0:
64,192,195158,1,0,0:0:0:0:
192,192,195158,1,0,0:0:0:0:
192,192,195308,1,0,0:0:0:0:
320,192,195308,128,0,195608:0:0:0:0:
64,192,195608,1,0,0:0:0:0:
192,192,195608,1,0,0:0:0:0:
64,192,195758,1,0,0:0:0:0:
192,192,195758,1,0,0:0:0:0:
64,192,195908,1,0,0:0:0:0:
448,192,195908,128,0,196218:0:0:0:0:
320,192,196838,1,0,0:0:0:0:
448,192,196838,1,0,0:0:0:0:
320,192,196993,1,0,0:0:0:0:
448,192,196993,1,0,0:0:0:0:
64,192,197149,128,0,197455:0:0:0:0:
448,192,197149,1,0,0:0:0:0:
320,192,198070,1,0,0:0:0:0:
448,192,198070,1,0,0:0:0:0:
64,192,198146,1,0,0:0:0:0:
192,192,198146,1,0,0:0:0:0:
320,192,198223,1,0,0:0:0:0:
192,192,198300,1,0,0:0:0:0:
64,192,198377,1,0,0:0:0:0:
448,192,198377,1,0,0:0:0:0:
192,192,198608,1,0,0:0:0:0:
64,192,198685,1,0,0:0:0:0:
320,192,198685,1,0,0:0:0:0:
64,192,198839,1,0,0:0:0:0:
64,192,198993,1,0,0:0:0:0:
448,192,198993,1,0,0:0:0:0:
192,192,199146,1,0,0:0:0:0:
64,192,199300,1,0,0:0:0:0:
320,192,199300,1,0,0:0:0:0:
448,192,199454,1,0,0:0:0:0:
64,192,199608,1,0,0:0:0:0:
192,192,199608,128,0,199916:0:0:0:0:
320,192,199916,128,0,200223:0:0:0:0:
448,192,199916,1,0,0:0:0:0:
64,192,200223,128,0,200531:0:0:0:0:
448,192,200223,1,0,0:0:0:0:
192,192,200531,1,0,0:0:0:0:
448,192,200531,1,0,0:0:0:0:
320,192,200608,1,0,0:0:0:0:
192,192,200685,1,0,0:0:0:0:
448,192,200762,1,0,0:0:0:0:
64,192,200839,1,0,0:0:0:0:
320,192,200839,1,0,0:0:0:0:
192,192,201070,1,0,0:0:0:0:
64,192,201146,1,0,0:0:0:0:
448,192,201146,1,0,0:0:0:0:
448,192,201300,1,0,0:0:0:0:
192,192,201454,1,0,0:0:0:0:
448,192,201454,1,0,0:0:0:0:
320,192,201608,1,0,0:0:0:0:
64,192,201762,1,0,0:0:0:0:
192,192,201762,1,0,0:0:0:0:
448,192,201916,1,0,0:0:0:0:
64,192,202070,1,0,0:0:0:0:
320,192,202070,1,0,0:0:0:0:
192,192,202377,1,0,0:0:0:0:
448,192,202377,1,0,0:0:0:0:
192,192,202531,1,0,0:0:0:0:
448,192,202531,1,0,0:0:0:0:
64,192,202685,1,0,0:0:0:0:
320,192,202839,1,0,0:0:0:0:
192,192,202993,1,0,0:0:0:0:
320,192,203146,1,0,0:0:0:0:
448,192,203146,1,0,0:0:0:0:
320,192,203300,1,0,0:0:0:0:
448,192,203300,1,0,0:0:0:0:
192,192,203454,1,0,0:0:0:0:
64,192,203608,1,0,0:0:0:0:
448,192,203608,1,0,0:0:0:0:
320,192,203685,1,0,0:0:0:0:
64,192,203762,1,0,0:0:0:0:
192,192,203839,1,0,0:0:0:0:
320,192,203916,1,0,0:0:0:0:
448,192,203916,1,0,0:0:0:0:
192,192,204146,1,0,0:0:0:0:
64,192,204223,1,0,0:0:0:0:
320,192,204223,1,0,0:0:0:0:
320,192,204377,1,0,0:0:0:0:
192,192,204531,1,0,0:0:0:0:
320,192,204531,1,0,0:0:0:0:
448,192,204685,1,0,0:0:0:0:
64,192,204839,1,0,0:0:0:0:
192,192,204839,1,0,0:0:0:0:
320,192,204993,1,0,0:0:0:0:
64,192,205146,128,0,205454:0:0:0:0:
448,192,205146,1,0,0:0:0:0:
320,192,205454,1,0,0:0:0:0:
448,192,205454,1,0,0:0:0:0:
192,192,205531,1,0,0:0:0:0:
64,192,205608,1,0,0:0:0:0:
320,192,205608,1,0,0:0:0:0:
448,192,205685,1,0,0:0:0:0:
64,192,205762,1,0,0:0:0:0:
192,192,205762,1,0,0:0:0:0:
320,192,205839,1,0,0:0:0:0:
64,192,205916,1,0,0:0:0:0:
448,192,205916,1,0,0:0:0:0:
192,192,205993,1,0,0:0:0:0:
320,192,206070,1,0,0:0:0:0:
448,192,206070,1,0,0:0:0:0:
64,192,206146,1,0,0:0:0:0:
192,192,206223,1,0,0:0:0:0:
320,192,206223,1,0,0:0:0:0:
448,192,206300,1,0,0:0:0:0:
64,192,206377,1,0,0:0:0:0:
192,192,206377,1,0,0:0:0:0:
320,192,206454,1,0,0:0:0:0:
64,192,206531,1,0,0:0:0:0:
448,192,206531,1,0,0:0:0:0:
192,192,206608,1,0,0:0:0:0:
320,192,206685,1,0,0:0:0:0:
448,192,206685,1,0,0:0:0:0:
64,192,206762,1,0,0:0:0:0:
192,192,206839,1,0,0:0:0:0:
448,192,206839,1,0,0:0:0:0:
320,192,206916,1,0,0:0:0:0:
64,192,206993,128,0,207300:0:0:0:0:
192,192,206993,1,0,0:0:0:0:
320,192,207300,1,0,0:0:0:0:
448,192,207300,1,0,0:0:0:0:
192,192,207377,1,0,0:0:0:0:
448,192,207454,1,0,0:0:0:0:
64,192,207531,1,0,0:0:0:0:
192,192,207608,1,0,0:0:0:0:
320,192,207608,1,0,0:0:0:0:
448,192,207839,1,0,0:0:0:0:
192,192,207916,1,0,0:0:0:0:
320,192,207916,1,0,0:0:0:0:
192,192,208070,1,0,0:0:0:0:
64,192,208223,1,0,0:0:0:0:
192,192,208223,1,0,0:0:0:0:
320,192,208377,1,0,0:0:0:0:
64,192,208531,1,0,0:0:0:0:
448,192,208531,1,0,0:0:0:0:
192,192,208685,1,0,0:0:0:0:
64,192,208839,1,0,0:0:0:0:
320,192,208839,1,0,0:0:0:0:
448,192,208993,1,0,0:0:0:0:
64,192,209146,1,0,0:0:0:0:
192,192,209146,1,0,0:0:0:0:
320,192,209185,1,0,0:0:0:0:
64,192,209300,1,0,0:0:0:0:
64,192,209454,1,0,0:0:0:0:
192,192,209608,1,0,0:0:0:0:
320,192,209608,128,0,210070:0:0:0:0:
448,192,209608,128,0,210070:0:0:0:0:
192,192,209916,1,0,0:0:0:0:
64,192,210070,1,0,0:0:0:0:
448,192,210172,1,0,0:0:0:0:
64,192,210275,1,0,0:0:0:0:
192,192,210275,1,0,0:0:0:0:
320,192,210377,1,0,0:0:0:0:
448,192,210377,1,0,0:0:0:0:
64,192,210480,1,0,0:0:0:0:
192,192,210480,1,0,0:0:0:0:
320,192,210582,1,0,0:0:0:0:
64,192,210685,1,0,0:0:0:0:
448,192,210685,1,0,0:0:0:0:
192,192,210787,1,0,0:0:0:0:
64,192,210890,1,0,0:0:0:0:
320,192,210890,1,0,0:0:0:0:
192,192,210993,1,0,0:0:0:0:
448,192,210993,1,0,0:0:0:0:
320,192,211095,1,0,0:0:0:0:
192,192,211198,1,0,0:0:0:0:
320,192,211300,1,0,0:0:0:0:
448,192,211300,1,0,0:0:0:0:
64,192,211403,1,0,0:0:0:0:
192,192,211403,1,0,0:0:0:0:
320,192,211505,1,0,0:0:0:0:
448,192,211505,1,0,0:0:0:0:
64,192,211608,1,0,0:0:0:0:
64,192,211916,128,0,212223:0:0:0:0:
192,192,211916,128,0,212223:0:0:0:0:
448,192,211916,1,0,0:0:0:0:
320,192,212223,1,0,0:0:0:0:
448,192,212223,1,0,0:0:0:0:
64,192,212300,1,0,0:0:0:0:
448,192,212377,1,0,0:0:0:0:
192,192,212454,1,0,0:0:0:0:
64,192,212531,1,0,0:0:0:0:
320,192,212531,1,0,0:0:0:0:
192,192,212762,1,0,0:0:0:0:
64,192,212839,1,0,0:0:0:0:
448,192,212839,1,0,0:0:0:0:
448,192,212993,1,0,0:0:0:0:
192,192,213146,1,0,0:0:0:0:
448,192,213146,1,0,0:0:0:0:
320,192,213300,1,0,0:0:0:0:
64,192,213454,1,0,0:0:0:0:
192,192,213454,1,0,0:0:0:0:
320,192,213608,1,0,0:0:0:0:
64,192,213762,128,0,214685:0:0:0:0:
448,192,213762,1,0,0:0:0:0:
192,192,214070,1,0,0:0:0:0:
448,192,214070,1,0,0:0:0:0:
192,192,214377,1,0,0:0:0:0:
320,192,214377,1,0,0:0:0:0:
320,192,214685,1,0,0:0:0:0:
448,192,214685,1,0,0:0:0:0:
192,192,214762,1,0,0:0:0:0:
448,192,214839,1,0,0:0:0:0:
320,192,214916,1,0,0:0:0:0:
64,192,214993,1,0,0:0:0:0:
192,192,214993,1,0,0:0:0:0:
448,192,215223,1,0,0:0:0:0:
64,192,215300,1,0,0:0:0:0:
320,192,215300,1,0,0:0:0:0:
64,192,215454,1,0,0:0:0:0:
64,192,215608,1,0,0:0:0:0:
448,192,215608,1,0,0:0:0:0:
192,192,215762,1,0,0:0:0:0:
64,192,215916,1,0,0:0:0:0:
320,192,215916,1,0,0:0:0:0:
448,192,216070,1,0,0:0:0:0:
64,192,216223,1,0,0:0:0:0:
192,192,216223,1,0,0:0:0:0:
320,192,216531,1,0,0:0:0:0:
448,192,216531,1,0,0:0:0:0:
320,192,216685,1,0,0:0:0:0:
448,192,216685,1,0,0:0:0:0:
192,192,216839,1,0,0:0:0:0:
192,192,216993,1,0,0:0:0:0:
448,192,217146,1,0,0:0:0:0:
64,192,217300,1,0,0:0:0:0:
320,192,217300,1,0,0:0:0:0:
64,192,217454,1,0,0:0:0:0:
320,192,217454,1,0,0:0:0:0:
64,192,217762,1,0,0:0:0:0:
448,192,217762,1,0,0:0:0:0:
192,192,217839,1,0,0:0:0:0:
320,192,217916,1,0,0:0:0:0:
64,192,217993,1,0,0:0:0:0:
192,192,218070,1,0,0:0:0:0:
448,192,218070,1,0,0:0:0:0:
320,192,218300,1,0,0:0:0:0:
64,192,218377,1,0,0:0:0:0:
192,192,218377,1,0,0:0:0:0:
192,192,218531,1,0,0:0:0:0:
192,192,218685,1,0,0:0:0:0:
448,192,218685,1,0,0:0:0:0:
320,192,218839,1,0,0:0:0:0:
64,192,218993,1,0,0:0:0:0:
448,192,218993,1,0,0:0:0:0:
192,192,219146,1,0,0:0:0:0:
64,192,219300,1,0,0:0:0:0:
320,192,219300,1,0,0:0:0:0:
448,192,219454,1,0,0:0:0:0:
64,192,219608,1,0,0:0:0:0:
320,192,219608,1,0,0:0:0:0:
192,192,219762,1,0,0:0:0:0:
192,192,219916,1,0,0:0:0:0:
64,192,220070,128,0,220531:0:0:0:0:
448,192,220070,1,0,0:0:0:0:
320,192,220223,1,0,0:0:0:0:
320,192,220377,1,0,0:0:0:0:
192,192,220531,1,0,0:0:0:0:
448,192,220531,1,0,0:0:0:0:
320,192,220608,1,0,0:0:0:0:
64,192,220685,1,0,0:0:0:0:
448,192,220685,1,0,0:0:0:0:
192,192,220762,1,0,0:0:0:0:
64,192,220839,1,0,0:0:0:0:
320,192,220839,1,0,0:0:0:0:
448,192,220916,1,0,0:0:0:0:
192,192,220993,1,0,0:0:0:0:
320,192,221070,1,0,0:0:0:0:
192,192,221146,1,0,0:0:0:0:
448,192,221146,1,0,0:0:0:0:
64,192,221223,1,0,0:0:0:0:
320,192,221300,1,0,0:0:0:0:
192,192,221377,1,0,0:0:0:0:
64,192,221454,1,0,0:0:0:0:
448,192,221454,1,0,0:0:0:0:
320,192,221531,1,0,0:0:0:0:
64,192,221608,1,0,0:0:0:0:
192,192,221608,1,0,0:0:0:0:
320,192,221685,1,0,0:0:0:0:
64,192,221762,1,0,0:0:0:0:
448,192,221762,1,0,0:0:0:0:
192,192,221839,1,0,0:0:0:0:
320,192,221916,1,0,0:0:0:0:
448,192,221916,1,0,0:0:0:0:
64,192,221993,1,0,0:0:0:0:
192,192,222070,1,0,0:0:0:0:
320,192,222070,1,0,0:0:0:0:
448,192,222146,1,0,0:0:0:0:
192,192,222223,1,0,0:0:0:0:
320,192,222300,1,0,0:0:0:0:
64,192,222377,1,0,0:0:0:0:
448,192,222377,1,0,0:0:0:0:
192,192,222454,1,0,0:0:0:0:
320,192,222531,1,0,0:0:0:0:
448,192,222531,1,0,0:0:0:0:
192,192,222608,1,0,0:0:0:0:
64,192,222685,1,0,0:0:0:0:
320,192,222685,1,0,0:0:0:0:
448,192,222762,1,0,0:0:0:0:
192,192,222839,1,0,0:0:0:0:
320,192,222916,1,0,0:0:0:0:
64,192,222993,1,0,0:0:0:0:
448,192,222993,1,0,0:0:0:0:
192,192,223070,1,0,0:0:0:0:
320,192,223146,1,0,0:0:0:0:
64,192,223223,1,0,0:0:0:0:
192,192,223300,1,0,0:0:0:0:
320,192,223300,1,0,0:0:0:0:
448,192,223377,1,0,0:0:0:0:
64,192,223454,1,0,0:0:0:0:
192,192,223454,1,0,0:0:0:0:
320,192,223531,1,0,0:0:0:0:
64,192,223608,1,0,0:0:0:0:
448,192,223608,1,0,0:0:0:0:
192,192,223685,1,0,0:0:0:0:
320,192,223762,1,0,0:0:0:0:
448,192,223762,1,0,0:0:0:0:
64,192,223839,1,0,0:0:0:0:
192,192,223916,1,0,0:0:0:0:
448,192,223916,1,0,0:0:0:0:
320,192,223993,1,0,0:0:0:0:
64,192,224070,1,0,0:0:0:0:
448,192,224146,1,0,0:0:0:0:
64,192,224223,1,0,0:0:0:0:
320,192,224223,1,0,0:0:0:0:
192,192,224300,1,0,0:0:0:0:
320,192,224377,1,0,0:0:0:0:
448,192,224377,1,0,0:0:0:0:
64,192,224454,1,0,0:0:0:0:
192,192,224531,1,0,0:0:0:0:
320,192,224531,1,0,0:0:0:0:
448,192,224608,1,0,0:0:0:0:
64,192,224685,1,0,0:0:0:0:
192,192,224762,1,0,0:0:0:0:
320,192,224839,1,0,0:0:0:0:
448,192,224839,1,0,0:0:0:0:
64,192,224916,1,0,0:0:0:0:
448,192,224993,1,0,0:0:0:0:
320,192,225070,1,0,0:0:0:0:
64,192,225146,1,0,0:0:0:0:
192,192,225146,1,0,0:0:0:0:
448,192,225223,1,0,0:0:0:0:
192,192,225300,1,0,0:0:0:0:
320,192,225300,1,0,0:0:0:0:
64,192,225377,1,0,0:0:0:0:
320,192,225454,1,0,0:0:0:0:
448,192,225454,1,0,0:0:0:0:
192,192,225531,1,0,0:0:0:0:
64,192,225608,1,0,0:0:0:0:
448,192,225608,1,0,0:0:0:0:
320,192,225685,1,0,0:0:0:0:
64,192,225762,1,0,0:0:0:0:
192,192,225762,1,0,0:0:0:0:
448,192,225839,1,0,0:0:0:0:
320,192,225916,1,0,0:0:0:0:
64,192,225993,1,0,0:0:0:0:
192,192,226070,1,0,0:0:0:0:
448,192,226070,1,0,0:0:0:0:
320,192,226146,1,0,0:0:0:0:
64,192,226223,1,0,0:0:0:0:
448,192,226223,1,0,0:0:0:0:
192,192,226300,1,0,0:0:0:0:
64,192,226377,1,0,0:0:0:0:
320,192,226377,1,0,0:0:0:0:
448,192,226454,1,0,0:0:0:0:
192,192,226531,1,0,0:0:0:0:
320,192,226608,1,0,0:0:0:0:
64,192,226685,1,0,0:0:0:0:
448,192,226685,1,0,0:0:0:0:
192,192,226762,1,0,0:0:0:0:
320,192,226839,1,0,0:0:0:0:
448,192,226839,1,0,0:0:0:0:
64,192,226916,1,0,0:0:0:0:
192,192,226993,1,0,0:0:0:0:
448,192,226993,1,0,0:0:0:0:
320,192,227070,1,0,0:0:0:0:
192,192,227146,1,0,0:0:0:0:
448,192,227223,1,0,0:0:0:0:
64,192,227300,1,0,0:0:0:0:
320,192,227300,1,0,0:0:0:0:
192,192,227377,1,0,0:0:0:0:
320,192,227454,1,0,0:0:0:0:
448,192,227531,1,0,0:0:0:0:
64,192,227608,1,0,0:0:0:0:
192,192,227608,1,0,0:0:0:0:
320,192,227685,1,0,0:0:0:0:
64,192,227762,1,0,0:0:0:0:
192,192,227839,1,0,0:0:0:0:
320,192,227916,1,0,0:0:0:0:
448,192,227916,1,0,0:0:0:0:
64,192,227955,1,0,0:0:0:0:
320,192,228073,1,0,0:0:0:0:
448,192,228073,1,0,0:0:0:0:
320,192,228231,1,0,0:0:0:0:
448,192,228231,1,0,0:0:0:0:
192,192,228389,1,0,0:0:0:0:
320,192,228429,1,0,0:0:0:0:
192,192,228547,1,0,0:0:0:0:
192,192,228705,1,0,0:0:0:0:
64,192,228863,1,0,0:0:0:0:
448,192,228863,1,0,0:0:0:0:
320,192,228902,1,0,0:0:0:0:
64,192,229021,1,0,0:0:0:0:
448,192,229021,1,0,0:0:0:0:
64,192,229179,1,0,0:0:0:0:
448,192,229179,1,0,0:0:0:0:
320,192,229337,1,0,0:0:0:0:
192,192,229376,1,0,0:0:0:0:
320,192,229494,1,0,0:0:0:0:
320,192,229652,1,0,0:0:0:0:
64,192,229810,1,0,0:0:0:0:
192,192,229810,1,0,0:0:0:0:
320,192,229889,1,0,0:0:0:0:
448,192,229889,1,0,0:0:0:0:
64,192,229968,1,0,0:0:0:0:
192,192,229968,1,0,0:0:0:0:
320,192,230047,1,0,0:0:0:0:
448,192,230047,1,0,0:0:0:0:
64,192,230126,1,0,0:0:0:0:
192,192,230126,1,0,0:0:0:0:
320,192,230205,1,0,0:0:0:0:
448,192,230205,1,0,0:0:0:0:
64,192,230284,1,0,0:0:0:0:
192,192,230363,1,0,0:0:0:0:
320,192,230442,1,0,0:0:0:0:
448,192,230442,1,0,0:0:0:0:
64,192,230521,1,0,0:0:0:0:
192,192,230521,1,0,0:0:0:0:
448,192,230600,1,0,0:0:0:0:
320,192,230679,1,0,0:0:0:0:
64,192,230758,1,0,0:0:0:0:
192,192,230758,1,0,0:0:0:0:
320,192,230837,1,0,0:0:0:0:
448,192,230837,1,0,0:0:0:0:
64,192,230916,1,0,0:0:0:0:
192,192,230916,1,0,0:0:0:0:
320,192,230994,1,0,0:0:0:0:
448,192,230994,1,0,0:0:0:0:
64,192,231073,1,0,0:0:0:0:
192,192,231073,1,0,0:0:0:0:
320,192,231152,1,0,0:0:0:0:
448,192,231152,1,0,0:0:0:0:
192,192,231231,1,0,0:0:0:0:
64,192,231310,1,0,0:0:0:0:
448,192,231389,1,0,0:0:0:0:
320,192,231468,1,0,0:0:0:0:
64,192,231547,1,0,0:0:0:0:
192,192,231547,1,0,0:0:0:0:
448,192,231626,1,0,0:0:0:0:
64,192,231705,128,0,232179:0:0:0:0:
192,192,231705,1,0,0:0:0:0:
320,192,231705,1,0,0:0:0:0:
192,192,232179,1,0,0:0:0:0:
448,192,232179,128,0,232654:0:0:0:0:
64,192,232654,128,0,234154:0:0:0:0:
192,192,232654,1,0,0:0:0:0:
320,192,232654,1,0,0:0:0:0:
448,192,233154,1,0,0:0:0:0:
192,192,233654,1,0,0:0:0:0:
320,192,233987,1,0,0:0:0:0:
192,192,234154,1,0,0:0:0:0:
320,192,234154,1,0,0:0:0:0:
448,192,234154,128,0,235654:0:0:0:0:
64,192,234654,1,0,0:0:0:0:
192,192,235154,1,0,0:0:0:0:
320,192,235154,1,0,0:0:0:0:
64,192,235654,1,0,0:0:0:0:
192,192,235654,128,0,237154:0:0:0:0:
320,192,235654,1,0,0:0:0:0:
448,192,236154,1,0,0:0:0:0:
64,192,236654,1,0,0:0:0:0:
320,192,236987,1,0,0:0:0:0:
320,192,237154,1,0,0:0:0:0:
448,192,237154,1,0,0:0:0:0:
64,192,237320,1,0,0:0:0:0:
64,192,237487,1,0,0:0:0:0:
448,192,237487,1,0,0:0:0:0:
192,192,237654,1,0,0:0:0:0:
64,192,237820,1,0,0:0:0:0:
192,192,237820,1,0,0:0:0:0:
320,192,237987,1,0,0:0:0:0:
64,192,238154,1,0,0:0:0:0:
320,192,238154,1,0,0:0:0:0:
192,192,238320,1,0,0:0:0:0:
192,192,238487,1,0,0:0:0:0:
448,192,238487,1,0,0:0:0:0:
64,192,238654,1,0,0:0:0:0:
448,192,238654,128,0,240154:0:0:0:0:
192,192,239154,1,0,0:0:0:0:
320,192,239654,1,0,0:0:0:0:
64,192,239987,1,0,0:0:0:0:
192,192,240070,1,0,0:0:0:0:
64,192,240154,128,0,241154:0:0:0:0:
320,192,240154,1,0,0:0:0:0:
448,192,240654,1,0,0:0:0:0:
192,192,241154,1,0,0:0:0:0:
320,192,241154,128,0,241654:0:0:0:0:
192,192,241654,128,0,243154:0:0:0:0:
448,192,241654,1,0,0:0:0:0:
64,192,242154,1,0,0:0:0:0:
448,192,242654,1,0,0:0:0:0:
64,192,243029,1,0,0:0:0:0:
320,192,243154,1,0,0:0:0:0:
448,192,243154,1,0,0:0:0:0:
320,192,243279,1,0,0:0:0:0:
448,192,243279,1,0,0:0:0:0:
192,192,243404,1,0,0:0:0:0:
64,192,243529,1,0,0:0:0:0:
448,192,243529,1,0,0:0:0:0:
448,192,243654,1,0,0:0:0:0:
192,192,243779,1,0,0:0:0:0:
64,192,243904,1,0,0:0:0:0:
320,192,243904,1,0,0:0:0:0:
64,192,244029,1,0,0:0:0:0:
448,192,244154,1,0,0:0:0:0:
192,192,244279,1,0,0:0:0:0:
320,192,244279,1,0,0:0:0:0:
192,192,244404,1,0,0:0:0:0:
320,192,244529,1,0,0:0:0:0:
64,192,244654,128,0,246154:0:0:0:0:
448,192,244654,1,0,0:0:0:0:
320,192,245154,1,0,0:0:0:0:
192,192,245654,1,0,0:0:0:0:
448,192,245987,1,0,0:0:0:0:
320,192,246070,1,0,0:0:0:0:
192,192,246154,128,0,247654:0:0:0:0:
448,192,246154,1,0,0:0:0:0:
320,192,246654,1,0,0:0:0:0:
64,192,247154,1,0,0:0:0:0:
64,192,247654,1,0,0:0:0:0:
448,192,247654,1,0,0:0:0:0:
448,192,247820,1,0,0:0:0:0:
64,192,247987,1,0,0:0:0:0:
192,192,247987,1,0,0:0:0:0:
64,192,248154,1,0,0:0:0:0:
192,192,248154,1,0,0:0:0:0:
448,192,248195,1,0,0:0:0:0:
320,192,248320,1,0,0:0:0:0:
192,192,248487,1,0,0:0:0:0:
448,192,248487,1,0,0:0:0:0:
320,192,248529,1,0,0:0:0:0:
448,192,248654,1,0,0:0:0:0:
64,192,248695,1,0,0:0:0:0:
320,192,248820,1,0,0:0:0:0:
64,192,248987,1,0,0:0:0:0:
192,192,248987,1,0,0:0:0:0:
448,192,249029,1,0,0:0:0:0:
64,192,249154,1,0,0:0:0:0:
320,192,249154,1,0,0:0:0:0:
192,192,249195,1,0,0:0:0:0:
448,192,249320,1,0,0:0:0:0:
64,192,249362,1,0,0:0:0:0:
192,192,249487,1,0,0:0:0:0:
320,192,249529,1,0,0:0:0:0:
448,192,249654,1,0,0:0:0:0:
192,192,249695,1,0,0:0:0:0:
64,192,249820,1,0,0:0:0:0:
320,192,249862,1,0,0:0:0:0:
448,192,249987,1,0,0:0:0:0:
64,192,250029,1,0,0:0:0:0:
320,192,250154,1,0,0:0:0:0:
192,192,250195,1,0,0:0:0:0:
64,192,250320,1,0,0:0:0:0:
448,192,250362,1,0,0:0:0:0:
320,192,250487,1,0,0:0:0:0:
64,192,250529,1,0,0:0:0:0:
192,192,250654,1,0,0:0:0:0:
448,192,250654,128,0,252154:0:0:0:0:
64,192,251154,1,0,0:0:0:0:
192,192,251654,1,0,0:0:0:0:
64,192,251987,1,0,0:0:0:0:
320,192,252070,1,0,0:0:0:0:
64,192,252154,1,0,0:0:0:0:
192,192,252154,128,0,253154:0:0:0:0:
448,192,252654,1,0,0:0:0:0:
64,192,253154,1,0,0:0:0:0:
320,192,253154,128,0,253654:0:0:0:0:
192,192,253654,1,0,0:0:0:0:
448,192,253654,128,0,255654:0:0:0:0:
64,192,254154,1,0,0:0:0:0:
320,192,254654,1,0,0:0:0:0:
192,192,254987,1,0,0:0:0:0:
64,192,255070,1,0,0:0:0:0:
192,192,255154,1,0,0:0:0:0:
320,192,255154,1,0,0:0:0:0:
192,192,255529,1,0,0:0:0:0:
320,192,255529,1,0,0:0:0:0:
64,192,255654,1,0,0:0:0:0:
320,192,255654,1,0,0:0:0:0:
192,192,255820,1,0,0:0:0:0:
448,192,255904,1,0,0:0:0:0:
320,192,255987,1,0,0:0:0:0:
64,192,256070,1,0,0:0:0:0:
192,192,256070,1,0,0:0:0:0:
320,192,256154,1,0,0:0:0:0:
448,192,256154,1,0,0:0:0:0:
64,192,256237,1,0,0:0:0:0:
192,192,256320,1,0,0:0:0:0:
320,192,256404,1,0,0:0:0:0:
448,192,256487,1,0,0:0:0:0:
192,192,256570,1,0,0:0:0:0:
64,192,256654,1,0,0:0:0:0:
320,192,256654,1,0,0:0:0:0:
448,192,256654,1,0,0:0:0:0:
192,192,256737,1,0,0:0:0:0:
320,192,256820,1,0,0:0:0:0:
64,192,256904,1,0,0:0:0:0:
192,192,256987,1,0,0:0:0:0:
320,192,257070,1,0,0:0:0:0:
448,192,257070,1,0,0:0:0:0:
64,192,257154,1,0,0:0:0:0:
192,192,257154,1,0,0:0:0:0:
448,192,257237,1,0,0:0:0:0:
320,192,257320,1,0,0:0:0:0:
192,192,257404,1,0,0:0:0:0:
448,192,257487,1,0,0:0:0:0:
64,192,257570,1,0,0:0:0:0:
320,192,257570,1,0,0:0:0:0:
192,192,257654,1,0,0:0:0:0:
448,192,257654,1,0,0:0:0:0:
64,192,257737,1,0,0:0:0:0:
320,192,257820,1,0,0:0:0:0:
192,192,257904,1,0,0:0:0:0:
448,192,257987,1,0,0:0:0:0:
192,192,258070,1,0,0:0:0:0:
64,192,258154,1,0,0:0:0:0:
320,192,258154,1,0,0:0:0:0:
448,192,258154,1,0,0:0:0:0:
192,192,258237,1,0,0:0:0:0:
320,192,258320,1,0,0:0:0:0:
64,192,258404,1,0,0:0:0:0:
448,192,258487,1,0,0:0:0:0:
64,192,258570,1,0,0:0:0:0:
192,192,258570,1,0,0:0:0:0:
320,192,258654,1,0,0:0:0:0:
448,192,258654,1,0,0:0:0:0:
192,192,258737,1,0,0:0:0:0:
64,192,258820,1,0,0:0:0:0:
320,192,258904,1,0,0:0:0:0:
192,192,258987,1,0,0:0:0:0:
320,192,259070,1,0,0:0:0:0:
448,192,259070,1,0,0:0:0:0:
64,192,259154,1,0,0:0:0:0:
192,192,259154,1,0,0:0:0:0:
448,192,259237,1,0,0:0:0:0:
320,192,259320,1,0,0:0:0:0:
192,192,259404,1,0,0:0:0:0:
64,192,259487,1,0,0:0:0:0:
320,192,259570,1,0,0:0:0:0:
64,192,259654,1,0,0:0:0:0:
192,192,259654,1,0,0:0:0:0:
448,192,259654,1,0,0:0:0:0:
320,192,259737,1,0,0:0:0:0:
192,192,259820,1,0,0:0:0:0:
448,192,259904,1,0,0:0:0:0:
64,192,259987,1,0,0:0:0:0:
192,192,260070,1,0,0:0:0:0:
320,192,260070,1,0,0:0:0:0:
64,192,260154,1,0,0:0:0:0:
448,192,260154,1,0,0:0:0:0:
320,192,260237,1,0,0:0:0:0:
192,192,260320,1,0,0:0:0:0:
448,192,260404,1,0,0:0:0:0:
64,192,260487,1,0,0:0:0:0:
320,192,260570,1,0,0:0:0:0:
448,192,260570,1,0,0:0:0:0:
64,192,260654,1,0,0:0:0:0:
192,192,260654,1,0,0:0:0:0:
320,192,260737,1,0,0:0:0:0:
448,192,260820,1,0,0:0:0:0:
64,192,260904,1,0,0:0:0:0:
192,192,260987,1,0,0:0:0:0:
320,192,261070,1,0,0:0:0:0:
64,192,261154,1,0,0:0:0:0:
192,192,261154,1,0,0:0:0:0:
448,192,261154,1,0,0:0:0:0:
320,192,261237,1,0,0:0:0:0:
64,192,261320,1,0,0:0:0:0:
448,192,261404,1,0,0:0:0:0:
192,192,261487,1,0,0:0:0:0:
64,192,261570,1,0,0:0:0:0:
448,192,261570,1,0,0:0:0:0:
192,192,261654,1,0,0:0:0:0:
320,192,261654,1,0,0:0:0:0:
448,192,261737,1,0,0:0:0:0:
64,192,261820,1,0,0:0:0:0:
192,192,261904,1,0,0:0:0:0:
320,192,261987,1,0,0:0:0:0:
64,192,262070,1,0,0:0:0:0:
192,192,262070,1,0,0:0:0:0:
320,192,262154,1,0,0:0:0:0:
448,192,262154,1,0,0:0:0:0:
64,192,262237,1,0,0:0:0:0:
192,192,262320,1,0,0:0:0:0:
448,192,262404,1,0,0:0:0:0:
320,192,262487,1,0,0:0:0:0:
192,192,262570,1,0,0:0:0:0:
64,192,262654,1,0,0:0:0:0:
320,192,262654,1,0,0:0:0:0:
448,192,262654,1,0,0:0:0:0:
192,192,262737,1,0,0:0:0:0:
64,192,262820,1,0,0:0:0:0:
448,192,262904,1,0,0:0:0:0:
320,192,262987,1,0,0:0:0:0:
64,192,263070,1,0,0:0:0:0:
192,192,263070,1,0,0:0:0:0:
320,192,263154,1,0,0:0:0:0:
448,192,263154,1,0,0:0:0:0:
64,192,263237,1,0,0:0:0:0:
192,192,263320,1,0,0:0:0:0:
320,192,263404,1,0,0:0:0:0:
448,192,263487,1,0,0:0:0:0:
64,192,263570,1,0,0:0:0:0:
320,192,263570,1,0,0:0:0:0:
192,192,263654,1,0,0:0:0:0:
448,192,263654,1,0,0:0:0:0:
64,192,263737,1,0,0:0:0:0:
320,192,263820,1,0,0:0:0:0:
192,192,263904,1,0,0:0:0:0:
448,192,263987,1,0,0:0:0:0:
64,192,264070,1,0,0:0:0:0:
192,192,264154,1,0,0:0:0:0:
320,192,264154,1,0,0:0:0:0:
448,192,264154,1,0,0:0:0:0:
64,192,264237,1,0,0:0:0:0:
320,192,264320,1,0,0:0:0:0:
192,192,264404,1,0,0:0:0:0:
448,192,264487,1,0,0:0:0:0:
64,192,264570,1,0,0:0:0:0:
192,192,264570,1,0,0:0:0:0:
320,192,264654,1,0,0:0:0:0:
448,192,264654,1,0,0:0:0:0:
64,192,264737,1,0,0:0:0:0:
192,192,264820,1,0,0:0:0:0:
448,192,264904,1,0,0:0:0:0:
64,192,264987,1,0,0:0:0:0:
448,192,265070,1,0,0:0:0:0:
64,192,265154,1,0,0:0:0:0:
192,192,265154,1,0,0:0:0:0:
320,192,265154,1,0,0:0:0:0:
448,192,265237,1,0,0:0:0:0:
192,192,265320,1,0,0:0:0:0:
320,192,265404,1,0,0:0:0:0:
448,192,265487,1,0,0:0:0:0:
192,192,265570,1,0,0:0:0:0:
64,192,265654,1,0,0:0:0:0:
320,192,265654,1,0,0:0:0:0:
448,192,265654,1,0,0:0:0:0:
192,192,265737,1,0,0:0:0:0:
320,192,265820,1,0,0:0:0:0:
64,192,265904,1,0,0:0:0:0:
192,192,265987,1,0,0:0:0:0:
320,192,266070,1,0,0:0:0:0:
448,192,266070,1,0,0:0:0:0:
64,192,266154,1,0,0:0:0:0:
192,192,266154,1,0,0:0:0:0:
448,192,266237,1,0,0:0:0:0:
320,192,266320,1,0,0:0:0:0:
192,192,266404,1,0,0:0:0:0:
64,192,266487,1,0,0:0:0:0:
192,192,266570,1,0,0:0:0:0:
448,192,266570,1,0,0:0:0:0:
64,192,266654,1,0,0:0:0:0:
320,192,266654,1,0,0:0:0:0:
448,192,266737,1,0,0:0:0:0:
192,192,266820,1,0,0:0:0:0:
320,192,266904,1,0,0:0:0:0:
448,192,266987,1,0,0:0:0:0:
64,192,267070,1,0,0:0:0:0:
192,192,267070,1,0,0:0:0:0:
320,192,267154,1,0,0:0:0:0:
448,192,267154,1,0,0:0:0:0:
64,192,267237,1,0,0:0:0:0:
448,192,267320,1,0,0:0:0:0:
192,192,267404,1,0,0:0:0:0:
320,192,267487,1,0,0:0:0:0:
64,192,267570,1,0,0:0:0:0:
448,192,267570,1,0,0:0:0:0:
192,192,267654,1,0,0:0:0:0:
320,192,267654,1,0,0:0:0:0:
64,192,267737,1,0,0:0:0:0:
448,192,267820,1,0,0:0:0:0:
320,192,267904,1,0,0:0:0:0:
192,192,267987,1,0,0:0:0:0:
64,192,268070,1,0,0:0:0:0:
320,192,268070,1,0,0:0:0:0:
192,192,268154,1,0,0:0:0:0:
448,192,268154,1,0,0:0:0:0:
320,192,268237,1,0,0:0:0:0:
192,192,268320,1,0,0:0:0:0:
448,192,268404,1,0,0:0:0:0:
64,192,268487,1,0,0:0:0:0:
320,192,268570,1,0,0:0:0:0:
64,192,268654,1,0,0:0:0:0:
192,192,268654,1,0,0:0:0:0:
448,192,268654,1,0,0:0:0:0:
320,192,268737,1,0,0:0:0:0:
192,192,268820,1,0,0:0:0:0:
448,192,268904,1,0,0:0:0:0:
320,192,268987,1,0,0:0:0:0:
64,192,269070,1,0,0:0:0:0:
192,192,269070,1,0,0:0:0:0:
320,192,269154,1,0,0:0:0:0:
448,192,269154,1,0,0:0:0:0:
64,192,269237,1,0,0:0:0:0:
192,192,269320,1,0,0:0:0:0:
320,192,269404,1,0,0:0:0:0:
64,192,269487,1,0,0:0:0:0:
192,192,269570,1,0,0:0:0:0:
448,192,269570,1,0,0:0:0:0:
64,192,269654,1,0,0:0:0:0:
320,192,269654,1,0,0:0:0:0:
448,192,269737,1,0,0:0:0:0:
192,192,269820,1,0,0:0:0:0:
320,192,269904,1,0,0:0:0:0:
64,192,269987,1,0,0:0:0:0:
320,192,270070,1,0,0:0:0:0:
64,192,270154,1,0,0:0:0:0:
192,192,270154,1,0,0:0:0:0:
448,192,270154,1,0,0:0:0:0:
320,192,270237,1,0,0:0:0:0:
192,192,270320,1,0,0:0:0:0:
448,192,270404,1,0,0:0:0:0:
64,192,270487,1,0,0:0:0:0:
320,192,270570,1,0,0:0:0:0:
448,192,270570,1,0,0:0:0:0:
64,192,270654,1,0,0:0:0:0:
192,192,270654,1,0,0:0:0:0:
320,192,270737,1,0,0:0:0:0:
448,192,270820,1,0,0:0:0:0:
192,192,270904,1,0,0:0:0:0:
320,192,270987,1,0,0:0:0:0:
64,192,271070,1,0,0:0:0:0:
192,192,271070,1,0,0:0:0:0:
320,192,271154,1,0,0:0:0:0:
448,192,271154,1,0,0:0:0:0:
64,192,271237,1,0,0:0:0:0:
192,192,271320,1,0,0:0:0:0:
320,192,271404,1,0,0:0:0:0:
448,192,271487,1,0,0:0:0:0:
192,192,271570,1,0,0:0:0:0:
64,192,271654,1,0,0:0:0:0:
320,192,271654,1,0,0:0:0:0:
448,192,271654,1,0,0:0:0:0:
192,192,271737,1,0,0:0:0:0:
320,192,271820,1,0,0:0:0:0:
64,192,271904,1,0,0:0:0:0:
448,192,271987,1,0,0:0:0:0:
192,192,272070,1,0,0:0:0:0:
320,192,272070,1,0,0:0:0:0:
64,192,272154,1,0,0:0:0:0:
448,192,272154,1,0,0:0:0:0:
192,192,272237,1,0,0:0:0:0:
320,192,272320,1,0,0:0:0:0:
64,192,272404,1,0,0:0:0:0:
448,192,272487,1,0,0:0:0:0:
64,192,272570,1,0,0:0:0:0:
192,192,272570,1,0,0:0:0:0:
320,192,272654,1,0,0:0:0:0:
448,192,272654,1,0,0:0:0:0:
192,192,272737,1,0,0:0:0:0:
64,192,272820,1,0,0:0:0:0:
448,192,272904,1,0,0:0:0:0:
320,192,272987,1,0,0:0:0:0:
192,192,273070,1,0,0:0:0:0:
64,192,273154,1,0,0:0:0:0:
320,192,273154,1,0,0:0:0:0:
448,192,273154,1,0,0:0:0:0:
192,192,273237,1,0,0:0:0:0:
448,192,273320,1,0,0:0:0:0:
64,192,273404,1,0,0:0:0:0:
320,192,273487,1,0,0:0:0:0:
64,192,273570,1,0,0:0:0:0:
448,192,273570,1,0,0:0:0:0:
192,192,273654,1,0,0:0:0:0:
320,192,273654,1,0,0:0:0:0:
64,192,273737,1,0,0:0:0:0:
448,192,273820,1,0,0:0:0:0:
320,192,273904,1,0,0:0:0:0:
192,192,273987,1,0,0:0:0:0:
320,192,274070,1,0,0:0:0:0:
448,192,274070,1,0,0:0:0:0:
64,192,274154,1,0,0:0:0:0:
192,192,274154,1,0,0:0:0:0:
448,192,274237,1,0,0:0:0:0:
320,192,274320,1,0,0:0:0:0:
64,192,274404,1,0,0:0:0:0:
192,192,274487,1,0,0:0:0:0:
320,192,274570,1,0,0:0:0:0:
64,192,274654,1,0,0:0:0:0:
192,192,274654,1,0,0:0:0:0:
448,192,274654,1,0,0:0:0:0:
320,192,274737,1,0,0:0:0:0:
448,192,274820,1,0,0:0:0:0:
64,192,274904,1,0,0:0:0:0:
192,192,274987,1,0,0:0:0:0:
320,192,275070,1,0,0:0:0:0:
448,192,275070,1,0,0:0:0:0:
64,192,275154,1,0,0:0:0:0:
192,192,275154,1,0,0:0:0:0:
448,192,275237,1,0,0:0:0:0:
320,192,275320,1,0,0:0:0:0:
192,192,275404,1,0,0:0:0:0:
64,192,275487,1,0,0:0:0:0:
192,192,275570,1,0,0:0:0:0:
448,192,275570,1,0,0:0:0:0:
64,192,275654,1,0,0:0:0:0:
320,192,275654,1,0,0:0:0:0:
448,192,275737,1,0,0:0:0:0:
192,192,275820,1,0,0:0:0:0:
320,192,275904,1,0,0:0:0:0:
64,192,275987,1,0,0:0:0:0:
448,192,276070,1,0,0:0:0:0:
64,192,276154,1,0,0:0:0:0:
192,192,276154,1,0,0:0:0:0:
320,192,276154,1,0,0:0:0:0:
448,192,276237,1,0,0:0:0:0:
192,192,276320,1,0,0:0:0:0:
320,192,276404,1,0,0:0:0:0:
64,192,276487,1,0,0:0:0:0:
320,192,276570,1,0,0:0:0:0:
448,192,276570,1,0,0:0:0:0:
64,192,276654,1,0,0:0:0:0:
192,192,276654,1,0,0:0:0:0:
448,192,276737,1,0,0:0:0:0:
320,192,276820,1,0,0:0:0:0:
64,192,276904,1,0,0:0:0:0:
448,192,276987,1,0,0:0:0:0:
64,192,277070,1,0,0:0:0:0:
192,192,277154,1,0,0:0:0:0:
320,192,277154,1,0,0:0:0:0:
448,192,277154,1,0,0:0:0:0:
64,192,277237,1,0,0:0:0:0:
320,192,277320,1,0,0:0:0:0:
192,192,277404,1,0,0:0:0:0:
64,192,277487,1,0,0:0:0:0:
320,192,277570,1,0,0:0:0:0:
64,192,277654,1,0,0:0:0:0:
192,192,277654,1,0,0:0:0:0:
448,192,277654,1,0,0:0:0:0:
320,192,277737,1,0,0:0:0:0:
192,192,277820,1,0,0:0:0:0:
448,192,277904,1,0,0:0:0:0:
320,192,277987,1,0,0:0:0:0:
64,192,278070,1,0,0:0:0:0:
320,192,278154,1,0,0:0:0:0:
448,192,278154,1,0,0:0:0:0:
64,192,278237,1,0,0:0:0:0:
192,192,278237,1,0,0:0:0:0:
320,192,278320,1,0,0:0:0:0:
448,192,278404,1,0,0:0:0:0:
192,192,278487,1,0,0:0:0:0:
320,192,278570,1,0,0:0:0:0:
64,192,278654,1,0,0:0:0:0:
448,192,278654,1,0,0:0:0:0:
192,192,278737,1,0,0:0:0:0:
320,192,278737,1,0,0:0:0:0:
64,192,278820,1,0,0:0:0:0:
448,192,278904,1,0,0:0:0:0:
192,192,278987,1,0,0:0:0:0:
320,192,279070,1,0,0:0:0:0:
192,192,279154,1,0,0:0:0:0:
448,192,279154,1,0,0:0:0:0:
64,192,279237,1,0,0:0:0:0:
320,192,279237,1,0,0:0:0:0:
448,192,279320,1,0,0:0:0:0:
192,192,279404,1,0,0:0:0:0:
320,192,279487,1,0,0:0:0:0:
64,192,279570,1,0,0:0:0:0:
320,192,279654,1,0,0:0:0:0:
448,192,279654,1,0,0:0:0:0:
64,192,279737,1,0,0:0:0:0:
192,192,279737,1,0,0:0:0:0:
448,192,279820,1,0,0:0:0:0:
320,192,279904,1,0,0:0:0:0:
192,192,279987,1,0,0:0:0:0:
448,192,280070,1,0,0:0:0:0:
64,192,280154,1,0,0:0:0:0:
192,192,280154,1,0,0:0:0:0:
320,192,280154,1,0,0:0:0:0:
448,192,280237,1,0,0:0:0:0:
64,192,280320,1,0,0:0:0:0:
320,192,280320,1,0,0:0:0:0:
192,192,280404,1,0,0:0:0:0:
320,192,280487,1,0,0:0:0:0:
448,192,280487,1,0,0:0:0:0:
64,192,280570,1,0,0:0:0:0:
192,192,280654,128,0,285225:0:0:0:0:
320,192,280654,1,0,0:0:0:0:
448,192,280654,1,0,0:0:0:0:
448,192,285225,1,0,0:0:0:0:
320,192,285511,1,0,0:0:0:0:
192,192,285796,1,0,0:0:0:0:
64,192,286082,1,0,0:0:0:0:
448,192,286368,1,0,0:0:0:0:
320,192,286653,1,0,0:0:0:0:
192,192,286939,1,0,0:0:0:0:
64,192,287225,1,0,0:0:0:0:
448,192,287511,1,0,0:0:0:0:
320,192,287796,1,0,0:0:0:0:
192,192,288082,1,0,0:0:0:0:
64,192,288368,1,0,0:0:0:0:
448,192,288653,1,0,0:0:0:0:
192,192,288939,1,0,0:0:0:0:
320,192,289225,1,0,0:0:0:0:
448,192,289511,1,0,0:0:0:0:
192,192,289796,1,0,0:0:0:0:
64,192,290082,1,0,0:0:0:0:
320,192,290368,1,0,0:0:0:0:
448,192,290653,1,0,0:0:0:0:
192,192,290939,1,0,0:0:0:0:
64,192,291225,1,0,0:0:0:0:
320,192,291511,1,0,0:0:0:0:
448,192,291796,1,0,0:0:0:0:
192,192,292082,1,0,0:0:0:0:
64,192,292368,1,0,0:0:0:0:
320,192,292653,1,0,0:0:0:0:
192,192,292939,1,0,0:0:0:0:
448,192,293225,1,0,0:0:0:0:
320,192,293511,1,0,0:0:0:0:
192,192,293796,1,0,0:0:0:0:
64,192,294082,1,0,0:0:0:0:
448,192,294368,1,0,0:0:0:0:
320,192,294653,1,0,0:0:0:0:
192,192,294939,1,0,0:0:0:0:
64,192,295225,1,0,0:0:0:0:
448,192,295511,1,0,0:0:0:0:
320,192,295796,1,0,0:0:0:0:
192,192,296082,1,0,0:0:0:0:
64,192,296368,1,0,0:0:0:0:
448,192,296653,1,0,0:0:0:0:
192,192,296939,1,0,0:0:0:0:
320,192,297225,1,0,0:0:0:0:
448,192,297511,1,0,0:0:0:0:
192,192,297796,1,0,0:0:0:0:
64,192,298082,1,0,0:0:0:0:
320,192,298368,1,0,0:0:0:0:
448,192,298653,1,0,0:0:0:0:
192,192,298939,1,0,0:0:0:0:
64,192,299225,1,0,0:0:0:0:
448,192,299511,1,0,0:0:0:0:
320,192,299558,1,0,0:0:0:0:
192,192,299618,1,0,0:0:0:0:
64,192,299701,1,0,0:0:0:0:
448,192,299761,1,0,0:0:0:0:
320,192,299868,128,0,301582:0:0:0:0:
