osu file format v14

[General]
AudioFilename: audio.mp3
AudioLeadIn: 0
PreviewTime: 50168
Countdown: 1
SampleSet: None
StackLeniency: 0.2
Mode: 0
LetterboxInBreaks: 0
WidescreenStoryboard: 0

[Editor]
Bookmarks: 13329,24660,46655,49321,75982,87979,121305,165295,208001,213284
DistanceSpacing: 1.6
BeatDivisor: 8
GridSize: 4
TimelineZoom: 2.1

[Metadata]
Title:Everlasting Metalstep
TitleUnicode:Everlasting Metalstep
Artist:Between August and December
ArtistUnicode:Between August and December
Creator:XenjeS
Version:DESPAIR
Source:Everlasting Summer
Tags:
BeatmapID:1687548
BeatmapSetID:803945

[Difficulty]
HPDrainRate:5
CircleSize:4
OverallDifficulty:8.7
ApproachRate:9.7
SliderMultiplier:3
SliderTickRate:1

[Events]
//Background and Video events
0,0,"lE9D9UtbSxo.jpg",0,0
//Break Periods
2,86868,90201
//Storyboard Layer 0 (Background)
//Storyboard Layer 1 (Fail)
//Storyboard Layer 2 (Pass)
//Storyboard Layer 3 (Foreground)
//Storyboard Sound Samples

[TimingPoints]
2668,666.666666666667,4,3,0,40,1,0
13332,-66.6666666666667,4,3,0,70,0,0
18997,-90.9090909090909,4,3,0,70,0,0
19330,-66.6666666666667,4,3,0,70,0,0
49334,-66.6666666666667,4,3,0,70,0,1
60821,-66.6666666666667,4,3,0,70,0,1
61155,-66.6666666666667,4,3,0,70,0,1
74318,-90.9090909090909,4,3,0,70,0,1
74652,-83.3333333333333,4,3,0,70,0,1
74985,-76.9230769230769,4,3,0,70,0,1
75318,-71.4285714285714,4,3,0,70,0,1
75651,-66.6666666666667,4,3,0,70,0,1
76001,-66.6666666666667,4,3,0,70,0,0
93981,-100,4,3,0,70,0,0
97313,-100,4,3,0,70,0,0
98480,-200,4,3,0,70,0,0
98813,-100,4,3,0,70,0,0
99146,-66.6666666666667,4,3,0,70,0,0
99813,-200,4,3,0,70,0,0
100063,-66.6666666666667,4,3,0,70,0,0
101146,-200,4,3,0,70,0,0
101479,-66.6666666666667,4,3,0,70,0,0
101646,-100,4,3,0,70,0,0
101979,-166.666666666667,4,3,0,70,0,0
102479,-500,4,3,0,70,0,0
103312,-66.6666666666667,4,3,0,70,0,0
103812,-200,4,3,0,70,0,0
104145,-66.6666666666667,4,3,0,70,0,0
104645,-58.8235294117647,4,3,0,70,0,0
105311,-45.4545454545455,4,3,0,70,0,0
105978,-66.6666666666667,4,3,0,70,0,0
106478,-200,4,3,0,70,0,0
106811,-66.6666666666667,4,3,0,70,0,0
108644,-200,4,3,0,70,0,0
108977,-50,4,3,0,70,0,0
109644,-100,4,3,0,70,0,0
109977,-58.8235294117647,4,3,0,70,0,0
110644,-66.6666666666667,4,3,0,70,0,0
111310,-50,4,3,0,70,0,0
113809,-58.8235294117647,4,3,0,70,0,0
114309,-50,4,3,0,70,0,0
114976,-83.3333333333333,4,3,0,70,0,0
115309,-50,4,3,0,70,0,0
121334,-66.6666666666667,4,3,0,70,0,1
143334,-66.6666666666667,4,3,0,70,0,0
152634,-50,4,3,0,70,0,0
154668,-62.5,4,3,0,70,0,0
164632,-66.6666666666667,4,3,0,70,0,0
164668,-62.5,4,3,0,70,0,0
165334,-66.6666666666667,4,3,0,70,0,1
186667,-66.6666666666667,4,3,0,70,0,1
187334,-66.6666666666667,4,3,0,70,0,1
194001,-58.8235294117647,4,3,0,70,0,1
208001,-181.818181818182,4,3,0,70,0,1
213334,-66.6666666666667,4,3,0,70,0,0

[HitObjects]
72,96,2668,5,0,0:0:0:0:
112,128,2834,1,0,0:0:0:0:
160,128,3001,1,0,0:0:0:0:
168,168,3334,5,0,0:0:0:0:
176,208,3501,1,0,0:0:0:0:
176,208,4001,5,0,0:0:0:0:
172,32,4168,1,0,0:0:0:0:
180,60,4501,1,0,0:0:0:0:
188,84,4834,1,0,0:0:0:0:
504,56,5001,1,0,0:0:0:0:
388,172,5168,1,0,0:0:0:0:
340,32,5334,5,0,0:0:0:0:
332,60,5501,1,0,0:0:0:0:
324,84,5668,1,0,0:0:0:0:
8,320,6168,5,0,0:0:0:0:
124,132,6334,1,0,0:0:0:0:
128,148,6668,5,0,0:0:0:0:
136,348,6834,1,0,0:0:0:0:
144,336,7168,5,0,0:0:0:0:
152,324,7668,5,0,0:0:0:0:
12,96,7834,1,0,0:0:0:0:
168,180,8001,5,0,0:0:0:0:
212,192,8168,1,0,0:0:0:0:
260,180,8334,1,0,0:0:0:0:
304,192,8668,5,0,0:0:0:0:
236,40,8834,1,0,0:0:0:0:
408,232,9001,1,0,0:0:0:0:
420,248,9334,5,0,0:0:0:0:
484,16,9501,1,0,0:0:0:0:
448,36,9834,5,0,0:0:0:0:
404,36,10334,5,0,0:0:0:0:
352,236,10501,1,0,0:0:0:0:
352,236,10584,1,0,0:0:0:0:
352,236,10668,1,0,0:0:0:0:
292,80,10834,1,0,0:0:0:0:
248,324,11001,1,0,0:0:0:0:
240,312,11334,5,0,0:0:0:0:
128,100,11501,1,0,0:0:0:0:
356,216,11668,1,0,0:0:0:0:
24,188,11834,1,0,0:0:0:0:
320,36,12001,1,0,0:0:0:0:
240,328,12168,1,0,0:0:0:0:
204,60,12334,1,0,0:0:0:0:
148,260,12501,1,0,0:0:0:0:
100,8,12668,1,0,0:0:0:0:
44,184,12834,1,0,0:0:0:0:
344,140,13001,1,0,0:0:0:0:
36,48,13168,1,0,0:0:0:0:
232,308,13334,6,0,L|256:184,1,112.500004291535
328,208,13668,2,0,P|260:124|180:196,1,225.000008583069
128,288,14168,1,0,0:0:0:0:
96,24,14334,1,0,0:0:0:0:
16,176,14501,2,0,B|24:312,1,112.500004291535
144,200,15001,6,0,L|228:212,1,56.2500021457673
240,308,15168,2,0,L|320:296,1,56.2500021457673
320,128,15334,6,0,L|304:208,1,56.2500021457673
184,36,15501,2,0,L|196:100,1,56.2500021457673
416,52,15668,6,0,L|496:64,1,56.2500021457673
348,232,15834,2,0,L|424:224,1,56.2500021457673
488,176,16001,5,0,0:0:0:0:
324,48,16168,1,0,0:0:0:0:
384,328,16334,2,0,B|344:348|344:348|264:324,1,112.500004291535
196,128,16668,1,0,0:0:0:0:
400,200,16834,1,0,0:0:0:0:
148,300,17001,1,0,0:0:0:0:
196,48,17168,1,0,0:0:0:0:
264,208,17334,6,0,L|192:204,1,56.2500021457673
16,212,17501,2,0,L|84:204,1,56.2500021457673
280,112,17668,2,0,L|208:104,1,56.2500021457673
12,104,17834,2,0,L|84:100,1,56.2500021457673
192,32,18001,6,0,L|176:104,1,56.2500021457673
280,112,18168,2,0,L|288:184,1,56.2500021457673
184,212,18334,2,0,L|176:272,1,56.2500021457673
280,280,18501,2,0,L|288:340,1,56.2500021457673
420,324,18668,6,0,L|432:196,1,112.500004291535
400,62,19001,2,0,B|440:100|440:100|430:213,1,165.000005035401
348,168,19501,6,0,P|284:152|228:164,1,112.500004291535
308,32,19834,1,0,0:0:0:0:
288,248,20001,1,0,0:0:0:0:
112,104,20168,1,0,0:0:0:0:
360,96,20334,6,0,L|428:116,1,56.2500021457673
232,184,20501,2,0,L|320:176,1,56.2500021457673
192,80,20668,6,0,L|256:92,1,56.2500021457673
144,188,20834,2,0,L|80:204,1,56.2500021457673
112,40,21001,6,0,L|96:120,1,56.2500021457673
24,304,21168,2,0,L|20:224,1,56.2500021457673
8,112,21334,5,0,0:0:0:0:
180,344,21501,1,0,0:0:0:0:
240,76,21668,1,0,0:0:0:0:
64,168,21834,1,0,0:0:0:0:
72,176,21918,1,0,0:0:0:0:
72,176,22001,1,0,0:0:0:0:
332,236,22168,1,0,0:0:0:0:
156,100,22334,1,0,0:0:0:0:
232,320,22501,1,0,0:0:0:0:
292,24,22668,1,0,0:0:0:0:
332,236,22834,1,0,0:0:0:0:
120,152,23001,1,0,0:0:0:0:
372,76,23168,5,0,0:0:0:0:
160,320,23334,1,0,0:0:0:0:
208,80,23501,1,0,0:0:0:0:
32,220,23668,5,0,0:0:0:0:
380,192,23834,1,0,0:0:0:0:
96,68,24001,5,0,0:0:0:0:
224,340,24168,1,0,0:0:0:0:
28,216,24334,5,0,0:0:0:0:
76,200,24418,1,0,0:0:0:0:
128,196,24501,1,0,0:0:0:0:
180,204,24584,1,0,0:0:0:0:
232,216,24668,1,0,0:0:0:0:
284,212,24751,1,0,0:0:0:0:
336,196,24834,1,0,0:0:0:0:
424,48,25001,5,0,0:0:0:0:
340,332,25168,1,0,0:0:0:0:
340,332,25251,1,0,0:0:0:0:
340,332,25334,1,0,0:0:0:0:
256,56,25501,1,0,0:0:0:0:
456,212,25668,1,0,0:0:0:0:
420,196,25751,1,0,0:0:0:0:
380,188,25834,1,0,0:0:0:0:
340,192,25918,1,0,0:0:0:0:
296,204,26001,2,0,B|256:216|256:216|180:176,1,112.500004291535
44,64,26334,5,0,0:0:0:0:
264,320,26501,1,0,0:0:0:0:
200,32,26668,5,0,0:0:0:0:
48,288,26834,1,0,0:0:0:0:
296,120,27001,6,0,P|344:144|336:56,1,168.750006437302
380,24,27334,2,0,B|428:64|428:128|428:128|440:88|464:52,1,168.750006437302
508,128,27668,5,0,0:0:0:0:
188,208,27834,1,0,0:0:0:0:
216,184,27918,1,0,0:0:0:0:
244,160,28001,1,0,0:0:0:0:
420,0,28168,1,0,0:0:0:0:
360,280,28334,1,0,0:0:0:0:
308,88,28501,1,0,0:0:0:0:
300,56,28584,1,0,0:0:0:0:
292,24,28668,1,0,0:0:0:0:
200,240,28834,5,0,0:0:0:0:
40,44,29001,1,0,0:0:0:0:
208,88,29168,1,0,0:0:0:0:
36,272,29334,5,0,0:0:0:0:
304,160,29501,1,0,0:0:0:0:
44,156,29668,5,0,0:0:0:0:
208,328,29834,1,0,0:0:0:0:
208,328,29918,1,0,0:0:0:0:
208,328,30001,2,0,P|272:316|328:328,1,112.500004291535
476,352,30334,1,0,0:0:0:0:
336,68,30501,2,0,P|332:136|336:192,1,112.500004291535
180,264,30834,1,0,0:0:0:0:
220,40,31001,1,0,0:0:0:0:
336,324,31168,1,0,0:0:0:0:
448,164,31334,5,0,0:0:0:0:
468,112,31418,1,0,0:0:0:0:
424,72,31501,1,0,0:0:0:0:
376,104,31584,1,0,0:0:0:0:
388,160,31668,1,0,0:0:0:0:
420,124,31834,1,0,0:0:0:0:
256,56,32001,5,0,0:0:0:0:
220,272,32168,1,0,0:0:0:0:
140,16,32334,1,0,0:0:0:0:
300,160,32501,1,0,0:0:0:0:
8,148,32668,1,0,0:0:0:0:
8,148,32751,1,0,0:0:0:0:
8,148,32834,1,0,0:0:0:0:
208,284,33001,5,0,0:0:0:0:
128,40,33168,1,0,0:0:0:0:
112,84,33251,1,0,0:0:0:0:
96,128,33334,2,0,B|84:168|84:168|104:248,1,112.500004291535
140,336,33668,5,0,0:0:0:0:
288,124,33834,1,0,0:0:0:0:
136,324,34001,5,0,0:0:0:0:
152,28,34168,1,0,0:0:0:0:
344,256,34334,5,0,0:0:0:0:
8,248,34501,1,0,0:0:0:0:
256,48,34668,5,0,0:0:0:0:
228,372,34834,1,0,0:0:0:0:
80,112,35001,5,0,0:0:0:0:
472,104,35168,1,0,0:0:0:0:
480,144,35251,1,0,0:0:0:0:
488,184,35334,1,0,0:0:0:0:
484,224,35418,1,0,0:0:0:0:
472,268,35501,1,0,0:0:0:0:
372,352,35668,5,0,0:0:0:0:
256,32,35834,1,0,0:0:0:0:
256,32,35918,1,0,0:0:0:0:
256,32,36001,1,0,0:0:0:0:
428,96,36168,5,0,0:0:0:0:
172,312,36334,1,0,0:0:0:0:
480,232,36501,5,0,0:0:0:0:
188,84,36668,2,0,B|172:128|172:128|188:200,1,112.500004291535
388,76,37001,5,0,0:0:0:0:
60,296,37168,1,0,0:0:0:0:
112,112,37334,5,0,0:0:0:0:
304,296,37501,1,0,0:0:0:0:
236,32,37668,2,0,L|232:160,1,112.500004291535
428,312,38001,2,0,L|432:172,1,112.500004291535
364,48,38334,5,0,0:0:0:0:
176,332,38501,1,0,0:0:0:0:
168,292,38584,1,0,0:0:0:0:
160,252,38668,2,0,B|152:216|152:216|176:140,1,112.500004291535
224,24,39001,1,0,0:0:0:0:
292,292,39168,1,0,0:0:0:0:
120,156,39334,1,0,0:0:0:0:
92,128,39418,1,0,0:0:0:0:
64,100,39501,1,0,0:0:0:0:
312,96,39668,5,0,0:0:0:0:
64,264,39834,1,0,0:0:0:0:
144,48,40001,5,0,0:0:0:0:
440,272,40168,1,0,0:0:0:0:
200,328,40334,5,0,0:0:0:0:
188,288,40418,1,0,0:0:0:0:
188,244,40501,1,0,0:0:0:0:
200,200,40584,1,0,0:0:0:0:
220,152,40668,2,0,P|232:96|216:28,1,112.500004291535
376,176,41001,5,0,0:0:0:0:
116,64,41168,1,0,0:0:0:0:
156,328,41334,5,0,0:0:0:0:
380,152,41501,1,0,0:0:0:0:
120,44,41668,5,0,0:0:0:0:
164,312,41834,1,0,0:0:0:0:
16,120,42001,6,0,P|8:184|20:252,1,112.500004291535
272,332,42334,2,0,P|212:348|144:340,1,112.500004291535
128,196,42668,5,0,0:0:0:0:
440,328,42834,1,0,0:0:0:0:
432,280,42918,1,0,0:0:0:0:
428,232,43001,1,0,0:0:0:0:
432,180,43084,1,0,0:0:0:0:
432,128,43168,1,0,0:0:0:0:
428,80,43251,1,0,0:0:0:0:
436,28,43334,2,0,B|392:48|392:48|312:32,1,112.500004291535
132,16,43668,5,0,0:0:0:0:
328,248,43834,1,0,0:0:0:0:
328,248,43918,1,0,0:0:0:0:
328,248,44001,2,0,P|272:256|200:248,1,112.500004291535
120,96,44334,1,0,0:0:0:0:
140,348,44501,1,0,0:0:0:0:
140,348,44584,1,0,0:0:0:0:
140,348,44668,1,0,0:0:0:0:
360,140,44834,1,0,0:0:0:0:
148,200,45001,5,0,0:0:0:0:
344,300,45168,1,0,0:0:0:0:
196,60,45334,5,0,0:0:0:0:
220,360,45501,1,0,0:0:0:0:
444,140,45668,5,0,0:0:0:0:
88,124,45834,1,0,0:0:0:0:
380,360,46001,5,0,0:0:0:0:
288,12,46168,1,0,0:0:0:0:
72,336,46334,5,0,0:0:0:0:
504,228,46501,1,0,0:0:0:0:
492,212,46668,5,0,0:0:0:0:
476,180,46834,1,0,0:0:0:0:
472,132,47001,1,0,0:0:0:0:
488,60,47168,1,0,0:0:0:0:
428,8,47334,1,0,0:0:0:0:
356,48,47501,1,0,0:0:0:0:
384,152,47668,1,0,0:0:0:0:
328,240,47834,1,0,0:0:0:0:
212,96,48001,5,0,0:0:0:0:
472,240,48168,1,0,0:0:0:0:
144,260,48334,1,0,0:0:0:0:
384,36,48501,1,0,0:0:0:0:
340,348,48668,1,0,0:0:0:0:
256,56,48834,1,0,0:0:0:0:
208,316,49001,1,0,0:0:0:0:
512,184,49168,1,0,0:0:0:0:
512,184,49251,1,0,0:0:0:0:
512,184,49334,1,0,0:0:0:0:
144,152,49501,5,0,0:0:0:0:
492,328,49668,1,0,0:0:0:0:
308,120,49834,1,0,0:0:0:0:
296,164,49918,1,0,0:0:0:0:
300,208,50001,1,0,0:0:0:0:
308,256,50084,1,0,0:0:0:0:
296,304,50168,1,0,0:0:0:0:
104,216,50334,1,0,0:0:0:0:
420,164,50501,2,0,L|488:188,2,56.2500021457673
236,32,50834,5,0,0:0:0:0:
140,332,51001,1,0,0:0:0:0:
40,48,51168,5,0,0:0:0:0:
40,48,51251,1,0,0:0:0:0:
40,48,51334,2,0,B|24:92|24:92|40:168,1,112.500004291535
252,316,51668,2,0,B|272:272|272:272|252:184,1,112.500004291535
176,68,52001,5,0,0:0:0:0:
128,280,52168,1,0,0:0:0:0:
344,144,52334,5,0,0:0:0:0:
16,116,52501,1,0,0:0:0:0:
16,116,52584,1,0,0:0:0:0:
16,116,52668,2,0,P|64:128|128:112,1,112.500004291535
264,24,53001,5,0,0:0:0:0:
496,280,53168,1,0,0:0:0:0:
496,280,53251,1,0,0:0:0:0:
496,280,53334,1,0,0:0:0:0:
148,220,53501,5,0,0:0:0:0:
440,28,53668,1,0,0:0:0:0:
312,328,53834,1,0,0:0:0:0:
256,336,53918,1,0,0:0:0:0:
228,288,54001,1,0,0:0:0:0:
264,248,54084,1,0,0:0:0:0:
316,272,54168,1,0,0:0:0:0:
496,216,54334,5,0,0:0:0:0:
120,96,54501,1,0,0:0:0:0:
456,48,54668,5,0,0:0:0:0:
256,304,54834,2,0,L|216:360,2,56.2500021457673
508,240,55168,5,0,0:0:0:0:
460,248,55251,1,0,0:0:0:0:
408,248,55334,1,0,0:0:0:0:
356,240,55418,1,0,0:0:0:0:
308,228,55501,1,0,0:0:0:0:
184,44,55668,1,0,0:0:0:0:
196,368,55834,1,0,0:0:0:0:
196,368,55918,1,0,0:0:0:0:
196,368,56001,1,0,0:0:0:0:
320,120,56168,1,0,0:0:0:0:
0,280,56334,1,0,0:0:0:0:
376,292,56501,1,0,0:0:0:0:
148,148,56668,6,0,L|132:268,1,112.500004291535
112,84,57001,2,0,L|16:172,1,112.500004291535
172,20,57334,2,0,L|44:0,1,112.500004291535
16,176,57668,5,0,0:0:0:0:
300,84,57834,1,0,0:0:0:0:
300,84,57918,1,0,0:0:0:0:
300,84,58001,2,0,B|312:128|312:128|300:208,1,112.500004291535
424,320,58334,5,0,0:0:0:0:
184,56,58501,1,0,0:0:0:0:
184,56,58584,1,0,0:0:0:0:
184,56,58668,1,0,0:0:0:0:
504,76,58834,5,0,0:0:0:0:
240,316,59001,1,0,0:0:0:0:
312,88,59168,5,0,0:0:0:0:
260,100,59251,1,0,0:0:0:0:
208,104,59334,1,0,0:0:0:0:
152,96,59418,1,0,0:0:0:0:
104,76,59501,1,0,0:0:0:0:
88,316,59668,5,0,0:0:0:0:
232,16,59834,1,0,0:0:0:0:
364,320,60001,5,0,0:0:0:0:
8,200,60168,1,0,0:0:0:0:
344,40,60334,5,0,0:0:0:0:
220,364,60501,1,0,0:0:0:0:
172,352,60584,1,0,0:0:0:0:
124,348,60668,1,0,0:0:0:0:
72,348,60751,1,0,0:0:0:0:
32,356,60834,1,0,0:0:0:0:
100,128,61001,6,0,L|108:208,2,56.2500021457673
168,8,61334,1,0,0:0:0:0:
256,272,61501,1,0,0:0:0:0:
280,100,61668,1,0,0:0:0:0:
304,144,61751,1,0,0:0:0:0:
356,164,61834,1,0,0:0:0:0:
408,148,61918,1,0,0:0:0:0:
432,100,62001,1,0,0:0:0:0:
436,152,62084,1,0,0:0:0:0:
452,192,62168,2,0,B|460:236|460:236|448:316,2,112.500004291535
368,24,62668,6,0,P|304:16|240:24,1,112.500004291535
204,272,63001,1,0,0:0:0:0:
96,24,63168,1,0,0:0:0:0:
88,72,63251,1,0,0:0:0:0:
76,116,63334,2,0,B|68:160|68:160|76:184|76:184|68:232,1,112.500004291535
348,32,63668,2,0,B|340:80|340:80|324:100|324:100|312:156,1,112.500004291535
172,112,64001,5,0,0:0:0:0:
292,328,64168,1,0,0:0:0:0:
272,16,64334,1,0,0:0:0:0:
64,240,64501,1,0,0:0:0:0:
64,240,64584,1,0,0:0:0:0:
64,240,64668,1,0,0:0:0:0:
248,124,64834,2,0,B|208:144|208:144|128:124,1,112.500004291535
60,36,65168,5,0,0:0:0:0:
264,288,65334,1,0,0:0:0:0:
248,36,65501,5,0,0:0:0:0:
8,256,65668,1,0,0:0:0:0:
308,200,65834,5,0,0:0:0:0:
360,192,65918,1,0,0:0:0:0:
384,244,66001,1,0,0:0:0:0:
344,284,66084,1,0,0:0:0:0:
296,256,66168,1,0,0:0:0:0:
212,84,66334,5,0,0:0:0:0:
496,228,66501,1,0,0:0:0:0:
212,352,66668,1,0,0:0:0:0:
320,76,66834,1,0,0:0:0:0:
392,340,67001,1,0,0:0:0:0:
476,28,67168,1,0,0:0:0:0:
476,28,67251,1,0,0:0:0:0:
476,28,67334,2,0,B|432:12|432:12|344:32,1,112.500004291535
152,144,67668,2,0,B|196:164|196:164|276:140,1,112.500004291535
224,312,68001,5,0,0:0:0:0:
60,44,68168,1,0,0:0:0:0:
60,352,68334,1,0,0:0:0:0:
296,156,68501,1,0,0:0:0:0:
296,156,68584,1,0,0:0:0:0:
296,156,68668,2,0,L|312:32,1,112.500004291535
488,120,69001,5,0,0:0:0:0:
276,320,69168,2,0,L|288:388,2,56.2500021457673
496,256,69501,5,0,0:0:0:0:
240,20,69668,1,0,0:0:0:0:
216,232,69834,1,0,0:0:0:0:
260,248,69918,1,0,0:0:0:0:
312,248,70001,1,0,0:0:0:0:
356,224,70084,1,0,0:0:0:0:
312,200,70168,1,0,0:0:0:0:
8,88,70334,5,0,0:0:0:0:
304,324,70501,1,0,0:0:0:0:
136,24,70668,5,0,0:0:0:0:
144,380,70834,1,0,0:0:0:0:
280,184,71168,5,0,0:0:0:0:
8,248,71334,1,0,0:0:0:0:
12,236,72001,5,0,0:0:0:0:
16,224,72668,5,0,0:0:0:0:
60,132,73168,5,0,0:0:0:0:
148,40,73334,1,0,0:0:0:0:
172,164,73501,1,0,0:0:0:0:
184,160,73834,5,0,0:0:0:0:
160,36,74001,1,0,0:0:0:0:
380,48,74334,6,0,L|444:56,1,41.2500012588501
436,168,74501,2,0,L|516:160,1,41.2500012588501
260,60,74668,6,0,L|312:64,1,44.999998626709
300,216,74834,2,0,L|364:208,1,44.999998626709
120,64,75001,6,0,L|196:80,1,48.7499977684022
156,220,75168,2,0,L|228:204,1,48.7499977684022
32,76,75334,6,0,L|24:156,1,52.4999983978272
88,220,75501,2,0,L|96:292,1,52.4999983978272
248,328,75668,6,0,L|232:264,1,56.2500021457673
344,60,75834,2,0,L|336:132,1,56.2500021457673
336,244,76001,6,0,P|392:260|472:244,1,112.500004291535
512,144,76334,2,0,B|496:100|496:100|512:16,1,112.500004291535
328,0,76668,1,0,0:0:0:0:
428,200,76834,5,0,0:0:0:0:
132,104,77001,1,0,0:0:0:0:
272,308,77168,1,0,0:0:0:0:
196,32,77334,2,0,P|140:8|64:28,1,112.500004291535
60,160,77668,6,0,L|52:240,1,56.2500021457673
148,196,77834,2,0,L|152:260,1,56.2500021457673
232,144,78001,2,0,L|232:208,1,56.2500021457673
320,184,78168,2,0,L|328:252,1,56.2500021457673
404,128,78334,2,0,L|396:192,1,56.2500021457673
488,176,78501,2,0,L|496:248,1,56.2500021457673
420,332,78668,5,0,0:0:0:0:
432,52,78834,1,0,0:0:0:0:
320,316,79001,5,0,0:0:0:0:
300,28,79168,1,0,0:0:0:0:
232,328,79334,5,0,0:0:0:0:
212,36,79501,1,0,0:0:0:0:
100,324,79668,5,0,0:0:0:0:
100,40,79834,1,0,0:0:0:0:
376,128,80001,6,0,L|312:108,1,56.2500021457673
184,216,80168,2,0,L|264:204,1,56.2500021457673
196,36,80334,6,0,L|216:108,1,56.2500021457673
332,304,80501,2,0,L|344:212,1,56.2500021457673
392,120,80668,6,0,L|328:100,1,56.2500021457673
200,208,80834,2,0,L|280:196,1,56.2500021457673
212,28,81001,6,0,L|232:100,1,56.2500021457673
348,296,81168,2,0,L|360:204,1,56.2500021457673
472,64,81334,6,0,B|460:104|472:148|472:148|484:196|464:256,1,168.750006437302
487,226,81668,2,0,B|500:192|488:144|488:144|476:100|488:60,1,168.750006437302
416,176,82001,1,0,0:0:0:0:
240,48,82223,6,0,L|224:144,1,75.000002861023
328,160,82445,2,0,L|336:256,1,75.000002861023
220,260,82668,2,0,L|212:352,1,75.000002861023
32,56,83001,6,0,L|100:72,1,56.2500021457673
240,56,83168,2,0,L|172:68,1,56.2500021457673
16,144,83334,6,0,L|88:156,1,56.2500021457673
256,144,83501,2,0,L|188:156,1,56.2500021457673
0,228,83668,6,0,L|68:244,1,56.2500021457673
268,224,83834,2,0,L|200:236,1,56.2500021457673
140,328,84001,5,0,0:0:0:0:
224,112,84168,1,0,0:0:0:0:
364,324,84334,1,0,0:0:0:0:
124,216,84501,5,0,0:0:0:0:
392,208,84668,2,0,L|408:80,1,112.500004291535
240,48,85001,5,0,0:0:0:0:
272,336,85168,1,0,0:0:0:0:
272,336,85251,1,0,0:0:0:0:
272,336,85334,1,0,0:0:0:0:
112,176,85501,5,0,0:0:0:0:
408,240,85668,1,0,0:0:0:0:
200,116,85834,5,0,0:0:0:0:
120,324,86001,1,0,0:0:0:0:
84,40,86168,1,0,0:0:0:0:
280,248,86334,1,0,0:0:0:0:
4,172,86501,1,0,0:0:0:0:
256,0,86668,1,0,0:0:0:0:
92,76,92001,5,0,0:0:0:0:
180,184,92168,1,0,0:0:0:0:
180,184,92501,5,0,0:0:0:0:
68,252,92668,1,0,0:0:0:0:
152,340,92834,1,0,0:0:0:0:
252,276,93001,1,0,0:0:0:0:
360,344,93168,1,0,0:0:0:0:
360,344,93251,1,0,0:0:0:0:
360,344,93334,1,0,0:0:0:0:
448,256,93501,1,0,0:0:0:0:
340,176,93668,1,0,0:0:0:0:
428,76,93834,5,0,0:0:0:0:
296,40,94001,2,0,P|224:52|136:32,1,150
56,56,94501,1,0,0:0:0:0:
48,92,94584,1,0,0:0:0:0:
40,128,94668,1,0,0:0:0:0:
28,268,94834,5,0,0:0:0:0:
128,196,95001,1,0,0:0:0:0:
156,312,95168,1,0,0:0:0:0:
336,192,95334,5,0,0:0:0:0:
224,128,95501,1,0,0:0:0:0:
312,296,95668,1,0,0:0:0:0:
312,72,95834,1,0,0:0:0:0:
144,240,96001,1,0,0:0:0:0:
436,196,96168,1,0,0:0:0:0:
160,44,96334,1,0,0:0:0:0:
320,328,96501,1,0,0:0:0:0:
344,8,96668,1,0,0:0:0:0:
100,264,96834,1,0,0:0:0:0:
480,164,97001,1,0,0:0:0:0:
128,32,97168,1,0,0:0:0:0:
324,324,97334,6,0,B|384:312|384:312|472:328,1,150
488,244,98001,2,0,L|408:228,1,75
500,156,98334,2,0,L|456:148,1,37.5
256,32,98501,2,0,L|304:88,1,56.25
496,164,98834,2,0,L|448:156,1,37.5
72,56,99168,5,0,0:0:0:0:
76,64,99334,2,0,L|72:132,1,56.2500021457673
168,104,99501,2,0,L|176:176,1,56.2500021457673
248,36,99668,2,0,L|248:104,1,56.2500021457673
336,88,99834,2,0,L|344:152,1,56.25
436,36,100168,2,0,L|432:100,1,56.2500021457673
412,292,100501,5,0,0:0:0:0:
500,188,100668,2,0,L|424:176,1,56.2500021457673
404,80,100834,2,0,L|344:88,1,56.2500021457673
324,188,101001,6,0,L|248:172,1,56.2500021457673
224,80,101168,2,0,L|160:96,1,56.2500021457673
48,160,101501,6,0,L|112:184,1,56.2500021457673
208,194,101668,2,0,B|165:203|165:203|96:178,1,112.5
16,232,102001,6,0,P|8:292|16:356,1,112.499996566773
92,288,102501,2,0,L|164:280,1,67.5
248,312,103334,6,0,L|232:232,1,56.2500021457673
332,288,103501,2,0,L|336:212,1,56.2500021457673
424,320,103668,2,0,L|416:260,1,56.2500021457673
508,312,103834,2,0,L|512:236,1,56.2500021457673
416,312,104168,2,0,L|408:252,1,56.2500021457673
84,68,104668,6,0,P|124:64|192:76,1,85.0000016212464
384,72,104890,2,0,P|340:76|288:72,1,85.0000016212464
248,224,105112,2,0,P|236:180|232:132,1,85.0000016212464
92,136,105334,6,0,L|100:240,1,82.5000025177003
212,372,105501,2,0,L|224:280,1,82.5000025177003
348,224,105834,5,0,0:0:0:0:
496,280,106001,6,0,L|508:200,1,56.2500021457673
368,72,106168,2,0,L|380:136,1,56.2500021457673
292,280,106334,6,0,L|304:220,1,56.2500021457673
180,80,106501,2,0,L|196:148,1,56.2500021457673
284,276,106834,6,0,L|296:216,1,56.2500021457673
156,316,107168,5,0,0:0:0:0:
0,260,107334,6,0,L|8:328,1,56.2500021457673
124,156,107501,2,0,L|120:236,1,56.2500021457673
8,108,107668,6,0,L|16:180,1,56.2500021457673
128,8,107834,2,0,L|120:80,1,56.2500021457673
240,232,108001,5,0,0:0:0:0:
0,104,108168,1,0,0:0:0:0:
252,4,108334,1,0,0:0:0:0:
128,288,108501,6,0,L|136:220,1,56.2500021457673
208,88,108668,2,0,L|216:152,1,56.25
304,304,109001,6,0,P|288:340|264:372,1,75
320,160,109168,2,0,P|328:200|324:252,1,75
280,24,109334,2,0,P|296:48|308:100,1,75
268,368,109501,2,0,P|292:336|308:292,1,75
308,92,109668,2,0,B|304:52|276:12|276:12|308:24,1,112.5
492,60,110001,6,0,B|472:108|472:108|472:140|472:140|448:192,1,127.50000243187
296,344,110251,2,0,B|324:308|324:308|356:300|356:300|396:256,1,127.50000243187
336,156,110501,6,0,L|284:216,1,63.7500012159348
128,288,110668,2,0,L|188:292,10,37.5000014305115
0,136,111334,6,0,L|8:220,1,75
104,0,111501,2,0,L|56:68,1,75
280,48,111668,2,0,L|200:0,1,75
296,216,111834,2,0,L|320:128,1,75
416,36,112001,6,0,L|432:132,1,75
496,276,112168,2,0,L|520:184,1,75
392,176,112334,5,0,0:0:0:0:
404,236,112445,1,0,0:0:0:0:
372,292,112556,1,0,0:0:0:0:
316,308,112668,1,0,0:0:0:0:
256,292,112779,1,0,0:0:0:0:
228,240,112890,1,0,0:0:0:0:
240,184,113001,2,0,L|256:124,5,50
280,88,113334,5,0,0:0:0:0:
440,160,113501,1,0,0:0:0:0:
160,200,113668,1,0,0:0:0:0:
320,280,113834,6,0,B|360:292|360:292|300:304|300:304|264:292|216:296|216:296|164:304|128:292|128:292|152:312|164:332,1,318.750006079674
136,240,114334,2,0,P|172:248|224:240,1,75
276,352,114501,2,0,P|236:344|188:352,1,75
36,256,114668,6,0,L|52:348,1,75
192,96,114834,2,0,L|180:176,1,75
16,28,115001,6,0,B|56:48|56:48|152:32,1,134.999995880127
48,96,115334,2,0,B|8:72|8:72|24:112|36:188,1,150
96,300,115584,2,0,B|116:340|116:340|104:276|120:224,1,150
244,120,115834,2,0,P|248:156|244:204,1,75
228,288,116001,5,0,0:0:0:0:
264,332,116112,1,0,0:0:0:0:
320,348,116223,1,0,0:0:0:0:
380,340,116334,1,0,0:0:0:0:
420,300,116445,1,0,0:0:0:0:
428,240,116556,1,0,0:0:0:0:
428,188,116668,6,0,L|444:104,1,75
304,36,116834,2,0,L|316:120,1,75
216,216,117001,6,0,L|224:140,1,75
84,52,117168,2,0,L|100:136,1,75
24,280,117334,6,0,P|80:280|136:300,1,100
364,264,117556,2,0,P|320:268|252:256,1,100
200,216,117751,5,0,0:0:0:0:
188,140,117890,1,0,0:0:0:0:
232,76,118001,1,0,0:0:0:0:
304,56,118112,1,0,0:0:0:0:
380,88,118223,1,0,0:0:0:0:
408,164,118334,1,0,0:0:0:0:
160,92,118668,5,0,0:0:0:0:
376,168,118834,1,0,0:0:0:0:
132,200,119001,5,0,0:0:0:0:
384,80,119168,1,0,0:0:0:0:
84,80,119334,5,0,0:0:0:0:
408,228,119501,1,0,0:0:0:0:
76,248,119668,5,0,0:0:0:0:
416,64,119834,1,0,0:0:0:0:
68,120,120001,5,0,0:0:0:0:
304,300,120168,1,0,0:0:0:0:
196,24,120334,1,0,0:0:0:0:
136,320,120501,1,0,0:0:0:0:
344,108,120668,1,0,0:0:0:0:
72,152,120834,5,0,0:0:0:0:
448,252,121001,1,0,0:0:0:0:
220,16,121168,5,0,0:0:0:0:
248,360,121334,2,0,L|120:348,1,112.500004291535
416,312,121668,5,0,0:0:0:0:
324,64,121834,1,0,0:0:0:0:
385,71,121918,1,0,0:0:0:0:
397,132,122001,1,0,0:0:0:0:
343,162,122084,1,0,0:0:0:0:
297,120,122168,1,0,0:0:0:0:
172,20,122334,5,0,0:0:0:0:
180,332,122501,1,0,0:0:0:0:
180,332,122584,1,0,0:0:0:0:
180,332,122668,1,0,0:0:0:0:
24,120,122834,1,0,0:0:0:0:
312,220,123001,1,0,0:0:0:0:
72,272,123168,1,0,0:0:0:0:
88,224,123251,1,0,0:0:0:0:
104,180,123334,2,0,B|116:144|116:144|104:40,1,112.500004291535
272,0,123668,6,0,B|256:44|256:44|268:124,1,112.500004291535
352,300,124001,1,0,0:0:0:0:
388,44,124168,1,0,0:0:0:0:
460,236,124334,1,0,0:0:0:0:
172,176,124501,1,0,0:0:0:0:
172,176,124584,1,0,0:0:0:0:
172,176,124668,1,0,0:0:0:0:
464,68,124834,1,0,0:0:0:0:
352,336,125001,1,0,0:0:0:0:
256,108,125168,1,0,0:0:0:0:
240,68,125251,1,0,0:0:0:0:
224,28,125334,1,0,0:0:0:0:
464,256,125501,5,0,0:0:0:0:
84,204,125668,1,0,0:0:0:0:
384,80,125834,5,0,0:0:0:0:
396,132,125918,1,0,0:0:0:0:
400,176,126001,1,0,0:0:0:0:
396,224,126084,1,0,0:0:0:0:
380,272,126168,1,0,0:0:0:0:
180,64,126334,5,0,0:0:0:0:
504,172,126501,1,0,0:0:0:0:
280,196,126668,2,0,B|296:156|296:156|288:64,1,112.500004291535
396,32,127001,5,0,0:0:0:0:
92,168,127168,1,0,0:0:0:0:
92,168,127251,1,0,0:0:0:0:
92,168,127334,1,0,0:0:0:0:
384,240,127501,1,0,0:0:0:0:
168,16,127668,1,0,0:0:0:0:
216,360,127834,2,0,L|208:296,2,56.2500021457673
32,300,128168,5,0,0:0:0:0:
60,24,128334,1,0,0:0:0:0:
276,200,128501,1,0,0:0:0:0:
112,108,128668,6,0,P|108:168|116:224,1,112.500004291535
292,20,129001,2,0,P|300:80|296:144,1,112.500004291535
216,292,129334,5,0,0:0:0:0:
456,152,129501,1,0,0:0:0:0:
200,24,129668,1,0,0:0:0:0:
332,272,129834,5,0,0:0:0:0:
40,168,130001,2,0,L|32:304,1,112.500004291535
136,4,130334,2,0,L|144:124,1,112.500004291535
224,304,130668,5,0,0:0:0:0:
312,0,130834,1,0,0:0:0:0:
508,264,131001,1,0,0:0:0:0:
224,160,131168,5,0,0:0:0:0:
276,172,131251,1,0,0:0:0:0:
328,160,131334,1,0,0:0:0:0:
376,152,131418,1,0,0:0:0:0:
428,160,131501,1,0,0:0:0:0:
488,52,131668,5,0,0:0:0:0:
296,312,131834,1,0,0:0:0:0:
264,40,132001,5,0,0:0:0:0:
512,184,132168,1,0,0:0:0:0:
264,40,132334,5,0,0:0:0:0:
380,324,132501,1,0,0:0:0:0:
380,324,132584,1,0,0:0:0:0:
380,324,132668,1,0,0:0:0:0:
412,128,132834,5,0,0:0:0:0:
116,312,133001,2,0,B|96:272|96:272|116:188,1,112.500004291535
168,24,133334,5,0,0:0:0:0:
280,288,133501,1,0,0:0:0:0:
0,220,133668,1,0,0:0:0:0:
284,72,133834,5,0,0:0:0:0:
320,92,133918,1,0,0:0:0:0:
360,104,134001,2,0,P|408:116|476:104,1,112.500004291535
412,280,134334,2,0,L|420:164,1,112.500004291535
344,28,134668,5,0,0:0:0:0:
280,344,134834,1,0,0:0:0:0:
156,136,135001,5,0,0:0:0:0:
472,208,135168,1,0,0:0:0:0:
472,208,135251,1,0,0:0:0:0:
472,208,135334,2,0,P|488:152|468:80,1,112.500004291535
400,152,135668,5,0,0:0:0:0:
144,328,135834,1,0,0:0:0:0:
144,328,135918,1,0,0:0:0:0:
144,328,136001,1,0,0:0:0:0:
244,12,136168,5,0,0:0:0:0:
336,336,136334,1,0,0:0:0:0:
76,160,136501,5,0,0:0:0:0:
416,4,136668,1,0,0:0:0:0:
416,4,136751,1,0,0:0:0:0:
416,4,136834,1,0,0:0:0:0:
84,168,137001,5,0,0:0:0:0:
444,216,137168,1,0,0:0:0:0:
168,24,137334,5,0,0:0:0:0:
356,344,137501,1,0,0:0:0:0:
164,32,137668,5,0,0:0:0:0:
176,316,137834,1,0,0:0:0:0:
128,344,137918,1,0,0:0:0:0:
84,312,138001,1,0,0:0:0:0:
104,256,138084,1,0,0:0:0:0:
160,260,138168,1,0,0:0:0:0:
432,260,138334,6,0,B|440:384,1,112.500004291535
492,112,138668,1,0,0:0:0:0:
248,200,138834,1,0,0:0:0:0:
504,256,139001,1,0,0:0:0:0:
272,24,139168,1,0,0:0:0:0:
272,24,139251,1,0,0:0:0:0:
272,24,139334,2,0,L|144:40,1,112.500004291535
420,152,139668,2,0,L|300:140,1,112.500004291535
96,112,140001,5,0,0:0:0:0:
292,324,140168,1,0,0:0:0:0:
272,48,140334,5,0,0:0:0:0:
44,292,140501,1,0,0:0:0:0:
44,292,140584,1,0,0:0:0:0:
44,292,140668,2,0,B|24:248|24:248|36:160,1,112.500004291535
160,4,141001,2,0,B|176:44|176:44|164:120,1,112.500004291535
260,304,141334,5,0,0:0:0:0:
368,72,141501,1,0,0:0:0:0:
112,112,141668,5,0,0:0:0:0:
280,336,141834,1,0,0:0:0:0:
400,44,142001,5,0,0:0:0:0:
80,84,142168,1,0,0:0:0:0:
412,40,142334,5,0,0:0:0:0:
292,332,142501,1,0,0:0:0:0:
172,16,142668,5,0,0:0:0:0:
488,168,142834,1,0,0:0:0:0:
160,276,143001,1,0,0:0:0:0:
308,32,143168,5,0,0:0:0:0:
308,32,143251,1,0,0:0:0:0:
308,32,143334,2,0,P|316:84|308:156,1,112.500004291535
200,332,143668,5,0,0:0:0:0:
504,132,143834,1,0,0:0:0:0:
504,132,143918,1,0,0:0:0:0:
504,132,144001,1,0,0:0:0:0:
164,152,144168,5,0,0:0:0:0:
504,256,144334,1,0,0:0:0:0:
272,36,144501,5,0,0:0:0:0:
284,84,144584,1,0,0:0:0:0:
292,140,144668,1,0,0:0:0:0:
288,196,144751,1,0,0:0:0:0:
272,248,144834,1,0,0:0:0:0:
64,64,145001,6,0,B|108:80|108:80|192:60,1,112.500004291535
340,16,145334,5,0,0:0:0:0:
372,368,145501,1,0,0:0:0:0:
236,192,145668,6,0,L|224:320,1,112.500004291535
408,76,146001,2,0,L|424:204,1,112.500004291535
320,344,146334,5,0,0:0:0:0:
272,64,146501,1,0,0:0:0:0:
272,64,146584,1,0,0:0:0:0:
272,64,146668,1,0,0:0:0:0:
184,260,146834,2,0,B|228:244|228:244|316:268,1,112.500004291535
444,336,147168,5,0,0:0:0:0:
480,116,147334,1,0,0:0:0:0:
480,116,147418,1,0,0:0:0:0:
480,116,147501,1,0,0:0:0:0:
260,196,147668,1,0,0:0:0:0:
436,224,147834,1,0,0:0:0:0:
232,32,148001,1,0,0:0:0:0:
320,332,148168,1,0,0:0:0:0:
512,96,148334,1,0,0:0:0:0:
204,204,148501,1,0,0:0:0:0:
344,60,148668,6,0,P|356:120|344:184,1,112.500004291535
172,28,149001,5,0,0:0:0:0:
120,288,149168,1,0,0:0:0:0:
120,288,149251,1,0,0:0:0:0:
120,288,149334,2,0,P|64:300|-8:288,1,112.500004291535
92,64,149668,5,0,0:0:0:0:
296,256,149834,1,0,0:0:0:0:
28,252,150001,1,0,0:0:0:0:
28,252,150084,1,0,0:0:0:0:
28,252,150168,1,0,0:0:0:0:
168,16,150334,2,0,B|176:56|176:56|168:92|168:92|176:128,1,112.500004291535
244,320,150668,5,0,0:0:0:0:
356,64,150834,1,0,0:0:0:0:
432,336,151001,1,0,0:0:0:0:
224,160,151168,5,0,0:0:0:0:
272,176,151251,1,0,0:0:0:0:
324,184,151334,1,0,0:0:0:0:
380,180,151418,1,0,0:0:0:0:
432,164,151501,1,0,0:0:0:0:
456,24,151668,5,0,0:0:0:0:
312,284,151834,1,0,0:0:0:0:
312,284,151918,1,0,0:0:0:0:
312,284,152001,1,0,0:0:0:0:
176,36,152168,5,0,0:0:0:0:
460,36,152334,1,0,0:0:0:0:
92,180,152501,5,0,0:0:0:0:
136,200,152584,1,0,0:0:0:0:
188,200,152668,2,0,P|224:192|280:200,1,75
504,188,152834,2,0,P|456:196|400:176,1,75
240,348,153001,6,0,L|232:260,1,75
468,44,153168,2,0,L|460:128,1,75
220,336,153334,6,0,L|212:248,1,75
448,32,153501,2,0,L|440:116,1,75
428,248,153668,5,0,0:0:0:0:
144,56,153834,1,0,0:0:0:0:
136,108,153918,1,0,0:0:0:0:
144,156,154001,1,0,0:0:0:0:
152,208,154084,1,0,0:0:0:0:
144,260,154168,1,0,0:0:0:0:
32,136,154334,5,0,0:0:0:0:
292,324,154501,1,0,0:0:0:0:
280,280,154584,1,0,0:0:0:0:
268,236,154668,2,0,B|260:192|260:192|276:108,1,120
380,52,155001,6,0,L|368:132,1,60
504,188,155168,2,0,L|512:268,1,60
464,340,155334,6,0,L|320:328,1,120
88,272,155668,2,0,L|224:252,1,120
336,64,156001,5,0,0:0:0:0:
252,340,156168,1,0,0:0:0:0:
44,128,156334,1,0,0:0:0:0:
236,64,156501,5,0,0:0:0:0:
116,308,156668,1,0,0:0:0:0:
56,316,156751,1,0,0:0:0:0:
28,264,156834,1,0,0:0:0:0:
72,216,156918,1,0,0:0:0:0:
124,248,157001,1,0,0:0:0:0:
356,324,157168,5,0,0:0:0:0:
376,280,157251,1,0,0:0:0:0:
396,232,157334,1,0,0:0:0:0:
476,56,157501,5,0,0:0:0:0:
192,120,157668,1,0,0:0:0:0:
448,304,157834,1,0,0:0:0:0:
304,64,158001,6,0,P|312:128|304:200,1,120
152,344,158334,2,0,P|144:284|152:208,1,120
184,48,158668,5,0,0:0:0:0:
304,304,158834,1,0,0:0:0:0:
28,268,159001,1,0,0:0:0:0:
272,56,159168,5,0,0:0:0:0:
264,112,159251,1,0,0:0:0:0:
256,164,159335,1,0,0:0:0:0:
224,376,159501,5,0,0:0:0:0:
488,180,159668,1,0,0:0:0:0:
160,168,159834,1,0,0:0:0:0:
160,168,159918,1,0,0:0:0:0:
160,168,160001,2,0,B|136:128|136:128|152:36,1,120
32,56,160334,5,0,0:0:0:0:
380,152,160501,1,0,0:0:0:0:
288,8,160668,6,0,L|268:140,1,120
232,368,161001,2,0,P|300:380|352:360,1,120
504,284,161334,5,0,0:0:0:0:
168,168,161501,1,0,0:0:0:0:
504,272,161668,5,0,0:0:0:0:
256,48,161834,1,0,0:0:0:0:
228,320,162001,6,0,P|168:300|104:320,1,120
160,36,162334,5,0,0:0:0:0:
114,313,162501,1,0,0:0:0:0:
376,136,162668,6,0,L|504:152,1,120
260,312,163001,2,0,L|400:300,1,120
252,92,163334,5,0,0:0:0:0:
152,304,163501,1,0,0:0:0:0:
100,40,163668,5,0,0:0:0:0:
312,204,163834,1,0,0:0:0:0:
104,52,164001,5,0,0:0:0:0:
248,320,164168,1,0,0:0:0:0:
108,64,164334,5,0,0:0:0:0:
188,368,164501,1,0,0:0:0:0:
384,84,164668,2,0,P|396:148|376:216,1,120
216,0,165001,2,0,P|204:64|220:124,1,120
262,330,165334,5,0,0:0:0:0:
6,162,165501,1,0,0:0:0:0:
292,52,165668,1,0,0:0:0:0:
158,236,165834,5,0,0:0:0:0:
165,192,165918,1,0,0:0:0:0:
163,142,166001,1,0,0:0:0:0:
157,96,166084,1,0,0:0:0:0:
163,47,166168,1,0,0:0:0:0:
34,114,166334,5,0,0:0:0:0:
347,240,166501,1,0,0:0:0:0:
347,240,166584,1,0,0:0:0:0:
347,240,166668,1,0,0:0:0:0:
261,30,166834,5,0,0:0:0:0:
217,361,167001,1,0,0:0:0:0:
487,182,167168,1,0,0:0:0:0:
487,182,167251,1,0,0:0:0:0:
487,182,167334,1,0,0:0:0:0:
214,348,167501,5,0,0:0:0:0:
326,47,167668,2,0,L|337:167,1,112.500004291535
128,147,168001,2,0,L|117:276,1,112.500004291535
232,339,168334,5,0,0:0:0:0:
17,68,168501,1,0,0:0:0:0:
17,68,168584,1,0,0:0:0:0:
17,68,168668,2,0,B|56:44|56:44|148:68,1,112.500004291535
302,42,169001,5,0,0:0:0:0:
22,189,169168,1,0,0:0:0:0:
22,189,169251,1,0,0:0:0:0:
22,189,169334,1,0,0:0:0:0:
296,40,169501,5,0,0:0:0:0:
224,348,169668,1,0,0:0:0:0:
109,113,169834,1,0,0:0:0:0:
68,76,169918,1,0,0:0:0:0:
92,23,170001,1,0,0:0:0:0:
148,36,170084,1,0,0:0:0:0:
156,88,170167,1,0,0:0:0:0:
16,216,170334,5,0,0:0:0:0:
364,264,170501,1,0,0:0:0:0:
236,40,170668,5,0,0:0:0:0:
152,348,170834,1,0,0:0:0:0:
448,156,171001,1,0,0:0:0:0:
216,236,171168,5,0,0:0:0:0:
216,236,171251,1,0,0:0:0:0:
216,236,171334,1,0,0:0:0:0:
216,236,171418,1,0,0:0:0:0:
216,236,171501,2,0,L|224:300,1,56.2500021457673
88,64,171668,2,0,L|80:120,1,56.2500021457673
256,112,171834,5,0,0:0:0:0:
280,160,171918,1,0,0:0:0:0:
320,204,172001,1,0,0:0:0:0:
368,220,172084,1,0,0:0:0:0:
424,224,172168,1,0,0:0:0:0:
472,212,172251,1,0,0:0:0:0:
504,176,172334,1,0,0:0:0:0:
508,120,172418,1,0,0:0:0:0:
484,68,172501,5,0,0:0:0:0:
456,112,172584,1,0,0:0:0:0:
452,156,172668,2,0,B|464:196|464:196|456:268,1,112.500004291535
260,24,173001,2,0,B|248:72|248:72|260:144,1,112.500004291535
328,288,173334,6,0,P|272:308|196:284,1,112.500004291535
28,308,173668,5,0,0:0:0:0:
144,44,173834,1,0,0:0:0:0:
144,44,173918,1,0,0:0:0:0:
144,44,174001,2,0,P|128:112|132:168,1,112.500004291535
196,344,174334,5,0,0:0:0:0:
252,20,174501,1,0,0:0:0:0:
252,20,174584,1,0,0:0:0:0:
252,20,174668,1,0,0:0:0:0:
344,296,174834,5,0,0:0:0:0:
76,132,175001,1,0,0:0:0:0:
344,100,175168,5,0,0:0:0:0:
376,140,175251,1,0,0:0:0:0:
428,120,175335,1,0,0:0:0:0:
424,72,175418,1,0,0:0:0:0:
372,56,175501,1,0,0:0:0:0:
208,12,175668,5,0,0:0:0:0:
24,240,175834,1,0,0:0:0:0:
336,224,176001,1,0,0:0:0:0:
0,272,176168,5,0,0:0:0:0:
372,252,176334,1,0,0:0:0:0:
128,8,176501,1,0,0:0:0:0:
130,50,176584,1,0,0:0:0:0:
133,92,176667,1,0,0:0:0:0:
136,134,176751,1,0,0:0:0:0:
139,176,176834,1,0,0:0:0:0:
8,52,177001,2,0,L|0:184,1,112.500004291535
168,308,177334,5,0,0:0:0:0:
8,52,177501,1,0,0:0:0:0:
304,120,177668,1,0,0:0:0:0:
120,196,177834,5,0,0:0:0:0:
156,168,177918,1,0,0:0:0:0:
204,156,178001,1,0,0:0:0:0:
228,120,178084,1,0,0:0:0:0:
264,92,178168,1,0,0:0:0:0:
372,28,178334,6,0,P|444:32|504:20,1,112.500004291535
504,148,178668,5,0,0:0:0:0:
204,156,178834,1,0,0:0:0:0:
364,36,179001,5,0,0:0:0:0:
480,320,179168,1,0,0:0:0:0:
480,320,179251,1,0,0:0:0:0:
480,320,179334,1,0,0:0:0:0:
204,156,179501,1,0,0:0:0:0:
512,128,179668,1,0,0:0:0:0:
280,328,179834,1,0,0:0:0:0:
280,328,179918,1,0,0:0:0:0:
280,328,180001,1,0,0:0:0:0:
352,80,180168,5,0,0:0:0:0:
416,360,180334,1,0,0:0:0:0:
156,220,180501,1,0,0:0:0:0:
156,220,180584,1,0,0:0:0:0:
156,220,180668,2,0,B|168:168|168:168|160:76,1,112.500004291535
80,16,181001,5,0,0:0:0:0:
344,196,181168,1,0,0:0:0:0:
4,200,181334,1,0,0:0:0:0:
344,208,181501,5,0,0:0:0:0:
12,332,181667,1,0,0:0:0:0:
184,92,181835,1,0,0:0:0:0:
224,104,181918,1,0,0:0:0:0:
268,108,182001,1,0,0:0:0:0:
316,104,182085,1,0,0:0:0:0:
360,92,182168,1,0,0:0:0:0:
436,24,182334,5,0,0:0:0:0:
416,356,182501,1,0,0:0:0:0:
416,356,182584,1,0,0:0:0:0:
416,356,182668,2,0,B|368:352|368:352|340:360|340:360|296:352,1,112.500004291535
84,328,183001,5,0,0:0:0:0:
76,280,183084,1,0,0:0:0:0:
80,232,183168,1,0,0:0:0:0:
92,184,183251,1,0,0:0:0:0:
100,136,183334,2,0,B|108:92|108:92|92:12,1,112.500004291535
308,112,183668,6,0,B|300:160|300:160|316:228,1,112.500004291535
404,344,184001,5,0,0:0:0:0:
504,80,184168,1,0,0:0:0:0:
240,224,184334,1,0,0:0:0:0:
440,232,184501,5,0,0:0:0:0:
440,232,184584,1,0,0:0:0:0:
440,232,184668,2,0,P|448:168|440:108,1,112.500004291535
264,16,185001,2,0,P|256:68|264:132,1,112.500004291535
376,244,185334,5,0,0:0:0:0:
0,160,185501,1,0,0:0:0:0:
344,64,185668,5,0,0:0:0:0:
16,288,185834,1,0,0:0:0:0:
36,244,185918,1,0,0:0:0:0:
88,248,186001,1,0,0:0:0:0:
100,300,186084,1,0,0:0:0:0:
56,324,186168,1,0,0:0:0:0:
20,140,186334,5,0,0:0:0:0:
376,68,186501,1,0,0:0:0:0:
140,340,186668,1,0,0:0:0:0:
172,8,186834,1,0,0:0:0:0:
348,312,187001,1,0,0:0:0:0:
112,152,187168,5,0,0:0:0:0:
160,168,187251,1,0,0:0:0:0:
212,176,187334,1,0,0:0:0:0:
264,172,187418,1,0,0:0:0:0:
312,160,187501,1,0,0:0:0:0:
496,20,187668,5,0,0:0:0:0:
201,89,187834,1,0,0:0:0:0:
201,89,187918,1,0,0:0:0:0:
201,89,188001,1,0,0:0:0:0:
480,212,188168,1,0,0:0:0:0:
336,24,188334,1,0,0:0:0:0:
341,350,188501,1,0,0:0:0:0:
341,350,188584,1,0,0:0:0:0:
341,350,188668,2,0,P|284:360|220:348,1,112.500004291535
320,128,189001,2,0,P|376:120|452:134,1,112.500004291535
344,248,189334,5,0,0:0:0:0:
88,24,189501,1,0,0:0:0:0:
347,237,189668,5,0,0:0:0:0:
220,44,189834,1,0,0:0:0:0:
208,96,189918,1,0,0:0:0:0:
200,148,190001,1,0,0:0:0:0:
204,200,190084,1,0,0:0:0:0:
212,248,190168,1,0,0:0:0:0:
48,156,190334,5,0,0:0:0:0:
428,288,190501,1,0,0:0:0:0:
428,288,190584,1,0,0:0:0:0:
428,288,190668,1,0,0:0:0:0:
284,16,190834,5,0,0:0:0:0:
288,328,191001,1,0,0:0:0:0:
184,68,191168,5,0,0:0:0:0:
168,368,191334,1,0,0:0:0:0:
168,368,191418,1,0,0:0:0:0:
168,368,191501,1,0,0:0:0:0:
360,196,191668,5,0,0:0:0:0:
4,116,191834,1,0,0:0:0:0:
332,36,192001,5,0,0:0:0:0:
52,268,192168,1,0,0:0:0:0:
176,0,192334,5,0,0:0:0:0:
196,316,192501,1,0,0:0:0:0:
236,336,192584,1,0,0:0:0:0:
280,340,192668,1,0,0:0:0:0:
328,332,192751,1,0,0:0:0:0:
364,312,192834,2,0,L|432:324,1,56.2500021457673
192,152,193001,2,0,L|288:140,1,56.2500021457673
420,28,193168,5,0,0:0:0:0:
420,28,193251,1,0,0:0:0:0:
420,28,193334,1,0,0:0:0:0:
244,284,193501,1,0,0:0:0:0:
144,8,193668,1,0,0:0:0:0:
368,208,193834,1,0,0:0:0:0:
135,111,194001,6,0,B|119:159|119:159|135:243,1,127.50000243187
259,106,194334,2,0,B|219:102|195:94|195:94|159:110|119:114,1,127.50000243187
28,46,194668,2,0,B|60:69|95:76|95:76|123:108|165:129,1,127.50000243187
364,32,195001,5,0,0:0:0:0:
504,312,195168,1,0,0:0:0:0:
504,312,195251,1,0,0:0:0:0:
504,312,195334,2,0,B|456:308|456:308|420:320|420:320|364:312,1,127.50000243187
244,80,195668,5,0,0:0:0:0:
160,364,195834,1,0,0:0:0:0:
160,364,195918,1,0,0:0:0:0:
160,364,196001,1,0,0:0:0:0:
92,20,196168,5,0,0:0:0:0:
340,272,196334,1,0,0:0:0:0:
0,172,196501,5,0,0:0:0:0:
336,64,196668,1,0,0:0:0:0:
336,64,196751,1,0,0:0:0:0:
336,64,196834,1,0,0:0:0:0:
72,312,197001,5,0,0:0:0:0:
412,192,197168,1,0,0:0:0:0:
232,56,197334,5,0,0:0:0:0:
240,336,197501,1,0,0:0:0:0:
152,16,197668,5,0,0:0:0:0:
140,308,197834,1,0,0:0:0:0:
168,264,197918,1,0,0:0:0:0:
224,272,198001,1,0,0:0:0:0:
232,328,198084,1,0,0:0:0:0:
180,352,198168,1,0,0:0:0:0:
24,344,198334,6,0,L|16:188,1,127.50000243187
68,56,198668,1,0,0:0:0:0:
172,292,198834,1,0,0:0:0:0:
208,4,199001,1,0,0:0:0:0:
296,340,199168,1,0,0:0:0:0:
308,296,199251,1,0,0:0:0:0:
312,248,199334,1,0,0:0:0:0:
308,201,199418,1,0,0:0:0:0:
296,152,199501,1,0,0:0:0:0:
88,24,199668,6,0,P|80:76|92:152,1,127.50000243187
200,344,200001,5,0,0:0:0:0:
504,132,200168,1,0,0:0:0:0:
152,80,200334,1,0,0:0:0:0:
368,240,200501,5,0,0:0:0:0:
368,240,200584,1,0,0:0:0:0:
368,240,200668,1,0,0:0:0:0:
276,8,200834,1,0,0:0:0:0:
200,344,201001,2,0,B|248:336|248:336|332:356,1,127.50000243187
496,284,201334,5,0,0:0:0:0:
117,254,201501,1,0,0:0:0:0:
400,8,201668,1,0,0:0:0:0:
348,240,201834,5,0,0:0:0:0:
348,240,201918,1,0,0:0:0:0:
348,240,202001,1,0,0:0:0:0:
256,16,202168,1,0,0:0:0:0:
236,356,202334,1,0,0:0:0:0:
388,140,202501,1,0,0:0:0:0:
64,248,202668,1,0,0:0:0:0:
360,304,202834,1,0,0:0:0:0:
120,72,203001,1,0,0:0:0:0:
168,304,203168,5,0,0:0:0:0:
212,335,203251,1,0,0:0:0:0:
256,304,203334,1,0,0:0:0:0:
236,248,203418,1,0,0:0:0:0:
180,252,203501,1,0,0:0:0:0:
24,296,203668,6,0,B|16:248|16:248|28:216|28:216|20:152,1,127.50000243187
196,20,204001,2,0,B|204:60|204:60|192:96|192:96|208:160,1,127.50000243187
204,316,204334,5,0,0:0:0:0:
36,24,204501,1,0,0:0:0:0:
36,24,204584,1,0,0:0:0:0:
36,24,204668,1,0,0:0:0:0:
344,112,204834,1,0,0:0:0:0:
152,228,205001,6,0,B|208:208|208:208|274:220,1,127.50000243187
428,344,205334,5,0,0:0:0:0:
152,244,205501,1,0,0:0:0:0:
448,172,205668,1,0,0:0:0:0:
276,336,205834,1,0,0:0:0:0:
276,296,205918,1,0,0:0:0:0:
276,252,206001,2,0,B|209:239|209:239|153:259,1,127.50000243187
152,72,206334,5,0,0:0:0:0:
440,168,206501,1,0,0:0:0:0:
440,168,206584,1,0,0:0:0:0:
440,168,206668,1,0,0:0:0:0:
60,228,206834,1,0,0:0:0:0:
320,56,207001,1,0,0:0:0:0:
160,360,207168,1,0,0:0:0:0:
160,360,207251,1,0,0:0:0:0:
160,360,207334,1,0,0:0:0:0:
100,12,207501,1,0,0:0:0:0:
359,268,207668,1,0,0:0:0:0:
0,192,207834,1,0,0:0:0:0:
357,31,208001,6,0,B|401:39|461:15|461:15|395:117|444:203|444:203|496:280|440:371|440:371|366:321|357:255,1,618.750018882752
332,103,210668,6,0,B|300:84|245:81|245:81|285:117|279:172|279:172|234:113|110:136|140:267|238:267|238:267|202:302,1,495.000015106202
256,192,212751,12,0,213334,0:0:0:0:
