osu file format v14

[General]
AudioFilename: audio.mp3
AudioLeadIn: 0
PreviewTime: 43679
Countdown: 0
SampleSet: None
StackLeniency: 0.7
Mode: 3
LetterboxInBreaks: 0
SpecialStyle: 0
WidescreenStoryboard: 1

[Editor]
DistanceSpacing: 0.8
BeatDivisor: 4
GridSize: 8
TimelineZoom: 1.9

[Metadata]
Title:Drown [Full EP]
TitleUnicode:Drown [Full EP]
Artist:Bethas
ArtistUnicode:Bethas
Creator:Cokiiplay
Version:01. The Flood
Source:
Tags:drill & bass drum & bass electronic breakbeat breakcore darkstep
BeatmapID:2186247
BeatmapSetID:1045804

[Difficulty]
HPDrainRate:8
CircleSize:4
OverallDifficulty:8
ApproachRate:5
SliderMultiplier:1.4
SliderTickRate:1

[Events]
//Background and Video events
0,0,"a4123023675_10.jpg",0,0
//Break Periods
//Storyboard Layer 0 (Background)
//Storyboard Layer 1 (Fail)
//Storyboard Layer 2 (Pass)
//Storyboard Layer 3 (Foreground)
//Storyboard Layer 4 (Overlay)
//Storyboard Sound Samples

[TimingPoints]
43,272.727272727273,4,2,0,100,1,0

[HitObjects]
64,192,43,5,0,0:0:0:0:
192,192,43,1,0,0:0:0:0:
192,192,588,1,0,0:0:0:0:
320,192,588,1,0,0:0:0:0:
448,192,1133,1,0,0:0:0:0:
192,192,1133,1,0,0:0:0:0:
192,192,1679,1,0,0:0:0:0:
64,192,1679,1,0,0:0:0:0:
448,192,3315,1,0,0:0:0:0:
320,192,3315,1,0,0:0:0:0:
192,192,4406,1,0,0:0:0:0:
64,192,4406,1,0,0:0:0:0:
192,192,4952,1,0,0:0:0:0:
320,192,4952,1,0,0:0:0:0:
448,192,5497,1,0,0:0:0:0:
192,192,5497,1,0,0:0:0:0:
192,192,6043,1,0,0:0:0:0:
64,192,6043,1,0,0:0:0:0:
448,192,7679,1,0,0:0:0:0:
320,192,7679,1,0,0:0:0:0:
64,192,8770,1,0,0:0:0:0:
192,192,8770,1,0,0:0:0:0:
448,192,8906,1,0,0:0:0:0:
192,192,9043,1,0,0:0:0:0:
320,192,9043,1,0,0:0:0:0:
64,192,9179,1,0,0:0:0:0:
320,192,9315,1,0,0:0:0:0:
192,192,9315,1,0,0:0:0:0:
448,192,9452,1,0,0:0:0:0:
64,192,9588,1,0,0:0:0:0:
64,192,9724,1,0,0:0:0:0:
192,192,9861,1,0,0:0:0:0:
448,192,9861,1,0,0:0:0:0:
448,192,10133,1,0,0:0:0:0:
64,192,10133,1,0,0:0:0:0:
320,192,10270,1,0,0:0:0:0:
64,192,10406,1,0,0:0:0:0:
192,192,10406,1,0,0:0:0:0:
320,192,10543,1,0,0:0:0:0:
448,192,10679,1,0,0:0:0:0:
64,192,10679,1,0,0:0:0:0:
320,192,10952,1,0,0:0:0:0:
192,192,11088,1,0,0:0:0:0:
448,192,11224,1,0,0:0:0:0:
64,192,11224,1,0,0:0:0:0:
320,192,11361,1,0,0:0:0:0:
192,192,11497,1,0,0:0:0:0:
192,192,11770,1,0,0:0:0:0:
192,192,11906,1,0,0:0:0:0:
320,192,12043,1,0,0:0:0:0:
448,192,12043,1,0,0:0:0:0:
448,192,12315,1,0,0:0:0:0:
64,192,12315,1,0,0:0:0:0:
320,192,12452,1,0,0:0:0:0:
64,192,12588,1,0,0:0:0:0:
448,192,12724,1,0,0:0:0:0:
192,192,12861,1,0,0:0:0:0:
320,192,12861,1,0,0:0:0:0:
64,192,13133,1,0,0:0:0:0:
192,192,13133,1,0,0:0:0:0:
448,192,13270,1,0,0:0:0:0:
192,192,13406,1,0,0:0:0:0:
320,192,13406,1,0,0:0:0:0:
64,192,13543,1,0,0:0:0:0:
320,192,13679,1,0,0:0:0:0:
192,192,13679,1,0,0:0:0:0:
448,192,13815,1,0,0:0:0:0:
64,192,13952,1,0,0:0:0:0:
64,192,14088,1,0,0:0:0:0:
192,192,14224,1,0,0:0:0:0:
448,192,14224,1,0,0:0:0:0:
448,192,14497,1,0,0:0:0:0:
64,192,14497,1,0,0:0:0:0:
320,192,14633,1,0,0:0:0:0:
64,192,14770,1,0,0:0:0:0:
192,192,14770,1,0,0:0:0:0:
320,192,14906,1,0,0:0:0:0:
448,192,15043,1,0,0:0:0:0:
64,192,15043,1,0,0:0:0:0:
320,192,15315,1,0,0:0:0:0:
192,192,15452,1,0,0:0:0:0:
448,192,15588,1,0,0:0:0:0:
64,192,15588,1,0,0:0:0:0:
320,192,15724,1,0,0:0:0:0:
192,192,15861,1,0,0:0:0:0:
192,192,16133,1,0,0:0:0:0:
192,192,16270,1,0,0:0:0:0:
320,192,16406,1,0,0:0:0:0:
448,192,16406,1,0,0:0:0:0:
448,192,16679,1,0,0:0:0:0:
64,192,16679,1,0,0:0:0:0:
320,192,16815,1,0,0:0:0:0:
64,192,16952,1,0,0:0:0:0:
448,192,17088,1,0,0:0:0:0:
192,192,17224,1,0,0:0:0:0:
320,192,17224,1,0,0:0:0:0:
320,192,17497,1,0,0:0:0:0:
64,192,17497,1,0,0:0:0:0:
192,192,17497,1,0,0:0:0:0:
448,192,17633,1,0,0:0:0:0:
192,192,17770,1,0,0:0:0:0:
320,192,17770,1,0,0:0:0:0:
64,192,17906,1,0,0:0:0:0:
448,192,18043,1,0,0:0:0:0:
320,192,18043,1,0,0:0:0:0:
192,192,18043,1,0,0:0:0:0:
320,192,18179,1,0,0:0:0:0:
448,192,18179,1,0,0:0:0:0:
64,192,18315,1,0,0:0:0:0:
64,192,18452,1,0,0:0:0:0:
320,192,18588,1,0,0:0:0:0:
192,192,18588,1,0,0:0:0:0:
448,192,18588,1,0,0:0:0:0:
448,192,18861,1,0,0:0:0:0:
64,192,18861,1,0,0:0:0:0:
320,192,18997,1,0,0:0:0:0:
448,192,19133,1,0,0:0:0:0:
64,192,19133,1,0,0:0:0:0:
192,192,19133,1,0,0:0:0:0:
192,192,19270,1,0,0:0:0:0:
320,192,19270,1,0,0:0:0:0:
448,192,19406,1,0,0:0:0:0:
64,192,19406,1,0,0:0:0:0:
448,192,19679,1,0,0:0:0:0:
320,192,19679,1,0,0:0:0:0:
192,192,19815,1,0,0:0:0:0:
448,192,19952,1,0,0:0:0:0:
64,192,19952,1,0,0:0:0:0:
320,192,20088,1,0,0:0:0:0:
64,192,20224,1,0,0:0:0:0:
192,192,20224,1,0,0:0:0:0:
448,192,20361,1,0,0:0:0:0:
64,192,20361,1,0,0:0:0:0:
192,192,20497,1,0,0:0:0:0:
192,192,20633,1,0,0:0:0:0:
64,192,20770,1,0,0:0:0:0:
320,192,20770,1,0,0:0:0:0:
448,192,20770,1,0,0:0:0:0:
448,192,21043,1,0,0:0:0:0:
64,192,21043,1,0,0:0:0:0:
320,192,21179,1,0,0:0:0:0:
192,192,21315,1,0,0:0:0:0:
64,192,21315,1,0,0:0:0:0:
64,192,21452,1,0,0:0:0:0:
448,192,21452,1,0,0:0:0:0:
192,192,21588,1,0,0:0:0:0:
320,192,21588,1,0,0:0:0:0:
320,192,21861,1,0,0:0:0:0:
64,192,21861,1,0,0:0:0:0:
192,192,21861,1,0,0:0:0:0:
448,192,21997,1,0,0:0:0:0:
192,192,22133,1,0,0:0:0:0:
320,192,22133,1,0,0:0:0:0:
64,192,22270,1,0,0:0:0:0:
448,192,22406,1,0,0:0:0:0:
320,192,22406,1,0,0:0:0:0:
192,192,22406,1,0,0:0:0:0:
320,192,22543,1,0,0:0:0:0:
448,192,22543,1,0,0:0:0:0:
64,192,22679,1,0,0:0:0:0:
64,192,22815,1,0,0:0:0:0:
320,192,22952,1,0,0:0:0:0:
192,192,22952,1,0,0:0:0:0:
448,192,22952,1,0,0:0:0:0:
448,192,23224,1,0,0:0:0:0:
64,192,23224,1,0,0:0:0:0:
320,192,23361,1,0,0:0:0:0:
448,192,23497,1,0,0:0:0:0:
64,192,23497,1,0,0:0:0:0:
192,192,23497,1,0,0:0:0:0:
192,192,23633,1,0,0:0:0:0:
320,192,23633,1,0,0:0:0:0:
448,192,23770,1,0,0:0:0:0:
64,192,23770,1,0,0:0:0:0:
448,192,24043,1,0,0:0:0:0:
320,192,24043,1,0,0:0:0:0:
192,192,24179,1,0,0:0:0:0:
448,192,24315,1,0,0:0:0:0:
64,192,24315,1,0,0:0:0:0:
320,192,24452,1,0,0:0:0:0:
64,192,24588,1,0,0:0:0:0:
192,192,24588,1,0,0:0:0:0:
448,192,24724,1,0,0:0:0:0:
64,192,24724,1,0,0:0:0:0:
192,192,24861,1,0,0:0:0:0:
192,192,24997,1,0,0:0:0:0:
320,192,25133,1,0,0:0:0:0:
448,192,25133,1,0,0:0:0:0:
448,192,25406,1,0,0:0:0:0:
64,192,25406,1,0,0:0:0:0:
320,192,25543,1,0,0:0:0:0:
192,192,25679,1,0,0:0:0:0:
64,192,25679,1,0,0:0:0:0:
64,192,25815,1,0,0:0:0:0:
448,192,25815,1,0,0:0:0:0:
192,192,25952,1,0,0:0:0:0:
320,192,25952,1,0,0:0:0:0:
64,192,26224,1,0,0:0:0:0:
192,192,26224,1,0,0:0:0:0:
448,192,26361,1,0,0:0:0:0:
192,192,26497,1,0,0:0:0:0:
320,192,26497,1,0,0:0:0:0:
64,192,26633,1,0,0:0:0:0:
320,192,26770,1,0,0:0:0:0:
192,192,26770,1,0,0:0:0:0:
448,192,26906,1,0,0:0:0:0:
64,192,27043,1,0,0:0:0:0:
64,192,27179,1,0,0:0:0:0:
192,192,27315,1,0,0:0:0:0:
448,192,27315,1,0,0:0:0:0:
448,192,27588,1,0,0:0:0:0:
64,192,27588,1,0,0:0:0:0:
320,192,27724,1,0,0:0:0:0:
64,192,27861,1,0,0:0:0:0:
192,192,27861,1,0,0:0:0:0:
320,192,27997,1,0,0:0:0:0:
448,192,28133,1,0,0:0:0:0:
64,192,28133,1,0,0:0:0:0:
448,192,28406,1,0,0:0:0:0:
320,192,28406,1,0,0:0:0:0:
192,192,28543,1,0,0:0:0:0:
448,192,28679,1,0,0:0:0:0:
64,192,28679,1,0,0:0:0:0:
320,192,28815,1,0,0:0:0:0:
64,192,28952,1,0,0:0:0:0:
192,192,28952,1,0,0:0:0:0:
192,192,29224,1,0,0:0:0:0:
192,192,29361,1,0,0:0:0:0:
320,192,29497,1,0,0:0:0:0:
448,192,29497,1,0,0:0:0:0:
448,192,29770,1,0,0:0:0:0:
64,192,29770,1,0,0:0:0:0:
320,192,29906,1,0,0:0:0:0:
192,192,30043,1,0,0:0:0:0:
64,192,30043,1,0,0:0:0:0:
448,192,30179,1,0,0:0:0:0:
192,192,30315,1,0,0:0:0:0:
320,192,30315,1,0,0:0:0:0:
64,192,30588,1,0,0:0:0:0:
192,192,30588,1,0,0:0:0:0:
448,192,30724,1,0,0:0:0:0:
192,192,30861,1,0,0:0:0:0:
320,192,30861,1,0,0:0:0:0:
64,192,30997,1,0,0:0:0:0:
320,192,31133,1,0,0:0:0:0:
192,192,31133,1,0,0:0:0:0:
448,192,31270,1,0,0:0:0:0:
64,192,31406,1,0,0:0:0:0:
64,192,31543,1,0,0:0:0:0:
192,192,31679,1,0,0:0:0:0:
448,192,31679,1,0,0:0:0:0:
448,192,31952,1,0,0:0:0:0:
64,192,31952,1,0,0:0:0:0:
320,192,32088,1,0,0:0:0:0:
64,192,32224,1,0,0:0:0:0:
192,192,32224,1,0,0:0:0:0:
320,192,32361,1,0,0:0:0:0:
448,192,32497,1,0,0:0:0:0:
64,192,32497,1,0,0:0:0:0:
448,192,32770,1,0,0:0:0:0:
320,192,32770,1,0,0:0:0:0:
192,192,32906,1,0,0:0:0:0:
448,192,33043,1,0,0:0:0:0:
64,192,33043,1,0,0:0:0:0:
320,192,33179,1,0,0:0:0:0:
64,192,33315,1,0,0:0:0:0:
192,192,33315,1,0,0:0:0:0:
192,192,33588,1,0,0:0:0:0:
192,192,33724,1,0,0:0:0:0:
320,192,33861,1,0,0:0:0:0:
448,192,33861,1,0,0:0:0:0:
448,192,34133,1,0,0:0:0:0:
64,192,34133,1,0,0:0:0:0:
320,192,34270,1,0,0:0:0:0:
192,192,34406,1,0,0:0:0:0:
64,192,34406,1,0,0:0:0:0:
448,192,34543,1,0,0:0:0:0:
192,192,34679,1,0,0:0:0:0:
320,192,34679,1,0,0:0:0:0:
64,192,34952,5,0,0:0:0:0:
192,192,34952,1,0,0:0:0:0:
192,192,35497,1,0,0:0:0:0:
320,192,35497,1,0,0:0:0:0:
320,192,36043,1,0,0:0:0:0:
192,192,36043,1,0,0:0:0:0:
320,192,36418,1,0,0:0:0:0:
192,192,36588,1,0,0:0:0:0:
64,192,36588,1,0,0:0:0:0:
320,192,36770,1,0,0:0:0:0:
320,192,37043,1,0,0:0:0:0:
64,192,37133,1,0,0:0:0:0:
192,192,37133,1,0,0:0:0:0:
320,192,37315,1,0,0:0:0:0:
320,192,37543,1,0,0:0:0:0:
192,192,37679,1,0,0:0:0:0:
64,192,37679,1,0,0:0:0:0:
320,192,37747,1,0,0:0:0:0:
320,192,37906,1,0,0:0:0:0:
320,192,38088,1,0,0:0:0:0:
192,192,38224,1,0,0:0:0:0:
64,192,38224,1,0,0:0:0:0:
320,192,38258,1,0,0:0:0:0:
320,192,38395,1,0,0:0:0:0:
320,192,38531,1,0,0:0:0:0:
320,192,38668,1,0,0:0:0:0:
64,192,38770,1,0,0:0:0:0:
192,192,38770,1,0,0:0:0:0:
320,192,38804,1,0,0:0:0:0:
320,192,38929,1,0,0:0:0:0:
320,192,39043,1,0,0:0:0:0:
320,192,39156,1,0,0:0:0:0:
320,192,39247,1,0,0:0:0:0:
192,192,39361,1,0,0:0:0:0:
320,192,39452,1,0,0:0:0:0:
192,192,39565,1,0,0:0:0:0:
320,192,39656,1,0,0:0:0:0:
192,192,39747,1,0,0:0:0:0:
320,192,39844,1,0,0:0:0:0:
192,192,39912,1,0,0:0:0:0:
320,192,39997,1,0,0:0:0:0:
192,192,40065,1,0,0:0:0:0:
320,192,40150,1,0,0:0:0:0:
192,192,40236,1,0,0:0:0:0:
320,192,40304,1,0,0:0:0:0:
192,192,40372,1,0,0:0:0:0:
448,192,40440,1,0,0:0:0:0:
320,192,40508,1,0,0:0:0:0:
192,192,40577,1,0,0:0:0:0:
64,192,40645,1,0,0:0:0:0:
448,192,40696,1,0,0:0:0:0:
320,192,40764,1,0,0:0:0:0:
192,192,40832,1,0,0:0:0:0:
64,192,40900,1,0,0:0:0:0:
448,192,40952,1,0,0:0:0:0:
320,192,41003,1,0,0:0:0:0:
192,192,41054,1,0,0:0:0:0:
64,192,41105,1,0,0:0:0:0:
448,192,41156,1,0,0:0:0:0:
320,192,41207,1,0,0:0:0:0:
192,192,41258,1,0,0:0:0:0:
64,192,41310,1,0,0:0:0:0:
448,192,41361,1,0,0:0:0:0:
320,192,41412,1,0,0:0:0:0:
192,192,41463,1,0,0:0:0:0:
64,192,41514,1,0,0:0:0:0:
448,192,41565,1,0,0:0:0:0:
320,192,41616,1,0,0:0:0:0:
192,192,41668,1,0,0:0:0:0:
64,192,41719,1,0,0:0:0:0:
448,192,41770,1,0,0:0:0:0:
320,192,41804,1,0,0:0:0:0:
192,192,41838,1,0,0:0:0:0:
64,192,41872,1,0,0:0:0:0:
448,192,41906,1,0,0:0:0:0:
320,192,41940,1,0,0:0:0:0:
192,192,41974,1,0,0:0:0:0:
64,192,42008,1,0,0:0:0:0:
448,192,42043,1,0,0:0:0:0:
320,192,42077,1,0,0:0:0:0:
192,192,42111,1,0,0:0:0:0:
64,192,42145,1,0,0:0:0:0:
448,192,42179,1,0,0:0:0:0:
320,192,42213,1,0,0:0:0:0:
192,192,42247,1,0,0:0:0:0:
64,192,42281,1,0,0:0:0:0:
448,192,42315,1,0,0:0:0:0:
320,192,42349,1,0,0:0:0:0:
192,192,42383,1,0,0:0:0:0:
64,192,42418,1,0,0:0:0:0:
448,192,42452,1,0,0:0:0:0:
320,192,42486,1,0,0:0:0:0:
192,192,42520,1,0,0:0:0:0:
64,192,42554,1,0,0:0:0:0:
448,192,42588,128,0,43679:0:0:0:0:
192,192,43679,128,0,43747:0:0:0:0:
320,192,43679,1,0,0:0:0:0:
64,192,43747,128,0,43815:0:0:0:0:
448,192,43815,128,0,43952:0:0:0:0:
192,192,43952,1,0,0:0:0:0:
64,192,44088,1,0,0:0:0:0:
320,192,44088,1,0,0:0:0:0:
192,192,44224,1,0,0:0:0:0:
448,192,44361,1,0,0:0:0:0:
64,192,44361,1,0,0:0:0:0:
320,192,44497,1,0,0:0:0:0:
320,192,44633,1,0,0:0:0:0:
64,192,44770,1,0,0:0:0:0:
192,192,44770,1,0,0:0:0:0:
64,192,44906,1,0,0:0:0:0:
192,192,44906,1,0,0:0:0:0:
320,192,45043,1,0,0:0:0:0:
192,192,45111,1,0,0:0:0:0:
320,192,45179,1,0,0:0:0:0:
192,192,45247,1,0,0:0:0:0:
448,192,45315,1,0,0:0:0:0:
64,192,45315,1,0,0:0:0:0:
320,192,45452,1,0,0:0:0:0:
64,192,45588,128,0,45861:0:0:0:0:
448,192,45588,1,0,0:0:0:0:
448,192,45861,1,0,0:0:0:0:
320,192,45861,1,0,0:0:0:0:
192,192,45997,128,0,46133:0:0:0:0:
448,192,46133,1,0,0:0:0:0:
64,192,46133,1,0,0:0:0:0:
64,192,46270,128,0,46406:0:0:0:0:
320,192,46270,1,0,0:0:0:0:
320,192,46406,1,0,0:0:0:0:
192,192,46406,1,0,0:0:0:0:
320,192,46543,1,0,0:0:0:0:
192,192,46543,1,0,0:0:0:0:
320,192,46679,1,0,0:0:0:0:
192,192,46679,1,0,0:0:0:0:
192,192,46815,1,0,0:0:0:0:
64,192,46952,1,0,0:0:0:0:
320,192,46952,1,0,0:0:0:0:
448,192,47020,1,0,0:0:0:0:
192,192,47088,1,0,0:0:0:0:
320,192,47156,1,0,0:0:0:0:
448,192,47224,1,0,0:0:0:0:
64,192,47224,1,0,0:0:0:0:
192,192,47361,1,0,0:0:0:0:
320,192,47361,1,0,0:0:0:0:
64,192,47497,1,0,0:0:0:0:
192,192,47497,1,0,0:0:0:0:
320,192,47633,1,0,0:0:0:0:
64,192,47770,128,0,48043:0:0:0:0:
320,192,47770,1,0,0:0:0:0:
320,192,48043,1,0,0:0:0:0:
192,192,48043,1,0,0:0:0:0:
448,192,48111,1,0,0:0:0:0:
64,192,48179,1,0,0:0:0:0:
192,192,48247,1,0,0:0:0:0:
320,192,48315,128,0,48452:0:0:0:0:
448,192,48315,1,0,0:0:0:0:
448,192,48588,1,0,0:0:0:0:
64,192,48588,1,0,0:0:0:0:
64,192,48724,1,0,0:0:0:0:
192,192,48724,1,0,0:0:0:0:
448,192,48861,1,0,0:0:0:0:
320,192,48929,1,0,0:0:0:0:
448,192,48997,1,0,0:0:0:0:
320,192,49065,1,0,0:0:0:0:
64,192,49133,1,0,0:0:0:0:
192,192,49133,1,0,0:0:0:0:
64,192,49270,1,0,0:0:0:0:
320,192,49406,1,0,0:0:0:0:
192,192,49406,1,0,0:0:0:0:
448,192,49474,1,0,0:0:0:0:
192,192,49543,1,0,0:0:0:0:
320,192,49543,1,0,0:0:0:0:
448,192,49611,1,0,0:0:0:0:
192,192,49679,1,0,0:0:0:0:
320,192,49679,1,0,0:0:0:0:
64,192,49815,1,0,0:0:0:0:
448,192,49815,1,0,0:0:0:0:
448,192,49952,1,0,0:0:0:0:
320,192,49952,1,0,0:0:0:0:
192,192,49952,1,0,0:0:0:0:
320,192,50088,1,0,0:0:0:0:
64,192,50088,1,0,0:0:0:0:
192,192,50088,1,0,0:0:0:0:
448,192,50224,1,0,0:0:0:0:
64,192,50224,1,0,0:0:0:0:
192,192,50293,1,0,0:0:0:0:
448,192,50361,1,0,0:0:0:0:
320,192,50497,1,0,0:0:0:0:
64,192,50497,1,0,0:0:0:0:
320,192,50633,1,0,0:0:0:0:
192,192,50633,1,0,0:0:0:0:
64,192,50702,1,0,0:0:0:0:
192,192,50770,1,0,0:0:0:0:
448,192,50770,1,0,0:0:0:0:
192,192,50906,1,0,0:0:0:0:
320,192,50906,1,0,0:0:0:0:
320,192,51043,1,0,0:0:0:0:
192,192,51043,1,0,0:0:0:0:
64,192,51111,1,0,0:0:0:0:
448,192,51179,1,0,0:0:0:0:
64,192,51315,1,0,0:0:0:0:
192,192,51315,1,0,0:0:0:0:
320,192,51315,1,0,0:0:0:0:
448,192,51383,1,0,0:0:0:0:
192,192,51452,1,0,0:0:0:0:
64,192,51452,1,0,0:0:0:0:
448,192,51588,1,0,0:0:0:0:
320,192,51588,1,0,0:0:0:0:
320,192,51724,1,0,0:0:0:0:
192,192,51724,1,0,0:0:0:0:
448,192,51793,1,0,0:0:0:0:
64,192,51861,1,0,0:0:0:0:
192,192,51861,1,0,0:0:0:0:
448,192,51997,1,0,0:0:0:0:
320,192,51997,1,0,0:0:0:0:
192,192,52133,1,0,0:0:0:0:
320,192,52133,1,0,0:0:0:0:
448,192,52202,1,0,0:0:0:0:
64,192,52202,1,0,0:0:0:0:
192,192,52270,1,0,0:0:0:0:
320,192,52270,1,0,0:0:0:0:
448,192,52338,1,0,0:0:0:0:
64,192,52338,1,0,0:0:0:0:
192,192,52406,1,0,0:0:0:0:
320,192,52406,1,0,0:0:0:0:
448,192,52543,1,0,0:0:0:0:
64,192,52679,1,0,0:0:0:0:
192,192,52679,1,0,0:0:0:0:
448,192,52747,1,0,0:0:0:0:
192,192,52815,1,0,0:0:0:0:
320,192,52815,1,0,0:0:0:0:
64,192,52952,128,0,53088:0:0:0:0:
448,192,53088,1,0,0:0:0:0:
320,192,53088,1,0,0:0:0:0:
192,192,53224,1,0,0:0:0:0:
320,192,53361,1,0,0:0:0:0:
320,192,53497,1,0,0:0:0:0:
64,192,53497,1,0,0:0:0:0:
192,192,53565,1,0,0:0:0:0:
448,192,53633,1,0,0:0:0:0:
448,192,53770,1,0,0:0:0:0:
64,192,53770,1,0,0:0:0:0:
192,192,53770,1,0,0:0:0:0:
64,192,53906,1,0,0:0:0:0:
320,192,53906,1,0,0:0:0:0:
192,192,53974,1,0,0:0:0:0:
448,192,54043,1,0,0:0:0:0:
448,192,54179,1,0,0:0:0:0:
64,192,54179,1,0,0:0:0:0:
192,192,54179,1,0,0:0:0:0:
64,192,54315,1,0,0:0:0:0:
320,192,54315,1,0,0:0:0:0:
192,192,54383,1,0,0:0:0:0:
448,192,54452,1,0,0:0:0:0:
320,192,54452,1,0,0:0:0:0:
64,192,54452,1,0,0:0:0:0:
448,192,54588,1,0,0:0:0:0:
320,192,54588,1,0,0:0:0:0:
192,192,54724,1,0,0:0:0:0:
320,192,54793,1,0,0:0:0:0:
192,192,54861,1,0,0:0:0:0:
320,192,54929,1,0,0:0:0:0:
448,192,54997,1,0,0:0:0:0:
64,192,54997,1,0,0:0:0:0:
192,192,55065,1,0,0:0:0:0:
320,192,55133,1,0,0:0:0:0:
448,192,55202,1,0,0:0:0:0:
64,192,55270,128,0,55406:0:0:0:0:
448,192,55406,128,0,55543:0:0:0:0:
320,192,55406,128,0,55543:0:0:0:0:
64,192,55543,1,0,0:0:0:0:
192,192,55611,1,0,0:0:0:0:
320,192,55679,1,0,0:0:0:0:
448,192,55679,1,0,0:0:0:0:
64,192,55747,1,0,0:0:0:0:
192,192,55815,1,0,0:0:0:0:
448,192,55815,1,0,0:0:0:0:
320,192,55815,1,0,0:0:0:0:
192,192,55952,1,0,0:0:0:0:
320,192,56020,1,0,0:0:0:0:
448,192,56088,1,0,0:0:0:0:
64,192,56088,1,0,0:0:0:0:
320,192,56224,1,0,0:0:0:0:
448,192,56224,1,0,0:0:0:0:
64,192,56224,1,0,0:0:0:0:
192,192,56361,1,0,0:0:0:0:
448,192,56497,1,0,0:0:0:0:
192,192,56497,1,0,0:0:0:0:
320,192,56565,1,0,0:0:0:0:
448,192,56633,1,0,0:0:0:0:
64,192,56633,1,0,0:0:0:0:
320,192,56702,1,0,0:0:0:0:
64,192,56770,1,0,0:0:0:0:
192,192,56770,1,0,0:0:0:0:
448,192,56815,1,0,0:0:0:0:
320,192,56861,1,0,0:0:0:0:
64,192,56906,128,0,57043:0:0:0:0:
448,192,57043,1,0,0:0:0:0:
320,192,57179,1,0,0:0:0:0:
192,192,57179,1,0,0:0:0:0:
64,192,57315,1,0,0:0:0:0:
192,192,57383,1,0,0:0:0:0:
320,192,57452,1,0,0:0:0:0:
320,192,57520,1,0,0:0:0:0:
448,192,57588,1,0,0:0:0:0:
64,192,57588,1,0,0:0:0:0:
192,192,57656,1,0,0:0:0:0:
64,192,57724,1,0,0:0:0:0:
448,192,57724,1,0,0:0:0:0:
192,192,57793,1,0,0:0:0:0:
448,192,57861,1,0,0:0:0:0:
320,192,57861,1,0,0:0:0:0:
192,192,57997,1,0,0:0:0:0:
448,192,58065,1,0,0:0:0:0:
320,192,58065,1,0,0:0:0:0:
192,192,58133,1,0,0:0:0:0:
448,192,58202,1,0,0:0:0:0:
64,192,58270,1,0,0:0:0:0:
320,192,58270,1,0,0:0:0:0:
192,192,58406,1,0,0:0:0:0:
448,192,58474,1,0,0:0:0:0:
320,192,58474,1,0,0:0:0:0:
64,192,58543,1,0,0:0:0:0:
448,192,58611,1,0,0:0:0:0:
192,192,58679,1,0,0:0:0:0:
320,192,58679,1,0,0:0:0:0:
448,192,58815,1,0,0:0:0:0:
64,192,58815,1,0,0:0:0:0:
192,192,58815,1,0,0:0:0:0:
448,192,58952,1,0,0:0:0:0:
320,192,58952,1,0,0:0:0:0:
64,192,59088,1,0,0:0:0:0:
192,192,59133,1,0,0:0:0:0:
448,192,59224,128,0,59361:0:0:0:0:
192,192,59361,1,0,0:0:0:0:
64,192,59361,1,0,0:0:0:0:
320,192,59406,1,0,0:0:0:0:
192,192,59497,1,0,0:0:0:0:
64,192,59497,1,0,0:0:0:0:
320,192,59633,128,0,59770:0:0:0:0:
64,192,59633,1,0,0:0:0:0:
448,192,59770,1,0,0:0:0:0:
192,192,59770,1,0,0:0:0:0:
448,192,59906,1,0,0:0:0:0:
64,192,60043,1,0,0:0:0:0:
192,192,60043,1,0,0:0:0:0:
320,192,60111,1,0,0:0:0:0:
448,192,60179,1,0,0:0:0:0:
64,192,60179,1,0,0:0:0:0:
320,192,60247,1,0,0:0:0:0:
192,192,60315,1,0,0:0:0:0:
64,192,60452,1,0,0:0:0:0:
192,192,60452,1,0,0:0:0:0:
448,192,60588,1,0,0:0:0:0:
64,192,60588,1,0,0:0:0:0:
192,192,60724,1,0,0:0:0:0:
64,192,60861,128,0,61133:0:0:0:0:
448,192,60861,1,0,0:0:0:0:
320,192,61133,1,0,0:0:0:0:
448,192,61133,1,0,0:0:0:0:
320,192,61270,1,0,0:0:0:0:
192,192,61406,1,0,0:0:0:0:
320,192,61543,1,0,0:0:0:0:
192,192,61679,1,0,0:0:0:0:
320,192,61747,1,0,0:0:0:0:
192,192,61815,1,0,0:0:0:0:
320,192,61883,1,0,0:0:0:0:
64,192,61952,1,0,0:0:0:0:
192,192,61952,1,0,0:0:0:0:
320,192,62088,1,0,0:0:0:0:
448,192,62224,1,0,0:0:0:0:
64,192,62224,1,0,0:0:0:0:
192,192,62224,1,0,0:0:0:0:
320,192,62361,1,0,0:0:0:0:
192,192,62497,1,0,0:0:0:0:
320,192,62633,1,0,0:0:0:0:
64,192,62770,1,0,0:0:0:0:
320,192,62906,1,0,0:0:0:0:
192,192,63043,1,0,0:0:0:0:
320,192,63179,1,0,0:0:0:0:
448,192,63315,1,0,0:0:0:0:
64,192,63315,1,0,0:0:0:0:
192,192,63383,1,0,0:0:0:0:
320,192,63452,128,0,63588:0:0:0:0:
448,192,63588,128,0,63724:0:0:0:0:
192,192,63724,1,0,0:0:0:0:
64,192,63724,1,0,0:0:0:0:
320,192,63793,1,0,0:0:0:0:
192,192,63861,128,0,63997:0:0:0:0:
448,192,63997,128,0,64133:0:0:0:0:
320,192,64133,1,0,0:0:0:0:
320,192,64270,1,0,0:0:0:0:
448,192,64406,1,0,0:0:0:0:
64,192,64406,1,0,0:0:0:0:
192,192,64474,1,0,0:0:0:0:
320,192,64543,128,0,64679:0:0:0:0:
448,192,64679,128,0,64815:0:0:0:0:
64,192,64815,1,0,0:0:0:0:
192,192,64815,1,0,0:0:0:0:
320,192,64883,1,0,0:0:0:0:
192,192,64952,128,0,65088:0:0:0:0:
448,192,65088,128,0,65224:0:0:0:0:
320,192,65224,1,0,0:0:0:0:
64,192,65224,1,0,0:0:0:0:
192,192,65361,1,0,0:0:0:0:
448,192,65497,1,0,0:0:0:0:
64,192,65497,1,0,0:0:0:0:
192,192,65565,1,0,0:0:0:0:
320,192,65633,128,0,65770:0:0:0:0:
448,192,65770,128,0,65906:0:0:0:0:
192,192,65906,1,0,0:0:0:0:
64,192,65906,1,0,0:0:0:0:
64,192,66043,1,0,0:0:0:0:
448,192,66111,1,0,0:0:0:0:
64,192,66179,1,0,0:0:0:0:
448,192,66247,1,0,0:0:0:0:
192,192,66315,1,0,0:0:0:0:
320,192,66315,128,0,66588:0:0:0:0:
448,192,66588,1,0,0:0:0:0:
64,192,66588,1,0,0:0:0:0:
192,192,66656,1,0,0:0:0:0:
320,192,66724,128,0,66861:0:0:0:0:
448,192,66861,128,0,66997:0:0:0:0:
64,192,66997,1,0,0:0:0:0:
192,192,66997,1,0,0:0:0:0:
320,192,67065,1,0,0:0:0:0:
192,192,67133,128,0,67270:0:0:0:0:
448,192,67270,128,0,67406:0:0:0:0:
64,192,67406,1,0,0:0:0:0:
192,192,67406,1,0,0:0:0:0:
320,192,67543,128,0,67679:0:0:0:0:
448,192,67679,1,0,0:0:0:0:
64,192,67679,1,0,0:0:0:0:
192,192,67747,1,0,0:0:0:0:
320,192,67815,128,0,67952:0:0:0:0:
448,192,67952,128,0,68088:0:0:0:0:
192,192,68088,1,0,0:0:0:0:
64,192,68088,1,0,0:0:0:0:
320,192,68156,1,0,0:0:0:0:
192,192,68224,128,0,68361:0:0:0:0:
448,192,68361,128,0,68497:0:0:0:0:
64,192,68497,1,0,0:0:0:0:
64,192,68633,1,0,0:0:0:0:
320,192,68770,1,0,0:0:0:0:
192,192,68770,1,0,0:0:0:0:
320,192,68906,1,0,0:0:0:0:
320,192,69043,1,0,0:0:0:0:
192,192,69179,1,0,0:0:0:0:
320,192,69179,1,0,0:0:0:0:
64,192,69315,1,0,0:0:0:0:
448,192,69383,1,0,0:0:0:0:
192,192,69452,1,0,0:0:0:0:
448,192,69520,1,0,0:0:0:0:
320,192,69588,128,0,69861:0:0:0:0:
448,192,69861,1,0,0:0:0:0:
64,192,69861,1,0,0:0:0:0:
192,192,69929,1,0,0:0:0:0:
320,192,69997,128,0,70133:0:0:0:0:
448,192,70133,128,0,70270:0:0:0:0:
192,192,70270,1,0,0:0:0:0:
64,192,70270,1,0,0:0:0:0:
320,192,70338,1,0,0:0:0:0:
192,192,70406,128,0,70543:0:0:0:0:
448,192,70543,128,0,70679:0:0:0:0:
320,192,70679,1,0,0:0:0:0:
192,192,70747,1,0,0:0:0:0:
320,192,70815,1,0,0:0:0:0:
192,192,70883,1,0,0:0:0:0:
64,192,70952,1,0,0:0:0:0:
448,192,70952,1,0,0:0:0:0:
192,192,71020,1,0,0:0:0:0:
320,192,71088,128,0,71224:0:0:0:0:
448,192,71224,128,0,71361:0:0:0:0:
64,192,71361,1,0,0:0:0:0:
192,192,71361,1,0,0:0:0:0:
320,192,71429,1,0,0:0:0:0:
192,192,71497,128,0,71633:0:0:0:0:
448,192,71633,128,0,71770:0:0:0:0:
320,192,71770,1,0,0:0:0:0:
192,192,71838,1,0,0:0:0:0:
64,192,71906,1,0,0:0:0:0:
320,192,71974,1,0,0:0:0:0:
64,192,72043,1,0,0:0:0:0:
448,192,72043,1,0,0:0:0:0:
192,192,72179,1,0,0:0:0:0:
320,192,72315,1,0,0:0:0:0:
192,192,72452,1,0,0:0:0:0:
448,192,72588,1,0,0:0:0:0:
64,192,72588,1,0,0:0:0:0:
192,192,72656,1,0,0:0:0:0:
320,192,72724,1,0,0:0:0:0:
192,192,72793,1,0,0:0:0:0:
64,192,72861,1,0,0:0:0:0:
448,192,72861,1,0,0:0:0:0:
448,192,72997,1,0,0:0:0:0:
64,192,73133,1,0,0:0:0:0:
192,192,73133,1,0,0:0:0:0:
320,192,73133,1,0,0:0:0:0:
192,192,73270,1,0,0:0:0:0:
448,192,73406,1,0,0:0:0:0:
192,192,73543,1,0,0:0:0:0:
320,192,73679,1,0,0:0:0:0:
192,192,73815,1,0,0:0:0:0:
448,192,73952,1,0,0:0:0:0:
192,192,74088,1,0,0:0:0:0:
64,192,74224,1,0,0:0:0:0:
192,192,74224,1,0,0:0:0:0:
448,192,74361,1,0,0:0:0:0:
192,192,74497,1,0,0:0:0:0:
320,192,74497,1,0,0:0:0:0:
64,192,74633,1,0,0:0:0:0:
320,192,74770,1,0,0:0:0:0:
192,192,74770,1,0,0:0:0:0:
448,192,74906,1,0,0:0:0:0:
64,192,75043,1,0,0:0:0:0:
64,192,75179,1,0,0:0:0:0:
192,192,75315,1,0,0:0:0:0:
448,192,75315,1,0,0:0:0:0:
448,192,75588,1,0,0:0:0:0:
64,192,75588,1,0,0:0:0:0:
320,192,75724,1,0,0:0:0:0:
64,192,75861,1,0,0:0:0:0:
192,192,75861,1,0,0:0:0:0:
320,192,75997,1,0,0:0:0:0:
448,192,76133,1,0,0:0:0:0:
64,192,76133,1,0,0:0:0:0:
448,192,76406,1,0,0:0:0:0:
320,192,76406,1,0,0:0:0:0:
192,192,76543,1,0,0:0:0:0:
448,192,76679,1,0,0:0:0:0:
64,192,76679,1,0,0:0:0:0:
320,192,76815,1,0,0:0:0:0:
64,192,76952,1,0,0:0:0:0:
192,192,76952,1,0,0:0:0:0:
192,192,77224,1,0,0:0:0:0:
192,192,77361,1,0,0:0:0:0:
320,192,77497,1,0,0:0:0:0:
448,192,77497,1,0,0:0:0:0:
448,192,77770,1,0,0:0:0:0:
64,192,77770,1,0,0:0:0:0:
320,192,77906,1,0,0:0:0:0:
192,192,78043,1,0,0:0:0:0:
64,192,78043,1,0,0:0:0:0:
448,192,78179,1,0,0:0:0:0:
192,192,78315,1,0,0:0:0:0:
320,192,78315,1,0,0:0:0:0:
192,192,78588,1,0,0:0:0:0:
64,192,78588,1,0,0:0:0:0:
448,192,78724,1,0,0:0:0:0:
320,192,78861,1,0,0:0:0:0:
192,192,78861,1,0,0:0:0:0:
64,192,78997,1,0,0:0:0:0:
192,192,79133,1,0,0:0:0:0:
320,192,79133,1,0,0:0:0:0:
448,192,79270,1,0,0:0:0:0:
64,192,79406,1,0,0:0:0:0:
64,192,79543,1,0,0:0:0:0:
448,192,79679,1,0,0:0:0:0:
192,192,79679,1,0,0:0:0:0:
64,192,79952,1,0,0:0:0:0:
448,192,79952,1,0,0:0:0:0:
320,192,80088,1,0,0:0:0:0:
192,192,80224,1,0,0:0:0:0:
64,192,80224,1,0,0:0:0:0:
320,192,80361,1,0,0:0:0:0:
64,192,80497,1,0,0:0:0:0:
448,192,80497,1,0,0:0:0:0:
448,192,80770,1,0,0:0:0:0:
320,192,80770,1,0,0:0:0:0:
192,192,80906,1,0,0:0:0:0:
64,192,81043,1,0,0:0:0:0:
448,192,81043,1,0,0:0:0:0:
320,192,81179,1,0,0:0:0:0:
64,192,81315,1,0,0:0:0:0:
192,192,81315,1,0,0:0:0:0:
192,192,81588,1,0,0:0:0:0:
192,192,81724,1,0,0:0:0:0:
448,192,81861,1,0,0:0:0:0:
320,192,81861,1,0,0:0:0:0:
64,192,82133,1,0,0:0:0:0:
448,192,82133,1,0,0:0:0:0:
320,192,82270,1,0,0:0:0:0:
192,192,82406,1,0,0:0:0:0:
64,192,82406,1,0,0:0:0:0:
448,192,82543,1,0,0:0:0:0:
320,192,82679,1,0,0:0:0:0:
192,192,82679,1,0,0:0:0:0:
448,192,82952,1,0,0:0:0:0:
64,192,82952,1,0,0:0:0:0:
192,192,83020,1,0,0:0:0:0:
448,192,83088,1,0,0:0:0:0:
320,192,83088,1,0,0:0:0:0:
64,192,83224,128,0,83361:0:0:0:0:
448,192,83361,1,0,0:0:0:0:
320,192,83361,1,0,0:0:0:0:
192,192,83429,1,0,0:0:0:0:
448,192,83497,1,0,0:0:0:0:
64,192,83497,1,0,0:0:0:0:
192,192,83543,1,0,0:0:0:0:
448,192,83588,1,0,0:0:0:0:
320,192,83633,128,0,83770:0:0:0:0:
64,192,83770,1,0,0:0:0:0:
448,192,83804,1,0,0:0:0:0:
192,192,83838,1,0,0:0:0:0:
320,192,83872,1,0,0:0:0:0:
64,192,83906,128,0,84043:0:0:0:0:
320,192,84043,1,0,0:0:0:0:
448,192,84043,1,0,0:0:0:0:
192,192,84111,1,0,0:0:0:0:
448,192,84179,1,0,0:0:0:0:
64,192,84179,1,0,0:0:0:0:
192,192,84224,1,0,0:0:0:0:
320,192,84270,1,0,0:0:0:0:
448,192,84315,128,0,84452:0:0:0:0:
192,192,84452,1,0,0:0:0:0:
64,192,84452,1,0,0:0:0:0:
448,192,84520,1,0,0:0:0:0:
64,192,84588,1,0,0:0:0:0:
192,192,84588,1,0,0:0:0:0:
448,192,84633,1,0,0:0:0:0:
320,192,84679,1,0,0:0:0:0:
192,192,84724,128,0,84861:0:0:0:0:
64,192,84861,1,0,0:0:0:0:
448,192,84895,1,0,0:0:0:0:
320,192,84929,1,0,0:0:0:0:
192,192,84963,1,0,0:0:0:0:
448,192,84997,128,0,85133:0:0:0:0:
320,192,85133,1,0,0:0:0:0:
192,192,85133,1,0,0:0:0:0:
64,192,85202,1,0,0:0:0:0:
320,192,85270,1,0,0:0:0:0:
320,192,85406,128,0,85543:0:0:0:0:
448,192,85543,1,0,0:0:0:0:
192,192,85543,1,0,0:0:0:0:
64,192,85611,1,0,0:0:0:0:
320,192,85679,1,0,0:0:0:0:
448,192,85679,1,0,0:0:0:0:
64,192,85724,1,0,0:0:0:0:
192,192,85770,1,0,0:0:0:0:
320,192,85815,128,0,85952:0:0:0:0:
64,192,85952,1,0,0:0:0:0:
448,192,85986,1,0,0:0:0:0:
192,192,86020,1,0,0:0:0:0:
320,192,86054,1,0,0:0:0:0:
64,192,86088,128,0,86224:0:0:0:0:
320,192,86224,1,0,0:0:0:0:
448,192,86224,1,0,0:0:0:0:
192,192,86293,1,0,0:0:0:0:
448,192,86361,1,0,0:0:0:0:
64,192,86361,1,0,0:0:0:0:
192,192,86406,1,0,0:0:0:0:
320,192,86452,1,0,0:0:0:0:
448,192,86497,128,0,86633:0:0:0:0:
64,192,86633,1,0,0:0:0:0:
320,192,86633,1,0,0:0:0:0:
192,192,86702,1,0,0:0:0:0:
448,192,86770,1,0,0:0:0:0:
64,192,86770,1,0,0:0:0:0:
320,192,86815,1,0,0:0:0:0:
192,192,86861,1,0,0:0:0:0:
64,192,86906,128,0,87043:0:0:0:0:
448,192,87043,1,0,0:0:0:0:
320,192,87043,1,0,0:0:0:0:
192,192,87179,1,0,0:0:0:0:
64,192,87315,1,0,0:0:0:0:
192,192,87315,1,0,0:0:0:0:
320,192,87383,1,0,0:0:0:0:
448,192,87452,1,0,0:0:0:0:
64,192,87452,1,0,0:0:0:0:
320,192,87497,1,0,0:0:0:0:
192,192,87543,1,0,0:0:0:0:
448,192,87588,128,0,87724:0:0:0:0:
320,192,87724,1,0,0:0:0:0:
64,192,87724,1,0,0:0:0:0:
192,192,87793,1,0,0:0:0:0:
320,192,87861,1,0,0:0:0:0:
64,192,87861,1,0,0:0:0:0:
448,192,87906,1,0,0:0:0:0:
192,192,87952,1,0,0:0:0:0:
320,192,87997,128,0,88133:0:0:0:0:
64,192,88133,1,0,0:0:0:0:
192,192,88168,1,0,0:0:0:0:
448,192,88202,1,0,0:0:0:0:
320,192,88236,1,0,0:0:0:0:
64,192,88270,128,0,88406:0:0:0:0:
320,192,88406,1,0,0:0:0:0:
448,192,88406,1,0,0:0:0:0:
64,192,88474,1,0,0:0:0:0:
448,192,88543,1,0,0:0:0:0:
192,192,88543,1,0,0:0:0:0:
320,192,88588,1,0,0:0:0:0:
64,192,88633,1,0,0:0:0:0:
448,192,88679,128,0,88815:0:0:0:0:
320,192,88815,1,0,0:0:0:0:
64,192,88815,1,0,0:0:0:0:
192,192,88883,1,0,0:0:0:0:
448,192,88952,1,0,0:0:0:0:
320,192,88952,1,0,0:0:0:0:
64,192,88997,1,0,0:0:0:0:
192,192,89043,1,0,0:0:0:0:
320,192,89088,128,0,89224:0:0:0:0:
64,192,89224,1,0,0:0:0:0:
448,192,89258,1,0,0:0:0:0:
192,192,89293,1,0,0:0:0:0:
320,192,89327,1,0,0:0:0:0:
64,192,89361,128,0,89497:0:0:0:0:
192,192,89497,1,0,0:0:0:0:
320,192,89497,1,0,0:0:0:0:
448,192,89565,1,0,0:0:0:0:
192,192,89633,1,0,0:0:0:0:
64,192,89770,128,0,89906:0:0:0:0:
320,192,89906,1,0,0:0:0:0:
448,192,89906,1,0,0:0:0:0:
192,192,89974,1,0,0:0:0:0:
64,192,90043,1,0,0:0:0:0:
448,192,90043,1,0,0:0:0:0:
320,192,90088,1,0,0:0:0:0:
192,192,90133,1,0,0:0:0:0:
448,192,90179,128,0,90315:0:0:0:0:
64,192,90315,1,0,0:0:0:0:
192,192,90315,1,0,0:0:0:0:
320,192,90452,1,0,0:0:0:0:
448,192,90588,1,0,0:0:0:0:
64,192,90588,1,0,0:0:0:0:
192,192,90588,1,0,0:0:0:0:
192,192,90724,1,0,0:0:0:0:
64,192,90861,128,0,90997:0:0:0:0:
448,192,90997,1,0,0:0:0:0:
320,192,90997,1,0,0:0:0:0:
192,192,91065,1,0,0:0:0:0:
448,192,91133,1,0,0:0:0:0:
64,192,91133,1,0,0:0:0:0:
320,192,91179,1,0,0:0:0:0:
192,192,91224,1,0,0:0:0:0:
64,192,91270,128,0,91406:0:0:0:0:
448,192,91406,1,0,0:0:0:0:
320,192,91406,1,0,0:0:0:0:
64,192,91474,1,0,0:0:0:0:
192,192,91474,1,0,0:0:0:0:
448,192,91543,1,0,0:0:0:0:
320,192,91543,1,0,0:0:0:0:
64,192,91611,1,0,0:0:0:0:
192,192,91611,1,0,0:0:0:0:
320,192,91679,1,0,0:0:0:0:
192,192,91815,1,0,0:0:0:0:
64,192,91952,128,0,92088:0:0:0:0:
320,192,92088,1,0,0:0:0:0:
448,192,92088,1,0,0:0:0:0:
192,192,92156,1,0,0:0:0:0:
64,192,92224,1,0,0:0:0:0:
448,192,92224,1,0,0:0:0:0:
320,192,92270,1,0,0:0:0:0:
64,192,92315,1,0,0:0:0:0:
448,192,92361,128,0,92497:0:0:0:0:
192,192,92497,1,0,0:0:0:0:
320,192,92497,1,0,0:0:0:0:
448,192,92633,1,0,0:0:0:0:
320,192,92770,1,0,0:0:0:0:
64,192,92770,1,0,0:0:0:0:
192,192,92770,1,0,0:0:0:0:
448,192,92906,1,0,0:0:0:0:
320,192,93043,128,0,93179:0:0:0:0:
448,192,93179,1,0,0:0:0:0:
64,192,93179,1,0,0:0:0:0:
192,192,93247,1,0,0:0:0:0:
320,192,93315,1,0,0:0:0:0:
64,192,93315,1,0,0:0:0:0:
192,192,93361,1,0,0:0:0:0:
448,192,93406,1,0,0:0:0:0:
64,192,93452,128,0,93588:0:0:0:0:
448,192,93588,1,0,0:0:0:0:
192,192,93588,1,0,0:0:0:0:
192,192,93724,1,0,0:0:0:0:
448,192,93861,1,0,0:0:0:0:
64,192,93861,1,0,0:0:0:0:
320,192,93861,1,0,0:0:0:0:
192,192,93997,1,0,0:0:0:0:
64,192,94133,1,0,0:0:0:0:
320,192,94133,1,0,0:0:0:0:
448,192,94270,1,0,0:0:0:0:
64,192,94270,1,0,0:0:0:0:
192,192,94338,1,0,0:0:0:0:
448,192,94406,1,0,0:0:0:0:
320,192,94406,1,0,0:0:0:0:
64,192,94452,1,0,0:0:0:0:
320,192,94497,1,0,0:0:0:0:
192,192,94543,128,0,94679:0:0:0:0:
64,192,94679,1,0,0:0:0:0:
448,192,94679,1,0,0:0:0:0:
320,192,94815,1,0,0:0:0:0:
64,192,94952,1,0,0:0:0:0:
448,192,94952,1,0,0:0:0:0:
192,192,94952,1,0,0:0:0:0:
320,192,95088,1,0,0:0:0:0:
64,192,95224,128,0,95361:0:0:0:0:
448,192,95361,1,0,0:0:0:0:
192,192,95361,1,0,0:0:0:0:
320,192,95429,1,0,0:0:0:0:
64,192,95497,1,0,0:0:0:0:
192,192,95497,1,0,0:0:0:0:
448,192,95543,1,0,0:0:0:0:
320,192,95588,1,0,0:0:0:0:
64,192,95633,128,0,95770:0:0:0:0:
448,192,95770,1,0,0:0:0:0:
192,192,95770,1,0,0:0:0:0:
64,192,95906,1,0,0:0:0:0:
448,192,96043,1,0,0:0:0:0:
192,192,96043,1,0,0:0:0:0:
320,192,96043,1,0,0:0:0:0:
64,192,96179,1,0,0:0:0:0:
192,192,96315,128,0,96452:0:0:0:0:
64,192,96452,1,0,0:0:0:0:
448,192,96452,1,0,0:0:0:0:
320,192,96520,1,0,0:0:0:0:
192,192,96588,1,0,0:0:0:0:
64,192,96588,1,0,0:0:0:0:
448,192,96633,1,0,0:0:0:0:
320,192,96679,1,0,0:0:0:0:
192,192,96724,128,0,96861:0:0:0:0:
320,192,96861,1,0,0:0:0:0:
64,192,96861,1,0,0:0:0:0:
192,192,96997,1,0,0:0:0:0:
64,192,97133,1,0,0:0:0:0:
448,192,97133,1,0,0:0:0:0:
320,192,97133,1,0,0:0:0:0:
192,192,97270,1,0,0:0:0:0:
320,192,97406,128,0,97543:0:0:0:0:
448,192,97543,1,0,0:0:0:0:
64,192,97543,1,0,0:0:0:0:
192,192,97611,1,0,0:0:0:0:
448,192,97679,1,0,0:0:0:0:
320,192,97679,1,0,0:0:0:0:
192,192,97724,1,0,0:0:0:0:
448,192,97770,1,0,0:0:0:0:
64,192,97815,128,0,97952:0:0:0:0:
448,192,97952,1,0,0:0:0:0:
192,192,97952,1,0,0:0:0:0:
192,192,98088,1,0,0:0:0:0:
448,192,98224,1,0,0:0:0:0:
320,192,98224,1,0,0:0:0:0:
64,192,98224,1,0,0:0:0:0:
192,192,98361,1,0,0:0:0:0:
320,192,98497,128,0,98633:0:0:0:0:
64,192,98633,1,0,0:0:0:0:
448,192,98633,1,0,0:0:0:0:
192,192,98702,1,0,0:0:0:0:
448,192,98770,1,0,0:0:0:0:
320,192,98770,1,0,0:0:0:0:
64,192,98815,1,0,0:0:0:0:
192,192,98861,1,0,0:0:0:0:
320,192,98906,128,0,99043:0:0:0:0:
448,192,99043,1,0,0:0:0:0:
64,192,99043,1,0,0:0:0:0:
64,192,99179,1,0,0:0:0:0:
448,192,99315,1,0,0:0:0:0:
320,192,99315,1,0,0:0:0:0:
192,192,99315,1,0,0:0:0:0:
64,192,99452,1,0,0:0:0:0:
320,192,99588,128,0,99724:0:0:0:0:
192,192,99724,1,0,0:0:0:0:
64,192,99724,1,0,0:0:0:0:
448,192,99793,1,0,0:0:0:0:
64,192,99861,1,0,0:0:0:0:
320,192,99861,1,0,0:0:0:0:
192,192,99906,1,0,0:0:0:0:
448,192,99952,1,0,0:0:0:0:
64,192,99997,128,0,100133:0:0:0:0:
448,192,100133,1,0,0:0:0:0:
320,192,100133,1,0,0:0:0:0:
320,192,100270,1,0,0:0:0:0:
448,192,100406,1,0,0:0:0:0:
64,192,100406,1,0,0:0:0:0:
192,192,100406,1,0,0:0:0:0:
320,192,100543,1,0,0:0:0:0:
64,192,100679,128,0,100815:0:0:0:0:
448,192,100815,1,0,0:0:0:0:
320,192,100815,1,0,0:0:0:0:
192,192,100883,1,0,0:0:0:0:
448,192,100952,1,0,0:0:0:0:
64,192,100952,1,0,0:0:0:0:
320,192,100997,1,0,0:0:0:0:
192,192,101043,1,0,0:0:0:0:
64,192,101088,128,0,101224:0:0:0:0:
448,192,101224,1,0,0:0:0:0:
192,192,101224,1,0,0:0:0:0:
448,192,101361,1,0,0:0:0:0:
64,192,101497,1,0,0:0:0:0:
192,192,101497,1,0,0:0:0:0:
320,192,101497,1,0,0:0:0:0:
448,192,101633,1,0,0:0:0:0:
64,192,101770,128,0,101906:0:0:0:0:
448,192,101906,1,0,0:0:0:0:
320,192,101906,1,0,0:0:0:0:
192,192,101974,1,0,0:0:0:0:
64,192,102043,1,0,0:0:0:0:
448,192,102043,1,0,0:0:0:0:
320,192,102088,1,0,0:0:0:0:
192,192,102133,1,0,0:0:0:0:
448,192,102179,128,0,102315:0:0:0:0:
64,192,102315,1,0,0:0:0:0:
192,192,102315,1,0,0:0:0:0:
192,192,102452,1,0,0:0:0:0:
448,192,102588,1,0,0:0:0:0:
320,192,102588,1,0,0:0:0:0:
64,192,102588,1,0,0:0:0:0:
192,192,102724,1,0,0:0:0:0:
320,192,102861,128,0,102997:0:0:0:0:
64,192,102997,1,0,0:0:0:0:
192,192,102997,1,0,0:0:0:0:
448,192,103065,1,0,0:0:0:0:
64,192,103133,1,0,0:0:0:0:
320,192,103133,1,0,0:0:0:0:
192,192,103179,1,0,0:0:0:0:
448,192,103224,1,0,0:0:0:0:
64,192,103270,128,0,103406:0:0:0:0:
448,192,103406,1,0,0:0:0:0:
320,192,103406,1,0,0:0:0:0:
320,192,103543,1,0,0:0:0:0:
448,192,103679,1,0,0:0:0:0:
64,192,103679,1,0,0:0:0:0:
192,192,103679,1,0,0:0:0:0:
320,192,103815,1,0,0:0:0:0:
64,192,103952,128,0,104088:0:0:0:0:
448,192,104088,1,0,0:0:0:0:
320,192,104088,1,0,0:0:0:0:
192,192,104156,1,0,0:0:0:0:
64,192,104224,1,0,0:0:0:0:
448,192,104224,1,0,0:0:0:0:
320,192,104270,1,0,0:0:0:0:
192,192,104315,1,0,0:0:0:0:
448,192,104361,128,0,104497:0:0:0:0:
320,192,104497,1,0,0:0:0:0:
192,192,104497,1,0,0:0:0:0:
64,192,104633,1,0,0:0:0:0:
448,192,104770,1,0,0:0:0:0:
320,192,104770,1,0,0:0:0:0:
192,192,104770,1,0,0:0:0:0:
64,192,104906,1,0,0:0:0:0:
192,192,105043,128,0,105179:0:0:0:0:
448,192,105179,1,0,0:0:0:0:
64,192,105179,1,0,0:0:0:0:
320,192,105247,1,0,0:0:0:0:
64,192,105315,1,0,0:0:0:0:
448,192,105315,1,0,0:0:0:0:
192,192,105361,1,0,0:0:0:0:
320,192,105406,1,0,0:0:0:0:
448,192,105452,128,0,105588:0:0:0:0:
320,192,105588,1,0,0:0:0:0:
64,192,105588,1,0,0:0:0:0:
192,192,105724,1,0,0:0:0:0:
448,192,105861,1,0,0:0:0:0:
320,192,105861,1,0,0:0:0:0:
64,192,105861,1,0,0:0:0:0:
192,192,105997,1,0,0:0:0:0:
320,192,106133,128,0,106270:0:0:0:0:
448,192,106270,1,0,0:0:0:0:
192,192,106270,1,0,0:0:0:0:
64,192,106338,1,0,0:0:0:0:
192,192,106406,1,0,0:0:0:0:
448,192,106406,1,0,0:0:0:0:
320,192,106452,1,0,0:0:0:0:
64,192,106497,1,0,0:0:0:0:
448,192,106543,128,0,106679:0:0:0:0:
192,192,106679,1,0,0:0:0:0:
320,192,106679,1,0,0:0:0:0:
448,192,106815,1,0,0:0:0:0:
64,192,106952,1,0,0:0:0:0:
192,192,106952,1,0,0:0:0:0:
320,192,106952,1,0,0:0:0:0:
448,192,107088,1,0,0:0:0:0:
192,192,107224,128,0,107361:0:0:0:0:
448,192,107361,1,0,0:0:0:0:
64,192,107361,1,0,0:0:0:0:
320,192,107429,1,0,0:0:0:0:
64,192,107497,1,0,0:0:0:0:
192,192,107497,1,0,0:0:0:0:
448,192,107543,1,0,0:0:0:0:
64,192,107588,1,0,0:0:0:0:
320,192,107633,128,0,107770:0:0:0:0:
192,192,107770,1,0,0:0:0:0:
448,192,107770,1,0,0:0:0:0:
64,192,107906,1,0,0:0:0:0:
448,192,108043,1,0,0:0:0:0:
320,192,108043,1,0,0:0:0:0:
192,192,108043,1,0,0:0:0:0:
64,192,108179,1,0,0:0:0:0:
320,192,108315,128,0,108452:0:0:0:0:
448,192,108452,1,0,0:0:0:0:
64,192,108452,1,0,0:0:0:0:
192,192,108520,1,0,0:0:0:0:
448,192,108588,1,0,0:0:0:0:
320,192,108588,1,0,0:0:0:0:
64,192,108633,1,0,0:0:0:0:
192,192,108679,1,0,0:0:0:0:
320,192,108724,128,0,108861:0:0:0:0:
448,192,108861,1,0,0:0:0:0:
64,192,108861,1,0,0:0:0:0:
320,192,108997,1,0,0:0:0:0:
448,192,109133,1,0,0:0:0:0:
64,192,109133,1,0,0:0:0:0:
192,192,109133,1,0,0:0:0:0:
320,192,109270,1,0,0:0:0:0:
192,192,109406,1,0,0:0:0:0:
448,192,109406,1,0,0:0:0:0:
64,192,109406,1,0,0:0:0:0:
192,192,109543,1,0,0:0:0:0:
320,192,109543,1,0,0:0:0:0:
64,192,109611,1,0,0:0:0:0:
192,192,109679,1,0,0:0:0:0:
448,192,109679,1,0,0:0:0:0:
320,192,109724,1,0,0:0:0:0:
64,192,109770,1,0,0:0:0:0:
192,192,109815,128,0,109952:0:0:0:0:
448,192,109952,1,0,0:0:0:0:
64,192,109952,1,0,0:0:0:0:
320,192,109952,1,0,0:0:0:0:
320,192,110088,1,0,0:0:0:0:
448,192,110224,1,0,0:0:0:0:
64,192,110224,1,0,0:0:0:0:
192,192,110224,1,0,0:0:0:0:
320,192,110361,1,0,0:0:0:0:
320,192,110497,1,0,0:0:0:0:
64,192,110497,1,0,0:0:0:0:
192,192,110497,1,0,0:0:0:0:
64,192,110633,1,0,0:0:0:0:
448,192,110633,1,0,0:0:0:0:
192,192,110702,1,0,0:0:0:0:
448,192,110770,1,0,0:0:0:0:
320,192,110770,1,0,0:0:0:0:
64,192,110815,1,0,0:0:0:0:
192,192,110861,1,0,0:0:0:0:
320,192,110906,128,0,111043:0:0:0:0:
448,192,111043,1,0,0:0:0:0:
64,192,111043,1,0,0:0:0:0:
192,192,111043,1,0,0:0:0:0:
192,192,111179,1,0,0:0:0:0:
448,192,111315,1,0,0:0:0:0:
320,192,111315,1,0,0:0:0:0:
64,192,111315,1,0,0:0:0:0:
192,192,111452,1,0,0:0:0:0:
64,192,111588,1,0,0:0:0:0:
192,192,111588,1,0,0:0:0:0:
448,192,111588,1,0,0:0:0:0:
448,192,111724,1,0,0:0:0:0:
320,192,111724,1,0,0:0:0:0:
64,192,111793,1,0,0:0:0:0:
320,192,111861,1,0,0:0:0:0:
192,192,111861,1,0,0:0:0:0:
448,192,111906,1,0,0:0:0:0:
64,192,111952,1,0,0:0:0:0:
320,192,111997,128,0,112133:0:0:0:0:
64,192,112133,1,0,0:0:0:0:
192,192,112133,1,0,0:0:0:0:
448,192,112133,1,0,0:0:0:0:
192,192,112270,1,0,0:0:0:0:
448,192,112406,1,0,0:0:0:0:
320,192,112406,1,0,0:0:0:0:
64,192,112406,1,0,0:0:0:0:
192,192,112543,1,0,0:0:0:0:
64,192,112679,1,0,0:0:0:0:
192,192,112679,1,0,0:0:0:0:
448,192,112679,1,0,0:0:0:0:
64,192,112815,1,0,0:0:0:0:
320,192,112815,1,0,0:0:0:0:
192,192,112883,1,0,0:0:0:0:
448,192,112952,1,0,0:0:0:0:
320,192,112952,1,0,0:0:0:0:
64,192,112997,1,0,0:0:0:0:
192,192,113043,1,0,0:0:0:0:
320,192,113088,128,0,113224:0:0:0:0:
448,192,113224,1,0,0:0:0:0:
192,192,113224,1,0,0:0:0:0:
64,192,113224,1,0,0:0:0:0:
448,192,113361,1,0,0:0:0:0:
64,192,113497,1,0,0:0:0:0:
192,192,113497,1,0,0:0:0:0:
320,192,113497,1,0,0:0:0:0:
448,192,113633,1,0,0:0:0:0:
64,192,113770,1,0,0:0:0:0:
320,192,113770,1,0,0:0:0:0:
192,192,113770,1,0,0:0:0:0:
320,192,113906,1,0,0:0:0:0:
192,192,113906,1,0,0:0:0:0:
64,192,113974,1,0,0:0:0:0:
448,192,114043,1,0,0:0:0:0:
320,192,114043,1,0,0:0:0:0:
64,192,114088,1,0,0:0:0:0:
192,192,114133,1,0,0:0:0:0:
320,192,114179,128,0,114315:0:0:0:0:
448,192,114315,1,0,0:0:0:0:
192,192,114315,1,0,0:0:0:0:
64,192,114315,1,0,0:0:0:0:
64,192,114452,1,0,0:0:0:0:
448,192,114588,1,0,0:0:0:0:
320,192,114588,1,0,0:0:0:0:
192,192,114588,1,0,0:0:0:0:
64,192,114724,1,0,0:0:0:0:
448,192,114861,1,0,0:0:0:0:
192,192,114861,1,0,0:0:0:0:
64,192,114861,1,0,0:0:0:0:
192,192,114997,1,0,0:0:0:0:
320,192,114997,1,0,0:0:0:0:
448,192,115065,1,0,0:0:0:0:
320,192,115133,1,0,0:0:0:0:
64,192,115133,1,0,0:0:0:0:
192,192,115179,1,0,0:0:0:0:
448,192,115224,1,0,0:0:0:0:
320,192,115270,128,0,115406:0:0:0:0:
64,192,115406,1,0,0:0:0:0:
192,192,115406,1,0,0:0:0:0:
448,192,115406,1,0,0:0:0:0:
448,192,115543,1,0,0:0:0:0:
192,192,115679,1,0,0:0:0:0:
320,192,115679,1,0,0:0:0:0:
64,192,115679,1,0,0:0:0:0:
448,192,115815,1,0,0:0:0:0:
64,192,115952,1,0,0:0:0:0:
448,192,115952,1,0,0:0:0:0:
320,192,115952,1,0,0:0:0:0:
320,192,116088,1,0,0:0:0:0:
192,192,116088,1,0,0:0:0:0:
64,192,116156,1,0,0:0:0:0:
448,192,116224,1,0,0:0:0:0:
320,192,116224,1,0,0:0:0:0:
192,192,116270,1,0,0:0:0:0:
448,192,116315,1,0,0:0:0:0:
64,192,116361,128,0,116497:0:0:0:0:
320,192,116497,1,0,0:0:0:0:
192,192,116497,1,0,0:0:0:0:
448,192,116497,1,0,0:0:0:0:
192,192,116633,1,0,0:0:0:0:
448,192,116770,1,0,0:0:0:0:
320,192,116770,1,0,0:0:0:0:
64,192,116770,1,0,0:0:0:0:
192,192,116906,1,0,0:0:0:0:
448,192,117043,1,0,0:0:0:0:
64,192,117043,1,0,0:0:0:0:
192,192,117043,1,0,0:0:0:0:
64,192,117179,1,0,0:0:0:0:
320,192,117179,1,0,0:0:0:0:
192,192,117247,1,0,0:0:0:0:
448,192,117315,1,0,0:0:0:0:
320,192,117315,1,0,0:0:0:0:
64,192,117361,1,0,0:0:0:0:
192,192,117406,1,0,0:0:0:0:
320,192,117452,128,0,117588:0:0:0:0:
448,192,117588,1,0,0:0:0:0:
64,192,117588,1,0,0:0:0:0:
192,192,117588,1,0,0:0:0:0:
64,192,117724,1,0,0:0:0:0:
448,192,117861,1,0,0:0:0:0:
320,192,117861,1,0,0:0:0:0:
192,192,117997,1,0,0:0:0:0:
448,192,118133,1,0,0:0:0:0:
64,192,118133,1,0,0:0:0:0:
64,192,118270,1,0,0:0:0:0:
192,192,118270,1,0,0:0:0:0:
448,192,118406,1,0,0:0:0:0:
320,192,118679,1,0,0:0:0:0:
320,192,118815,1,0,0:0:0:0:
64,192,118952,1,0,0:0:0:0:
192,192,118952,1,0,0:0:0:0:
448,192,119224,1,0,0:0:0:0:
64,192,119224,1,0,0:0:0:0:
448,192,119361,1,0,0:0:0:0:
320,192,119361,1,0,0:0:0:0:
192,192,119497,1,0,0:0:0:0:
320,192,119633,1,0,0:0:0:0:
64,192,119770,1,0,0:0:0:0:
448,192,119770,1,0,0:0:0:0:
64,192,120043,1,0,0:0:0:0:
192,192,120043,1,0,0:0:0:0:
320,192,120179,1,0,0:0:0:0:
448,192,120315,1,0,0:0:0:0:
64,192,120315,1,0,0:0:0:0:
448,192,120452,1,0,0:0:0:0:
320,192,120452,1,0,0:0:0:0:
192,192,120588,1,0,0:0:0:0:
320,192,120861,1,0,0:0:0:0:
320,192,120997,1,0,0:0:0:0:
64,192,121133,1,0,0:0:0:0:
192,192,121133,1,0,0:0:0:0:
448,192,121406,1,0,0:0:0:0:
64,192,121406,1,0,0:0:0:0:
448,192,121543,1,0,0:0:0:0:
320,192,121543,1,0,0:0:0:0:
192,192,121679,1,0,0:0:0:0:
320,192,121815,1,0,0:0:0:0:
64,192,121952,1,0,0:0:0:0:
448,192,121952,1,0,0:0:0:0:
64,192,122224,1,0,0:0:0:0:
192,192,122224,1,0,0:0:0:0:
320,192,122361,1,0,0:0:0:0:
64,192,122497,1,0,0:0:0:0:
448,192,122497,1,0,0:0:0:0:
448,192,122633,1,0,0:0:0:0:
320,192,122633,1,0,0:0:0:0:
192,192,122770,1,0,0:0:0:0:
320,192,123043,1,0,0:0:0:0:
320,192,123179,1,0,0:0:0:0:
64,192,123315,1,0,0:0:0:0:
192,192,123315,1,0,0:0:0:0:
64,192,123588,1,0,0:0:0:0:
448,192,123588,1,0,0:0:0:0:
448,192,123724,1,0,0:0:0:0:
320,192,123724,1,0,0:0:0:0:
192,192,123861,1,0,0:0:0:0:
320,192,123997,1,0,0:0:0:0:
448,192,124133,1,0,0:0:0:0:
64,192,124133,1,0,0:0:0:0:
64,192,124406,1,0,0:0:0:0:
192,192,124406,1,0,0:0:0:0:
320,192,124543,1,0,0:0:0:0:
448,192,124679,1,0,0:0:0:0:
64,192,124679,1,0,0:0:0:0:
448,192,124815,1,0,0:0:0:0:
320,192,124815,1,0,0:0:0:0:
64,192,124952,1,0,0:0:0:0:
192,192,125224,1,0,0:0:0:0:
192,192,125361,1,0,0:0:0:0:
448,192,125497,1,0,0:0:0:0:
320,192,125497,1,0,0:0:0:0:
448,192,125770,1,0,0:0:0:0:
64,192,125770,1,0,0:0:0:0:
64,192,125906,1,0,0:0:0:0:
192,192,125906,1,0,0:0:0:0:
320,192,126043,1,0,0:0:0:0:
192,192,126179,1,0,0:0:0:0:
64,192,126315,1,0,0:0:0:0:
448,192,126315,1,0,0:0:0:0:
448,192,126588,1,0,0:0:0:0:
320,192,126588,1,0,0:0:0:0:
64,192,126656,1,0,0:0:0:0:
192,192,126724,1,0,0:0:0:0:
448,192,126793,1,0,0:0:0:0:
320,192,126861,1,0,0:0:0:0:
64,192,126861,1,0,0:0:0:0:
64,192,126997,1,0,0:0:0:0:
192,192,126997,1,0,0:0:0:0:
448,192,127065,1,0,0:0:0:0:
320,192,127133,1,0,0:0:0:0:
192,192,127270,1,0,0:0:0:0:
448,192,127338,1,0,0:0:0:0:
64,192,127406,1,0,0:0:0:0:
192,192,127474,1,0,0:0:0:0:
320,192,127543,1,0,0:0:0:0:
64,192,127679,1,0,0:0:0:0:
192,192,127679,1,0,0:0:0:0:
448,192,127747,1,0,0:0:0:0:
320,192,127815,1,0,0:0:0:0:
64,192,127952,1,0,0:0:0:0:
192,192,128020,1,0,0:0:0:0:
448,192,128088,1,0,0:0:0:0:
320,192,128088,1,0,0:0:0:0:
192,192,128156,1,0,0:0:0:0:
64,192,128224,1,0,0:0:0:0:
320,192,128361,1,0,0:0:0:0:
192,192,128429,1,0,0:0:0:0:
64,192,128497,1,0,0:0:0:0:
320,192,128565,1,0,0:0:0:0:
64,192,128633,1,0,0:0:0:0:
448,192,128770,1,0,0:0:0:0:
320,192,128770,1,0,0:0:0:0:
192,192,128838,1,0,0:0:0:0:
448,192,128906,1,0,0:0:0:0:
192,192,128974,1,0,0:0:0:0:
320,192,129043,1,0,0:0:0:0:
64,192,129043,1,0,0:0:0:0:
448,192,129179,1,0,0:0:0:0:
320,192,129179,1,0,0:0:0:0:
64,192,129247,1,0,0:0:0:0:
448,192,129315,1,0,0:0:0:0:
192,192,129315,1,0,0:0:0:0:
320,192,129452,1,0,0:0:0:0:
448,192,129588,1,0,0:0:0:0:
192,192,129588,1,0,0:0:0:0:
64,192,129724,1,0,0:0:0:0:
448,192,129861,1,0,0:0:0:0:
320,192,129861,1,0,0:0:0:0:
192,192,129997,1,0,0:0:0:0:
320,192,130133,1,0,0:0:0:0:
64,192,130133,1,0,0:0:0:0:
64,192,130270,1,0,0:0:0:0:
192,192,130270,1,0,0:0:0:0:
448,192,130338,1,0,0:0:0:0:
192,192,130406,1,0,0:0:0:0:
320,192,130543,1,0,0:0:0:0:
64,192,130611,1,0,0:0:0:0:
448,192,130679,1,0,0:0:0:0:
192,192,130679,1,0,0:0:0:0:
64,192,130815,1,0,0:0:0:0:
192,192,130883,1,0,0:0:0:0:
448,192,130952,1,0,0:0:0:0:
320,192,130952,1,0,0:0:0:0:
192,192,131020,1,0,0:0:0:0:
320,192,131088,1,0,0:0:0:0:
64,192,131156,1,0,0:0:0:0:
448,192,131224,1,0,0:0:0:0:
192,192,131224,1,0,0:0:0:0:
320,192,131293,1,0,0:0:0:0:
64,192,131361,1,0,0:0:0:0:
192,192,131361,1,0,0:0:0:0:
320,192,131429,1,0,0:0:0:0:
448,192,131497,1,0,0:0:0:0:
192,192,131497,1,0,0:0:0:0:
320,192,131702,1,0,0:0:0:0:
192,192,131702,1,0,0:0:0:0:
192,192,131906,1,0,0:0:0:0:
64,192,131906,1,0,0:0:0:0:
448,192,132043,1,0,0:0:0:0:
320,192,132043,1,0,0:0:0:0:
192,192,132111,1,0,0:0:0:0:
320,192,132179,1,0,0:0:0:0:
64,192,132247,1,0,0:0:0:0:
448,192,132315,1,0,0:0:0:0:
192,192,132315,1,0,0:0:0:0:
64,192,132452,1,0,0:0:0:0:
192,192,132452,1,0,0:0:0:0:
320,192,132520,1,0,0:0:0:0:
64,192,132588,1,0,0:0:0:0:
192,192,132656,1,0,0:0:0:0:
448,192,132724,1,0,0:0:0:0:
64,192,132861,1,0,0:0:0:0:
320,192,132861,1,0,0:0:0:0:
448,192,132929,1,0,0:0:0:0:
192,192,132997,1,0,0:0:0:0:
320,192,133065,1,0,0:0:0:0:
64,192,133133,1,0,0:0:0:0:
192,192,133133,1,0,0:0:0:0:
448,192,133202,1,0,0:0:0:0:
64,192,133270,1,0,0:0:0:0:
448,192,133406,1,0,0:0:0:0:
192,192,133406,1,0,0:0:0:0:
448,192,133543,1,0,0:0:0:0:
320,192,133543,1,0,0:0:0:0:
64,192,133611,1,0,0:0:0:0:
192,192,133679,1,0,0:0:0:0:
320,192,133815,1,0,0:0:0:0:
64,192,133815,1,0,0:0:0:0:
192,192,133883,1,0,0:0:0:0:
448,192,133952,1,0,0:0:0:0:
320,192,134088,1,0,0:0:0:0:
64,192,134224,1,0,0:0:0:0:
192,192,134224,1,0,0:0:0:0:
320,192,134361,1,0,0:0:0:0:
192,192,134429,1,0,0:0:0:0:
448,192,134497,1,0,0:0:0:0:
320,192,134565,1,0,0:0:0:0:
64,192,134633,1,0,0:0:0:0:
192,192,134633,1,0,0:0:0:0:
448,192,134770,1,0,0:0:0:0:
320,192,134906,1,0,0:0:0:0:
64,192,134906,1,0,0:0:0:0:
448,192,135043,1,0,0:0:0:0:
320,192,135043,1,0,0:0:0:0:
192,192,135043,1,0,0:0:0:0:
64,192,135315,1,0,0:0:0:0:
192,192,135315,1,0,0:0:0:0:
64,192,135724,1,0,0:0:0:0:
192,192,135724,1,0,0:0:0:0:
448,192,135861,1,0,0:0:0:0:
448,192,136406,1,0,0:0:0:0:
320,192,136406,1,0,0:0:0:0:
448,192,136815,1,0,0:0:0:0:
320,192,136815,1,0,0:0:0:0:
192,192,136997,1,0,0:0:0:0:
64,192,137270,1,0,0:0:0:0:
448,192,137497,1,0,0:0:0:0:
320,192,137497,1,0,0:0:0:0:
448,192,137906,1,0,0:0:0:0:
320,192,137906,1,0,0:0:0:0:
64,192,138043,1,0,0:0:0:0:
64,192,138588,1,0,0:0:0:0:
192,192,138588,1,0,0:0:0:0:
64,192,138997,1,0,0:0:0:0:
192,192,138997,1,0,0:0:0:0:
448,192,139179,1,0,0:0:0:0:
320,192,139452,1,0,0:0:0:0:
64,192,139679,1,0,0:0:0:0:
192,192,139679,1,0,0:0:0:0:
448,192,139747,1,0,0:0:0:0:
320,192,140020,1,0,0:0:0:0:
64,192,140088,1,0,0:0:0:0:
192,192,140088,1,0,0:0:0:0:
448,192,140224,1,0,0:0:0:0:
320,192,140293,1,0,0:0:0:0:
320,192,140565,1,0,0:0:0:0:
64,192,140770,1,0,0:0:0:0:
192,192,140770,1,0,0:0:0:0:
320,192,140838,1,0,0:0:0:0:
448,192,141043,1,0,0:0:0:0:
320,192,141111,1,0,0:0:0:0:
64,192,141179,1,0,0:0:0:0:
192,192,141179,1,0,0:0:0:0:
448,192,141361,1,0,0:0:0:0:
64,192,141861,1,0,0:0:0:0:
192,192,141861,1,0,0:0:0:0:
320,192,141997,1,0,0:0:0:0:
64,192,142270,1,0,0:0:0:0:
192,192,142270,1,0,0:0:0:0:
320,192,142406,1,0,0:0:0:0:
192,192,142815,1,0,0:0:0:0:
448,192,142952,1,0,0:0:0:0:
320,192,142952,1,0,0:0:0:0:
448,192,143361,1,0,0:0:0:0:
320,192,143361,1,0,0:0:0:0:
64,192,143543,1,0,0:0:0:0:
192,192,143633,1,0,0:0:0:0:
320,192,143906,1,0,0:0:0:0:
64,192,144043,1,0,0:0:0:0:
448,192,144588,1,0,0:0:0:0:
320,192,144861,1,0,0:0:0:0:
64,192,145133,1,0,0:0:0:0:
320,192,145724,1,0,0:0:0:0:
192,192,145997,1,0,0:0:0:0:
64,192,146224,1,0,0:0:0:0:
448,192,146770,1,0,0:0:0:0:
320,192,147043,1,0,0:0:0:0:
64,192,147315,1,0,0:0:0:0:
320,192,147906,1,0,0:0:0:0:
192,192,148179,1,0,0:0:0:0:
64,192,148406,1,0,0:0:0:0:
320,192,148474,1,0,0:0:0:0:
64,192,148747,1,0,0:0:0:0:
448,192,148952,1,0,0:0:0:0:
64,192,149020,1,0,0:0:0:0:
320,192,149224,1,0,0:0:0:0:
64,192,149293,1,0,0:0:0:0:
192,192,149497,1,0,0:0:0:0:
64,192,149565,1,0,0:0:0:0:
320,192,150088,1,0,0:0:0:0:
192,192,150361,1,0,0:0:0:0:
64,192,150588,1,0,0:0:0:0:
448,192,151133,1,0,0:0:0:0:
320,192,151406,1,0,0:0:0:0:
64,192,151679,1,0,0:0:0:0:
320,192,152270,1,0,0:0:0:0:
192,192,152543,1,0,0:0:0:0:
64,192,152770,1,0,0:0:0:0:
448,192,153315,1,0,0:0:0:0:
320,192,153588,1,0,0:0:0:0:
64,192,153861,1,0,0:0:0:0:
320,192,154452,1,0,0:0:0:0:
192,192,154724,1,0,0:0:0:0:
64,192,154952,1,0,0:0:0:0:
448,192,155497,1,0,0:0:0:0:
320,192,155770,1,0,0:0:0:0:
64,192,156043,1,0,0:0:0:0:
320,192,156633,1,0,0:0:0:0:
192,192,156906,1,0,0:0:0:0:
64,192,157133,1,0,0:0:0:0:
320,192,157202,1,0,0:0:0:0:
192,192,157474,1,0,0:0:0:0:
448,192,157679,1,0,0:0:0:0:
192,192,157747,1,0,0:0:0:0:
320,192,157952,1,0,0:0:0:0:
192,192,158020,1,0,0:0:0:0:
64,192,158224,1,0,0:0:0:0:
192,192,158293,1,0,0:0:0:0:
320,192,158815,1,0,0:0:0:0:
192,192,159088,1,0,0:0:0:0:
64,192,159315,1,0,0:0:0:0:
448,192,159861,1,0,0:0:0:0:
320,192,160133,1,0,0:0:0:0:
64,192,160406,1,0,0:0:0:0:
320,192,160997,1,0,0:0:0:0:
192,192,161270,1,0,0:0:0:0:
64,192,161497,1,0,0:0:0:0:
448,192,162043,1,0,0:0:0:0:
320,192,162315,1,0,0:0:0:0:
64,192,162588,1,0,0:0:0:0:
320,192,163179,1,0,0:0:0:0:
192,192,163452,1,0,0:0:0:0:
64,192,163679,1,0,0:0:0:0:
448,192,164224,1,0,0:0:0:0:
320,192,164497,1,0,0:0:0:0:
64,192,164770,1,0,0:0:0:0:
320,192,165361,1,0,0:0:0:0:
192,192,165633,1,0,0:0:0:0:
64,192,165861,1,0,0:0:0:0:
320,192,165929,1,0,0:0:0:0:
192,192,166202,1,0,0:0:0:0:
448,192,166406,1,0,0:0:0:0:
192,192,166474,1,0,0:0:0:0:
320,192,166679,1,0,0:0:0:0:
192,192,166747,1,0,0:0:0:0:
64,192,166952,1,0,0:0:0:0:
192,192,167020,1,0,0:0:0:0:
320,192,167543,1,0,0:0:0:0:
64,192,168043,1,0,0:0:0:0:
448,192,168588,1,0,0:0:0:0:
64,192,169133,1,0,0:0:0:0:
320,192,169724,1,0,0:0:0:0:
64,192,170224,1,0,0:0:0:0:
448,192,170770,1,0,0:0:0:0:
64,192,171315,1,0,0:0:0:0:
320,192,171906,1,0,0:0:0:0:
64,192,172406,1,0,0:0:0:0:
448,192,172952,1,0,0:0:0:0:
64,192,173497,1,0,0:0:0:0:
