osu file format v14

[General]
AudioFilename: audio.mp3
AudioLeadIn: 0
PreviewTime: 46511
Countdown: 0
SampleSet: Soft
StackLeniency: 0.3
Mode: 0
LetterboxInBreaks: 0
WidescreenStoryboard: 1

[Editor]
DistanceSpacing: 1.5
BeatDivisor: 4
GridSize: 8
TimelineZoom: 1.8

[Metadata]
Title:Darling in the Night (TV Size)
TitleUnicode:Darling in the Night (TV Size)
Artist:Beta (CV: Inori Minase)
ArtistUnicode:ベータ (CV: 水瀬いのり)
Creator:Fuxi66
Version:Insane
Source:陰の実力者になりたくて!
Tags:japanese jp rock jrock j-rock anime ending ed The Eminence in Shadow Kage no Jitsuryokusha ni Naritakute! To Be a Power the Shadows! 水瀬いのり 三森すずこ ファイルーズあい 金元寿子 朝井彩加 近藤玲奈 Inori Minase Suzuko Mimori Ai Fairouz Hisako Kanemoto Ayaka Asai Reina Kondou
BeatmapID:3887192
BeatmapSetID:1884234

[Difficulty]
HPDrainRate:5
CircleSize:3.6
OverallDifficulty:8.5
ApproachRate:8.8
SliderMultiplier:1.6
SliderTickRate:1

[Events]
//Background and Video events
0,0,"PFVqOwxc_2x_1.jpg",0,0
//Break Periods
2,78067,79472
//Storyboard Layer 0 (Background)
//Storyboard Layer 1 (Fail)
//Storyboard Layer 2 (Pass)
//Storyboard Layer 3 (Foreground)
//Storyboard Layer 4 (Overlay)
//Storyboard Sound Samples

[TimingPoints]
1272,319.148936170213,4,2,1,60,1,0
1272,-111.111111111111,4,2,1,60,0,0
6378,-100,4,2,1,75,0,0
11484,-125,4,2,1,40,0,0
13958,-125,4,2,1,5,0,0
14037,-125,4,2,1,40,0,0
16192,-125,4,2,1,5,0,0
16272,-125,4,2,1,40,0,0
21697,-111.111111111111,4,2,1,60,0,0
31910,-117.647058823529,4,2,1,50,0,0
39569,-111.111111111111,4,2,1,65,0,0
39968,-111.111111111111,4,2,1,65,0,0
40048,-111.111111111111,4,2,1,65,0,0
42123,-111.111111111111,4,2,1,70,0,0
47069,-90.9090909090909,4,2,1,85,0,1
50022,-90.9090909090909,4,2,1,5,0,1
50101,-90.9090909090909,4,2,1,85,0,1
60234,-90.9090909090909,4,2,1,5,0,1
60314,-90.9090909090909,4,2,1,85,0,1
67654,-125,4,2,1,70,0,0
80101,-250.000000000001,4,2,1,30,0,0
81697,-142.857142857143,4,2,1,50,0,0
82974,-100,4,2,1,75,0,0
87761,-100,4,2,1,5,0,0

[Colours]
Combo1 : 92,222,237
Combo2 : 101,139,228
Combo3 : 241,181,143
Combo4 : 187,189,191

[HitObjects]
455,15,1272,6,0,L|378:26,1,71.9999978027344,2|0,0:0|0:0,0:0:0:0:
342,105,1591,1,0,0:0:0:0:
252,85,1750,2,0,L|263:162,1,71.9999978027344,2|0,0:0|0:0,0:0:0:0:
342,105,2069,1,0,0:0:0:0:
357,198,2228,2,0,L|434:187,1,71.9999978027344,2|0,0:0|0:0,0:0:0:0:
481,267,2548,6,0,L|404:278,1,71.9999978027344,2|0,0:0|0:0,0:0:0:0:
349,346,2867,2,0,L|272:335,1,71.9999978027344,2|0,0:0|0:0,0:0:0:0:
216,262,3186,1,2,0:0:0:0:
216,262,3346,1,0,0:0:0:0:
278,193,3506,2,0,P|301:222|299:261,1,71.9999978027344,2|0,0:0|0:0,0:0:0:0:
201,344,3825,6,0,L|124:333,1,71.9999978027344,2|0,0:0|0:0,0:0:0:0:
91,251,4144,1,0,0:0:0:0:
0,274,4303,2,0,L|11:197,1,71.9999978027344,2|0,0:0|0:0,0:0:0:0:
91,251,4622,1,0,0:0:0:0:
95,157,4781,2,0,L|172:168,1,71.9999978027344,2|0,0:0|0:0,0:0:0:0:
10,363,6059,1,8,0:0:0:0:
10,363,6378,6,0,L|112:347,1,80,6|0,1:2|0:0,0:0:0:0:
192,278,6697,2,0,L|90:262,1,80,8|0,0:0|0:0,0:0:0:0:
9,198,7016,1,2,1:2:0:0:
9,198,7176,1,0,1:0:0:0:
153,117,7335,2,0,P|178:150|167:203,1,80,10|0,0:0|0:0,0:0:0:0:
112,265,7654,2,0,P|89:230|110:174,1,80,0|0,1:0|0:0,0:0:0:0:
275,254,7974,6,0,L|173:270,1,80,10|0,0:0|0:0,0:0:0:0:
129,373,8293,1,2,1:2:0:0:
129,373,8452,1,0,1:0:0:0:
35,237,8612,2,0,P|63:199|97:194,1,80,10|0,0:0|0:0,0:0:0:0:
229,303,8931,5,6,1:2:0:0:
229,303,9250,1,10,1:2:0:0:
316,164,9410,2,0,L|335:241,1,80,0|2,1:2|1:2,0:0:0:0:
291,360,9728,1,0,1:2:0:0:
155,260,9889,2,0,P|192:221|241:224,1,80,10|0,1:2|1:2,0:0:0:0:
367,320,10208,5,2,1:2:0:0:
456,194,10367,1,8,0:0:0:0:
456,194,10447,1,8,0:0:0:0:
456,194,10527,1,8,0:0:0:0:
320,112,10686,1,8,0:0:0:0:
320,112,10766,1,8,0:0:0:0:
320,112,10846,1,8,0:0:0:0:
243,249,11006,2,0,L|259:153,1,80,0|0,1:0|1:0,0:0:0:0:
158,12,11325,1,0,1:0:0:0:
158,12,11404,1,0,1:0:0:0:
158,12,11484,6,0,B|121:28|121:28|79:22|79:22|30:36,1,128,6|0,1:2|1:0,0:0:0:0:
0,120,11963,1,0,0:0:0:0:
77,174,12123,2,0,P|97:127|91:102,1,64,2|0,1:2|0:0,0:0:0:0:
0,203,12442,2,0,P|30:243|55:251,1,64,0|2,0:0|0:0,0:0:0:0:
160,193,12761,2,0,L|145:256,1,64,2|0,1:2|0:0,0:0:0:0:
239,339,13080,2,0,L|224:276,1,64,2|0,1:2|0:0,0:0:0:0:
250,186,13399,2,0,P|297:166|322:172,1,64,0|0,1:0|0:0,0:0:0:0:
397,204,13718,2,0,L|372:305,1,96,2|0,1:2|0:0,0:0:0:0:
373,331,14037,6,0,P|416:360|490:320,1,128,2|0,1:2|1:0,0:0:0:0:
505,241,14516,1,0,0:0:0:0:
443,127,14676,2,0,B|399:119|399:119|360:97|360:97|296:86,1,128,2|0,1:2|0:0,0:0:0:0:
243,142,15154,1,0,0:0:0:0:
279,229,15314,2,0,P|319:198|327:173,1,64,2|0,1:2|0:0,0:0:0:0:
197,215,15633,2,0,P|203:265|220:284,1,64,2|0,1:2|0:0,0:0:0:0:
315,356,15952,2,0,L|210:369,1,96,2|0,1:2|0:0,0:0:0:0:
182,350,16272,1,0,1:0:0:0:
182,350,16431,1,8,0:0:0:0:
121,205,16591,6,0,L|133:55,1,128,2|0,0:0|1:0,0:0:0:0:
219,49,17070,1,0,0:0:0:0:
265,129,17230,2,0,P|218:149|193:143,1,64,2|0,1:2|0:0,0:0:0:0:
301,53,17549,2,0,P|341:83|349:108,1,64,2|0,1:2|0:0,0:0:0:0:
277,207,17868,2,0,L|340:192,1,64,2|0,1:2|0:0,0:0:0:0:
429,284,18187,2,0,L|366:269,1,64,2|0,1:2|0:0,0:0:0:0:
303,333,18506,2,0,L|240:348,1,64,0|0,1:0|0:0,0:0:0:0:
153,320,18825,1,2,1:2:0:0:
153,320,18984,1,0,0:0:0:0:
107,174,19144,6,0,P|156:155|219:192,1,128,2|0,1:2|1:0,0:0:0:0:
309,160,19623,1,0,0:0:0:0:
410,79,19783,2,0,B|346:103|346:49|274:78,1,128,2|0,1:2|1:0,0:0:0:0:
213,21,20261,1,0,0:0:0:0:
168,135,20420,5,0,1:0:0:0:
168,135,20580,1,0,1:0:0:0:
64,12,20740,2,0,L|74:82,1,64,8|0,0:0|0:0,0:0:0:0:
25,195,21059,1,0,1:0:0:0:
25,195,21218,1,0,1:0:0:0:
151,300,21378,1,8,0:0:0:0:
295,151,21537,1,0,1:0:0:0:
295,151,21617,1,0,1:0:0:0:
295,151,21697,6,0,L|132:172,1,143.999995605469,6|8,1:2|0:0,0:0:0:0:
69,305,22176,1,0,0:0:0:0:
69,305,22256,1,0,1:0:0:0:
69,305,22335,2,0,P|114:332|140:329,1,71.9999978027344,2|0,1:2|1:0,0:0:0:0:
227,202,22654,2,0,L|217:273,1,71.9999978027344,10|0,0:0|0:0,0:0:0:0:
348,379,22974,5,2,1:2:0:0:
259,347,23133,1,0,0:0:0:0:
394,311,23293,2,0,P|421:265|418:239,1,71.9999978027344,10|0,0:0|0:0,0:0:0:0:
268,192,23612,1,2,1:2:0:0:
342,248,23772,1,0,1:0:0:0:
259,347,23931,2,0,L|269:270,1,71.9999978027344,8|0,0:0|0:0,0:0:0:0:
153,120,24250,6,0,L|172:269,1,143.999995605469,2|8,1:2|0:0,0:0:0:0:
51,369,24729,1,0,0:0:0:0:
51,369,24809,1,0,1:0:0:0:
51,369,24889,2,0,L|61:292,1,71.9999978027344,2|0,1:2|1:0,0:0:0:0:
0,154,25208,2,0,P|17:179|71:186,1,71.9999978027344,10|0,0:0|0:0,0:0:0:0:
151,63,25527,5,2,1:2:0:0:
60,102,25686,1,0,0:0:0:0:
141,218,25846,2,0,L|131:141,1,71.9999978027344,10|0,0:0|0:0,0:0:0:0:
70,264,26165,1,0,1:0:0:0:
153,311,26325,1,0,1:0:0:0:
231,203,26484,2,0,B|222:131,1,71.9999978027344,8|0,0:0|0:0,0:0:0:0:
362,0,26803,6,0,L|340:162,1,143.999995605469,4|10,1:2|0:0,0:0:0:0:
498,198,27282,1,0,1:0:0:0:
498,198,27362,1,0,1:0:0:0:
498,198,27442,2,0,P|469:225|421:218,1,71.9999978027344,2|0,1:2|1:0,0:0:0:0:
345,354,27761,2,0,L|355:277,1,71.9999978027344,10|0,0:0|1:0,0:0:0:0:
257,116,28080,6,0,P|186:107|148:168,1,143.999995605469,4|8,1:2|0:0,0:0:0:0:
242,285,28559,1,0,0:0:0:0:
242,285,28639,1,0,1:0:0:0:
242,285,28718,2,0,L|232:208,1,71.9999978027344,0|0,1:0|0:0,0:0:0:0:
140,82,29037,1,10,0:0:0:0:
142,180,29197,1,0,0:0:0:0:
208,33,29357,6,0,L|46:53,1,143.999995605469,6|0,1:2|1:0,0:0:0:0:
0,159,29835,1,0,1:2:0:0:
86,251,29995,1,2,1:2:0:0:
174,159,30154,1,0,1:2:0:0:
95,67,30314,1,2,1:2:0:0:
202,189,30474,1,0,1:2:0:0:
286,51,30633,6,0,L|193:60,1,71.9999978027344,14|0,0:0|1:2,0:0:0:0:
129,154,30952,1,10,0:0:0:0:
129,154,31112,1,8,0:0:0:0:
298,286,31431,1,0,1:0:0:0:
221,231,31591,1,0,1:0:0:0:
255,142,31750,1,0,1:0:0:0:
450,187,31910,6,0,L|287:211,1,136.000002593994,6|0,1:2|0:0,0:0:0:0:
339,114,32389,1,2,1:2:0:0:
339,114,32548,1,0,0:0:0:0:
156,161,32867,2,0,L|144:79,1,68.0000012969971
206,15,33186,5,0,1:0:0:0:
206,15,33346,1,0,1:0:0:0:
57,142,33665,1,0,1:0:0:0:
221,231,33984,1,0,1:0:0:0:
221,231,34144,2,0,L|233:149,1,68.0000012969971,0|0,1:0|0:0,0:0:0:0:
311,53,34463,6,0,P|373:85|379:147,1,136.000002593994,6|0,1:2|0:0,0:0:0:0:
305,206,34942,1,2,1:2:0:0:
305,206,35101,1,0,0:0:0:0:
146,93,35420,2,0,L|158:174,1,68.0000012969971
114,250,35740,5,0,1:0:0:0:
114,250,35899,1,0,1:0:0:0:
226,87,36218,1,0,1:0:0:0:
47,15,36537,1,0,1:0:0:0:
47,15,36697,2,0,L|35:96,1,68.0000012969971,0|0,1:0|0:0,0:0:0:0:
4,206,37016,6,0,P|83:259|133:230,1,136.000002593994,6|0,1:2|0:0,0:0:0:0:
155,160,37495,1,2,1:2:0:0:
155,160,37654,1,0,0:0:0:0:
252,328,37974,2,0,L|240:246,1,68.0000012969971
294,178,38293,5,0,1:0:0:0:
294,178,38452,1,0,1:0:0:0:
124,68,38772,1,0,1:0:0:0:
155,248,39091,2,0,L|167:166,1,68.0000012969971,0|8,1:0|0:0,0:0:0:0:
251,47,39410,1,0,1:0:0:0:
251,47,39490,1,0,1:0:0:0:
251,47,39569,6,0,B|351:32|342:90|432:76,1,179.999994506836,6|0,1:2|0:0,0:0:0:0:
460,51,40048,1,0,1:0:0:0:
460,51,40208,1,0,1:0:0:0:
176,99,40686,1,0,1:0:0:0:
176,99,40766,1,0,1:0:0:0:
176,99,40846,5,8,0:0:0:0:
249,160,41006,1,0,1:0:0:0:
149,323,41325,2,0,L|163:240,1,71.9999978027344,0|2,1:0|1:2,0:0:0:0:
67,153,41644,2,0,L|81:236,1,71.9999978027344,0|2,1:2|1:2,0:0:0:0:
37,313,41963,1,0,1:2:0:0:
163,166,42123,6,0,L|138:15,2,143.999995605469,4|0|8,1:2|0:0|0:0,0:0:0:0:
374,371,43240,1,0,1:0:0:0:
488,217,43559,1,0,1:0:0:0:
405,43,43878,1,0,1:0:0:0:
405,43,44037,2,0,L|368:190,1,143.999995605469,8|0,0:0|1:0,0:0:0:0:
488,345,44676,5,8,0:0:0:0:
484,129,44835,1,0,1:0:0:0:
220,248,45154,1,0,1:0:0:0:
454,226,45474,1,0,1:0:0:0:
287,178,45633,1,8,0:0:0:0:
355,325,45793,6,0,L|371:166,1,143.999995605469,0|0,1:0|0:0,0:0:0:0:
465,16,46272,1,8,0:0:0:0:
12,104,47069,6,0,B|112:67|99:152|208:94,1,176.000005371094,6|0,1:2|1:0,0:0:0:0:
291,232,47548,2,0,P|255:274|197:263,1,88.000002685547,8|0,0:0|0:0,0:0:0:0:
57,186,47867,2,0,L|74:274,1,88.000002685547,2|0,1:2|1:0,0:0:0:0:
222,182,48186,1,10,0:0:0:0:
359,321,48346,6,0,B|392:272|392:272|375:138,1,176.000005371094,6|0,0:0|1:0,0:0:0:0:
183,274,48825,2,0,P|138:245|131:194,1,88.000002685547,10|0,0:0|0:0,0:0:0:0:
289,105,49144,1,2,1:2:0:0:
287,265,49303,1,0,1:0:0:0:
163,118,49463,2,0,L|174:18,1,88.000002685547,10|0,0:0|0:0,0:0:0:0:
18,153,49782,6,0,L|35:308,1,132.00000402832,6|0,1:2|0:0,0:0:0:0:
56,316,50101,2,0,P|96:340|145:316,1,88.000002685547,10|0,0:0|0:0,0:0:0:0:
262,179,50420,1,0,1:0:0:0:
115,250,50580,1,0,1:0:0:0:
179,71,50740,2,0,L|169:158,1,88.000002685547,8|0,0:0|0:0,0:0:0:0:
328,271,51059,6,0,P|290:298|239:278,1,88.000002685547,0|0,1:0|0:0,0:0:0:0:
366,175,51378,2,0,P|408:194|417:247,1,88.000002685547,8|0,0:0|0:0,0:0:0:0:
296,372,51697,1,0,1:0:0:0:
234,209,51857,1,0,1:0:0:0:
403,308,52016,1,10,0:0:0:0:
489,125,52176,1,0,1:0:0:0:
489,125,52256,1,0,1:0:0:0:
489,125,52335,6,0,P|462:69|343:77,1,176.000005371094,6|8,1:2|0:0,0:0:0:0:
267,211,52814,1,0,0:0:0:0:
138,82,52974,2,0,L|160:258,1,176.000005371094,2|8,1:2|0:0,0:0:0:0:
296,340,53452,1,0,1:0:0:0:
478,286,53612,6,8,B|435:290|403:329|403:329|385:275|322:256,1,176.000005371094,2|8,1:2|0:0,0:0:0:0:
202,337,54091,1,2,0:0:0:0:
204,135,54250,2,0,P|253:142|278:180,1,88.000002685547,2|0,1:2|1:0,0:0:0:0:
112,183,54569,2,0,P|93:137|113:96,1,88.000002685547,10|0,0:0|0:0,0:0:0:0:
234,253,54889,6,0,L|144:266,1,88.000002685547,6|0,1:2|0:0,0:0:0:0:
275,170,55208,2,0,L|365:183,1,88.000002685547,10|0,0:0|0:0,0:0:0:0:
501,326,55527,1,2,1:2:0:0:
353,270,55686,1,0,1:0:0:0:
471,113,55846,2,0,L|458:203,1,88.000002685547,10|0,0:0|0:0,0:0:0:0:
339,357,56165,5,2,1:2:0:0:
218,252,56325,1,0,1:2:0:0:
305,90,56484,2,0,L|292:180,1,88.000002685547,10|0,0:0|1:2,0:0:0:0:
241,339,56803,1,2,1:2:0:0:
92,278,56963,1,0,1:2:0:0:
144,121,57123,1,10,0:0:0:0:
316,266,57282,6,0,P|400:261|417:172,1,176.000005371094,6|0,1:2|1:0,0:0:0:0:
332,45,57761,2,0,L|243:37,1,88.000002685547,8|0,0:0|0:0,0:0:0:0:
171,210,58080,2,0,P|218:182|218:134,1,88.000002685547,2|0,1:2|1:0,0:0:0:0:
133,14,58399,1,10,0:0:0:0:
2,156,58559,6,0,L|23:330,1,176.000005371094,6|0,0:0|1:0,0:0:0:0:
182,327,59037,2,0,P|145:360|95:355,1,88.000002685547,10|0,0:0|0:0,0:0:0:0:
106,174,59357,2,0,L|119:284,1,88.000002685547,2|0,1:2|1:0,0:0:0:0:
278,371,59676,2,0,L|291:260,1,88.000002685547,10|0,0:0|0:0,0:0:0:0:
173,117,59995,6,0,P|219:97|278:155,1,132.00000402832,6|0,1:2|0:0,0:0:0:0:
297,171,60314,2,0,L|389:161,1,88.000002685547,10|0,0:0|0:0,0:0:0:0:
501,11,60633,1,0,1:0:0:0:
360,86,60793,1,0,1:0:0:0:
484,232,60952,2,0,L|474:140,1,88.000002685547,8|0,0:0|0:0,0:0:0:0:
400,324,61272,6,0,P|357:336|309:314,1,88.000002685547,0|0,1:0|0:0,0:0:0:0:
240,149,61591,1,8,0:0:0:0:
140,278,61750,2,0,L|129:186,1,88.000002685547,0|0,1:0|0:0,0:0:0:0:
202,48,62069,1,0,0:0:0:0:
400,155,62229,1,10,0:0:0:0:
409,172,62308,1,0,1:0:0:0:
411,192,62388,1,0,1:0:0:0:
404,211,62468,1,0,1:0:0:0:
390,227,62548,6,0,L|198:248,1,176.000005371094,6|8,1:2|0:0,0:0:0:0:
141,72,63027,1,2,1:2:0:0:
141,72,63107,1,0,1:0:0:0:
141,72,63186,2,0,P|197:84|197:147,1,88.000002685547,2|0,1:2|0:0,0:0:0:0:
129,245,63506,2,0,L|140:147,1,88.000002685547,8|2,0:0|0:0,0:0:0:0:
11,13,63825,6,0,L|31:197,1,176.000005371094,6|8,1:2|0:0,0:0:0:0:
127,331,64303,1,2,1:2:0:0:
127,331,64383,1,0,1:0:0:0:
127,331,64463,2,0,P|180:324|206:283,1,88.000002685547,2|0,1:2|0:0,0:0:0:0:
208,107,64782,2,0,L|219:205,1,88.000002685547,10|0,0:0|0:0,0:0:0:0:
361,285,65101,5,10,1:2:0:0:
503,194,65261,1,0,1:2:0:0:
361,285,65420,5,10,1:2:0:0:
439,135,65580,1,0,1:2:0:0:
361,285,65740,5,10,1:2:0:0:
353,115,65900,1,0,1:2:0:0:
361,285,66059,5,10,1:2:0:0:
269,141,66219,1,0,1:2:0:0:
100,238,66378,6,0,B|161:226|161:226|236:253|236:253|303:237,1,176.000005371094,6|8,1:2|0:0,0:0:0:0:
421,221,66857,1,2,1:2:0:0:
421,221,66936,1,0,1:0:0:0:
421,221,67016,2,0,L|441:121,2,88.000002685547,2|0|8,1:2|0:0|0:0,0:0:0:0:
401,348,67495,1,2,0:0:0:0:
269,245,67654,6,0,P|253:191|166:174,1,128,6|0,1:2|0:0,0:0:0:0:
121,242,68133,1,0,1:0:0:0:
121,242,68293,2,0,L|45:233,1,64,10|0,0:0|0:0,0:0:0:0:
0,158,68612,1,0,0:0:0:0:
131,18,68931,5,2,0:0:0:0:
131,18,69091,2,0,L|122:100,1,64,2|0,1:2|0:0,0:0:0:0:
171,165,69410,1,0,1:0:0:0:
171,165,69569,2,0,L|189:306,1,128,10|0,0:0|1:0,0:0:0:0:
371,349,70208,6,0,B|391:305|391:305|365:214,1,128,6|0,1:2|0:0,0:0:0:0:
287,178,70686,1,0,1:0:0:0:
287,178,70846,2,0,L|304:98,1,64,10|0,0:0|0:0,0:0:0:0:
373,53,71165,1,0,0:0:0:0:
504,193,71484,5,2,1:2:0:0:
504,193,71644,2,0,L|424:210,1,64,2|0,1:2|0:0,0:0:0:0:
374,275,71963,1,0,1:0:0:0:
258,325,72123,2,0,P|274:298|264:250,1,64,10|0,0:0|0:0,0:0:0:0:
146,232,72442,2,0,P|161:259|207:274,1,64,2|0,0:0|0:0,0:0:0:0:
228,186,72761,6,0,L|246:57,1,128,6|0,1:2|0:0,0:0:0:0:
164,6,73240,1,0,1:0:0:0:
164,6,73399,2,0,L|155:69,1,64,10|0,0:0|0:0,0:0:0:0:
90,140,73718,1,0,0:0:0:0:
225,275,74037,5,0,1:0:0:0:
225,275,74197,2,0,L|288:283,1,64,2|2,1:2|0:0,0:0:0:0:
350,357,74516,1,0,1:0:0:0:
350,357,74676,2,0,L|479:339,1,128,10|2,0:0|0:0,0:0:0:0:
347,184,75314,1,4,1:2:0:0:
347,184,75633,5,2,1:2:0:0:
431,36,75793,1,0,1:2:0:0:
478,200,75952,1,2,1:2:0:0:
336,75,76112,1,0,1:2:0:0:
254,225,76272,1,2,1:2:0:0:
419,124,76431,1,0,1:2:0:0:
458,328,76591,5,2,1:2:0:0:
173,196,77069,1,0,0:0:0:0:
173,196,77229,2,0,P|157:252|202:301,2,128,2|0|4,3:0|1:0|0:0,0:0:0:0:
487,64,80101,5,0,0:0:0:0:
487,64,80420,2,0,L|240:104,1,240
225,127,81697,2,0,P|205:181|238:220,2,111.999996582031
334,248,82495,1,0,1:0:0:0:
334,248,82575,1,0,1:0:0:0:
334,248,82654,1,0,1:0:0:0:
105,74,82974,6,0,L|118:169,1,80,6|0,1:2|0:0,0:0:0:0:
70,345,83293,1,10,0:0:0:0:
216,266,83452,2,0,L|121:253,1,80,2|0,0:0|0:0,0:0:0:0:
4,108,83772,1,0,1:2:0:0:
57,261,83931,1,10,1:2:0:0:
196,177,84091,1,4,1:2:0:0:
196,177,84410,6,0,L|275:187,1,80,0|10,1:2|1:2,0:0:0:0:
451,114,84729,1,0,1:2:0:0:
376,259,84889,1,10,1:2:0:0:
349,72,85048,2,0,L|359:151,1,80,0|10,1:2|1:2,0:0:0:0:
262,350,85367,1,4,1:2:0:0:
256,192,85447,12,0,87761,0:0:0:0:
