osu file format v14

[General]
AudioFilename: audio.mp3
AudioLeadIn: 0
PreviewTime: 46511
Countdown: 0
SampleSet: Soft
StackLeniency: 0.3
Mode: 0
LetterboxInBreaks: 0
WidescreenStoryboard: 0

[Editor]
DistanceSpacing: 1.4
BeatDivisor: 4
GridSize: 8
TimelineZoom: 1.8

[Metadata]
Title:Darling in the Night (TV Size)
TitleUnicode:Darling in the Night (TV Size)
Artist:Beta (CV: Inori Minase)
ArtistUnicode:ベータ (CV: 水瀬いのり)
Creator:Fuxi66
Version:Beta
Source:陰の実力者になりたくて!
Tags:japanese jp rock jrock j-rock anime ending ed The Eminence in Shadow Kage no Jitsuryokusha ni Naritakute! To Be a Power the Shadows! 水瀬いのり 三森すずこ ファイルーズあい 金元寿子 朝井彩加 近藤玲奈 Inori Minase Suzuko Mimori Ai Fairouz Hisako Kanemoto Ayaka Asai Reina Kondou
BeatmapID:3879541
BeatmapSetID:1884234

[Difficulty]
HPDrainRate:5.5
CircleSize:3.8
OverallDifficulty:9
ApproachRate:9.2
SliderMultiplier:1.8
SliderTickRate:1

[Events]
//Background and Video events
0,0,"PFVqOwxc_2x_1.jpg",0,0
//Break Periods
2,78067,79531
//Storyboard Layer 0 (Background)
//Storyboard Layer 1 (Fail)
//Storyboard Layer 2 (Pass)
//Storyboard Layer 3 (Foreground)
//Storyboard Layer 4 (Overlay)
//Storyboard Sound Samples

[TimingPoints]
1272,319.148936170213,4,2,1,100,1,0
1272,-111.111111111111,4,2,1,60,0,0
6378,-100,4,2,1,75,0,0
11484,-125,4,2,1,40,0,0
13958,-125,4,2,1,5,0,0
14037,-125,4,2,1,40,0,0
16192,-125,4,2,1,5,0,0
16272,-125,4,2,1,40,0,0
21697,-111.111111111111,4,2,1,60,0,0
31910,-125,4,2,1,50,0,0
39569,-142.857142857143,4,2,1,65,0,0
42123,-117.647058823529,4,2,1,70,0,0
47069,-90.9090909090908,4,2,1,85,0,1
50022,-90.9090909090908,4,2,1,5,0,1
50101,-90.9090909090908,4,2,1,85,0,1
60234,-90.9090909090908,4,2,1,5,0,1
60314,-90.9090909090908,4,2,1,85,0,1
67654,-125,4,2,1,70,0,0
80101,-250,4,2,1,30,0,0
81697,-142.857142857143,4,2,1,50,0,0
82974,-100,4,2,1,75,0,0
87761,-100,4,2,1,5,0,0

[Colours]
Combo1 : 92,222,237
Combo2 : 101,139,228
Combo3 : 241,181,143
Combo4 : 187,189,191

[HitObjects]
53,54,1272,6,0,L|157:72,1,80.9999975280763,2|0,0:0|0:0,0:0:0:0:
186,147,1591,1,0,0:0:0:0:
186,147,1750,2,0,L|265:133,1,80.9999975280763,2|0,0:0|0:0,0:0:0:0:
356,51,2069,1,0,0:0:0:0:
356,51,2229,2,0,L|374:155,1,80.9999975280763,2|0,0:0|0:0,0:0:0:0:
420,223,2548,5,2,0:0:0:0:
420,223,2708,1,0,0:0:0:0:
333,270,2867,1,2,0:0:0:0:
333,270,3027,1,0,0:0:0:0:
240,264,3186,2,0,P|253:215|293:196,1,80.9999975280763,2|0,0:0|0:0,0:0:0:0:
276,335,3505,2,0,P|227:348|190:323,1,80.9999975280763,2|0,0:0|0:0,0:0:0:0:
146,227,3825,6,0,L|164:123,1,80.9999975280763,2|0,0:0|0:0,0:0:0:0:
186,56,4144,1,0,0:0:0:0:
186,56,4303,2,0,L|82:74,1,80.9999975280763,2|0,0:0|0:0,0:0:0:0:
1,5,4623,1,0,0:0:0:0:
1,5,4782,2,0,L|19:109,1,80.9999975280763,2|0,0:0|0:0,0:0:0:0:
502,47,6059,1,8,0:0:0:0:
502,47,6378,6,0,B|416:78|416:6|326:47,1,180,6|8,1:2|0:0,0:0:0:0:
266,158,6857,1,0,0:0:0:0:
126,80,7016,2,0,P|151:40|218:29,1,90,2|0,1:2|1:0,0:0:0:0:
177,156,7335,1,10,0:0:0:0:
77,228,7495,1,0,0:0:0:0:
19,78,7654,6,0,L|8:180,1,90,0|0,1:0|0:0,0:0:0:0:
170,282,7974,2,0,L|159:180,1,90,10|0,0:0|0:0,0:0:0:0:
287,94,8293,1,2,1:2:0:0:
248,182,8452,1,0,1:0:0:0:
177,82,8612,1,10,0:0:0:0:
270,207,8772,1,0,0:0:0:0:
347,3,8931,6,0,L|245:14,1,90,6|0,1:2|0:0,0:0:0:0:
135,172,9250,1,10,1:2:0:0:
287,94,9410,1,0,1:2:0:0:
73,62,9569,1,2,1:2:0:0:
114,252,9729,1,0,1:2:0:0:
234,37,9889,1,10,1:2:0:0:
94,164,10048,1,0,1:2:0:0:
271,304,10208,5,2,1:2:0:0:
202,125,10367,1,8,0:0:0:0:
202,125,10447,1,8,0:0:0:0:
202,125,10527,1,8,0:0:0:0:
180,324,10686,1,8,0:0:0:0:
180,324,10766,1,8,0:0:0:0:
180,324,10846,1,8,0:0:0:0:
325,208,11006,1,0,1:0:0:0:
222,147,11165,1,0,1:0:0:0:
323,41,11325,1,0,1:0:0:0:
323,41,11404,1,0,1:0:0:0:
323,41,11484,6,0,L|299:192,1,144,6|0,1:2|1:0,0:0:0:0:
220,237,11963,1,0,0:0:0:0:
151,136,12123,2,0,L|226:148,1,72,2|0,1:2|0:0,0:0:0:0:
313,280,12442,1,0,0:0:0:0:
313,280,12601,1,2,0:0:0:0:
410,283,12761,2,0,P|407:239|371:216,1,72,2|0,1:2|0:0,0:0:0:0:
360,351,13080,2,0,P|399:370|437:350,1,72,2|0,1:2|0:0,0:0:0:0:
313,280,13399,2,0,P|277:304|275:347,1,72,0|0,1:0|0:0,0:0:0:0:
492,286,13718,2,0,B|497:170,1,108,2|0,1:2|0:0,0:0:0:0:
482,145,14037,6,0,P|430:98|362:132,1,144,2|0,1:2|1:0,0:0:0:0:
415,203,14516,1,0,0:0:0:0:
336,56,14676,2,0,B|288:56|288:56|232:32|232:32|168:32,1,144,2|0,1:2|0:0,0:0:0:0:
133,99,15154,1,0,0:0:0:0:
203,208,15314,2,0,P|235:175|231:132,1,72,2|0,1:2|0:0,0:0:0:0:
107,185,15633,2,0,L|128:261,1,72,2|0,1:2|0:0,0:0:0:0:
225,384,15952,2,0,L|255:277,1,108,2|0,1:2|0:0,0:0:0:0:
283,262,16272,1,0,1:0:0:0:
283,262,16431,1,8,0:0:0:0:
137,185,16591,6,0,B|158:199|192:197|192:197|224:163|278:176,1,144,2|0,0:0|1:0,0:0:0:0:
325,246,17069,1,0,0:0:0:0:
457,225,17229,2,0,L|414:372,1,144,2|2,1:2|1:2,0:0:0:0:
283,262,17708,1,0,0:0:0:0:
380,173,17867,6,0,P|377:129|341:106,1,72,2|0,1:2|0:0,0:0:0:0:
227,164,18186,2,0,P|266:183|304:163,1,72,2|0,1:2|0:0,0:0:0:0:
317,38,18506,2,0,P|280:62|278:105,1,72,0|0,1:0|0:0,0:0:0:0:
337,240,18825,1,2,1:2:0:0:
460,196,18984,1,0,0:0:0:0:
402,30,19144,6,0,L|376:193,1,144,2|0,1:2|1:0,0:0:0:0:
419,263,19623,1,0,0:0:0:0:
291,175,19782,2,0,B|224:152|224:208|144:176,1,144,2|0,1:2|1:0,0:0:0:0:
93,104,20261,1,0,0:0:0:0:
148,262,20420,1,0,1:0:0:0:
194,97,20580,1,0,1:0:0:0:
0,97,20740,6,0,P|7:147|41:170,1,72,8|0,0:0|0:0,0:0:0:0:
144,35,21059,1,0,1:0:0:0:
82,211,21218,1,0,1:0:0:0:
264,248,21378,1,8,0:0:0:0:
309,68,21537,1,0,1:0:0:0:
309,68,21617,1,0,1:0:0:0:
309,68,21697,6,0,L|500:100,1,161.999995056153,6|8,1:2|0:0,0:0:0:0:
400,241,22176,1,0,0:0:0:0:
400,241,22256,1,0,1:0:0:0:
400,241,22335,2,0,P|365:214|355:167,1,80.9999975280763,2|0,1:2|1:0,0:0:0:0:
464,23,22654,1,10,0:0:0:0:
433,161,22814,1,0,0:0:0:0:
275,50,22974,5,2,1:2:0:0:
396,80,23133,1,0,0:0:0:0:
272,244,23293,2,0,L|288:149,1,80.9999975280763,10|0,0:0|0:0,0:0:0:0:
323,135,23532,1,0,1:0:0:0:
323,135,23612,1,2,1:2:0:0:
192,41,23772,1,0,1:0:0:0:
188,229,23931,2,0,P|166:267|113:272,1,80.9999975280763,8|0,0:0|0:0,0:0:0:0:
88,40,24250,6,0,L|119:228,1,161.999995056153,2|8,1:2|0:0,0:0:0:0:
46,345,24729,1,0,0:0:0:0:
46,345,24809,1,0,1:0:0:0:
46,345,24888,2,0,P|83:331|106:298,1,80.9999975280763,2|0,1:2|1:0,0:0:0:0:
12,132,25207,1,10,0:0:0:0:
38,257,25367,1,0,0:0:0:0:
204,156,25527,5,2,1:2:0:0:
88,183,25687,1,0,0:0:0:0:
139,0,25846,2,0,L|155:95,1,80.9999975280763,10|0,0:0|0:0,0:0:0:0:
140,117,26085,1,0,1:0:0:0:
140,117,26165,1,0,1:0:0:0:
222,252,26325,1,0,1:0:0:0:
263,68,26484,2,0,P|280:19|333:7,1,80.9999975280763,8|0,0:0|0:0,0:0:0:0:
507,100,26803,6,0,L|343:73,1,161.999995056153,4|10,1:2|0:0,0:0:0:0:
383,244,27282,1,0,1:0:0:0:
383,244,27362,1,0,1:0:0:0:
383,244,27442,2,0,P|420:230|443:198,1,80.9999975280763,2|0,1:2|1:0,0:0:0:0:
347,73,27761,2,0,L|363:168,1,80.9999975280763,10|0,0:0|1:0,0:0:0:0:
242,308,28080,6,0,L|274:116,1,161.999995056153,4|8,1:2|0:0,0:0:0:0:
367,279,28559,1,0,0:0:0:0:
367,279,28639,1,0,1:0:0:0:
367,279,28718,1,0,1:0:0:0:
475,167,28878,1,0,0:0:0:0:
445,289,29038,1,10,0:0:0:0:
307,210,29197,1,0,0:0:0:0:
417,35,29357,6,0,L|388:201,1,161.999995056153,6|0,1:2|1:0,0:0:0:0:
241,322,29835,1,0,1:2:0:0:
315,172,29995,1,2,1:2:0:0:
350,298,30154,1,0,1:2:0:0:
203,187,30314,1,2,1:2:0:0:
375,111,30474,1,0,1:2:0:0:
216,287,30633,5,14,0:0:0:0:
286,95,30793,1,0,1:2:0:0:
336,320,30952,1,10,0:0:0:0:
171,180,31112,2,0,L|266:196,1,80.9999975280763,8|0,0:0|0:0,0:0:0:0:
399,135,31431,1,0,1:0:0:0:
400,262,31591,1,0,1:0:0:0:
330,200,31750,1,0,1:0:0:0:
199,278,31910,6,0,L|294:262,1,72,6|0,1:2|0:0,0:0:0:0:
357,126,32229,1,0,0:0:0:0:
303,11,32389,2,0,B|310:35|303:61|303:61|256:97|274:153,1,144,2|0,1:2|0:0,0:0:0:0:
357,237,32867,1,0,0:0:0:0:
357,237,33027,1,0,0:0:0:0:
432,121,33186,6,0,L|337:137,1,72,0|0,1:0|1:0,0:0:0:0:
267,220,33506,1,0,0:0:0:0:
193,152,33665,2,0,P|219:122|272:133,1,72,0|0,1:0|0:0,0:0:0:0:
295,234,33984,1,0,1:0:0:0:
183,299,34144,2,0,L|167:204,1,72,0|0,1:0|0:0,0:0:0:0:
47,122,34463,6,0,L|31:217,1,72,6|0,1:2|0:0,0:0:0:0:
101,296,34782,1,0,0:0:0:0:
193,152,34942,2,0,B|227:152|239:195|239:195|283:184|313:206,1,144,2|0,1:2|0:0,0:0:0:0:
438,171,35420,1,0,0:0:0:0:
438,171,35580,1,0,0:0:0:0:
337,47,35740,6,0,P|305:62|289:94,1,72,0|0,1:0|1:0,0:0:0:0:
339,177,36059,1,0,0:0:0:0:
428,84,36218,2,0,L|412:-11,1,72,0|0,1:0|0:0,0:0:0:0:
512,97,36537,1,0,1:0:0:0:
419,189,36697,2,0,P|384:157|353:156,1,72,0|0,1:0|0:0,0:0:0:0:
342,306,37016,6,0,L|358:211,1,72,6|0,1:2|0:0,0:0:0:0:
283,135,37335,1,0,0:0:0:0:
129,188,37495,2,0,B|180:194|180:194|224:225|224:225|287:232,1,144,2|0,1:2|0:0,0:0:0:0:
355,196,37974,1,0,0:0:0:0:
355,196,38133,1,0,0:0:0:0:
494,95,38293,6,0,P|467:64|425:60,1,72,0|0,1:0|1:0,0:0:0:0:
351,109,38612,1,0,0:0:0:0:
439,207,38772,2,0,L|423:112,1,72,0|0,1:0|0:0,0:0:0:0:
270,86,39091,1,0,1:0:0:0:
309,178,39250,1,8,0:0:0:0:
377,0,39410,1,0,1:0:0:0:
377,0,39490,1,0,1:0:0:0:
377,0,39569,6,0,B|295:6|322:56|228:57,1,157.499995193482,6|0,1:2|0:0,0:0:0:0:
200,35,40048,1,0,1:0:0:0:
92,193,40208,2,0,P|151:202|190:156,1,125.999996154785,0|0,1:0|0:0,0:0:0:0:
110,18,40686,1,0,1:0:0:0:
110,18,40766,1,0,1:0:0:0:
110,18,40846,5,8,0:0:0:0:
0,172,41006,2,0,B|22:308,1,125.999996154785,0|0,1:0|1:0,0:0:0:0:
94,360,41484,1,2,1:2:0:0:
212,302,41644,1,0,1:2:0:0:
140,188,41803,1,2,1:2:0:0:
253,127,41963,1,0,1:2:0:0:
408,211,42123,6,0,B|364:213|342:245|342:245|317:209|272:201,1,153.000002918243,4|0,1:2|0:0,0:0:0:0:
407,291,42601,1,0,1:0:0:0:
408,70,42761,2,0,B|396:55|371:46|371:46|320:72|343:143,1,153.000002918243,8|0,0:0|0:0,0:0:0:0:
485,179,43240,6,0,P|494:223|469:264,1,76.5000014591217,0|0,1:0|0:0,0:0:0:0:
473,377,43559,2,0,P|430:362|407:320,1,76.5000014591217,0|0,1:0|0:0,0:0:0:0:
408,211,43878,1,0,1:0:0:0:
330,359,44037,1,8,0:0:0:0:
307,162,44197,1,0,1:0:0:0:
198,274,44357,2,0,L|287:260,1,76.5000014591217,0|0,1:0|0:0,0:0:0:0:
476,158,44676,5,8,0:0:0:0:
279,74,44835,1,0,1:0:0:0:
483,321,45154,1,0,1:0:0:0:
62,178,45474,1,0,1:0:0:0:
273,262,45633,1,8,0:0:0:0:
199,59,45793,6,0,L|175:210,1,153.000002918243,0|0,1:0|0:0,0:0:0:0:
25,381,46272,1,8,0:0:0:0:
492,142,47069,6,0,B|399:171|405:96|287:142,1,198.000006042481,6|0,1:2|1:0,0:0:0:0:
389,340,47548,2,0,P|428:300|425:250,1,99.0000030212403,8|0,0:0|0:0,0:0:0:0:
352,216,47787,1,0,1:0:0:0:
352,216,47867,1,2,1:2:0:0:
209,356,48027,1,0,1:0:0:0:
144,173,48186,1,10,0:0:0:0:
0,344,48346,6,0,B|60:332|60:332|119:279|119:279|181:264,1,198.000006042481,6|0,0:0|1:0,0:0:0:0:
116,50,48825,2,0,P|59:65|46:117,1,99.0000030212403,10|0,0:0|0:0,0:0:0:0:
56,193,49064,1,0,1:0:0:0:
56,193,49144,1,2,1:2:0:0:
248,194,49303,1,0,1:0:0:0:
206,0,49463,2,0,L|185:96,1,99.0000030212403,10|0,0:0|0:0,0:0:0:0:
308,275,49782,6,0,P|355:240|478:243,1,148.50000453186,6|0,1:2|0:0,0:0:0:0:
512,170,50101,2,0,L|491:74,1,99.0000030212403,10|0,0:0|0:0,0:0:0:0:
428,2,50341,1,0,1:0:0:0:
428,2,50420,1,0,1:0:0:0:
334,166,50580,1,0,1:0:0:0:
193,0,50740,2,0,L|289:21,1,99.0000030212403,8|0,0:0|0:0,0:0:0:0:
429,153,51059,5,0,1:0:0:0:
248,194,51218,1,0,0:0:0:0:
399,361,51378,2,0,L|378:265,1,99.0000030212403,8|0,0:0|0:0,0:0:0:0:
264,110,51697,1,0,1:0:0:0:
204,295,51857,1,0,1:0:0:0:
357,181,52016,1,10,0:0:0:0:
195,31,52176,1,0,1:0:0:0:
195,31,52256,1,0,1:0:0:0:
195,31,52335,6,0,B|160:100|160:100|196:230,1,198.000006042481,6|8,1:2|0:0,0:0:0:0:
367,317,52814,1,0,0:0:0:0:
512,155,52974,2,0,P|495:119|413:131,1,99.0000030212403,2|0,1:2|1:0,0:0:0:0:
272,196,53293,1,8,0:0:0:0:
469,326,53452,1,0,1:0:0:0:
469,326,53532,1,0,1:0:0:0:
469,326,53612,6,8,B|449:268|449:268|378:217|378:217|361:148,1,198.000006042481,2|8,1:2|0:0,0:0:0:0:
457,0,54091,1,2,0:0:0:0:
512,185,54250,1,2,1:2:0:0:
354,79,54410,1,0,1:0:0:0:
293,292,54569,2,0,L|272:196,1,99.0000030212403,10|0,0:0|0:0,0:0:0:0:
58,77,54889,6,0,P|73:122|140:129,1,99.0000030212403,6|0,1:2|0:0,0:0:0:0:
338,0,55208,2,0,L|242:21,1,99.0000030212403,10|0,0:0|0:0,0:0:0:0:
178,238,55527,1,2,1:2:0:0:
151,46,55686,1,0,1:0:0:0:
358,204,55846,2,0,L|262:183,1,99.0000030212403,10|0,0:0|0:0,0:0:0:0:
15,253,56165,5,2,1:2:0:0:
238,307,56325,1,0,1:2:0:0:
66,375,56484,1,10,0:0:0:0:
143,128,56644,1,0,1:2:0:0:
289,373,56803,1,2,1:2:0:0:
81,297,56963,1,0,1:2:0:0:
261,182,57123,1,10,0:0:0:0:
60,68,57282,6,0,B|64:118|50:164|50:164|102:191|150:253,1,198.000006042481,6|0,1:2|1:0,0:0:0:0:
312,102,57761,2,0,P|272:78|218:97,1,99.0000030212403,8|0,0:0|0:0,0:0:0:0:
184,173,58000,1,0,1:0:0:0:
184,173,58080,1,2,1:2:0:0:
346,279,58240,1,0,1:0:0:0:
492,153,58399,1,10,0:0:0:0:
448,371,58559,6,0,B|414:174,1,198.000006042481,6|0,0:0|1:0,0:0:0:0:
237,307,59038,2,0,P|247:355|308:377,1,99.0000030212403,10|0,0:0|0:0,0:0:0:0:
372,355,59277,1,0,1:0:0:0:
372,355,59357,1,2,1:2:0:0:
246,201,59516,1,0,1:0:0:0:
59,315,59676,2,0,L|155:294,1,99.0000030212403,10|0,0:0|0:0,0:0:0:0:
289,120,59995,6,0,P|213:109|165:176,1,148.50000453186,6|0,1:2|0:0,0:0:0:0:
106,222,60314,2,0,L|85:126,1,99.0000030212403,10|0,0:0|0:0,0:0:0:0:
135,44,60554,1,0,1:0:0:0:
135,44,60633,1,0,1:0:0:0:
253,196,60793,1,0,1:0:0:0:
379,12,60953,2,0,L|283:33,1,99.0000030212403,8|0,0:0|0:0,0:0:0:0:
181,233,61272,5,0,1:0:0:0:
345,143,61431,1,0,0:0:0:0:
203,14,61591,1,8,0:0:0:0:
58,178,61750,2,0,L|154:157,1,99.0000030212403,0|0,1:0|0:0,0:0:0:0:
308,44,62069,1,0,0:0:0:0:
361,271,62229,1,10,0:0:0:0:
355,295,62308,1,0,1:0:0:0:
341,314,62388,1,0,1:0:0:0:
319,326,62468,1,0,1:0:0:0:
295,327,62548,6,0,L|255:113,1,198.000006042481,6|8,1:2|0:0,0:0:0:0:
440,4,63027,1,2,1:2:0:0:
440,4,63107,1,0,1:0:0:0:
440,4,63186,2,0,L|419:111,1,99.0000030212403,2|0,1:2|0:0,0:0:0:0:
498,267,63506,1,8,0:0:0:0:
350,152,63665,1,2,0:0:0:0:
229,345,63825,6,0,B|249:365|306:358|306:358|336:300|407:268,1,198.000006042481,6|8,1:2|0:0,0:0:0:0:
324,63,64303,1,2,1:2:0:0:
324,63,64383,1,0,1:0:0:0:
324,63,64463,1,2,1:2:0:0:
262,246,64623,1,0,0:0:0:0:
126,74,64782,2,0,L|233:94,1,99.0000030212403,10|0,0:0|0:0,0:0:0:0:
419,202,65101,5,10,1:2:0:0:
240,323,65261,1,0,1:2:0:0:
433,211,65420,5,10,1:2:0:0:
185,222,65580,1,0,1:2:0:0:
435,239,65740,5,10,1:2:0:0:
203,90,65899,1,0,1:2:0:0:
415,273,66059,5,10,1:2:0:0:
310,4,66219,1,0,1:2:0:0:
185,222,66378,6,0,B|301:237|275:157|392:169,1,198.000006042481,6|8,1:2|0:0,0:0:0:0:
444,316,66857,1,2,1:2:0:0:
444,316,66936,1,0,1:0:0:0:
444,316,67016,1,2,1:2:0:0:
255,329,67176,1,0,0:0:0:0:
221,144,67335,1,8,0:0:0:0:
340,255,67495,1,2,0:0:0:0:
152,311,67654,6,0,P|85:277|95:201,1,144,6|0,1:2|0:0,0:0:0:0:
129,131,68133,1,0,1:0:0:0:
275,208,68293,2,0,L|198:232,1,72,10|0,0:0|0:0,0:0:0:0:
251,323,68612,1,0,0:0:0:0:
251,323,68772,1,0,1:0:0:0:
349,299,68931,5,2,0:0:0:0:
349,299,69091,2,0,L|373:221,1,72,2|0,1:2|0:0,0:0:0:0:
335,143,69410,1,0,1:0:0:0:
496,129,69569,2,0,L|418:104,1,72,10|0,0:0|0:0,0:0:0:0:
390,23,69889,1,0,1:0:0:0:
390,23,70048,1,0,0:0:0:0:
291,52,70208,6,0,B|249:64|249:64|190:53|190:53|130:66,1,144,6|0,1:2|0:0,0:0:0:0:
112,146,70686,1,0,1:0:0:0:
0,32,70846,2,0,L|24:109,1,72,10|0,0:0|0:0,0:0:0:0:
5,195,71165,1,0,0:0:0:0:
5,195,71325,1,0,1:0:0:0:
88,235,71484,5,2,1:2:0:0:
88,235,71644,2,0,L|63:312,1,72,2|0,1:2|0:0,0:0:0:0:
2,375,71963,1,0,1:0:0:0:
158,366,72123,2,0,L|235:341,1,72,10|0,0:0|0:0,0:0:0:0:
311,211,72442,2,0,L|286:288,1,72,2|0,0:0|0:0,0:0:0:0:
202,263,72761,6,0,L|158:122,1,144,6|0,1:2|0:0,0:0:0:0:
84,68,73240,1,0,1:0:0:0:
234,1,73399,2,0,L|209:78,1,72,10|0,0:0|0:0,0:0:0:0:
253,158,73718,1,0,0:0:0:0:
253,158,73878,1,0,1:0:0:0:
316,89,74037,5,0,1:0:0:0:
316,89,74197,2,0,L|393:113,1,72,2|2,1:2|0:0,0:0:0:0:
441,184,74516,1,0,1:0:0:0:
306,256,74676,2,0,L|330:178,1,72,10|0,0:0|0:0,0:0:0:0:
396,260,74995,2,0,L|371:337,1,72,2|0,0:0|0:0,0:0:0:0:
212,325,75314,5,4,1:2:0:0:
212,325,75633,1,2,1:2:0:0:
135,179,75793,1,0,1:2:0:0:
61,349,75952,1,2,1:2:0:0:
224,193,76112,1,0,1:2:0:0:
0,79,76272,1,2,1:2:0:0:
127,294,76431,1,0,1:2:0:0:
376,60,76591,5,2,1:2:0:0:
494,358,77069,1,0,0:0:0:0:
494,358,77229,2,0,B|448:349|421:358|421:358|406:332|360:303,2,144,2|0|4,3:0|1:0|0:0,0:0:0:0:
485,189,80101,5,0,0:0:0:0:
485,189,80420,2,0,L|197:216,1,288
127,160,82176,1,0,0:0:0:0:
289,87,82495,1,0,1:0:0:0:
289,87,82575,1,0,1:0:0:0:
289,87,82654,1,0,1:0:0:0:
115,268,82974,6,0,L|9:282,1,90,6|0,1:2|0:0,0:0:0:0:
166,362,83293,1,10,0:0:0:0:
309,227,83452,2,0,L|203:213,1,90,2|0,0:0|0:0,0:0:0:0:
58,371,83772,1,0,1:2:0:0:
23,151,83931,1,10,1:2:0:0:
195,287,84091,1,4,1:2:0:0:
204,296,84410,5,0,1:2:0:0:
204,296,84490,1,0,1:0:0:0:
204,296,84569,1,10,1:2:0:0:
302,128,84729,1,0,1:2:0:0:
123,204,84889,1,10,1:2:0:0:
309,302,85048,1,0,1:2:0:0:
203,100,85208,1,10,1:2:0:0:
478,23,85367,1,4,1:2:0:0:
256,192,85447,12,0,87761,0:0:0:0:
