osu file format v14

[General]
AudioFilename: audio.mp3
AudioLeadIn: 0
PreviewTime: -1
Countdown: 1
SampleSet: None
StackLeniency: 0.7
Mode: 0
LetterboxInBreaks: 0
WidescreenStoryboard: 1

[Editor]
DistanceSpacing: 0.5
BeatDivisor: 4
GridSize: 16
TimelineZoom: 1

[Metadata]
Title:Deception Dive
TitleUnicode:Deception Dive
Artist:Bestrong
ArtistUnicode:Bestrong
Creator:BestrongGD
Version:Monster
Source:Newgronds
Tags:
BeatmapID:1458821
BeatmapSetID:688760

[Difficulty]
HPDrainRate:6
CircleSize:6
OverallDifficulty:7
ApproachRate:10
SliderMultiplier:1.4
SliderTickRate:1

[Events]
//Background and Video events
0,0,"maxresdefault (4).jpg",0,0
//Break Periods
//Storyboard Layer 0 (Background)
//Storyboard Layer 1 (Fail)
//Storyboard Layer 2 (Pass)
//Storyboard Layer 3 (Foreground)
//Storyboard Sound Samples

[TimingPoints]
0,85.7142857142857,4,1,0,100,1,0
110321,66.6666666666667,4,1,0,100,1,0
198771,60,4,1,0,100,1,0

[Colours]
Combo1 : 64,0,128
Combo2 : 64,0,128

[HitObjects]
193,129,235,5,0,0:0:0:0:
85,365,557,1,0,0:0:0:0:
230,205,835,1,0,0:0:0:0:
388,70,1092,1,0,0:0:0:0:
153,130,1392,1,0,0:0:0:0:
176,193,1778,1,0,0:0:0:0:
215,127,2078,1,0,0:0:0:0:
223,192,2421,1,0,0:0:0:0:
162,159,2785,1,0,0:0:0:0:
402,231,3107,1,0,0:0:0:0:
128,148,3471,1,0,0:0:0:0:
375,224,3792,1,0,0:0:0:0:
105,141,4157,1,0,0:0:0:0:
305,321,4500,1,0,0:0:0:0:
136,102,4842,1,0,0:0:0:0:
304,328,5207,1,0,0:0:0:0:
259,81,5528,1,0,0:0:0:0:
178,322,5850,1,0,0:0:0:0:
120,35,6214,1,0,0:0:0:0:
248,278,6557,1,0,0:0:0:0:
347,25,6899,1,0,0:0:0:0:
219,256,7242,1,0,0:0:0:0:
0,97,7585,1,0,0:0:0:0:
224,229,7907,1,0,0:0:0:0:
477,128,8250,1,0,0:0:0:0:
268,260,8550,1,0,0:0:0:0:
33,71,8914,1,0,0:0:0:0:
251,243,9278,1,0,0:0:0:0:
366,31,9578,1,0,0:0:0:0:
251,243,9900,1,0,0:0:0:0:
172,212,10264,1,0,0:0:0:0:
434,337,10628,1,0,0:0:0:0:
178,166,11014,1,0,0:0:0:0:
178,166,11571,1,0,0:0:0:0:
223,162,12107,1,0,0:0:0:0:
6,318,12428,1,0,0:0:0:0:
331,79,12942,1,0,0:0:0:0:
229,156,13114,1,0,0:0:0:0:
195,147,13478,1,0,0:0:0:0:
204,162,13821,1,0,0:0:0:0:
259,141,14314,1,0,0:0:0:0:
179,177,14849,1,0,0:0:0:0:
248,175,15642,1,0,0:0:0:0:
166,188,16178,1,0,0:0:0:0:
451,17,16585,1,0,0:0:0:0:
51,244,17142,1,0,0:0:0:0:
402,84,17614,1,0,0:0:0:0:
133,231,18000,1,0,0:0:0:0:
221,163,18514,1,0,0:0:0:0:
221,163,18685,1,0,0:0:0:0:
231,183,19028,1,0,0:0:0:0:
251,144,19328,1,0,0:0:0:0:
181,137,19885,1,0,0:0:0:0:
297,154,20378,1,0,0:0:0:0:
253,206,21107,1,0,0:0:0:0:
382,227,21578,1,0,0:0:0:0:
148,160,22092,1,0,0:0:0:0:
186,215,22135,1,0,0:0:0:0:
197,163,22457,1,0,0:0:0:0:
295,190,22585,1,0,0:0:0:0:
221,171,22607,1,0,0:0:0:0:
292,204,22735,1,0,0:0:0:0:
221,171,22757,1,0,0:0:0:0:
158,147,23057,1,0,0:0:0:0:
117,113,23100,1,0,0:0:0:0:
340,240,23357,1,0,0:0:0:0:
336,146,23635,1,0,0:0:0:0:
358,157,23700,1,0,0:0:0:0:
313,314,23807,1,0,0:0:0:0:
304,314,23871,1,0,0:0:0:0:
56,202,23978,1,0,0:0:0:0:
116,223,24042,1,0,0:0:0:0:
53,142,24171,1,0,0:0:0:0:
99,166,24214,1,0,0:0:0:0:
254,83,24492,1,0,0:0:0:0:
336,101,24557,1,0,0:0:0:0:
163,221,24857,1,0,0:0:0:0:
414,250,24878,1,0,0:0:0:0:
431,309,25007,1,0,0:0:0:0:
284,267,25071,1,0,0:0:0:0:
430,162,25157,1,0,0:0:0:0:
143,133,25264,1,0,0:0:0:0:
280,165,25307,1,0,0:0:0:0:
65,52,25414,1,0,0:0:0:0:
161,208,25457,1,0,0:0:0:0:
23,182,25607,1,0,0:0:0:0:
167,107,25714,1,0,0:0:0:0:
177,272,25842,1,0,0:0:0:0:
297,212,25928,1,0,0:0:0:0:
303,114,26078,1,0,0:0:0:0:
251,133,26099,1,0,0:0:0:0:
369,250,26421,1,0,0:0:0:0:
146,235,26442,1,0,0:0:0:0:
174,254,26592,1,0,0:0:0:0:
422,167,26614,1,0,0:0:0:0:
256,239,26764,1,0,0:0:0:0:
392,297,26785,1,0,0:0:0:0:
374,306,26957,1,0,0:0:0:0:
166,45,27257,1,0,0:0:0:0:
221,93,27278,1,0,0:0:0:0:
146,262,27621,1,0,0:0:0:0:
132,182,27642,1,0,0:0:0:0:
112,135,27964,1,0,0:0:0:0:
326,182,27985,1,0,0:0:0:0:
363,273,28157,1,0,0:0:0:0:
291,296,28178,1,0,0:0:0:0:
54,228,28349,1,0,0:0:0:0:
399,224,28371,1,0,0:0:0:0:
399,217,28564,1,0,0:0:0:0:
54,133,28628,1,0,0:0:0:0:
214,119,28885,1,0,0:0:0:0:
179,157,28907,1,0,0:0:0:0:
169,231,29207,1,0,0:0:0:0:
294,191,29378,1,0,0:0:0:0:
58,258,29399,1,0,0:0:0:0:
291,156,29571,1,0,0:0:0:0:
328,113,29742,1,0,0:0:0:0:
347,179,29764,1,0,0:0:0:0:
468,103,30042,1,0,0:0:0:0:
338,100,30064,1,0,0:0:0:0:
463,204,30364,1,0,0:0:0:0:
93,129,30407,1,0,0:0:0:0:
396,229,30557,1,0,0:0:0:0:
310,285,30707,1,0,0:0:0:0:
316,164,30728,1,0,0:0:0:0:
328,179,30878,1,0,0:0:0:0:
210,75,30899,1,0,0:0:0:0:
124,73,31071,1,0,0:0:0:0:
151,195,31307,1,0,0:0:0:0:
130,248,31349,1,0,0:0:0:0:
218,60,31564,1,0,0:0:0:0:
440,160,31628,1,0,0:0:0:0:
397,121,31971,1,0,0:0:0:0:
391,137,32142,1,0,0:0:0:0:
366,151,32314,1,0,0:0:0:0:
329,131,32464,1,0,0:0:0:0:
206,157,32485,1,0,0:0:0:0:
247,79,32807,1,0,0:0:0:0:
378,98,32828,1,0,0:0:0:0:
87,226,33171,1,0,0:0:0:0:
255,279,33192,1,0,0:0:0:0:
341,147,33514,1,0,0:0:0:0:
259,249,33557,1,0,0:0:0:0:
365,146,33685,1,0,0:0:0:0:
91,177,33750,1,0,0:0:0:0:
366,216,33857,1,0,0:0:0:0:
93,197,33921,1,0,0:0:0:0:
218,36,34135,1,0,0:0:0:0:
184,161,34178,1,0,0:0:0:0:
218,36,34371,1,0,0:0:0:0:
108,78,34392,1,0,0:0:0:0:
160,102,34714,1,0,0:0:0:0:
89,150,34735,1,0,0:0:0:0:
21,250,34757,1,0,0:0:0:0:
105,204,34907,1,0,0:0:0:0:
186,246,34928,1,0,0:0:0:0:
161,220,35078,1,0,0:0:0:0:
267,126,35100,1,0,0:0:0:0:
170,232,35121,1,0,0:0:0:0:
209,164,35250,1,0,0:0:0:0:
266,130,35271,1,0,0:0:0:0:
213,283,35292,1,0,0:0:0:0:
300,111,35571,1,0,0:0:0:0:
322,123,35592,1,0,0:0:0:0:
404,137,35935,1,0,0:0:0:0:
153,185,35957,1,0,0:0:0:0:
426,141,36107,1,0,0:0:0:0:
155,200,36150,1,0,0:0:0:0:
399,192,36300,1,0,0:0:0:0:
329,238,36321,1,0,0:0:0:0:
168,180,36471,1,0,0:0:0:0:
284,194,36492,1,0,0:0:0:0:
226,129,36642,1,0,0:0:0:0:
235,143,36664,1,0,0:0:0:0:
301,168,36878,1,0,0:0:0:0:
34,181,36900,1,0,0:0:0:0:
237,195,37178,1,0,0:0:0:0:
290,129,37478,1,0,0:0:0:0:
275,236,37500,1,0,0:0:0:0:
305,217,37628,1,0,0:0:0:0:
225,253,37671,1,0,0:0:0:0:
342,299,37821,1,0,0:0:0:0:
210,210,37842,1,0,0:0:0:0:
190,144,38014,1,0,0:0:0:0:
447,288,38314,1,0,0:0:0:0:
381,79,38657,1,0,0:0:0:0:
116,138,38678,1,0,0:0:0:0:
117,198,38957,1,0,0:0:0:0:
46,284,39021,1,0,0:0:0:0:
188,185,39150,1,0,0:0:0:0:
221,228,39192,1,0,0:0:0:0:
201,164,39342,1,0,0:0:0:0:
302,246,39385,1,0,0:0:0:0:
231,154,39514,1,0,0:0:0:0:
184,86,39642,1,0,0:0:0:0:
250,137,39685,1,0,0:0:0:0:
366,278,39857,1,0,0:0:0:0:
384,140,39964,1,0,0:0:0:0:
434,93,40178,1,0,0:0:0:0:
378,131,40242,1,0,0:0:0:0:
317,342,40350,1,0,0:0:0:0:
317,154,40414,1,0,0:0:0:0:
295,157,40607,1,0,0:0:0:0:
120,158,40778,1,0,0:0:0:0:
296,163,41078,1,0,0:0:0:0:
90,114,41121,1,0,0:0:0:0:
291,189,41442,1,0,0:0:0:0:
330,140,41464,1,0,0:0:0:0:
340,140,41657,1,0,0:0:0:0:
342,140,41828,1,0,0:0:0:0:
348,140,42000,1,0,0:0:0:0:
173,170,42021,1,0,0:0:0:0:
351,141,42192,1,0,0:0:0:0:
298,113,42407,1,0,0:0:0:0:
349,91,42428,1,0,0:0:0:0:
331,233,42664,1,0,0:0:0:0:
347,167,42685,1,0,0:0:0:0:
280,242,42985,1,0,0:0:0:0:
238,242,43157,1,0,0:0:0:0:
132,151,43178,1,0,0:0:0:0:
121,140,43307,1,0,0:0:0:0:
121,140,43414,1,0,0:0:0:0:
197,179,43457,1,0,0:0:0:0:
225,141,43521,1,0,0:0:0:0:
324,142,43821,1,0,0:0:0:0:
378,192,44185,1,0,0:0:0:0:
316,276,44207,1,0,0:0:0:0:
310,227,44485,1,0,0:0:0:0:
476,296,44507,1,0,0:0:0:0:
471,292,44700,1,0,0:0:0:0:
301,249,44850,1,0,0:0:0:0:
301,249,45021,1,0,0:0:0:0:
295,244,45214,1,0,0:0:0:0:
152,208,45235,1,0,0:0:0:0:
295,243,45385,1,0,0:0:0:0:
192,191,45428,1,0,0:0:0:0:
296,242,45557,1,0,0:0:0:0:
192,191,45600,1,0,0:0:0:0:
302,237,45728,1,0,0:0:0:0:
192,191,45750,1,0,0:0:0:0:
302,237,45878,1,0,0:0:0:0:
192,191,45921,1,0,0:0:0:0:
302,236,46071,1,0,0:0:0:0:
192,191,46092,1,0,0:0:0:0:
302,236,46242,1,0,0:0:0:0:
302,236,46435,1,0,0:0:0:0:
192,191,46564,1,0,0:0:0:0:
302,237,46628,1,0,0:0:0:0:
192,191,46714,1,0,0:0:0:0:
302,237,46821,1,0,0:0:0:0:
193,187,46842,1,0,0:0:0:0:
192,184,46950,1,0,0:0:0:0:
305,232,46992,1,0,0:0:0:0:
192,191,47142,1,0,0:0:0:0:
317,216,47164,1,0,0:0:0:0:
317,216,47314,1,0,0:0:0:0:
192,191,47485,1,0,0:0:0:0:
318,215,47507,1,0,0:0:0:0:
192,191,47592,1,0,0:0:0:0:
318,215,47678,1,0,0:0:0:0:
192,191,47764,1,0,0:0:0:0:
318,215,47871,1,0,0:0:0:0:
195,192,47892,1,0,0:0:0:0:
192,191,48042,1,0,0:0:0:0:
317,216,48064,1,0,0:0:0:0:
192,191,48192,1,0,0:0:0:0:
317,216,48214,1,0,0:0:0:0:
192,191,48342,1,0,0:0:0:0:
318,215,48385,1,0,0:0:0:0:
192,191,48471,1,0,0:0:0:0:
318,215,48557,1,0,0:0:0:0:
192,191,48621,1,0,0:0:0:0:
318,215,48728,1,0,0:0:0:0:
192,191,48750,1,0,0:0:0:0:
317,216,48900,1,0,0:0:0:0:
192,191,49050,1,0,0:0:0:0:
317,216,49071,1,0,0:0:0:0:
192,191,49200,1,0,0:0:0:0:
318,215,49242,1,0,0:0:0:0:
192,191,49350,1,0,0:0:0:0:
336,183,49414,1,0,0:0:0:0:
192,191,49457,1,0,0:0:0:0:
336,183,49585,1,0,0:0:0:0:
192,191,49607,1,0,0:0:0:0:
338,176,49735,1,0,0:0:0:0:
338,179,49907,1,0,0:0:0:0:
192,191,50057,1,0,0:0:0:0:
338,179,50078,1,0,0:0:0:0:
192,191,50228,1,0,0:0:0:0:
338,179,50250,1,0,0:0:0:0:
192,191,50400,1,0,0:0:0:0:
338,179,50421,1,0,0:0:0:0:
192,191,50571,1,0,0:0:0:0:
339,178,50592,1,0,0:0:0:0:
192,191,50742,1,0,0:0:0:0:
338,176,50785,1,0,0:0:0:0:
195,192,50892,1,0,0:0:0:0:
338,179,50957,1,0,0:0:0:0:
192,191,51064,1,0,0:0:0:0:
338,179,51128,1,0,0:0:0:0:
192,191,51257,1,0,0:0:0:0:
338,179,51299,1,0,0:0:0:0:
192,191,51428,1,0,0:0:0:0:
338,179,51449,1,0,0:0:0:0:
192,191,51599,1,0,0:0:0:0:
339,178,51642,1,0,0:0:0:0:
192,191,51771,1,0,0:0:0:0:
338,176,51814,1,0,0:0:0:0:
192,191,51942,1,0,0:0:0:0:
338,179,52007,1,0,0:0:0:0:
192,191,52092,1,0,0:0:0:0:
343,154,52221,1,0,0:0:0:0:
343,154,52371,1,0,0:0:0:0:
197,187,52414,1,0,0:0:0:0:
342,155,52521,1,0,0:0:0:0:
197,188,52628,1,0,0:0:0:0:
340,162,52671,1,0,0:0:0:0:
340,162,52864,1,0,0:0:0:0:
197,188,52971,1,0,0:0:0:0:
340,162,53035,1,0,0:0:0:0:
340,162,53164,1,0,0:0:0:0:
197,187,53185,1,0,0:0:0:0:
340,162,53335,1,0,0:0:0:0:
197,187,53357,1,0,0:0:0:0:
340,162,53507,1,0,0:0:0:0:
197,188,53549,1,0,0:0:0:0:
340,162,53635,1,0,0:0:0:0:
197,188,53742,1,0,0:0:0:0:
340,162,53828,1,0,0:0:0:0:
197,188,53892,1,0,0:0:0:0:
340,162,53978,1,0,0:0:0:0:
197,187,54064,1,0,0:0:0:0:
340,162,54171,1,0,0:0:0:0:
197,187,54257,1,0,0:0:0:0:
340,162,54321,1,0,0:0:0:0:
197,188,54428,1,0,0:0:0:0:
340,162,54492,1,0,0:0:0:0:
197,188,54642,1,0,0:0:0:0:
340,162,54685,1,0,0:0:0:0:
197,188,54814,1,0,0:0:0:0:
340,162,54878,1,0,0:0:0:0:
197,187,54964,1,0,0:0:0:0:
343,152,55199,1,0,0:0:0:0:
197,187,55264,1,0,0:0:0:0:
197,188,55607,1,0,0:0:0:0:
340,153,55671,1,0,0:0:0:0:
289,133,56142,1,0,0:0:0:0:
343,152,56164,1,0,0:0:0:0:
157,192,56528,1,0,0:0:0:0:
335,105,56592,1,0,0:0:0:0:
257,130,57064,1,0,0:0:0:0:
196,312,57107,1,0,0:0:0:0:
266,140,57235,1,0,0:0:0:0:
285,289,57278,1,0,0:0:0:0:
141,190,57599,1,0,0:0:0:0:
368,113,57621,1,0,0:0:0:0:
127,132,57921,1,0,0:0:0:0:
368,237,57964,1,0,0:0:0:0:
195,133,58457,1,0,0:0:0:0:
332,99,58971,1,0,0:0:0:0:
373,82,58992,1,0,0:0:0:0:
101,184,59807,1,0,0:0:0:0:
224,123,59828,1,0,0:0:0:0:
362,89,60299,1,0,0:0:0:0:
280,184,60321,1,0,0:0:0:0:
247,191,60749,1,0,0:0:0:0:
125,241,60771,1,0,0:0:0:0:
400,120,61264,1,0,0:0:0:0:
349,190,61328,1,0,0:0:0:0:
230,173,61757,1,0,0:0:0:0:
95,108,61799,1,0,0:0:0:0:
104,179,62142,1,0,0:0:0:0:
313,149,62657,1,0,0:0:0:0:
213,178,62678,1,0,0:0:0:0:
425,213,63107,1,0,0:0:0:0:
223,148,63514,1,0,0:0:0:0:
147,107,63557,1,0,0:0:0:0:
205,268,63771,1,0,0:0:0:0:
256,157,64092,1,0,0:0:0:0:
156,240,64157,1,0,0:0:0:0:
0,213,64457,1,0,0:0:0:0:
239,219,64564,1,0,0:0:0:0:
153,142,64821,1,0,0:0:0:0:
271,210,64907,1,0,0:0:0:0:
229,112,66150,1,0,0:0:0:0:
122,201,66514,1,0,0:0:0:0:
277,270,66600,1,0,0:0:0:0:
199,214,66685,1,0,0:0:0:0:
266,251,66792,1,0,0:0:0:0:
243,170,66857,1,0,0:0:0:0:
230,196,66942,1,0,0:0:0:0:
234,137,67007,1,0,0:0:0:0:
367,133,67221,1,0,0:0:0:0:
159,143,67242,1,0,0:0:0:0:
294,219,67457,1,0,0:0:0:0:
327,251,67521,1,0,0:0:0:0:
367,177,67800,1,0,0:0:0:0:
184,169,67821,1,0,0:0:0:0:
229,215,67971,1,0,0:0:0:0:
265,167,68142,1,0,0:0:0:0:
260,145,68335,1,0,0:0:0:0:
108,178,68657,1,0,0:0:0:0:
112,233,69000,1,0,0:0:0:0:
303,169,69021,1,0,0:0:0:0:
229,221,69171,1,0,0:0:0:0:
211,230,69321,1,0,0:0:0:0:
321,214,69342,1,0,0:0:0:0:
194,184,69492,1,0,0:0:0:0:
188,137,69685,1,0,0:0:0:0:
92,182,69964,1,0,0:0:0:0:
356,270,70200,1,0,0:0:0:0:
169,194,70264,1,0,0:0:0:0:
233,200,70542,1,0,0:0:0:0:
297,90,70564,1,0,0:0:0:0:
201,192,70735,1,0,0:0:0:0:
327,152,70757,1,0,0:0:0:0:
216,212,70907,1,0,0:0:0:0:
188,313,71078,1,0,0:0:0:0:
131,165,71121,1,0,0:0:0:0:
359,126,71400,1,0,0:0:0:0:
284,160,71464,1,0,0:0:0:0:
326,275,71764,1,0,0:0:0:0:
168,217,71807,1,0,0:0:0:0:
110,122,72128,1,0,0:0:0:0:
80,160,72171,1,0,0:0:0:0:
288,98,72342,1,0,0:0:0:0:
62,197,72364,1,0,0:0:0:0:
226,236,72535,1,0,0:0:0:0:
288,133,72771,1,0,0:0:0:0:
131,117,73007,1,0,0:0:0:0:
361,230,73050,1,0,0:0:0:0:
240,179,73307,1,0,0:0:0:0:
139,253,73371,1,0,0:0:0:0:
304,113,73500,1,0,0:0:0:0:
56,188,73564,1,0,0:0:0:0:
308,172,73671,1,0,0:0:0:0:
106,76,73778,1,0,0:0:0:0:
307,226,73864,1,0,0:0:0:0:
172,70,73928,1,0,0:0:0:0:
86,120,74185,1,0,0:0:0:0:
242,133,74250,1,0,0:0:0:0:
219,276,74485,1,0,0:0:0:0:
156,234,74571,1,0,0:0:0:0:
238,244,74678,1,0,0:0:0:0:
47,222,74742,1,0,0:0:0:0:
236,156,74871,1,0,0:0:0:0:
72,228,74914,1,0,0:0:0:0:
251,147,75042,1,0,0:0:0:0:
409,108,75107,1,0,0:0:0:0:
303,136,75257,1,0,0:0:0:0:
409,103,75300,1,0,0:0:0:0:
307,209,75492,1,0,0:0:0:0:
313,263,75514,1,0,0:0:0:0:
195,152,75750,1,0,0:0:0:0:
78,97,76071,1,0,0:0:0:0:
144,272,76242,1,0,0:0:0:0:
151,102,76264,1,0,0:0:0:0:
173,114,76414,1,0,0:0:0:0:
227,185,76564,1,0,0:0:0:0:
60,197,76607,1,0,0:0:0:0:
436,169,76907,1,0,0:0:0:0:
308,114,76928,1,0,0:0:0:0:
324,228,77250,1,0,0:0:0:0:
214,190,77314,1,0,0:0:0:0:
180,84,77635,1,0,0:0:0:0:
243,313,77657,1,0,0:0:0:0:
130,139,77828,1,0,0:0:0:0:
355,234,77850,1,0,0:0:0:0:
120,171,78000,1,0,0:0:0:0:
317,213,78042,1,0,0:0:0:0:
121,214,78257,1,0,0:0:0:0:
287,240,78278,1,0,0:0:0:0:
322,158,78535,1,0,0:0:0:0:
199,241,78557,1,0,0:0:0:0:
231,231,78857,1,0,0:0:0:0:
298,283,79028,1,0,0:0:0:0:
267,257,79050,1,0,0:0:0:0:
353,283,79221,1,0,0:0:0:0:
377,238,79414,1,0,0:0:0:0:
197,103,79735,1,0,0:0:0:0:
308,76,79757,1,0,0:0:0:0:
116,194,80121,1,0,0:0:0:0:
231,214,80250,1,0,0:0:0:0:
103,313,80292,1,0,0:0:0:0:
243,197,80421,1,0,0:0:0:0:
201,297,80485,1,0,0:0:0:0:
155,158,80571,1,0,0:0:0:0:
327,266,80657,1,0,0:0:0:0:
158,229,80764,1,0,0:0:0:0:
348,248,80850,1,0,0:0:0:0:
378,114,81000,1,0,0:0:0:0:
336,172,81042,1,0,0:0:0:0:
319,258,81235,1,0,0:0:0:0:
225,128,81321,1,0,0:0:0:0:
165,68,81578,1,0,0:0:0:0:
221,242,81642,1,0,0:0:0:0:
166,188,81771,1,0,0:0:0:0:
329,285,81814,1,0,0:0:0:0:
186,163,81942,1,0,0:0:0:0:
403,209,82007,1,0,0:0:0:0:
242,113,82135,1,0,0:0:0:0:
403,215,82178,1,0,0:0:0:0:
405,132,82435,1,0,0:0:0:0:
156,257,82521,1,0,0:0:0:0:
436,237,82800,1,0,0:0:0:0:
99,152,82864,1,0,0:0:0:0:
127,68,83164,1,0,0:0:0:0:
238,225,83185,1,0,0:0:0:0:
46,214,83250,1,0,0:0:0:0:
254,218,83378,1,0,0:0:0:0:
82,192,83464,1,0,0:0:0:0:
218,202,83571,1,0,0:0:0:0:
206,137,83785,1,0,0:0:0:0:
339,219,84042,1,0,0:0:0:0:
187,291,84064,1,0,0:0:0:0:
302,152,84342,1,0,0:0:0:0:
150,272,84364,1,0,0:0:0:0:
291,242,84535,1,0,0:0:0:0:
131,249,84557,1,0,0:0:0:0:
276,241,84728,1,0,0:0:0:0:
292,209,84750,1,0,0:0:0:0:
408,146,84942,1,0,0:0:0:0:
324,248,85242,1,0,0:0:0:0:
324,139,85564,1,0,0:0:0:0:
145,159,85628,1,0,0:0:0:0:
320,300,85757,1,0,0:0:0:0:
114,196,85800,1,0,0:0:0:0:
289,272,85928,1,0,0:0:0:0:
197,205,85971,1,0,0:0:0:0:
127,233,86121,1,0,0:0:0:0:
277,136,86164,1,0,0:0:0:0:
81,194,86292,1,0,0:0:0:0:
227,125,86335,1,0,0:0:0:0:
79,189,86485,1,0,0:0:0:0:
189,162,86507,1,0,0:0:0:0:
98,184,86657,1,0,0:0:0:0:
206,169,86678,1,0,0:0:0:0:
227,157,86828,1,0,0:0:0:0:
122,184,86850,1,0,0:0:0:0:
122,184,87000,1,0,0:0:0:0:
224,151,87021,1,0,0:0:0:0:
223,151,87150,1,0,0:0:0:0:
225,150,87300,1,0,0:0:0:0:
122,184,87428,1,0,0:0:0:0:
230,136,87557,1,0,0:0:0:0:
122,184,87642,1,0,0:0:0:0:
231,137,87707,1,0,0:0:0:0:
122,184,87771,1,0,0:0:0:0:
232,132,87835,1,0,0:0:0:0:
122,184,87857,1,0,0:0:0:0:
230,136,87985,1,0,0:0:0:0:
123,179,88007,1,0,0:0:0:0:
228,132,88135,1,0,0:0:0:0:
156,171,88328,1,0,0:0:0:0:
262,121,88435,1,0,0:0:0:0:
244,108,88650,1,0,0:0:0:0:
277,131,88692,1,0,0:0:0:0:
221,235,88800,1,0,0:0:0:0:
285,147,88885,1,0,0:0:0:0:
111,227,88971,1,0,0:0:0:0:
284,182,89100,1,0,0:0:0:0:
96,196,89164,1,0,0:0:0:0:
237,202,89250,1,0,0:0:0:0:
180,164,89335,1,0,0:0:0:0:
148,206,89421,1,0,0:0:0:0:
169,165,89507,1,0,0:0:0:0:
11,140,89592,1,0,0:0:0:0:
275,115,89978,1,0,0:0:0:0:
196,228,90128,1,0,0:0:0:0:
309,251,90150,1,0,0:0:0:0:
173,216,90300,1,0,0:0:0:0:
185,202,90321,1,0,0:0:0:0:
104,122,90450,1,0,0:0:0:0:
117,162,90471,1,0,0:0:0:0:
241,138,90750,1,0,0:0:0:0:
301,94,90771,1,0,0:0:0:0:
182,178,91135,1,0,0:0:0:0:
123,142,91435,1,0,0:0:0:0:
165,211,91500,1,0,0:0:0:0:
212,181,91628,1,0,0:0:0:0:
156,205,91650,1,0,0:0:0:0:
254,132,91821,1,0,0:0:0:0:
151,164,91864,1,0,0:0:0:0:
251,119,91992,1,0,0:0:0:0:
151,164,92057,1,0,0:0:0:0:
214,117,92164,1,0,0:0:0:0:
151,164,92207,1,0,0:0:0:0:
25,112,92335,1,0,0:0:0:0:
151,164,92357,1,0,0:0:0:0:
276,167,92700,1,0,0:0:0:0:
260,219,92721,1,0,0:0:0:0:
244,166,92871,1,0,0:0:0:0:
195,273,92892,1,0,0:0:0:0:
174,165,93042,1,0,0:0:0:0:
136,257,93064,1,0,0:0:0:0:
205,143,93214,1,0,0:0:0:0:
231,132,93492,1,0,0:0:0:0:
351,28,93514,1,0,0:0:0:0:
228,149,93857,1,0,0:0:0:0:
305,196,93900,1,0,0:0:0:0:
369,209,94178,1,0,0:0:0:0:
167,171,94200,1,0,0:0:0:0:
176,152,94350,1,0,0:0:0:0:
366,217,94392,1,0,0:0:0:0:
156,169,94414,1,0,0:0:0:0:
169,160,94500,1,0,0:0:0:0:
316,268,94564,1,0,0:0:0:0:
326,140,94585,1,0,0:0:0:0:
169,160,94692,1,0,0:0:0:0:
194,263,94714,1,0,0:0:0:0:
347,101,94757,1,0,0:0:0:0:
169,160,94864,1,0,0:0:0:0:
122,237,94907,1,0,0:0:0:0:
170,160,95035,1,0,0:0:0:0:
86,185,95057,1,0,0:0:0:0:
374,237,95378,1,0,0:0:0:0:
266,101,95421,1,0,0:0:0:0:
165,319,95571,1,0,0:0:0:0:
252,166,95592,1,0,0:0:0:0:
153,298,95700,1,0,0:0:0:0:
199,193,95764,1,0,0:0:0:0:
155,270,95892,1,0,0:0:0:0:
87,136,95914,1,0,0:0:0:0:
245,72,96257,1,0,0:0:0:0:
356,113,96278,1,0,0:0:0:0:
259,294,96600,1,0,0:0:0:0:
295,174,96642,1,0,0:0:0:0:
201,232,96857,1,0,0:0:0:0:
108,159,96921,1,0,0:0:0:0:
100,195,97050,1,0,0:0:0:0:
118,167,97092,1,0,0:0:0:0:
98,198,97200,1,0,0:0:0:0:
119,168,97264,1,0,0:0:0:0:
111,190,97392,1,0,0:0:0:0:
119,169,97457,1,0,0:0:0:0:
116,183,97564,1,0,0:0:0:0:
118,170,97650,1,0,0:0:0:0:
116,182,97735,1,0,0:0:0:0:
116,172,97800,1,0,0:0:0:0:
114,182,97907,1,0,0:0:0:0:
296,276,98142,1,0,0:0:0:0:
236,164,98185,1,0,0:0:0:0:
295,166,98357,1,0,0:0:0:0:
197,187,98528,1,0,0:0:0:0:
216,222,98550,1,0,0:0:0:0:
167,197,98700,1,0,0:0:0:0:
192,173,99042,1,0,0:0:0:0:
222,163,99385,1,0,0:0:0:0:
359,171,99407,1,0,0:0:0:0:
272,281,99728,1,0,0:0:0:0:
49,181,99771,1,0,0:0:0:0:
177,225,99900,1,0,0:0:0:0:
57,185,99942,1,0,0:0:0:0:
170,187,100071,1,0,0:0:0:0:
166,233,100135,1,0,0:0:0:0:
168,178,100221,1,0,0:0:0:0:
252,162,100285,1,0,0:0:0:0:
168,178,100414,1,0,0:0:0:0:
271,176,100435,1,0,0:0:0:0:
168,178,100564,1,0,0:0:0:0:
342,149,100607,1,0,0:0:0:0:
305,116,100950,1,0,0:0:0:0:
91,215,100992,1,0,0:0:0:0:
124,193,101121,1,0,0:0:0:0:
151,152,101185,1,0,0:0:0:0:
59,238,101271,1,0,0:0:0:0:
304,150,101357,1,0,0:0:0:0:
165,273,101421,1,0,0:0:0:0:
314,137,101507,1,0,0:0:0:0:
335,141,101764,1,0,0:0:0:0:
185,209,102107,1,0,0:0:0:0:
309,268,102150,1,0,0:0:0:0:
99,176,102385,1,0,0:0:0:0:
337,199,102449,1,0,0:0:0:0:
107,187,102535,1,0,0:0:0:0:
310,230,102621,1,0,0:0:0:0:
276,142,102728,1,0,0:0:0:0:
73,339,102771,1,0,0:0:0:0:
375,104,102899,1,0,0:0:0:0:
33,288,102942,1,0,0:0:0:0:
380,114,103114,1,0,0:0:0:0:
363,136,103285,1,0,0:0:0:0:
109,222,103628,1,0,0:0:0:0:
101,159,103649,1,0,0:0:0:0:
176,193,103821,1,0,0:0:0:0:
137,172,103842,1,0,0:0:0:0:
86,278,103992,1,0,0:0:0:0:
215,159,104014,1,0,0:0:0:0:
213,139,104164,1,0,0:0:0:0:
146,42,104485,1,0,0:0:0:0:
226,134,104507,1,0,0:0:0:0:
322,112,104871,1,0,0:0:0:0:
437,34,104935,1,0,0:0:0:0:
178,218,105214,1,0,0:0:0:0:
250,236,105257,1,0,0:0:0:0:
170,217,105407,1,0,0:0:0:0:
256,229,105428,1,0,0:0:0:0:
391,238,105599,1,0,0:0:0:0:
269,227,105621,1,0,0:0:0:0:
269,226,105792,1,0,0:0:0:0:
265,224,105942,1,0,0:0:0:0:
210,170,106114,1,0,0:0:0:0:
265,221,106135,1,0,0:0:0:0:
41,109,106457,1,0,0:0:0:0:
83,192,106499,1,0,0:0:0:0:
247,251,106628,1,0,0:0:0:0:
170,142,106692,1,0,0:0:0:0:
266,213,106799,1,0,0:0:0:0:
203,137,106864,1,0,0:0:0:0:
277,172,106992,1,0,0:0:0:0:
222,174,107035,1,0,0:0:0:0:
304,143,107292,1,0,0:0:0:0:
324,103,107314,1,0,0:0:0:0:
277,160,107678,1,0,0:0:0:0:
220,235,107978,1,0,0:0:0:0:
185,178,107999,1,0,0:0:0:0:
176,186,108192,1,0,0:0:0:0:
242,163,108364,1,0,0:0:0:0:
186,210,108514,1,0,0:0:0:0:
258,164,108535,1,0,0:0:0:0:
186,205,108664,1,0,0:0:0:0:
267,149,108707,1,0,0:0:0:0:
188,202,108835,1,0,0:0:0:0:
261,149,108878,1,0,0:0:0:0:
188,202,108985,1,0,0:0:0:0:
261,147,109028,1,0,0:0:0:0:
188,202,109135,1,0,0:0:0:0:
253,138,109178,1,0,0:0:0:0:
188,202,109264,1,0,0:0:0:0:
188,202,109349,1,0,0:0:0:0:
251,136,109414,1,0,0:0:0:0:
183,206,109499,1,0,0:0:0:0:
247,138,109542,1,0,0:0:0:0:
183,206,109564,1,0,0:0:0:0:
183,208,109692,1,0,0:0:0:0:
247,141,109735,1,0,0:0:0:0:
247,141,109799,1,0,0:0:0:0:
182,211,109885,1,0,0:0:0:0:
247,142,109949,1,0,0:0:0:0:
182,212,110014,1,0,0:0:0:0:
247,142,110164,1,0,0:0:0:0:
184,208,110271,1,0,0:0:0:0:
251,147,110314,1,0,0:0:0:0:
181,204,110371,1,0,0:0:0:0:
251,147,110454,1,0,0:0:0:0:
223,116,110704,1,0,0:0:0:0:
265,154,110721,1,0,0:0:0:0:
182,228,110837,1,0,0:0:0:0:
304,159,110921,1,0,0:0:0:0:
181,281,110987,1,0,0:0:0:0:
365,163,111104,1,0,0:0:0:0:
111,106,111154,1,0,0:0:0:0:
374,147,111304,1,0,0:0:0:0:
189,108,111337,1,0,0:0:0:0:
244,162,111654,1,0,0:0:0:0:
241,202,111671,1,0,0:0:0:0:
236,173,111937,1,0,0:0:0:0:
347,172,112004,1,0,0:0:0:0:
219,170,112104,1,0,0:0:0:0:
350,166,112171,1,0,0:0:0:0:
156,110,112254,1,0,0:0:0:0:
342,159,112354,1,0,0:0:0:0:
141,155,112421,1,0,0:0:0:0:
331,146,112521,1,0,0:0:0:0:
331,132,112837,1,0,0:0:0:0:
333,169,113221,1,0,0:0:0:0:
329,166,113387,1,0,0:0:0:0:
163,155,113404,1,0,0:0:0:0:
165,173,113554,1,0,0:0:0:0:
313,144,113571,1,0,0:0:0:0:
300,131,113737,1,0,0:0:0:0:
296,138,113887,1,0,0:0:0:0:
302,117,113921,1,0,0:0:0:0:
286,154,114121,1,0,0:0:0:0:
169,57,114137,1,0,0:0:0:0:
156,206,114404,1,0,0:0:0:0:
124,161,114437,1,0,0:0:0:0:
158,147,114721,1,0,0:0:0:0:
367,127,114754,1,0,0:0:0:0:
179,243,114887,1,0,0:0:0:0:
359,220,114937,1,0,0:0:0:0:
353,156,115071,1,0,0:0:0:0:
351,220,115087,1,0,0:0:0:0:
351,123,115254,1,0,0:0:0:0:
343,215,115271,1,0,0:0:0:0:
197,322,115537,1,0,0:0:0:0:
362,188,115587,1,0,0:0:0:0:
109,158,115871,1,0,0:0:0:0:
252,187,115937,1,0,0:0:0:0:
106,233,116221,1,0,0:0:0:0:
73,154,116287,1,0,0:0:0:0:
116,238,116421,1,0,0:0:0:0:
117,153,116471,1,0,0:0:0:0:
170,206,116587,1,0,0:0:0:0:
222,147,116654,1,0,0:0:0:0:
377,74,116854,1,0,0:0:0:0:
272,143,116904,1,0,0:0:0:0:
291,273,117171,1,0,0:0:0:0:
290,189,117204,1,0,0:0:0:0:
174,238,117487,1,0,0:0:0:0:
327,239,117537,1,0,0:0:0:0:
145,242,117671,1,0,0:0:0:0:
342,230,117687,1,0,0:0:0:0:
121,236,117837,1,0,0:0:0:0:
340,220,117854,1,0,0:0:0:0:
215,104,118004,1,0,0:0:0:0:
252,149,118054,1,0,0:0:0:0:
355,73,118337,1,0,0:0:0:0:
252,149,118371,1,0,0:0:0:0:
307,227,118687,1,0,0:0:0:0:
361,89,118704,1,0,0:0:0:0:
255,196,118837,1,0,0:0:0:0:
353,195,118887,1,0,0:0:0:0:
215,166,119021,1,0,0:0:0:0:
267,213,119054,1,0,0:0:0:0:
191,160,119204,1,0,0:0:0:0:
85,126,119287,1,0,0:0:0:0:
173,140,119387,1,0,0:0:0:0:
100,237,119454,1,0,0:0:0:0:
310,116,119621,1,0,0:0:0:0:
163,254,119671,1,0,0:0:0:0:
365,174,119904,1,0,0:0:0:0:
275,210,119954,1,0,0:0:0:0:
154,304,120237,1,0,0:0:0:0:
311,152,120271,1,0,0:0:0:0:
112,254,120404,1,0,0:0:0:0:
334,212,120421,1,0,0:0:0:0:
317,285,120587,1,0,0:0:0:0:
121,165,120754,1,0,0:0:0:0:
307,307,120771,1,0,0:0:0:0:
316,38,121087,1,0,0:0:0:0:
199,189,121104,1,0,0:0:0:0:
368,145,121454,1,0,0:0:0:0:
321,242,121471,1,0,0:0:0:0:
152,114,121804,1,0,0:0:0:0:
188,241,121837,1,0,0:0:0:0:
69,240,121971,1,0,0:0:0:0:
166,251,122021,1,0,0:0:0:0:
136,260,122171,1,0,0:0:0:0:
201,223,122187,1,0,0:0:0:0:
294,112,122387,1,0,0:0:0:0:
236,147,122454,1,0,0:0:0:0:
311,207,122687,1,0,0:0:0:0:
295,225,122737,1,0,0:0:0:0:
163,100,123021,1,0,0:0:0:0:
384,200,123087,1,0,0:0:0:0:
158,111,123171,1,0,0:0:0:0:
376,203,123254,1,0,0:0:0:0:
170,136,123354,1,0,0:0:0:0:
337,229,123421,1,0,0:0:0:0:
209,140,123537,1,0,0:0:0:0:
301,217,123571,1,0,0:0:0:0:
335,51,123854,1,0,0:0:0:0:
126,146,123871,1,0,0:0:0:0:
149,215,124237,1,0,0:0:0:0:
255,248,124437,1,0,0:0:0:0:
264,234,124604,1,0,0:0:0:0:
170,124,124621,1,0,0:0:0:0:
264,226,124787,1,0,0:0:0:0:
302,95,124937,1,0,0:0:0:0:
258,217,124954,1,0,0:0:0:0:
34,142,125187,1,0,0:0:0:0:
333,101,125237,1,0,0:0:0:0:
184,258,125487,1,0,0:0:0:0:
307,212,125787,1,0,0:0:0:0:
232,171,125837,1,0,0:0:0:0:
400,267,125954,1,0,0:0:0:0:
135,183,126004,1,0,0:0:0:0:
379,293,126121,1,0,0:0:0:0:
118,100,126204,1,0,0:0:0:0:
347,278,126287,1,0,0:0:0:0:
126,113,126337,1,0,0:0:0:0:
265,205,126604,1,0,0:0:0:0:
221,226,126621,1,0,0:0:0:0:
153,253,126954,1,0,0:0:0:0:
289,293,127304,1,0,0:0:0:0:
271,205,127321,1,0,0:0:0:0:
289,212,127487,1,0,0:0:0:0:
212,199,127654,1,0,0:0:0:0:
281,258,127687,1,0,0:0:0:0:
209,103,127921,1,0,0:0:0:0:
358,141,127954,1,0,0:0:0:0:
132,134,128171,1,0,0:0:0:0:
355,252,128187,1,0,0:0:0:0:
106,217,128504,1,0,0:0:0:0:
133,269,128521,1,0,0:0:0:0:
161,235,128671,1,0,0:0:0:0:
140,261,128704,1,0,0:0:0:0:
160,241,128837,1,0,0:0:0:0:
281,157,128887,1,0,0:0:0:0:
154,247,129021,1,0,0:0:0:0:
286,127,129037,1,0,0:0:0:0:
291,117,129371,1,0,0:0:0:0:
134,73,129387,1,0,0:0:0:0:
166,172,129721,1,0,0:0:0:0:
383,341,129754,1,0,0:0:0:0:
263,186,129904,1,0,0:0:0:0:
272,292,129937,1,0,0:0:0:0:
265,189,130087,1,0,0:0:0:0:
186,156,130137,1,0,0:0:0:0:
398,170,130254,1,0,0:0:0:0:
156,176,130304,1,0,0:0:0:0:
398,170,130437,1,0,0:0:0:0:
78,232,130471,1,0,0:0:0:0:
359,136,130687,1,0,0:0:0:0:
404,183,130971,1,0,0:0:0:0:
83,210,130987,1,0,0:0:0:0:
211,212,131321,1,0,0:0:0:0:
348,258,131337,1,0,0:0:0:0:
233,211,131487,1,0,0:0:0:0:
200,182,131521,1,0,0:0:0:0:
223,194,131687,1,0,0:0:0:0:
211,172,131837,1,0,0:0:0:0:
191,162,131854,1,0,0:0:0:0:
281,85,132121,1,0,0:0:0:0:
357,117,132154,1,0,0:0:0:0:
299,201,132487,1,0,0:0:0:0:
354,212,132537,1,0,0:0:0:0:
251,253,132821,1,0,0:0:0:0:
256,265,132871,1,0,0:0:0:0:
255,252,133171,1,0,0:0:0:0:
239,220,133237,1,0,0:0:0:0:
82,182,133537,1,0,0:0:0:0:
317,157,133554,1,0,0:0:0:0:
131,133,133871,1,0,0:0:0:0:
251,123,133887,1,0,0:0:0:0:
284,184,134187,1,0,0:0:0:0:
139,246,134204,1,0,0:0:0:0:
317,237,134571,1,0,0:0:0:0:
281,304,134604,1,0,0:0:0:0:
317,111,134921,1,0,0:0:0:0:
149,176,134937,1,0,0:0:0:0:
382,203,135287,1,0,0:0:0:0:
308,366,135554,1,0,0:0:0:0:
337,268,135654,1,0,0:0:0:0:
218,212,135921,1,0,0:0:0:0:
214,141,135954,1,0,0:0:0:0:
26,257,136271,1,0,0:0:0:0:
191,171,136621,1,0,0:0:0:0:
293,160,136954,1,0,0:0:0:0:
270,204,136971,1,0,0:0:0:0:
314,279,137287,1,0,0:0:0:0:
262,174,137321,1,0,0:0:0:0:
151,235,137637,1,0,0:0:0:0:
349,132,137654,1,0,0:0:0:0:
386,209,137971,1,0,0:0:0:0:
117,187,137987,1,0,0:0:0:0:
258,170,138321,1,0,0:0:0:0:
235,168,138354,1,0,0:0:0:0:
329,191,138687,1,0,0:0:0:0:
278,241,138704,1,0,0:0:0:0:
197,155,139004,1,0,0:0:0:0:
197,155,139354,1,0,0:0:0:0:
296,128,139721,1,0,0:0:0:0:
153,102,139821,1,0,0:0:0:0:
161,113,140004,1,0,0:0:0:0:
312,198,140021,1,0,0:0:0:0:
333,82,140354,1,0,0:0:0:0:
211,233,140404,1,0,0:0:0:0:
237,306,140737,1,0,0:0:0:0:
151,151,140754,1,0,0:0:0:0:
288,138,141087,1,0,0:0:0:0:
128,92,141271,1,0,0:0:0:0:
319,215,141421,1,0,0:0:0:0:
176,249,141787,1,0,0:0:0:0:
135,180,142104,1,0,0:0:0:0:
215,142,142454,1,0,0:0:0:0:
183,101,142654,1,0,0:0:0:0:
280,162,142804,1,0,0:0:0:0:
347,125,143104,1,0,0:0:0:0:
258,267,143504,1,0,0:0:0:0:
332,170,144187,1,0,0:0:0:0:
218,168,144837,1,0,0:0:0:0:
353,102,145454,1,0,0:0:0:0:
126,175,146171,1,0,0:0:0:0:
342,270,146854,1,0,0:0:0:0:
177,182,147554,1,0,0:0:0:0:
373,112,148237,1,0,0:0:0:0:
162,113,148921,1,0,0:0:0:0:
350,97,149604,1,0,0:0:0:0:
150,180,150287,1,0,0:0:0:0:
376,197,151021,1,0,0:0:0:0:
178,142,151687,1,0,0:0:0:0:
381,64,152321,1,0,0:0:0:0:
177,204,153037,1,0,0:0:0:0:
319,174,153687,1,0,0:0:0:0:
142,183,154387,1,0,0:0:0:0:
306,178,154837,1,0,0:0:0:0:
262,198,154854,1,0,0:0:0:0:
274,249,155004,1,0,0:0:0:0:
259,190,155037,1,0,0:0:0:0:
151,260,155204,1,0,0:0:0:0:
249,182,155221,1,0,0:0:0:0:
128,102,155504,1,0,0:0:0:0:
376,141,155754,1,0,0:0:0:0:
167,160,155804,1,0,0:0:0:0:
292,260,156104,1,0,0:0:0:0:
332,97,156121,1,0,0:0:0:0:
365,197,156271,1,0,0:0:0:0:
201,225,156287,1,0,0:0:0:0:
344,268,156454,1,0,0:0:0:0:
176,161,156621,1,0,0:0:0:0:
274,228,156654,1,0,0:0:0:0:
199,154,156921,1,0,0:0:0:0:
253,96,156937,1,0,0:0:0:0:
117,219,157287,1,0,0:0:0:0:
235,222,157304,1,0,0:0:0:0:
227,288,157487,1,0,0:0:0:0:
190,203,157637,1,0,0:0:0:0:
250,258,157654,1,0,0:0:0:0:
304,157,157821,1,0,0:0:0:0:
287,164,157987,1,0,0:0:0:0:
329,107,158004,1,0,0:0:0:0:
303,130,158221,1,0,0:0:0:0:
334,179,158237,1,0,0:0:0:0:
298,268,158487,1,0,0:0:0:0:
241,230,158537,1,0,0:0:0:0:
114,85,158887,1,0,0:0:0:0:
158,164,158921,1,0,0:0:0:0:
139,110,159054,1,0,0:0:0:0:
204,212,159087,1,0,0:0:0:0:
291,96,159221,1,0,0:0:0:0:
241,217,159271,1,0,0:0:0:0:
309,97,159387,1,0,0:0:0:0:
270,170,159421,1,0,0:0:0:0:
378,227,159687,1,0,0:0:0:0:
280,262,159737,1,0,0:0:0:0:
361,318,160037,1,0,0:0:0:0:
64,175,160104,1,0,0:0:0:0:
120,313,160387,1,0,0:0:0:0:
185,151,160421,1,0,0:0:0:0:
114,283,160571,1,0,0:0:0:0:
253,127,160621,1,0,0:0:0:0:
96,178,160771,1,0,0:0:0:0:
253,248,160787,1,0,0:0:0:0:
305,156,161021,1,0,0:0:0:0:
126,89,161054,1,0,0:0:0:0:
325,219,161287,1,0,0:0:0:0:
276,67,161304,1,0,0:0:0:0:
336,68,161621,1,0,0:0:0:0:
223,158,161637,1,0,0:0:0:0:
436,152,161771,1,0,0:0:0:0:
204,155,161837,1,0,0:0:0:0:
442,222,161954,1,0,0:0:0:0:
335,133,162021,1,0,0:0:0:0:
443,278,162137,1,0,0:0:0:0:
346,103,162187,1,0,0:0:0:0:
235,304,162437,1,0,0:0:0:0:
336,198,162537,1,0,0:0:0:0:
140,161,162837,1,0,0:0:0:0:
156,174,162904,1,0,0:0:0:0:
318,81,163021,1,0,0:0:0:0:
219,161,163087,1,0,0:0:0:0:
331,115,163204,1,0,0:0:0:0:
291,169,163254,1,0,0:0:0:0:
343,244,163387,1,0,0:0:0:0:
291,169,163421,1,0,0:0:0:0:
303,249,163554,1,0,0:0:0:0:
251,220,163604,1,0,0:0:0:0:
244,246,163804,1,0,0:0:0:0:
104,145,163821,1,0,0:0:0:0:
117,147,164071,1,0,0:0:0:0:
202,164,164104,1,0,0:0:0:0:
301,104,164404,1,0,0:0:0:0:
340,200,164571,1,0,0:0:0:0:
319,125,164587,1,0,0:0:0:0:
401,207,164737,1,0,0:0:0:0:
302,307,164754,1,0,0:0:0:0:
414,203,164921,1,0,0:0:0:0:
155,293,164937,1,0,0:0:0:0:
342,86,165237,1,0,0:0:0:0:
146,169,165271,1,0,0:0:0:0:
262,180,165571,1,0,0:0:0:0:
286,148,165587,1,0,0:0:0:0:
237,248,165921,1,0,0:0:0:0:
281,249,165954,1,0,0:0:0:0:
167,248,166121,1,0,0:0:0:0:
196,223,166154,1,0,0:0:0:0:
174,154,166304,1,0,0:0:0:0:
216,167,166337,1,0,0:0:0:0:
300,110,166521,1,0,0:0:0:0:
275,108,166571,1,0,0:0:0:0:
363,131,166837,1,0,0:0:0:0:
377,267,167154,1,0,0:0:0:0:
233,310,167187,1,0,0:0:0:0:
354,316,167337,1,0,0:0:0:0:
193,310,167371,1,0,0:0:0:0:
302,271,167504,1,0,0:0:0:0:
200,257,167537,1,0,0:0:0:0:
236,153,167704,1,0,0:0:0:0:
299,167,168021,1,0,0:0:0:0:
90,132,168037,1,0,0:0:0:0:
150,217,168354,1,0,0:0:0:0:
129,294,168554,1,0,0:0:0:0:
368,308,168721,1,0,0:0:0:0:
142,228,168737,1,0,0:0:0:0:
392,258,168887,1,0,0:0:0:0:
166,191,168904,1,0,0:0:0:0:
395,164,169087,1,0,0:0:0:0:
320,126,169321,1,0,0:0:0:0:
276,237,169571,1,0,0:0:0:0:
344,312,169587,1,0,0:0:0:0:
189,320,169904,1,0,0:0:0:0:
191,214,170087,1,0,0:0:0:0:
123,219,170104,1,0,0:0:0:0:
227,161,170237,1,0,0:0:0:0:
140,184,170287,1,0,0:0:0:0:
403,129,170421,1,0,0:0:0:0:
221,139,170454,1,0,0:0:0:0:
417,139,170754,1,0,0:0:0:0:
379,196,170787,1,0,0:0:0:0:
425,79,171071,1,0,0:0:0:0:
383,272,171087,1,0,0:0:0:0:
273,150,171454,1,0,0:0:0:0:
193,138,171637,1,0,0:0:0:0:
262,116,171654,1,0,0:0:0:0:
210,99,171804,1,0,0:0:0:0:
265,99,172037,1,0,0:0:0:0:
73,182,172087,1,0,0:0:0:0:
171,295,172304,1,0,0:0:0:0:
272,186,172321,1,0,0:0:0:0:
246,210,172687,1,0,0:0:0:0:
257,207,172837,1,0,0:0:0:0:
77,217,172871,1,0,0:0:0:0:
453,195,173004,1,0,0:0:0:0:
137,218,173054,1,0,0:0:0:0:
459,192,173187,1,0,0:0:0:0:
198,147,173204,1,0,0:0:0:0:
224,105,173521,1,0,0:0:0:0:
360,114,173537,1,0,0:0:0:0:
312,196,173871,1,0,0:0:0:0:
276,172,173921,1,0,0:0:0:0:
322,287,174037,1,0,0:0:0:0:
276,234,174104,1,0,0:0:0:0:
310,323,174187,1,0,0:0:0:0:
184,207,174287,1,0,0:0:0:0:
162,306,174371,1,0,0:0:0:0:
161,163,174454,1,0,0:0:0:0:
128,238,174571,1,0,0:0:0:0:
152,118,174621,1,0,0:0:0:0:
215,144,174821,1,0,0:0:0:0:
257,100,174871,1,0,0:0:0:0:
490,73,175087,1,0,0:0:0:0:
286,178,175221,1,0,0:0:0:0:
383,199,175437,1,0,0:0:0:0:
197,216,175521,1,0,0:0:0:0:
375,217,175604,1,0,0:0:0:0:
112,162,175737,1,0,0:0:0:0:
374,226,175771,1,0,0:0:0:0:
329,230,175937,1,0,0:0:0:0:
93,158,175971,1,0,0:0:0:0:
296,213,176254,1,0,0:0:0:0:
209,159,176304,1,0,0:0:0:0:
252,144,176621,1,0,0:0:0:0:
250,194,176637,1,0,0:0:0:0:
337,212,177204,1,0,0:0:0:0:
204,200,177254,1,0,0:0:0:0:
337,212,177387,1,0,0:0:0:0:
204,200,177437,1,0,0:0:0:0:
337,212,177554,1,0,0:0:0:0:
204,200,177637,1,0,0:0:0:0:
337,212,177771,1,0,0:0:0:0:
204,200,177821,1,0,0:0:0:0:
337,212,177904,1,0,0:0:0:0:
204,200,178004,1,0,0:0:0:0:
337,212,178087,1,0,0:0:0:0:
204,200,178187,1,0,0:0:0:0:
337,212,178237,1,0,0:0:0:0:
204,200,178354,1,0,0:0:0:0:
337,212,178371,1,0,0:0:0:0:
337,212,178537,1,0,0:0:0:0:
337,212,178671,1,0,0:0:0:0:
204,200,178721,1,0,0:0:0:0:
337,212,178804,1,0,0:0:0:0:
204,200,178854,1,0,0:0:0:0:
337,212,178937,1,0,0:0:0:0:
337,212,179021,1,0,0:0:0:0:
336,217,179154,1,0,0:0:0:0:
204,200,179171,1,0,0:0:0:0:
336,206,179304,1,0,0:0:0:0:
333,204,179437,1,0,0:0:0:0:
211,188,179521,1,0,0:0:0:0:
333,204,179554,1,0,0:0:0:0:
213,188,179671,1,0,0:0:0:0:
333,204,179687,1,0,0:0:0:0:
213,190,179821,1,0,0:0:0:0:
333,204,179904,1,0,0:0:0:0:
213,191,179987,1,0,0:0:0:0:
333,204,180087,1,0,0:0:0:0:
213,191,180121,1,0,0:0:0:0:
326,200,180254,1,0,0:0:0:0:
213,191,180271,1,0,0:0:0:0:
326,200,180421,1,0,0:0:0:0:
326,200,180554,1,0,0:0:0:0:
213,188,180604,1,0,0:0:0:0:
326,199,180721,1,0,0:0:0:0:
213,190,180754,1,0,0:0:0:0:
322,190,180871,1,0,0:0:0:0:
213,191,180921,1,0,0:0:0:0:
319,186,181037,1,0,0:0:0:0:
213,191,181087,1,0,0:0:0:0:
319,185,181187,1,0,0:0:0:0:
213,191,181254,1,0,0:0:0:0:
318,182,181371,1,0,0:0:0:0:
213,190,181421,1,0,0:0:0:0:
318,182,181504,1,0,0:0:0:0:
213,190,181587,1,0,0:0:0:0:
316,179,181687,1,0,0:0:0:0:
213,191,181737,1,0,0:0:0:0:
316,178,181837,1,0,0:0:0:0:
213,191,181871,1,0,0:0:0:0:
311,174,181971,1,0,0:0:0:0:
215,193,182021,1,0,0:0:0:0:
215,193,182104,1,0,0:0:0:0:
307,168,182121,1,0,0:0:0:0:
213,191,182237,1,0,0:0:0:0:
307,168,182304,1,0,0:0:0:0:
216,193,182404,1,0,0:0:0:0:
307,168,182471,1,0,0:0:0:0:
216,193,182587,1,0,0:0:0:0:
305,168,182654,1,0,0:0:0:0:
216,193,182754,1,0,0:0:0:0:
305,167,182837,1,0,0:0:0:0:
215,193,182954,1,0,0:0:0:0:
303,165,183021,1,0,0:0:0:0:
215,193,183137,1,0,0:0:0:0:
300,162,183154,1,0,0:0:0:0:
216,193,183304,1,0,0:0:0:0:
300,162,183354,1,0,0:0:0:0:
216,193,183504,1,0,0:0:0:0:
299,162,183537,1,0,0:0:0:0:
299,160,183671,1,0,0:0:0:0:
216,193,183687,1,0,0:0:0:0:
299,154,183837,1,0,0:0:0:0:
215,193,183871,1,0,0:0:0:0:
299,153,184004,1,0,0:0:0:0:
215,193,184021,1,0,0:0:0:0:
299,152,184187,1,0,0:0:0:0:
216,193,184204,1,0,0:0:0:0:
299,152,184337,1,0,0:0:0:0:
216,193,184387,1,0,0:0:0:0:
299,149,184487,1,0,0:0:0:0:
216,193,184571,1,0,0:0:0:0:
299,147,184654,1,0,0:0:0:0:
215,193,184737,1,0,0:0:0:0:
297,141,184804,1,0,0:0:0:0:
215,193,184871,1,0,0:0:0:0:
296,141,184954,1,0,0:0:0:0:
216,193,185021,1,0,0:0:0:0:
296,140,185137,1,0,0:0:0:0:
216,193,185187,1,0,0:0:0:0:
295,139,185304,1,0,0:0:0:0:
216,193,185404,1,0,0:0:0:0:
295,138,185454,1,0,0:0:0:0:
215,193,185571,1,0,0:0:0:0:
295,138,185654,1,0,0:0:0:0:
215,193,185771,1,0,0:0:0:0:
297,141,185804,1,0,0:0:0:0:
296,141,185954,1,0,0:0:0:0:
216,193,185987,1,0,0:0:0:0:
296,140,186104,1,0,0:0:0:0:
216,193,186154,1,0,0:0:0:0:
288,132,186287,1,0,0:0:0:0:
216,193,186337,1,0,0:0:0:0:
288,130,186454,1,0,0:0:0:0:
215,193,186537,1,0,0:0:0:0:
288,129,186621,1,0,0:0:0:0:
215,193,186737,1,0,0:0:0:0:
291,128,186771,1,0,0:0:0:0:
295,127,186937,1,0,0:0:0:0:
298,126,187121,1,0,0:0:0:0:
298,126,187304,1,0,0:0:0:0:
216,193,187337,1,0,0:0:0:0:
400,88,187621,1,0,0:0:0:0:
225,136,187687,1,0,0:0:0:0:
365,162,188137,1,0,0:0:0:0:
313,80,188154,1,0,0:0:0:0:
311,151,188387,1,0,0:0:0:0:
369,156,188554,1,0,0:0:0:0:
184,160,188654,1,0,0:0:0:0:
306,202,188687,1,0,0:0:0:0:
203,212,188854,1,0,0:0:0:0:
332,151,188971,1,0,0:0:0:0:
342,141,189021,1,0,0:0:0:0:
305,79,189054,1,0,0:0:0:0:
295,298,189571,1,0,0:0:0:0:
328,185,189587,1,0,0:0:0:0:
239,266,189721,1,0,0:0:0:0:
332,178,189737,1,0,0:0:0:0:
334,173,190037,1,0,0:0:0:0:
200,123,190071,1,0,0:0:0:0:
212,152,190404,1,0,0:0:0:0:
276,148,190421,1,0,0:0:0:0:
433,57,190871,1,0,0:0:0:0:
83,199,190904,1,0,0:0:0:0:
152,139,190921,1,0,0:0:0:0:
308,149,191371,1,0,0:0:0:0:
298,175,191387,1,0,0:0:0:0:
196,215,192171,1,0,0:0:0:0:
354,187,192204,1,0,0:0:0:0:
136,118,192237,1,0,0:0:0:0:
303,73,192704,1,0,0:0:0:0:
361,155,192721,1,0,0:0:0:0:
231,229,192737,1,0,0:0:0:0:
231,229,193121,1,0,0:0:0:0:
367,164,193137,1,0,0:0:0:0:
232,205,193154,1,0,0:0:0:0:
345,205,193637,1,0,0:0:0:0:
349,141,193687,1,0,0:0:0:0:
358,193,194054,1,0,0:0:0:0:
198,241,194121,1,0,0:0:0:0:
358,193,194504,1,0,0:0:0:0:
313,133,194521,1,0,0:0:0:0:
311,190,194854,1,0,0:0:0:0:
274,248,195021,1,0,0:0:0:0:
347,182,195071,1,0,0:0:0:0:
251,187,195237,1,0,0:0:0:0:
251,187,195387,1,0,0:0:0:0:
269,139,195521,1,0,0:0:0:0:
251,187,195537,1,0,0:0:0:0:
251,187,195671,1,0,0:0:0:0:
227,237,195821,1,0,0:0:0:0:
251,187,195837,1,0,0:0:0:0:
262,141,195854,1,0,0:0:0:0:
139,194,195887,1,0,0:0:0:0:
276,144,195971,1,0,0:0:0:0:
251,187,195987,1,0,0:0:0:0:
251,205,196037,1,0,0:0:0:0:
314,162,196087,1,0,0:0:0:0:
251,187,196104,1,0,0:0:0:0:
251,205,196171,1,0,0:0:0:0:
251,187,196221,1,0,0:0:0:0:
330,154,196237,1,0,0:0:0:0:
336,155,196371,1,0,0:0:0:0:
335,166,196487,1,0,0:0:0:0:
251,187,196504,1,0,0:0:0:0:
331,172,196621,1,0,0:0:0:0:
251,187,196654,1,0,0:0:0:0:
251,205,196721,1,0,0:0:0:0:
334,162,196737,1,0,0:0:0:0:
251,187,196787,1,0,0:0:0:0:
334,162,196871,1,0,0:0:0:0:
251,187,196954,1,0,0:0:0:0:
335,162,197004,1,0,0:0:0:0:
251,187,197087,1,0,0:0:0:0:
335,162,197121,1,0,0:0:0:0:
251,187,197187,1,0,0:0:0:0:
335,162,197254,1,0,0:0:0:0:
251,187,197337,1,0,0:0:0:0:
253,187,197454,1,0,0:0:0:0:
253,187,197587,1,0,0:0:0:0:
262,223,197621,1,0,0:0:0:0:
262,224,197737,1,0,0:0:0:0:
356,52,198671,1,0,0:0:0:0:
221,136,198704,1,0,0:0:0:0:
233,91,198981,1,0,0:0:0:0:
351,56,199026,1,0,0:0:0:0:
235,112,199161,1,0,0:0:0:0:
343,106,199191,1,0,0:0:0:0:
393,126,199326,1,0,0:0:0:0:
283,172,199386,1,0,0:0:0:0:
405,104,199641,1,0,0:0:0:0:
10,61,199686,1,0,0:0:0:0:
310,202,199926,1,0,0:0:0:0:
138,126,199971,1,0,0:0:0:0:
163,137,200181,1,0,0:0:0:0:
174,228,200301,1,0,0:0:0:0:
149,168,200361,1,0,0:0:0:0:
271,247,200481,1,0,0:0:0:0:
186,175,200526,1,0,0:0:0:0:
315,195,200646,1,0,0:0:0:0:
244,126,200676,1,0,0:0:0:0:
316,175,200811,1,0,0:0:0:0:
288,61,201006,1,0,0:0:0:0:
178,133,201111,1,0,0:0:0:0:
249,239,201396,1,0,0:0:0:0:
261,237,201441,1,0,0:0:0:0:
231,231,201546,1,0,0:0:0:0:
294,223,201621,1,0,0:0:0:0:
213,207,201711,1,0,0:0:0:0:
295,214,201786,1,0,0:0:0:0:
251,212,201891,1,0,0:0:0:0:
243,167,201966,1,0,0:0:0:0:
251,212,202056,1,0,0:0:0:0:
95,182,202131,1,0,0:0:0:0:
258,204,202221,1,0,0:0:0:0:
166,231,202356,1,0,0:0:0:0:
298,176,202506,1,0,0:0:0:0:
199,127,202551,1,0,0:0:0:0:
352,174,202731,1,0,0:0:0:0:
304,170,202791,1,0,0:0:0:0:
222,209,203076,1,0,0:0:0:0:
222,209,203121,1,0,0:0:0:0:
207,195,203226,1,0,0:0:0:0:
211,211,203256,1,0,0:0:0:0:
208,161,203391,1,0,0:0:0:0:
191,197,203421,1,0,0:0:0:0:
316,148,203556,1,0,0:0:0:0:
186,195,203586,1,0,0:0:0:0:
362,112,203841,1,0,0:0:0:0:
256,163,203886,1,0,0:0:0:0:
332,246,204201,1,0,0:0:0:0:
305,133,204231,1,0,0:0:0:0:
160,174,204546,1,0,0:0:0:0:
91,209,204621,1,0,0:0:0:0:
151,225,204726,1,0,0:0:0:0:
188,252,204786,1,0,0:0:0:0:
266,201,204906,1,0,0:0:0:0:
301,208,204951,1,0,0:0:0:0:
278,160,205101,1,0,0:0:0:0:
317,161,205266,1,0,0:0:0:0:
321,186,205281,1,0,0:0:0:0:
321,231,205461,1,0,0:0:0:0:
311,232,205551,1,0,0:0:0:0:
297,239,205641,1,0,0:0:0:0:
229,226,205836,1,0,0:0:0:0:
157,193,205851,1,0,0:0:0:0:
129,142,206001,1,0,0:0:0:0:
203,222,206016,1,0,0:0:0:0:
179,199,206196,1,0,0:0:0:0:
123,145,206361,1,0,0:0:0:0:
242,146,206376,1,0,0:0:0:0:
325,134,206586,1,0,0:0:0:0:
287,113,206616,1,0,0:0:0:0:
321,245,206961,1,0,0:0:0:0:
359,169,206991,1,0,0:0:0:0:
210,236,207141,1,0,0:0:0:0:
299,257,207291,1,0,0:0:0:0:
186,217,207321,1,0,0:0:0:0:
217,237,207471,1,0,0:0:0:0:
151,167,207486,1,0,0:0:0:0:
211,115,207651,1,0,0:0:0:0:
185,222,207666,1,0,0:0:0:0:
240,211,207876,1,0,0:0:0:0:
354,100,207951,1,0,0:0:0:0:
267,203,208056,1,0,0:0:0:0:
421,297,208266,1,0,0:0:0:0:
366,128,208371,1,0,0:0:0:0:
97,240,208536,1,0,0:0:0:0:
365,201,208596,1,0,0:0:0:0:
88,237,208716,1,0,0:0:0:0:
283,227,208791,1,0,0:0:0:0:
197,56,208881,1,0,0:0:0:0:
227,226,208941,1,0,0:0:0:0:
206,37,209031,1,0,0:0:0:0:
177,147,209331,1,0,0:0:0:0:
314,122,209376,1,0,0:0:0:0:
325,123,209676,1,0,0:0:0:0:
314,222,209706,1,0,0:0:0:0:
278,161,210066,1,0,0:0:0:0:
278,161,210231,1,0,0:0:0:0:
267,162,210411,1,0,0:0:0:0:
232,166,210426,1,0,0:0:0:0:
259,155,210651,1,0,0:0:0:0:
302,122,210666,1,0,0:0:0:0:
258,157,210936,1,0,0:0:0:0:
162,147,211251,1,0,0:0:0:0:
65,145,211281,1,0,0:0:0:0:
231,274,211431,1,0,0:0:0:0:
173,155,211446,1,0,0:0:0:0:
366,174,211611,1,0,0:0:0:0:
185,131,211626,1,0,0:0:0:0:
369,118,211761,1,0,0:0:0:0:
320,231,211791,1,0,0:0:0:0:
183,345,212091,1,0,0:0:0:0:
328,155,212136,1,0,0:0:0:0:
47,207,212421,1,0,0:0:0:0:
246,305,212466,1,0,0:0:0:0:
181,241,212601,1,0,0:0:0:0:
211,270,212631,1,0,0:0:0:0:
219,213,212781,1,0,0:0:0:0:
206,251,212796,1,0,0:0:0:0:
228,197,212946,1,0,0:0:0:0:
246,209,212976,1,0,0:0:0:0:
331,202,213126,1,0,0:0:0:0:
245,169,213156,1,0,0:0:0:0:
364,160,213366,1,0,0:0:0:0:
84,109,213381,1,0,0:0:0:0:
354,292,213651,1,0,0:0:0:0:
157,223,213666,1,0,0:0:0:0:
162,186,213981,1,0,0:0:0:0:
185,197,214161,1,0,0:0:0:0:
257,157,214326,1,0,0:0:0:0:
279,124,214506,1,0,0:0:0:0:
301,169,214851,1,0,0:0:0:0:
205,30,214866,1,0,0:0:0:0:
282,178,215196,1,0,0:0:0:0:
130,174,215226,1,0,0:0:0:0:
92,203,215571,1,0,0:0:0:0:
296,234,215751,1,0,0:0:0:0:
307,195,215916,1,0,0:0:0:0:
298,208,215946,1,0,0:0:0:0:
294,152,216186,1,0,0:0:0:0:
286,247,216456,1,0,0:0:0:0:
179,239,216471,1,0,0:0:0:0:
383,198,216756,1,0,0:0:0:0:
191,45,216801,1,0,0:0:0:0:
392,183,216936,1,0,0:0:0:0:
147,113,216966,1,0,0:0:0:0:
387,169,217131,1,0,0:0:0:0:
149,269,217161,1,0,0:0:0:0:
362,336,217326,1,0,0:0:0:0:
224,232,217611,1,0,0:0:0:0:
449,108,217656,1,0,0:0:0:0:
145,150,217956,1,0,0:0:0:0:
221,268,217971,1,0,0:0:0:0:
227,241,218121,1,0,0:0:0:0:
76,194,218136,1,0,0:0:0:0:
227,241,218286,1,0,0:0:0:0:
77,262,218301,1,0,0:0:0:0:
227,241,218436,1,0,0:0:0:0:
155,270,218481,1,0,0:0:0:0:
227,240,218601,1,0,0:0:0:0:
215,205,218616,1,0,0:0:0:0:
227,241,218736,1,0,0:0:0:0:
215,205,218766,1,0,0:0:0:0:
228,236,218886,1,0,0:0:0:0:
215,205,218916,1,0,0:0:0:0:
228,236,219006,1,0,0:0:0:0:
210,202,219066,1,0,0:0:0:0:
227,241,219156,1,0,0:0:0:0:
210,202,219216,1,0,0:0:0:0:
227,241,219306,1,0,0:0:0:0:
210,203,219351,1,0,0:0:0:0:
227,241,219426,1,0,0:0:0:0:
210,204,219486,1,0,0:0:0:0:
227,240,219516,1,0,0:0:0:0:
210,202,219621,1,0,0:0:0:0:
227,240,219666,1,0,0:0:0:0:
209,201,219726,1,0,0:0:0:0:
232,234,219801,1,0,0:0:0:0:
207,199,219846,1,0,0:0:0:0:
235,239,219951,1,0,0:0:0:0:
206,197,219966,1,0,0:0:0:0:
235,242,220071,1,0,0:0:0:0:
207,195,220086,1,0,0:0:0:0:
206,196,220221,1,0,0:0:0:0:
204,197,220326,1,0,0:0:0:0:
237,232,220341,1,0,0:0:0:0:
204,187,220461,1,0,0:0:0:0:
240,235,220491,1,0,0:0:0:0:
204,188,220596,1,0,0:0:0:0:
311,284,220671,1,0,0:0:0:0:
211,182,220731,1,0,0:0:0:0:
324,248,220851,1,0,0:0:0:0:
298,107,221061,1,0,0:0:0:0:
325,152,221106,1,0,0:0:0:0:
367,357,221196,1,0,0:0:0:0:
323,147,221286,1,0,0:0:0:0:
202,285,221376,1,0,0:0:0:0:
307,143,221451,1,0,0:0:0:0:
240,217,221541,1,0,0:0:0:0:
311,146,221616,1,0,0:0:0:0:
276,151,221721,1,0,0:0:0:0:
325,146,221781,1,0,0:0:0:0:
106,234,221871,1,0,0:0:0:0:
324,170,221946,1,0,0:0:0:0:
46,255,222006,1,0,0:0:0:0:
229,96,222321,1,0,0:0:0:0:
138,76,222336,1,0,0:0:0:0:
244,204,222471,1,0,0:0:0:0:
243,205,222501,1,0,0:0:0:0:
284,184,222666,1,0,0:0:0:0:
291,150,222816,1,0,0:0:0:0:
367,291,222831,1,0,0:0:0:0:
361,297,223116,1,0,0:0:0:0:
289,113,223161,1,0,0:0:0:0:
361,296,223296,1,0,0:0:0:0:
317,165,223536,1,0,0:0:0:0:
183,242,223566,1,0,0:0:0:0:
282,327,223731,1,0,0:0:0:0:
183,242,223881,1,0,0:0:0:0:
301,173,223896,1,0,0:0:0:0:
205,242,223911,1,0,0:0:0:0:
191,241,224031,1,0,0:0:0:0:
280,186,224061,1,0,0:0:0:0:
206,191,224076,1,0,0:0:0:0:
208,232,224196,1,0,0:0:0:0:
245,126,224316,1,0,0:0:0:0:
225,219,224376,1,0,0:0:0:0:
245,126,224466,1,0,0:0:0:0:
239,209,224541,1,0,0:0:0:0:
245,126,224616,1,0,0:0:0:0:
271,180,224706,1,0,0:0:0:0:
245,126,224781,1,0,0:0:0:0:
274,218,225021,1,0,0:0:0:0:
259,265,225201,1,0,0:0:0:0:
280,185,225216,1,0,0:0:0:0:
279,166,225396,1,0,0:0:0:0:
163,262,225426,1,0,0:0:0:0:
227,207,225546,1,0,0:0:0:0:
132,180,225591,1,0,0:0:0:0:
334,146,225846,1,0,0:0:0:0:
372,47,225876,1,0,0:0:0:0:
386,153,226266,1,0,0:0:0:0:
250,140,226581,1,0,0:0:0:0:
326,211,226611,1,0,0:0:0:0:
287,162,226761,1,0,0:0:0:0:
303,220,226806,1,0,0:0:0:0:
277,218,226941,1,0,0:0:0:0:
256,206,227121,1,0,0:0:0:0:
256,206,227271,1,0,0:0:0:0:
295,144,227286,1,0,0:0:0:0:
254,198,227421,1,0,0:0:0:0:
296,143,227436,1,0,0:0:0:0:
365,103,227691,1,0,0:0:0:0:
265,202,227811,1,0,0:0:0:0:
305,228,227946,1,0,0:0:0:0:
412,205,228051,1,0,0:0:0:0:
332,157,228126,1,0,0:0:0:0:
378,218,228216,1,0,0:0:0:0:
270,93,228261,1,0,0:0:0:0:
311,199,228381,1,0,0:0:0:0:
227,216,228606,1,0,0:0:0:0:
47,137,228696,1,0,0:0:0:0:
176,232,228786,1,0,0:0:0:0:
185,181,228936,1,0,0:0:0:0:
161,225,229056,1,0,0:0:0:0:
341,137,229191,1,0,0:0:0:0:
230,173,229251,1,0,0:0:0:0:
356,201,229371,1,0,0:0:0:0:
230,163,229431,1,0,0:0:0:0:
236,236,229566,1,0,0:0:0:0:
227,159,229686,1,0,0:0:0:0:
158,264,229716,1,0,0:0:0:0:
226,162,229836,1,0,0:0:0:0:
283,220,229911,1,0,0:0:0:0:
226,162,230016,1,0,0:0:0:0:
250,178,230091,1,0,0:0:0:0:
217,157,230181,1,0,0:0:0:0:
205,272,230256,1,0,0:0:0:0:
313,165,230496,1,0,0:0:0:0:
271,124,230586,1,0,0:0:0:0:
423,244,230706,1,0,0:0:0:0:
353,191,230781,1,0,0:0:0:0:
357,286,230871,1,0,0:0:0:0:
313,105,230946,1,0,0:0:0:0:
262,267,231036,1,0,0:0:0:0:
261,140,231126,1,0,0:0:0:0:
257,140,231276,1,0,0:0:0:0:
191,188,231396,1,0,0:0:0:0:
226,134,231456,1,0,0:0:0:0:
216,135,231621,1,0,0:0:0:0:
243,204,231801,1,0,0:0:0:0:
302,70,231876,1,0,0:0:0:0:
296,192,232116,1,0,0:0:0:0:
286,173,232146,1,0,0:0:0:0:
294,240,232311,1,0,0:0:0:0:
264,167,232341,1,0,0:0:0:0:
243,212,232506,1,0,0:0:0:0:
63,67,232521,1,0,0:0:0:0:
159,143,232716,1,0,0:0:0:0:
205,160,232761,1,0,0:0:0:0:
214,160,232941,1,0,0:0:0:0:
219,217,233016,1,0,0:0:0:0:
219,217,233166,1,0,0:0:0:0:
260,175,233331,1,0,0:0:0:0:
272,177,233451,1,0,0:0:0:0:
264,172,233481,1,0,0:0:0:0:
332,197,233601,1,0,0:0:0:0:
256,169,233661,1,0,0:0:0:0:
304,239,233781,1,0,0:0:0:0:
208,165,233826,1,0,0:0:0:0:
296,241,233916,1,0,0:0:0:0:
168,127,234156,1,0,0:0:0:0:
205,121,234216,1,0,0:0:0:0:
230,238,234516,1,0,0:0:0:0:
153,218,234591,1,0,0:0:0:0:
283,213,234696,1,0,0:0:0:0:
277,142,234891,1,0,0:0:0:0:
290,144,235056,1,0,0:0:0:0:
302,137,235251,1,0,0:0:0:0:
218,173,235416,1,0,0:0:0:0:
302,137,235431,1,0,0:0:0:0:
219,168,235566,1,0,0:0:0:0:
301,137,235581,1,0,0:0:0:0:
234,162,235731,1,0,0:0:0:0:
298,136,235761,1,0,0:0:0:0:
274,217,236046,1,0,0:0:0:0:
370,300,236211,1,0,0:0:0:0:
211,217,236256,1,0,0:0:0:0:
287,273,236406,1,0,0:0:0:0:
185,152,236421,1,0,0:0:0:0:
231,214,236586,1,0,0:0:0:0:
263,98,236616,1,0,0:0:0:0:
374,89,236931,1,0,0:0:0:0:
266,151,236961,1,0,0:0:0:0:
297,227,237291,1,0,0:0:0:0:
183,197,237336,1,0,0:0:0:0:
60,175,237636,1,0,0:0:0:0:
177,187,237666,1,0,0:0:0:0:
146,173,237816,1,0,0:0:0:0:
178,186,237846,1,0,0:0:0:0:
185,184,238026,1,0,0:0:0:0:
147,164,238056,1,0,0:0:0:0:
185,184,238176,1,0,0:0:0:0:
146,162,238236,1,0,0:0:0:0:
185,184,238341,1,0,0:0:0:0:
146,162,238386,1,0,0:0:0:0:
185,183,238506,1,0,0:0:0:0:
146,162,238566,1,0,0:0:0:0:
253,214,238881,1,0,0:0:0:0:
179,150,239031,1,0,0:0:0:0:
246,331,239061,1,0,0:0:0:0:
153,184,239211,1,0,0:0:0:0:
192,297,239226,1,0,0:0:0:0:
173,267,239376,1,0,0:0:0:0:
153,184,239391,1,0,0:0:0:0:
306,128,239706,1,0,0:0:0:0:
241,133,239721,1,0,0:0:0:0:
263,197,240066,1,0,0:0:0:0:
246,225,240231,1,0,0:0:0:0:
163,213,240291,1,0,0:0:0:0:
268,203,240411,1,0,0:0:0:0:
156,184,240456,1,0,0:0:0:0:
268,204,240591,1,0,0:0:0:0:
156,165,240621,1,0,0:0:0:0:
276,192,240771,1,0,0:0:0:0:
156,165,240801,1,0,0:0:0:0:
276,192,240936,1,0,0:0:0:0:
156,165,240966,1,0,0:0:0:0:
276,192,241071,1,0,0:0:0:0:
156,165,241146,1,0,0:0:0:0:
276,192,241206,1,0,0:0:0:0:
156,165,241296,1,0,0:0:0:0:
276,192,241326,1,0,0:0:0:0:
274,188,241446,1,0,0:0:0:0:
272,191,241551,1,0,0:0:0:0:
156,165,241581,1,0,0:0:0:0:
276,192,241686,1,0,0:0:0:0:
156,165,241731,1,0,0:0:0:0:
271,193,241776,1,0,0:0:0:0:
271,193,241866,1,0,0:0:0:0:
156,165,241941,1,0,0:0:0:0:
271,194,242001,1,0,0:0:0:0:
156,165,242076,1,0,0:0:0:0:
276,192,242136,1,0,0:0:0:0:
156,165,242181,1,0,0:0:0:0:
276,192,242271,1,0,0:0:0:0:
279,193,242406,1,0,0:0:0:0:
279,193,242526,1,0,0:0:0:0:
163,167,242631,1,0,0:0:0:0:
283,187,242661,1,0,0:0:0:0:
163,167,242721,1,0,0:0:0:0:
283,187,242826,1,0,0:0:0:0:
163,160,242841,1,0,0:0:0:0:
295,93,243141,1,0,0:0:0:0:
283,187,243156,1,0,0:0:0:0:
284,198,243741,1,0,0:0:0:0:
186,171,243786,1,0,0:0:0:0:
289,170,244176,1,0,0:0:0:0:
284,200,244221,1,0,0:0:0:0:
284,198,244716,1,0,0:0:0:0:
198,238,244746,1,0,0:0:0:0:
284,200,244866,1,0,0:0:0:0:
198,238,244896,1,0,0:0:0:0:
284,200,245211,1,0,0:0:0:0:
265,138,245256,1,0,0:0:0:0:
289,187,245571,1,0,0:0:0:0:
265,255,245586,1,0,0:0:0:0:
291,184,246111,1,0,0:0:0:0:
148,154,246126,1,0,0:0:0:0:
292,179,246576,1,0,0:0:0:0:
287,175,246621,1,0,0:0:0:0:
291,199,247431,1,0,0:0:0:0:
165,196,247446,1,0,0:0:0:0:
291,199,247911,1,0,0:0:0:0:
360,106,247956,1,0,0:0:0:0:
298,199,248316,1,0,0:0:0:0:
281,257,248376,1,0,0:0:0:0:
299,202,248916,1,0,0:0:0:0:
299,202,249396,1,0,0:0:0:0:
299,202,249741,1,0,0:0:0:0:
246,222,249756,1,0,0:0:0:0:
297,117,250281,1,0,0:0:0:0:
302,204,250296,1,0,0:0:0:0:
302,204,250446,1,0,0:0:0:0:
344,243,250746,1,0,0:0:0:0:
346,180,250776,1,0,0:0:0:0:
403,104,251091,1,0,0:0:0:0:
346,102,251601,1,0,0:0:0:0:
153,200,251661,1,0,0:0:0:0:
164,167,252096,1,0,0:0:0:0:
252,102,252156,1,0,0:0:0:0:
289,228,252921,1,0,0:0:0:0:
319,132,252936,1,0,0:0:0:0:
78,127,253431,1,0,0:0:0:0:
215,206,253461,1,0,0:0:0:0:
346,64,253821,1,0,0:0:0:0:
378,94,253866,1,0,0:0:0:0:
142,191,254376,1,0,0:0:0:0:
254,203,254421,1,0,0:0:0:0:
399,164,254826,1,0,0:0:0:0:
311,147,254871,1,0,0:0:0:0:
206,185,255276,1,0,0:0:0:0:
185,111,255771,1,0,0:0:0:0:
236,112,255936,1,0,0:0:0:0:
286,111,256251,1,0,0:0:0:0:
326,136,256566,1,0,0:0:0:0:
201,168,257106,1,0,0:0:0:0:
372,97,257616,1,0,0:0:0:0:
296,244,258486,1,0,0:0:0:0:
318,97,258981,1,0,0:0:0:0:
182,180,259356,1,0,0:0:0:0:
276,165,259941,1,0,0:0:0:0:
249,250,260376,1,0,0:0:0:0:
152,215,260781,1,0,0:0:0:0:
311,128,261246,1,0,0:0:0:0:
318,146,261426,1,0,0:0:0:0:
306,254,261771,1,0,0:0:0:0:
192,187,262116,1,0,0:0:0:0:
