osu file format v14

[General]
AudioFilename: audio.mp3
AudioLeadIn: 0
PreviewTime: -1
Countdown: 1
SampleSet: None
StackLeniency: 0.7
Mode: 0
LetterboxInBreaks: 0
WidescreenStoryboard: 1

[Editor]
DistanceSpacing: 0.5
BeatDivisor: 4
GridSize: 16
TimelineZoom: 1

[Metadata]
Title:Deception Dive
TitleUnicode:Deception Dive
Artist:Bestrong
ArtistUnicode:Bestrong
Creator:BestrongGD
Version:Psychopath
Source:Newgronds
Tags:
BeatmapID:1474373
BeatmapSetID:688760

[Difficulty]
HPDrainRate:10
CircleSize:7
OverallDifficulty:10
ApproachRate:10
SliderMultiplier:1.4
SliderTickRate:1

[Events]
//Background and Video events
0,0,"maxresdefault (4).jpg",0,0
//Break Periods
2,65060,65745
//Storyboard Layer 0 (Background)
//Storyboard Layer 1 (Fail)
//Storyboard Layer 2 (Pass)
//Storyboard Layer 3 (Foreground)
//Storyboard Sound Samples

[TimingPoints]
0,60,4,1,0,100,1,0
110321,40,4,1,0,100,1,0
198771,30,4,1,0,100,1,0

[Colours]
Combo1 : 64,0,128
Combo2 : 64,0,128

[HitObjects]
112,208,255,5,0,0:0:0:0:
224,208,570,1,0,0:0:0:0:
369,263,720,5,0,0:0:0:0:
192,160,870,5,0,0:0:0:0:
336,176,945,1,0,0:0:0:0:
395,247,1095,1,0,0:0:0:0:
208,256,1110,1,0,0:0:0:0:
80,128,1335,1,0,0:0:0:0:
352,112,1395,1,0,0:0:0:0:
221,223,1425,1,0,0:0:0:0:
288,272,1680,1,0,0:0:0:0:
432,176,1755,1,0,0:0:0:0:
315,180,1770,1,0,0:0:0:0:
112,128,1995,1,0,0:0:0:0:
288,272,2115,1,0,0:0:0:0:
221,275,2130,1,0,0:0:0:0:
224,240,2340,1,0,0:0:0:0:
371,168,2475,1,0,0:0:0:0:
32,160,2505,1,0,0:0:0:0:
368,80,2655,1,0,0:0:0:0:
304,128,2790,1,0,0:0:0:0:
257,217,2865,1,0,0:0:0:0:
336,208,3015,1,0,0:0:0:0:
179,182,3045,1,0,0:0:0:0:
384,208,3165,1,0,0:0:0:0:
322,224,3195,1,0,0:0:0:0:
224,80,3345,1,0,0:0:0:0:
303,163,3375,1,0,0:0:0:0:
432,144,3555,1,0,0:0:0:0:
288,240,3690,1,0,0:0:0:0:
424,191,3720,1,0,0:0:0:0:
320,256,3870,1,0,0:0:0:0:
400,96,3990,1,0,0:0:0:0:
285,306,4095,1,0,0:0:0:0:
80,128,4230,1,0,0:0:0:0:
320,272,4365,1,0,0:0:0:0:
161,197,4440,1,0,0:0:0:0:
400,144,4590,1,0,0:0:0:0:
112,192,4740,1,0,0:0:0:0:
331,170,4860,1,0,0:0:0:0:
480,208,4950,1,0,0:0:0:0:
272,224,5115,1,0,0:0:0:0:
178,221,5280,1,0,0:0:0:0:
464,112,5295,1,0,0:0:0:0:
352,80,5490,1,0,0:0:0:0:
215,119,5550,1,0,0:0:0:0:
416,224,5625,1,0,0:0:0:0:
320,224,5835,1,0,0:0:0:0:
386,167,5910,1,0,0:0:0:0:
176,160,5955,1,0,0:0:0:0:
160,96,6180,1,0,0:0:0:0:
153,264,6270,1,0,0:0:0:0:
16,160,6345,1,0,0:0:0:0:
144,240,6540,1,0,0:0:0:0:
210,113,6585,1,0,0:0:0:0:
192,112,6645,1,0,0:0:0:0:
256,96,6885,1,0,0:0:0:0:
352,204,6930,1,0,0:0:0:0:
336,240,6990,1,0,0:0:0:0:
304,224,7230,1,0,0:0:0:0:
203,364,7290,1,0,0:0:0:0:
448,128,7335,1,0,0:0:0:0:
176,144,7575,1,0,0:0:0:0:
191,168,7620,1,0,0:0:0:0:
400,224,7650,1,0,0:0:0:0:
176,256,7905,1,0,0:0:0:0:
176,128,7965,1,0,0:0:0:0:
363,179,7995,1,0,0:0:0:0:
352,96,8235,1,0,0:0:0:0:
384,192,8325,1,0,0:0:0:0:
231,309,8355,1,0,0:0:0:0:
320,240,8595,1,0,0:0:0:0:
132,197,8640,1,0,0:0:0:0:
192,192,8895,1,0,0:0:0:0:
192,128,8940,1,0,0:0:0:0:
361,147,9000,1,0,0:0:0:0:
144,256,9285,1,0,0:0:0:0:
384,176,9300,1,0,0:0:0:0:
232,227,9435,1,0,0:0:0:0:
304,128,9615,1,0,0:0:0:0:
420,156,9765,1,0,0:0:0:0:
320,240,9975,1,0,0:0:0:0:
309,241,10095,1,0,0:0:0:0:
208,176,10215,1,0,0:0:0:0:
160,128,10320,1,0,0:0:0:0:
346,172,10515,1,0,0:0:0:0:
192,224,10695,1,0,0:0:0:0:
304,160,10725,1,0,0:0:0:0:
333,188,10830,1,0,0:0:0:0:
272,96,11025,1,0,0:0:0:0:
279,185,11115,1,0,0:0:0:0:
80,160,11580,1,0,0:0:0:0:
384,192,11595,1,0,0:0:0:0:
244,117,11610,1,0,0:0:0:0:
208,192,12045,1,0,0:0:0:0:
335,118,12060,1,0,0:0:0:0:
144,192,12090,1,0,0:0:0:0:
432,112,12375,1,0,0:0:0:0:
176,193,12405,1,0,0:0:0:0:
128,144,12480,1,0,0:0:0:0:
256,192,12945,1,0,0:0:0:0:
330,194,12960,1,0,0:0:0:0:
192,240,12975,1,0,0:0:0:0:
256,192,13080,1,0,0:0:0:0:
330,194,13110,1,0,0:0:0:0:
160,224,13155,1,0,0:0:0:0:
160,128,13425,1,0,0:0:0:0:
170,144,13470,1,0,0:0:0:0:
144,128,13500,1,0,0:0:0:0:
396,103,13815,1,0,0:0:0:0:
352,96,13830,1,0,0:0:0:0:
176,180,14310,1,0,0:0:0:0:
208,240,14340,1,0,0:0:0:0:
192,208,14385,1,0,0:0:0:0:
304,133,14805,1,0,0:0:0:0:
288,192,14835,1,0,0:0:0:0:
128,192,14865,1,0,0:0:0:0:
186,203,15630,1,0,0:0:0:0:
384,192,15645,1,0,0:0:0:0:
96,128,15675,1,0,0:0:0:0:
312,167,16110,1,0,0:0:0:0:
128,192,16170,1,0,0:0:0:0:
400,96,16515,1,0,0:0:0:0:
423,102,16545,1,0,0:0:0:0:
112,208,16605,1,0,0:0:0:0:
256,224,17085,1,0,0:0:0:0:
336,176,17100,1,0,0:0:0:0:
273,157,17130,1,0,0:0:0:0:
384,176,17520,1,0,0:0:0:0:
198,139,17610,1,0,0:0:0:0:
160,144,17640,1,0,0:0:0:0:
416,160,17910,1,0,0:0:0:0:
354,83,17955,1,0,0:0:0:0:
256,112,17985,1,0,0:0:0:0:
144,272,18465,1,0,0:0:0:0:
96,208,18525,1,0,0:0:0:0:
144,272,18600,1,0,0:0:0:0:
96,192,18690,1,0,0:0:0:0:
192,176,18930,1,0,0:0:0:0:
320,128,19020,1,0,0:0:0:0:
317,210,19350,1,0,0:0:0:0:
384,224,19365,1,0,0:0:0:0:
296,145,19845,1,0,0:0:0:0:
96,192,19875,1,0,0:0:0:0:
48,160,19890,1,0,0:0:0:0:
288,160,20325,1,0,0:0:0:0:
304,80,20355,1,0,0:0:0:0:
176,192,21225,1,0,0:0:0:0:
160,144,21255,1,0,0:0:0:0:
320,160,21735,1,0,0:0:0:0:
423,106,22080,1,0,0:0:0:0:
192,224,22125,1,0,0:0:0:0:
112,192,22140,1,0,0:0:0:0:
329,177,22455,1,0,0:0:0:0:
80,160,22485,1,0,0:0:0:0:
318,173,22620,1,0,0:0:0:0:
304,208,22635,1,0,0:0:0:0:
96,112,22650,1,0,0:0:0:0:
346,149,22800,1,0,0:0:0:0:
272,80,22830,1,0,0:0:0:0:
368,128,23040,1,0,0:0:0:0:
378,116,23055,1,0,0:0:0:0:
400,208,23370,1,0,0:0:0:0:
320,96,23385,1,0,0:0:0:0:
358,153,23400,1,0,0:0:0:0:
304,192,23655,1,0,0:0:0:0:
350,142,23685,1,0,0:0:0:0:
288,240,23700,1,0,0:0:0:0:
351,141,23850,1,0,0:0:0:0:
224,192,23865,1,0,0:0:0:0:
208,256,23880,1,0,0:0:0:0:
356,141,24030,1,0,0:0:0:0:
176,128,24045,1,0,0:0:0:0:
80,224,24060,1,0,0:0:0:0:
357,141,24210,1,0,0:0:0:0:
80,224,24225,1,0,0:0:0:0:
80,112,24510,1,0,0:0:0:0:
128,256,24525,1,0,0:0:0:0:
377,121,24540,1,0,0:0:0:0:
320,144,24840,1,0,0:0:0:0:
384,288,24885,1,0,0:0:0:0:
380,124,24900,1,0,0:0:0:0:
256,320,25020,1,0,0:0:0:0:
375,125,25065,1,0,0:0:0:0:
496,256,25080,1,0,0:0:0:0:
224,272,25215,1,0,0:0:0:0:
231,131,25230,1,0,0:0:0:0:
480,176,25260,1,0,0:0:0:0:
112,96,25380,1,0,0:0:0:0:
221,140,25425,1,0,0:0:0:0:
432,144,25440,1,0,0:0:0:0:
288,144,25560,1,0,0:0:0:0:
340,101,25605,1,0,0:0:0:0:
224,96,25650,1,0,0:0:0:0:
320,96,25800,1,0,0:0:0:0:
344,166,25845,1,0,0:0:0:0:
176,144,25860,1,0,0:0:0:0:
292,151,26145,1,0,0:0:0:0:
80,224,26175,1,0,0:0:0:0:
96,192,26415,1,0,0:0:0:0:
401,112,26475,1,0,0:0:0:0:
64,176,26490,1,0,0:0:0:0:
144,272,26595,1,0,0:0:0:0:
401,112,26640,1,0,0:0:0:0:
160,176,26655,1,0,0:0:0:0:
304,160,26775,1,0,0:0:0:0:
401,112,26805,1,0,0:0:0:0:
256,208,26835,1,0,0:0:0:0:
400,48,26955,1,0,0:0:0:0:
395,120,26985,1,0,0:0:0:0:
368,224,27015,1,0,0:0:0:0:
248,111,27300,1,0,0:0:0:0:
320,112,27330,1,0,0:0:0:0:
176,112,27630,1,0,0:0:0:0:
304,240,27675,1,0,0:0:0:0:
160,272,27975,1,0,0:0:0:0:
421,162,27990,1,0,0:0:0:0:
112,192,28020,1,0,0:0:0:0:
432,192,28155,1,0,0:0:0:0:
340,168,28170,1,0,0:0:0:0:
112,192,28185,1,0,0:0:0:0:
337,174,28335,1,0,0:0:0:0:
416,160,28365,1,0,0:0:0:0:
224,16,28380,1,0,0:0:0:0:
376,160,28575,1,0,0:0:0:0:
256,96,28605,1,0,0:0:0:0:
482,127,28845,1,0,0:0:0:0:
240,144,28875,1,0,0:0:0:0:
208,112,28905,1,0,0:0:0:0:
144,160,29160,1,0,0:0:0:0:
96,176,29190,1,0,0:0:0:0:
176,224,29340,1,0,0:0:0:0:
160,256,29355,1,0,0:0:0:0:
456,132,29505,1,0,0:0:0:0:
224,256,29535,1,0,0:0:0:0:
336,192,29550,1,0,0:0:0:0:
453,127,29685,1,0,0:0:0:0:
256,224,29730,1,0,0:0:0:0:
320,96,29760,1,0,0:0:0:0:
337,120,30060,1,0,0:0:0:0:
272,176,30075,1,0,0:0:0:0:
320,272,30090,1,0,0:0:0:0:
326,173,30405,1,0,0:0:0:0:
368,256,30420,1,0,0:0:0:0:
384,288,30570,1,0,0:0:0:0:
16,224,30600,1,0,0:0:0:0:
420,160,30735,1,0,0:0:0:0:
288,288,30765,1,0,0:0:0:0:
320,240,30810,1,0,0:0:0:0:
176,256,30930,1,0,0:0:0:0:
336,160,30960,1,0,0:0:0:0:
128,240,31125,1,0,0:0:0:0:
239,192,31155,1,0,0:0:0:0:
112,176,31365,1,0,0:0:0:0:
143,159,31380,1,0,0:0:0:0:
263,154,31395,1,0,0:0:0:0:
336,213,31635,1,0,0:0:0:0:
192,160,31650,1,0,0:0:0:0:
144,160,31665,1,0,0:0:0:0:
396,103,31950,1,0,0:0:0:0:
224,192,32025,1,0,0:0:0:0:
346,207,32100,1,0,0:0:0:0:
176,240,32115,1,0,0:0:0:0:
288,288,32205,1,0,0:0:0:0:
259,265,32235,1,0,0:0:0:0:
176,240,32250,1,0,0:0:0:0:
320,272,32340,1,0,0:0:0:0:
176,208,32415,1,0,0:0:0:0:
352,176,32505,1,0,0:0:0:0:
272,128,32760,1,0,0:0:0:0:
336,128,32835,1,0,0:0:0:0:
304,256,33135,1,0,0:0:0:0:
208,112,33165,1,0,0:0:0:0:
128,224,33495,1,0,0:0:0:0:
160,128,33510,1,0,0:0:0:0:
272,192,33660,1,0,0:0:0:0:
144,160,33675,1,0,0:0:0:0:
304,160,33840,1,0,0:0:0:0:
144,272,33855,1,0,0:0:0:0:
272,272,34110,1,0,0:0:0:0:
176,176,34125,1,0,0:0:0:0:
352,192,34395,1,0,0:0:0:0:
192,256,34440,1,0,0:0:0:0:
352,160,34710,1,0,0:0:0:0:
272,144,34740,1,0,0:0:0:0:
368,160,34875,1,0,0:0:0:0:
192,96,34935,1,0,0:0:0:0:
400,160,35070,1,0,0:0:0:0:
80,96,35085,1,0,0:0:0:0:
384,240,35220,1,0,0:0:0:0:
32,192,35250,1,0,0:0:0:0:
272,304,35520,1,0,0:0:0:0:
224,272,35580,1,0,0:0:0:0:
96,144,35865,1,0,0:0:0:0:
208,112,35925,1,0,0:0:0:0:
128,160,36045,1,0,0:0:0:0:
352,192,36105,1,0,0:0:0:0:
240,96,36240,1,0,0:0:0:0:
288,272,36285,1,0,0:0:0:0:
256,144,36420,1,0,0:0:0:0:
128,224,36480,1,0,0:0:0:0:
128,96,36585,1,0,0:0:0:0:
272,272,36600,1,0,0:0:0:0:
96,144,36870,1,0,0:0:0:0:
192,192,36885,1,0,0:0:0:0:
272,240,37125,1,0,0:0:0:0:
352,64,37155,1,0,0:0:0:0:
320,144,37440,1,0,0:0:0:0:
272,224,37455,1,0,0:0:0:0:
176,96,37605,1,0,0:0:0:0:
304,240,37620,1,0,0:0:0:0:
288,240,37800,1,0,0:0:0:0:
80,144,37995,1,0,0:0:0:0:
208,240,38280,1,0,0:0:0:0:
128,272,38310,1,0,0:0:0:0:
400,64,38610,1,0,0:0:0:0:
80,144,38625,1,0,0:0:0:0:
368,192,38925,1,0,0:0:0:0:
288,192,39030,1,0,0:0:0:0:
160,112,39120,1,0,0:0:0:0:
288,192,39165,1,0,0:0:0:0:
176,160,39330,1,0,0:0:0:0:
192,144,39375,1,0,0:0:0:0:
240,144,39540,1,0,0:0:0:0:
448,144,39630,1,0,0:0:0:0:
272,128,39840,1,0,0:0:0:0:
320,272,39870,1,0,0:0:0:0:
288,192,40170,1,0,0:0:0:0:
96,256,40185,1,0,0:0:0:0:
224,160,40350,1,0,0:0:0:0:
224,224,40395,1,0,0:0:0:0:
32,128,40560,1,0,0:0:0:0:
240,144,40590,1,0,0:0:0:0:
144,192,40755,1,0,0:0:0:0:
176,288,40770,1,0,0:0:0:0:
96,144,41055,1,0,0:0:0:0:
224,144,41085,1,0,0:0:0:0:
304,288,41415,1,0,0:0:0:0:
288,240,41460,1,0,0:0:0:0:
288,256,41580,1,0,0:0:0:0:
288,224,41610,1,0,0:0:0:0:
128,176,41760,1,0,0:0:0:0:
96,160,41790,1,0,0:0:0:0:
160,176,41940,1,0,0:0:0:0:
176,128,41970,1,0,0:0:0:0:
288,96,42120,1,0,0:0:0:0:
208,112,42150,1,0,0:0:0:0:
320,208,42330,1,0,0:0:0:0:
224,208,42390,1,0,0:0:0:0:
160,80,42690,1,0,0:0:0:0:
32,192,42705,1,0,0:0:0:0:
128,128,43020,1,0,0:0:0:0:
240,256,43185,1,0,0:0:0:0:
304,144,43290,1,0,0:0:0:0:
288,320,43365,1,0,0:0:0:0:
208,224,43410,1,0,0:0:0:0:
320,208,43545,1,0,0:0:0:0:
192,272,43560,1,0,0:0:0:0:
288,192,43830,1,0,0:0:0:0:
384,144,43845,1,0,0:0:0:0:
176,64,44160,1,0,0:0:0:0:
320,160,44175,1,0,0:0:0:0:
320,320,44340,1,0,0:0:0:0:
240,128,44370,1,0,0:0:0:0:
336,224,44550,1,0,0:0:0:0:
224,144,44565,1,0,0:0:0:0:
224,160,44730,1,0,0:0:0:0:
208,224,44910,1,0,0:0:0:0:
256,176,44925,1,0,0:0:0:0:
288,320,45075,1,0,0:0:0:0:
288,176,45090,1,0,0:0:0:0:
304,176,45270,1,0,0:0:0:0:
320,144,45405,1,0,0:0:0:0:
272,224,45435,1,0,0:0:0:0:
192,144,45570,1,0,0:0:0:0:
192,192,45720,1,0,0:0:0:0:
176,224,45735,1,0,0:0:0:0:
272,176,45885,1,0,0:0:0:0:
224,304,45900,1,0,0:0:0:0:
240,128,46050,1,0,0:0:0:0:
352,288,46065,1,0,0:0:0:0:
128,208,46200,1,0,0:0:0:0:
400,208,46230,1,0,0:0:0:0:
208,288,46380,1,0,0:0:0:0:
368,144,46425,1,0,0:0:0:0:
256,208,46530,1,0,0:0:0:0:
272,112,46575,1,0,0:0:0:0:
160,96,46650,1,0,0:0:0:0:
240,144,46740,1,0,0:0:0:0:
256,144,46785,1,0,0:0:0:0:
128,176,46830,1,0,0:0:0:0:
224,160,46860,1,0,0:0:0:0:
336,224,46890,1,0,0:0:0:0:
128,192,46965,1,0,0:0:0:0:
256,192,47010,1,0,0:0:0:0:
128,240,47040,1,0,0:0:0:0:
288,144,47175,1,0,0:0:0:0:
128,192,47190,1,0,0:0:0:0:
96,112,47325,1,0,0:0:0:0:
240,160,47340,1,0,0:0:0:0:
272,144,47520,1,0,0:0:0:0:
176,320,47625,1,0,0:0:0:0:
208,96,47640,1,0,0:0:0:0:
192,256,47805,1,0,0:0:0:0:
448,256,47820,1,0,0:0:0:0:
240,320,47970,1,0,0:0:0:0:
416,208,48015,1,0,0:0:0:0:
288,320,48135,1,0,0:0:0:0:
336,192,48180,1,0,0:0:0:0:
368,224,48285,1,0,0:0:0:0:
272,224,48360,1,0,0:0:0:0:
384,176,48480,1,0,0:0:0:0:
320,256,48525,1,0,0:0:0:0:
304,128,48660,1,0,0:0:0:0:
384,208,48705,1,0,0:0:0:0:
176,144,48780,1,0,0:0:0:0:
304,144,48855,1,0,0:0:0:0:
352,256,48945,1,0,0:0:0:0:
256,176,49050,1,0,0:0:0:0:
96,192,49155,1,0,0:0:0:0:
256,208,49200,1,0,0:0:0:0:
208,240,49350,1,0,0:0:0:0:
272,224,49365,1,0,0:0:0:0:
256,192,49380,1,0,0:0:0:0:
320,160,49410,1,0,0:0:0:0:
224,224,49515,1,0,0:0:0:0:
256,192,49530,1,0,0:0:0:0:
128,96,49560,1,0,0:0:0:0:
224,160,49620,1,0,0:0:0:0:
224,224,49725,1,0,0:0:0:0:
240,176,49785,1,0,0:0:0:0:
304,112,49950,1,0,0:0:0:0:
352,192,49965,1,0,0:0:0:0:
304,192,50085,1,0,0:0:0:0:
288,208,50100,1,0,0:0:0:0:
288,160,50205,1,0,0:0:0:0:
192,192,50280,1,0,0:0:0:0:
256,160,50370,1,0,0:0:0:0:
160,208,50415,1,0,0:0:0:0:
320,160,50700,1,0,0:0:0:0:
304,144,50760,1,0,0:0:0:0:
288,208,50850,1,0,0:0:0:0:
176,208,51000,1,0,0:0:0:0:
272,144,51075,1,0,0:0:0:0:
208,256,51105,1,0,0:0:0:0:
272,256,51150,1,0,0:0:0:0:
208,208,51300,1,0,0:0:0:0:
320,176,51345,1,0,0:0:0:0:
144,144,51420,1,0,0:0:0:0:
192,288,51525,1,0,0:0:0:0:
272,224,51540,1,0,0:0:0:0:
288,176,51705,1,0,0:0:0:0:
80,256,51720,1,0,0:0:0:0:
304,160,51780,1,0,0:0:0:0:
224,288,51885,1,0,0:0:0:0:
352,192,52065,1,0,0:0:0:0:
192,128,52080,1,0,0:0:0:0:
128,224,52155,1,0,0:0:0:0:
368,176,52245,1,0,0:0:0:0:
192,224,52455,1,0,0:0:0:0:
144,128,52470,1,0,0:0:0:0:
224,128,52620,1,0,0:0:0:0:
320,192,52800,1,0,0:0:0:0:
448,80,52935,1,0,0:0:0:0:
352,144,52980,1,0,0:0:0:0:
256,112,53010,1,0,0:0:0:0:
320,336,53175,1,0,0:0:0:0:
128,304,53340,1,0,0:0:0:0:
144,128,53505,1,0,0:0:0:0:
96,272,53520,1,0,0:0:0:0:
256,272,53730,1,0,0:0:0:0:
272,192,53880,1,0,0:0:0:0:
112,160,54210,1,0,0:0:0:0:
272,96,54255,1,0,0:0:0:0:
304,160,54360,1,0,0:0:0:0:
240,224,54420,1,0,0:0:0:0:
368,160,54585,1,0,0:0:0:0:
368,192,54765,1,0,0:0:0:0:
112,144,54840,1,0,0:0:0:0:
176,128,54900,1,0,0:0:0:0:
288,224,54930,1,0,0:0:0:0:
272,144,55230,1,0,0:0:0:0:
336,128,55245,1,0,0:0:0:0:
224,176,55545,1,0,0:0:0:0:
160,224,55740,1,0,0:0:0:0:
256,160,55770,1,0,0:0:0:0:
128,144,56205,1,0,0:0:0:0:
320,112,56220,1,0,0:0:0:0:
304,192,56235,1,0,0:0:0:0:
320,272,56535,1,0,0:0:0:0:
176,192,56580,1,0,0:0:0:0:
352,144,57090,1,0,0:0:0:0:
384,160,57120,1,0,0:0:0:0:
336,208,57135,1,0,0:0:0:0:
336,176,57255,1,0,0:0:0:0:
352,208,57300,1,0,0:0:0:0:
384,160,57315,1,0,0:0:0:0:
208,96,57615,1,0,0:0:0:0:
208,112,57645,1,0,0:0:0:0:
176,96,57660,1,0,0:0:0:0:
144,288,58020,1,0,0:0:0:0:
304,160,58545,1,0,0:0:0:0:
144,192,58560,1,0,0:0:0:0:
352,80,59010,1,0,0:0:0:0:
224,176,59055,1,0,0:0:0:0:
160,256,59850,1,0,0:0:0:0:
320,192,59895,1,0,0:0:0:0:
368,112,60360,1,0,0:0:0:0:
218,154,60375,1,0,0:0:0:0:
176,112,60810,1,0,0:0:0:0:
135,187,61215,1,0,0:0:0:0:
320,128,61305,1,0,0:0:0:0:
320,111,61665,1,0,0:0:0:0:
176,192,61815,1,0,0:0:0:0:
321,244,62025,1,0,0:0:0:0:
352,128,62175,1,0,0:0:0:0:
118,124,62595,1,0,0:0:0:0:
128,192,62730,1,0,0:0:0:0:
335,83,63045,1,0,0:0:0:0:
272,128,63195,1,0,0:0:0:0:
368,184,63435,1,0,0:0:0:0:
240,224,63570,1,0,0:0:0:0:
191,147,63795,1,0,0:0:0:0:
160,128,63870,1,0,0:0:0:0:
318,84,64155,1,0,0:0:0:0:
336,80,64215,1,0,0:0:0:0:
168,186,64245,1,0,0:0:0:0:
116,191,64395,1,0,0:0:0:0:
320,94,64470,1,0,0:0:0:0:
160,239,64545,1,0,0:0:0:0:
288,240,64590,1,0,0:0:0:0:
320,94,64605,1,0,0:0:0:0:
356,290,64680,1,0,0:0:0:0:
312,88,64770,1,0,0:0:0:0:
352,117,64845,1,0,0:0:0:0:
224,224,64860,1,0,0:0:0:0:
212,146,66195,5,0,0:0:0:0:
139,180,66285,1,0,0:0:0:0:
228,173,66315,1,0,0:0:0:0:
211,166,66555,1,0,0:0:0:0:
254,173,66585,1,0,0:0:0:0:
299,205,66630,1,0,0:0:0:0:
209,160,66735,1,0,0:0:0:0:
254,173,66750,1,0,0:0:0:0:
380,108,66795,1,0,0:0:0:0:
211,249,66885,1,0,0:0:0:0:
212,146,66915,1,0,0:0:0:0:
221,301,66990,1,0,0:0:0:0:
212,136,67065,1,0,0:0:0:0:
86,142,67170,1,0,0:0:0:0:
199,157,67260,1,0,0:0:0:0:
291,102,67455,1,0,0:0:0:0:
242,227,67515,1,0,0:0:0:0:
307,191,67545,1,0,0:0:0:0:
246,113,67725,1,0,0:0:0:0:
199,288,67770,1,0,0:0:0:0:
343,120,67785,1,0,0:0:0:0:
287,238,67920,1,0,0:0:0:0:
89,186,67935,1,0,0:0:0:0:
321,219,67965,1,0,0:0:0:0:
417,195,68100,1,0,0:0:0:0:
226,215,68145,1,0,0:0:0:0:
309,113,68280,1,0,0:0:0:0:
414,140,68295,1,0,0:0:0:0:
309,215,68610,1,0,0:0:0:0:
45,147,68625,1,0,0:0:0:0:
217,261,68685,1,0,0:0:0:0:
208,106,68955,1,0,0:0:0:0:
179,109,68985,1,0,0:0:0:0:
132,69,69030,1,0,0:0:0:0:
199,133,69090,1,0,0:0:0:0:
238,187,69120,1,0,0:0:0:0:
255,96,69240,1,0,0:0:0:0:
241,220,69315,1,0,0:0:0:0:
258,225,69330,1,0,0:0:0:0:
293,108,69480,1,0,0:0:0:0:
336,124,69495,1,0,0:0:0:0:
417,293,69600,1,0,0:0:0:0:
320,108,69645,1,0,0:0:0:0:
339,120,69690,1,0,0:0:0:0:
381,298,69765,1,0,0:0:0:0:
322,117,69795,1,0,0:0:0:0:
284,213,69960,1,0,0:0:0:0:
145,161,69990,1,0,0:0:0:0:
201,211,70020,1,0,0:0:0:0:
72,130,70260,1,0,0:0:0:0:
182,158,70290,1,0,0:0:0:0:
301,172,70320,1,0,0:0:0:0:
196,243,70575,1,0,0:0:0:0:
310,134,70605,1,0,0:0:0:0:
334,160,70740,1,0,0:0:0:0:
195,261,70755,1,0,0:0:0:0:
201,215,70785,1,0,0:0:0:0:
313,259,70935,1,0,0:0:0:0:
190,249,70950,1,0,0:0:0:0:
445,182,71100,1,0,0:0:0:0:
256,197,71130,1,0,0:0:0:0:
174,100,71430,1,0,0:0:0:0:
378,88,71445,1,0,0:0:0:0:
263,111,71460,1,0,0:0:0:0:
247,135,71775,1,0,0:0:0:0:
233,174,71820,1,0,0:0:0:0:
240,215,71850,1,0,0:0:0:0:
218,187,72105,1,0,0:0:0:0:
326,158,72135,1,0,0:0:0:0:
277,119,72150,1,0,0:0:0:0:
212,191,72285,1,0,0:0:0:0:
199,214,72330,1,0,0:0:0:0:
340,176,72345,1,0,0:0:0:0:
200,191,72465,1,0,0:0:0:0:
182,203,72495,1,0,0:0:0:0:
282,230,72525,1,0,0:0:0:0:
302,145,72720,1,0,0:0:0:0:
278,106,72780,1,0,0:0:0:0:
239,172,72885,1,0,0:0:0:0:
369,140,73005,1,0,0:0:0:0:
218,166,73200,1,0,0:0:0:0:
325,105,73245,1,0,0:0:0:0:
365,290,73305,1,0,0:0:0:0:
300,248,73425,1,0,0:0:0:0:
218,166,73455,1,0,0:0:0:0:
331,286,73500,1,0,0:0:0:0:
229,163,73620,1,0,0:0:0:0:
118,121,73665,1,0,0:0:0:0:
218,229,73680,1,0,0:0:0:0:
185,178,73800,1,0,0:0:0:0:
249,199,73815,1,0,0:0:0:0:
177,227,73845,1,0,0:0:0:0:
276,144,73860,1,0,0:0:0:0:
315,60,74115,1,0,0:0:0:0:
231,104,74145,1,0,0:0:0:0:
326,83,74160,1,0,0:0:0:0:
266,160,74220,1,0,0:0:0:0:
352,118,74490,1,0,0:0:0:0:
295,168,74565,1,0,0:0:0:0:
418,240,74670,1,0,0:0:0:0:
196,220,74745,1,0,0:0:0:0:
384,173,74760,1,0,0:0:0:0:
384,293,74850,1,0,0:0:0:0:
203,144,74910,1,0,0:0:0:0:
419,134,74925,1,0,0:0:0:0:
328,282,75030,1,0,0:0:0:0:
311,163,75075,1,0,0:0:0:0:
326,219,75105,1,0,0:0:0:0:
261,251,75225,1,0,0:0:0:0:
343,103,75270,1,0,0:0:0:0:
268,187,75300,1,0,0:0:0:0:
316,254,75450,1,0,0:0:0:0:
215,139,75510,1,0,0:0:0:0:
434,103,75570,1,0,0:0:0:0:
187,96,75795,1,0,0:0:0:0:
215,158,75810,1,0,0:0:0:0:
350,187,75855,1,0,0:0:0:0:
289,236,76080,1,0,0:0:0:0:
164,276,76110,1,0,0:0:0:0:
268,149,76155,1,0,0:0:0:0:
135,227,76260,1,0,0:0:0:0:
269,143,76320,1,0,0:0:0:0:
140,208,76440,1,0,0:0:0:0:
281,136,76470,1,0,0:0:0:0:
128,114,76635,1,0,0:0:0:0:
221,92,76935,1,0,0:0:0:0:
149,168,76950,1,0,0:0:0:0:
332,76,76980,1,0,0:0:0:0:
312,153,77280,1,0,0:0:0:0:
217,137,77295,1,0,0:0:0:0:
281,235,77325,1,0,0:0:0:0:
327,227,77655,1,0,0:0:0:0:
291,117,77700,1,0,0:0:0:0:
370,173,77835,1,0,0:0:0:0:
162,303,77850,1,0,0:0:0:0:
289,241,77865,1,0,0:0:0:0:
201,225,78000,1,0,0:0:0:0:
429,102,78030,1,0,0:0:0:0:
235,183,78045,1,0,0:0:0:0:
134,132,78270,1,0,0:0:0:0:
185,139,78285,1,0,0:0:0:0:
268,106,78300,1,0,0:0:0:0:
206,113,78555,1,0,0:0:0:0:
340,220,78570,1,0,0:0:0:0:
239,98,78585,1,0,0:0:0:0:
268,106,78870,1,0,0:0:0:0:
336,127,78915,1,0,0:0:0:0:
292,134,79035,1,0,0:0:0:0:
199,282,79065,1,0,0:0:0:0:
306,233,79095,1,0,0:0:0:0:
292,144,79215,1,0,0:0:0:0:
289,237,79260,1,0,0:0:0:0:
178,208,79275,1,0,0:0:0:0:
256,156,79380,1,0,0:0:0:0:
355,136,79440,1,0,0:0:0:0:
194,110,79680,1,0,0:0:0:0:
355,136,79725,1,0,0:0:0:0:
64,108,79755,1,0,0:0:0:0:
350,139,80025,1,0,0:0:0:0:
293,215,80055,1,0,0:0:0:0:
195,125,80085,1,0,0:0:0:0:
354,276,80205,1,0,0:0:0:0:
196,193,80220,1,0,0:0:0:0:
261,142,80280,1,0,0:0:0:0:
303,262,80385,1,0,0:0:0:0:
188,161,80415,1,0,0:0:0:0:
252,175,80460,1,0,0:0:0:0:
246,165,80580,1,0,0:0:0:0:
292,119,80625,1,0,0:0:0:0:
92,252,80640,1,0,0:0:0:0:
275,71,80760,1,0,0:0:0:0:
336,116,80805,1,0,0:0:0:0:
75,268,80820,1,0,0:0:0:0:
172,222,80970,1,0,0:0:0:0:
421,105,81030,1,0,0:0:0:0:
298,177,81060,1,0,0:0:0:0:
427,206,81240,1,0,0:0:0:0:
194,104,81300,1,0,0:0:0:0:
184,91,81315,1,0,0:0:0:0:
263,147,81600,1,0,0:0:0:0:
295,208,81615,1,0,0:0:0:0:
268,147,81630,1,0,0:0:0:0:
172,172,81645,1,0,0:0:0:0:
281,166,81765,1,0,0:0:0:0:
295,208,81795,1,0,0:0:0:0:
365,94,81810,1,0,0:0:0:0:
308,162,81825,1,0,0:0:0:0:
281,263,81960,1,0,0:0:0:0:
319,199,81990,1,0,0:0:0:0:
361,83,82005,1,0,0:0:0:0:
321,131,82020,1,0,0:0:0:0:
260,280,82140,1,0,0:0:0:0:
362,166,82170,1,0,0:0:0:0:
284,193,82185,1,0,0:0:0:0:
226,173,82455,1,0,0:0:0:0:
191,82,82485,1,0,0:0:0:0:
183,189,82515,1,0,0:0:0:0:
377,150,82800,1,0,0:0:0:0:
337,151,82830,1,0,0:0:0:0:
284,161,82845,1,0,0:0:0:0:
388,149,83145,1,0,0:0:0:0:
328,112,83190,1,0,0:0:0:0:
211,162,83205,1,0,0:0:0:0:
376,214,83325,1,0,0:0:0:0:
307,209,83340,1,0,0:0:0:0:
345,134,83385,1,0,0:0:0:0:
326,253,83475,1,0,0:0:0:0:
396,25,83550,1,0,0:0:0:0:
247,301,83745,1,0,0:0:0:0:
286,267,83790,1,0,0:0:0:0:
163,259,84090,1,0,0:0:0:0:
328,112,84105,1,0,0:0:0:0:
170,204,84315,1,0,0:0:0:0:
198,216,84390,1,0,0:0:0:0:
243,150,84495,1,0,0:0:0:0:
318,132,84555,1,0,0:0:0:0:
328,210,84675,1,0,0:0:0:0:
227,114,84705,1,0,0:0:0:0:
323,123,84750,1,0,0:0:0:0:
343,236,84825,1,0,0:0:0:0:
258,66,84930,1,0,0:0:0:0:
279,109,84945,1,0,0:0:0:0:
205,201,85215,1,0,0:0:0:0:
225,207,85245,1,0,0:0:0:0:
333,136,85290,1,0,0:0:0:0:
109,67,85545,1,0,0:0:0:0:
276,157,85590,1,0,0:0:0:0:
255,217,85620,1,0,0:0:0:0:
302,157,85830,1,0,0:0:0:0:
165,187,85935,1,0,0:0:0:0:
184,147,85965,1,0,0:0:0:0:
302,157,86040,1,0,0:0:0:0:
296,89,86235,1,0,0:0:0:0:
302,157,86250,1,0,0:0:0:0:
345,68,86310,1,0,0:0:0:0:
301,152,86475,1,0,0:0:0:0:
318,191,86595,1,0,0:0:0:0:
301,152,86640,1,0,0:0:0:0:
334,242,86655,1,0,0:0:0:0:
301,148,86775,1,0,0:0:0:0:
262,202,86880,1,0,0:0:0:0:
301,146,86925,1,0,0:0:0:0:
216,137,86970,1,0,0:0:0:0:
301,144,87030,1,0,0:0:0:0:
256,203,87060,1,0,0:0:0:0:
301,143,87150,1,0,0:0:0:0:
253,204,87210,1,0,0:0:0:0:
301,144,87255,1,0,0:0:0:0:
253,98,87270,1,0,0:0:0:0:
301,152,87360,1,0,0:0:0:0:
309,192,87375,1,0,0:0:0:0:
300,157,87480,1,0,0:0:0:0:
281,178,87540,1,0,0:0:0:0:
286,160,87600,1,0,0:0:0:0:
265,102,87645,1,0,0:0:0:0:
211,241,87690,1,0,0:0:0:0:
232,142,87705,1,0,0:0:0:0:
161,298,87720,1,0,0:0:0:0:
284,268,87825,1,0,0:0:0:0:
285,275,87855,1,0,0:0:0:0:
163,293,87885,1,0,0:0:0:0:
324,220,87945,1,0,0:0:0:0:
190,241,88035,1,0,0:0:0:0:
240,174,88050,1,0,0:0:0:0:
368,222,88080,1,0,0:0:0:0:
210,186,88170,1,0,0:0:0:0:
360,211,88200,1,0,0:0:0:0:
317,198,88335,1,0,0:0:0:0:
227,132,88410,1,0,0:0:0:0:
273,152,88575,1,0,0:0:0:0:
284,185,88665,1,0,0:0:0:0:
244,113,88740,1,0,0:0:0:0:
273,152,88770,1,0,0:0:0:0:
303,183,88830,1,0,0:0:0:0:
265,113,88920,1,0,0:0:0:0:
281,153,88935,1,0,0:0:0:0:
317,173,89010,1,0,0:0:0:0:
271,116,89085,1,0,0:0:0:0:
300,153,89130,1,0,0:0:0:0:
318,169,89190,1,0,0:0:0:0:
303,147,89280,1,0,0:0:0:0:
313,167,89355,1,0,0:0:0:0:
210,143,89430,1,0,0:0:0:0:
303,147,89475,1,0,0:0:0:0:
308,166,89535,1,0,0:0:0:0:
200,97,89610,1,0,0:0:0:0:
251,171,89880,1,0,0:0:0:0:
271,207,89910,1,0,0:0:0:0:
262,66,89955,1,0,0:0:0:0:
376,193,90075,1,0,0:0:0:0:
241,156,90090,1,0,0:0:0:0:
337,110,90120,1,0,0:0:0:0:
383,182,90240,1,0,0:0:0:0:
247,150,90300,1,0,0:0:0:0:
361,155,90405,1,0,0:0:0:0:
381,73,90480,1,0,0:0:0:0:
245,155,90720,1,0,0:0:0:0:
314,175,90780,1,0,0:0:0:0:
264,124,91095,1,0,0:0:0:0:
393,108,91125,1,0,0:0:0:0:
366,105,91305,1,0,0:0:0:0:
292,111,91470,1,0,0:0:0:0:
301,243,91485,1,0,0:0:0:0:
271,155,91650,1,0,0:0:0:0:
285,108,91665,1,0,0:0:0:0:
251,117,91845,1,0,0:0:0:0:
302,102,91875,1,0,0:0:0:0:
259,112,92010,1,0,0:0:0:0:
250,183,92025,1,0,0:0:0:0:
303,98,92070,1,0,0:0:0:0:
263,178,92175,1,0,0:0:0:0:
281,108,92205,1,0,0:0:0:0:
305,98,92235,1,0,0:0:0:0:
254,153,92340,1,0,0:0:0:0:
284,105,92370,1,0,0:0:0:0:
338,199,92640,1,0,0:0:0:0:
308,92,92670,1,0,0:0:0:0:
259,197,92715,1,0,0:0:0:0:
349,164,92835,1,0,0:0:0:0:
308,92,92880,1,0,0:0:0:0:
122,218,92895,1,0,0:0:0:0:
347,158,93015,1,0,0:0:0:0:
285,84,93060,1,0,0:0:0:0:
372,250,93090,1,0,0:0:0:0:
336,142,93180,1,0,0:0:0:0:
207,47,93225,1,0,0:0:0:0:
349,130,93465,1,0,0:0:0:0:
326,128,93525,1,0,0:0:0:0:
234,132,93540,1,0,0:0:0:0:
320,73,93870,1,0,0:0:0:0:
157,269,93885,1,0,0:0:0:0:
152,93,93900,1,0,0:0:0:0:
216,228,94215,1,0,0:0:0:0:
143,176,94230,1,0,0:0:0:0:
246,81,94275,1,0,0:0:0:0:
323,239,94410,1,0,0:0:0:0:
251,85,94440,1,0,0:0:0:0:
418,172,94575,1,0,0:0:0:0:
226,167,94590,1,0,0:0:0:0:
269,80,94620,1,0,0:0:0:0:
230,220,94755,1,0,0:0:0:0:
374,145,94770,1,0,0:0:0:0:
271,76,94800,1,0,0:0:0:0:
215,229,94920,1,0,0:0:0:0:
272,73,94950,1,0,0:0:0:0:
213,221,95100,1,0,0:0:0:0:
271,67,95130,1,0,0:0:0:0:
179,97,95385,1,0,0:0:0:0:
269,45,95430,1,0,0:0:0:0:
243,155,95460,1,0,0:0:0:0:
174,125,95580,1,0,0:0:0:0:
257,61,95625,1,0,0:0:0:0:
230,177,95640,1,0,0:0:0:0:
199,135,95745,1,0,0:0:0:0:
252,57,95805,1,0,0:0:0:0:
362,350,95820,1,0,0:0:0:0:
226,136,95940,1,0,0:0:0:0:
252,47,95970,1,0,0:0:0:0:
297,108,96240,1,0,0:0:0:0:
238,182,96285,1,0,0:0:0:0:
327,147,96300,1,0,0:0:0:0:
380,54,96600,1,0,0:0:0:0:
326,197,96615,1,0,0:0:0:0:
204,276,96630,1,0,0:0:0:0:
292,232,96765,1,0,0:0:0:0:
180,268,96840,1,0,0:0:0:0:
250,237,96960,1,0,0:0:0:0:
185,155,96975,1,0,0:0:0:0:
326,152,97005,1,0,0:0:0:0:
189,238,97155,1,0,0:0:0:0:
328,138,97170,1,0,0:0:0:0:
166,225,97335,1,0,0:0:0:0:
281,112,97500,1,0,0:0:0:0:
426,125,97515,1,0,0:0:0:0:
157,214,97530,1,0,0:0:0:0:
168,147,97665,1,0,0:0:0:0:
265,253,97695,1,0,0:0:0:0:
185,95,97710,1,0,0:0:0:0:
240,220,97845,1,0,0:0:0:0:
204,90,97920,1,0,0:0:0:0:
271,124,98235,1,0,0:0:0:0:
388,147,98295,1,0,0:0:0:0:
255,138,98400,1,0,0:0:0:0:
388,147,98475,1,0,0:0:0:0:
246,209,98580,1,0,0:0:0:0:
373,153,98670,1,0,0:0:0:0:
247,212,98745,1,0,0:0:0:0:
188,158,98970,1,0,0:0:0:0:
132,81,99015,1,0,0:0:0:0:
202,245,99360,1,0,0:0:0:0:
215,116,99375,1,0,0:0:0:0:
297,207,99405,1,0,0:0:0:0:
370,153,99735,1,0,0:0:0:0:
372,161,99915,1,0,0:0:0:0:
284,202,99945,1,0,0:0:0:0:
371,223,100095,1,0,0:0:0:0:
204,261,100140,1,0,0:0:0:0:
296,170,100260,1,0,0:0:0:0:
357,231,100275,1,0,0:0:0:0:
90,155,100305,1,0,0:0:0:0:
275,215,100410,1,0,0:0:0:0:
256,174,100440,1,0,0:0:0:0:
124,137,100470,1,0,0:0:0:0:
286,192,100620,1,0,0:0:0:0:
225,162,100635,1,0,0:0:0:0:
318,108,100935,1,0,0:0:0:0:
211,222,100980,1,0,0:0:0:0:
305,137,101085,1,0,0:0:0:0:
324,117,101115,1,0,0:0:0:0:
220,214,101160,1,0,0:0:0:0:
333,145,101220,1,0,0:0:0:0:
319,164,101295,1,0,0:0:0:0:
226,188,101340,1,0,0:0:0:0:
356,175,101415,1,0,0:0:0:0:
238,167,101490,1,0,0:0:0:0:
226,173,101505,1,0,0:0:0:0:
334,77,101775,1,0,0:0:0:0:
287,130,101790,1,0,0:0:0:0:
231,261,102135,1,0,0:0:0:0:
352,226,102150,1,0,0:0:0:0:
241,235,102180,1,0,0:0:0:0:
188,243,102300,1,0,0:0:0:0:
246,213,102345,1,0,0:0:0:0:
166,209,102480,1,0,0:0:0:0:
281,152,102510,1,0,0:0:0:0:
248,269,102525,1,0,0:0:0:0:
129,152,102630,1,0,0:0:0:0:
225,165,102675,1,0,0:0:0:0:
217,227,102705,1,0,0:0:0:0:
121,118,102780,1,0,0:0:0:0:
284,199,102855,1,0,0:0:0:0:
206,121,103035,1,0,0:0:0:0:
252,88,103110,1,0,0:0:0:0:
281,93,103185,1,0,0:0:0:0:
258,108,103200,1,0,0:0:0:0:
284,184,103290,1,0,0:0:0:0:
381,174,103350,1,0,0:0:0:0:
266,109,103365,1,0,0:0:0:0:
208,155,103635,1,0,0:0:0:0:
354,232,103695,1,0,0:0:0:0:
212,327,103800,1,0,0:0:0:0:
311,194,103815,1,0,0:0:0:0:
319,235,103875,1,0,0:0:0:0:
193,309,103950,1,0,0:0:0:0:
301,177,104010,1,0,0:0:0:0:
249,229,104070,1,0,0:0:0:0:
173,272,104145,1,0,0:0:0:0:
204,175,104205,1,0,0:0:0:0:
229,222,104235,1,0,0:0:0:0:
194,182,104490,1,0,0:0:0:0:
166,148,104520,1,0,0:0:0:0:
261,138,104865,1,0,0:0:0:0:
274,157,104880,1,0,0:0:0:0:
289,162,104895,1,0,0:0:0:0:
202,180,105225,1,0,0:0:0:0:
89,153,105240,1,0,0:0:0:0:
320,209,105390,1,0,0:0:0:0:
168,310,105435,1,0,0:0:0:0:
339,183,105570,1,0,0:0:0:0:
306,127,105615,1,0,0:0:0:0:
175,168,105720,1,0,0:0:0:0:
348,136,105750,1,0,0:0:0:0:
313,94,105765,1,0,0:0:0:0:
247,99,105885,1,0,0:0:0:0:
347,130,105900,1,0,0:0:0:0:
190,223,105945,1,0,0:0:0:0:
271,73,106020,1,0,0:0:0:0:
341,124,106110,1,0,0:0:0:0:
178,122,106125,1,0,0:0:0:0:
271,218,106410,1,0,0:0:0:0:
232,125,106455,1,0,0:0:0:0:
346,90,106500,1,0,0:0:0:0:
211,226,106590,1,0,0:0:0:0:
217,169,106635,1,0,0:0:0:0:
326,167,106680,1,0,0:0:0:0:
190,215,106770,1,0,0:0:0:0:
255,174,106830,1,0,0:0:0:0:
303,158,106845,1,0,0:0:0:0:
162,149,106935,1,0,0:0:0:0:
255,174,106980,1,0,0:0:0:0:
270,144,106995,1,0,0:0:0:0:
266,146,107265,1,0,0:0:0:0:
209,68,107280,1,0,0:0:0:0:
156,149,107295,1,0,0:0:0:0:
343,83,107640,1,0,0:0:0:0:
243,137,107670,1,0,0:0:0:0:
211,111,108015,1,0,0:0:0:0:
329,109,108030,1,0,0:0:0:0:
204,128,108045,1,0,0:0:0:0:
293,154,108345,1,0,0:0:0:0:
260,209,108360,1,0,0:0:0:0:
318,221,108690,1,0,0:0:0:0:
220,132,108720,1,0,0:0:0:0:
201,126,109005,1,0,0:0:0:0:
338,180,109050,1,0,0:0:0:0:
219,135,109065,1,0,0:0:0:0:
201,130,109170,1,0,0:0:0:0:
334,168,109200,1,0,0:0:0:0:
201,126,109290,1,0,0:0:0:0:
220,137,109335,1,0,0:0:0:0:
298,151,109410,1,0,0:0:0:0:
201,126,109500,1,0,0:0:0:0:
235,213,109530,1,0,0:0:0:0:
282,148,109605,1,0,0:0:0:0:
205,127,109635,1,0,0:0:0:0:
286,243,109680,1,0,0:0:0:0:
211,136,109770,1,0,0:0:0:0:
286,148,109800,1,0,0:0:0:0:
290,131,109965,1,0,0:0:0:0:
197,119,110055,1,0,0:0:0:0:
290,130,110130,1,0,0:0:0:0:
198,120,110190,1,0,0:0:0:0:
215,123,110310,1,0,0:0:0:0:
290,126,110331,1,0,0:0:0:0:
269,106,110511,1,0,0:0:0:0:
294,129,110571,1,0,0:0:0:0:
181,139,110671,1,0,0:0:0:0:
303,158,110731,1,0,0:0:0:0:
261,275,110787,1,0,0:0:0:0:
294,129,110804,1,0,0:0:0:0:
308,143,110931,1,0,0:0:0:0:
301,175,110987,1,0,0:0:0:0:
246,96,111104,1,0,0:0:0:0:
267,96,111111,1,0,0:0:0:0:
251,219,111154,1,0,0:0:0:0:
152,261,111351,1,0,0:0:0:0:
178,136,111387,1,0,0:0:0:0:
142,113,111404,1,0,0:0:0:0:
194,137,111661,1,0,0:0:0:0:
322,69,111687,1,0,0:0:0:0:
319,202,111931,1,0,0:0:0:0:
341,64,111937,1,0,0:0:0:0:
275,112,112021,1,0,0:0:0:0:
172,199,112061,1,0,0:0:0:0:
235,311,112087,1,0,0:0:0:0:
325,241,112111,1,0,0:0:0:0:
219,120,112187,1,0,0:0:0:0:
211,192,112231,1,0,0:0:0:0:
141,220,112251,1,0,0:0:0:0:
84,273,112271,1,0,0:0:0:0:
291,254,112291,1,0,0:0:0:0:
191,197,112354,1,0,0:0:0:0:
139,214,112381,1,0,0:0:0:0:
269,179,112401,1,0,0:0:0:0:
95,161,112437,1,0,0:0:0:0:
221,244,112451,1,0,0:0:0:0:
358,233,112537,1,0,0:0:0:0:
181,108,112751,1,0,0:0:0:0:
165,104,112761,1,0,0:0:0:0:
225,12,112787,1,0,0:0:0:0:
272,141,112821,1,0,0:0:0:0:
400,100,112837,1,0,0:0:0:0:
154,192,113154,1,0,0:0:0:0:
354,111,113161,1,0,0:0:0:0:
324,68,113171,1,0,0:0:0:0:
173,276,113187,1,0,0:0:0:0:
337,145,113281,1,0,0:0:0:0:
109,175,113337,1,0,0:0:0:0:
390,151,113341,1,0,0:0:0:0:
309,147,113361,1,0,0:0:0:0:
131,176,113387,1,0,0:0:0:0:
330,214,113431,1,0,0:0:0:0:
395,230,113491,1,0,0:0:0:0:
280,129,113504,1,0,0:0:0:0:
328,127,113571,1,0,0:0:0:0:
299,276,113611,1,0,0:0:0:0:
325,316,113671,1,0,0:0:0:0:
283,127,113687,1,0,0:0:0:0:
329,168,113721,1,0,0:0:0:0:
282,269,113771,1,0,0:0:0:0:
264,309,113861,1,0,0:0:0:0:
160,183,113887,1,0,0:0:0:0:
286,264,113904,1,0,0:0:0:0:
213,233,113941,1,0,0:0:0:0:
141,53,114087,1,0,0:0:0:0:
377,40,114091,1,0,0:0:0:0:
244,232,114121,1,0,0:0:0:0:
136,166,114131,1,0,0:0:0:0:
184,173,114171,1,0,0:0:0:0:
309,127,114381,1,0,0:0:0:0:
362,146,114401,1,0,0:0:0:0:
111,221,114421,1,0,0:0:0:0:
367,155,114454,1,0,0:0:0:0:
62,192,114471,1,0,0:0:0:0:
250,339,114651,1,0,0:0:0:0:
228,119,114741,1,0,0:0:0:0:
136,242,114754,1,0,0:0:0:0:
162,127,114791,1,0,0:0:0:0:
305,316,114831,1,0,0:0:0:0:
214,123,114921,1,0,0:0:0:0:
376,184,114937,1,0,0:0:0:0:
133,138,114961,1,0,0:0:0:0:
393,143,115087,1,0,0:0:0:0:
220,115,115101,1,0,0:0:0:0:
73,274,115111,1,0,0:0:0:0:
259,132,115121,1,0,0:0:0:0:
272,304,115254,1,0,0:0:0:0:
247,91,115271,1,0,0:0:0:0:
286,79,115287,1,0,0:0:0:0:
205,219,115291,1,0,0:0:0:0:
369,149,115531,1,0,0:0:0:0:
289,120,115581,1,0,0:0:0:0:
331,77,115611,1,0,0:0:0:0:
112,268,115621,1,0,0:0:0:0:
86,207,115637,1,0,0:0:0:0:
393,196,115801,1,0,0:0:0:0:
64,121,115887,1,0,0:0:0:0:
330,195,115951,1,0,0:0:0:0:
217,153,115954,1,0,0:0:0:0:
209,154,115971,1,0,0:0:0:0:
358,265,115981,1,0,0:0:0:0:
246,238,116221,1,0,0:0:0:0:
255,315,116271,1,0,0:0:0:0:
141,113,116291,1,0,0:0:0:0:
171,138,116311,1,0,0:0:0:0:
264,250,116321,1,0,0:0:0:0:
217,216,116411,1,0,0:0:0:0:
296,221,116437,1,0,0:0:0:0:
262,145,116491,1,0,0:0:0:0:
188,257,116504,1,0,0:0:0:0:
161,146,116511,1,0,0:0:0:0:
270,184,116581,1,0,0:0:0:0:
262,145,116621,1,0,0:0:0:0:
166,187,116671,1,0,0:0:0:0:
354,77,116681,1,0,0:0:0:0:
308,115,116691,1,0,0:0:0:0:
308,115,116851,1,0,0:0:0:0:
249,152,116881,1,0,0:0:0:0:
175,128,116887,1,0,0:0:0:0:
85,210,116921,1,0,0:0:0:0:
292,106,117171,1,0,0:0:0:0:
198,140,117181,1,0,0:0:0:0:
206,93,117204,1,0,0:0:0:0:
181,42,117211,1,0,0:0:0:0:
161,179,117321,1,0,0:0:0:0:
454,6,117437,1,0,0:0:0:0:
157,230,117491,1,0,0:0:0:0:
327,220,117501,1,0,0:0:0:0:
152,158,117521,1,0,0:0:0:0:
258,208,117621,1,0,0:0:0:0:
291,217,117651,1,0,0:0:0:0:
225,293,117671,1,0,0:0:0:0:
283,200,117701,1,0,0:0:0:0:
180,193,117821,1,0,0:0:0:0:
233,185,117841,1,0,0:0:0:0:
307,307,117851,1,0,0:0:0:0:
185,312,117871,1,0,0:0:0:0:
309,142,117891,1,0,0:0:0:0:
327,288,117961,1,0,0:0:0:0:
195,92,117971,1,0,0:0:0:0:
118,276,118037,1,0,0:0:0:0:
196,134,118041,1,0,0:0:0:0:
341,194,118251,1,0,0:0:0:0:
271,83,118337,1,0,0:0:0:0:
349,213,118361,1,0,0:0:0:0:
137,125,118371,1,0,0:0:0:0:
172,147,118581,1,0,0:0:0:0:
199,283,118687,1,0,0:0:0:0:
196,157,118731,1,0,0:0:0:0:
123,141,118751,1,0,0:0:0:0:
121,163,118887,1,0,0:0:0:0:
299,159,118901,1,0,0:0:0:0:
116,136,118961,1,0,0:0:0:0:
185,127,119071,1,0,0:0:0:0:
332,128,119081,1,0,0:0:0:0:
144,117,119111,1,0,0:0:0:0:
348,109,119261,1,0,0:0:0:0:
221,107,119271,1,0,0:0:0:0:
194,114,119421,1,0,0:0:0:0:
346,157,119441,1,0,0:0:0:0:
338,159,119641,1,0,0:0:0:0:
259,205,119671,1,0,0:0:0:0:
173,113,119941,1,0,0:0:0:0:
80,110,119971,1,0,0:0:0:0:
165,168,120241,1,0,0:0:0:0:
276,228,120271,1,0,0:0:0:0:
228,171,120391,1,0,0:0:0:0:
311,160,120471,1,0,0:0:0:0:
254,150,120561,1,0,0:0:0:0:
291,135,120621,1,0,0:0:0:0:
289,83,120721,1,0,0:0:0:0:
219,130,120754,1,0,0:0:0:0:
319,187,121081,1,0,0:0:0:0:
109,207,121101,1,0,0:0:0:0:
151,113,121104,1,0,0:0:0:0:
228,236,121391,1,0,0:0:0:0:
255,108,121461,1,0,0:0:0:0:
158,206,121471,1,0,0:0:0:0:
177,181,121481,1,0,0:0:0:0:
101,123,121731,1,0,0:0:0:0:
232,147,121787,1,0,0:0:0:0:
153,160,121831,1,0,0:0:0:0:
205,128,121911,1,0,0:0:0:0:
298,156,121971,1,0,0:0:0:0:
315,212,122011,1,0,0:0:0:0:
363,120,122131,1,0,0:0:0:0:
286,157,122154,1,0,0:0:0:0:
347,146,122161,1,0,0:0:0:0:
347,146,122381,1,0,0:0:0:0:
238,288,122401,1,0,0:0:0:0:
197,123,122421,1,0,0:0:0:0:
302,253,122691,1,0,0:0:0:0:
90,167,122731,1,0,0:0:0:0:
293,252,122737,1,0,0:0:0:0:
203,182,123011,1,0,0:0:0:0:
348,183,123054,1,0,0:0:0:0:
273,157,123071,1,0,0:0:0:0:
181,155,123181,1,0,0:0:0:0:
306,184,123231,1,0,0:0:0:0:
249,148,123237,1,0,0:0:0:0:
264,99,123341,1,0,0:0:0:0:
205,170,123387,1,0,0:0:0:0:
248,199,123431,1,0,0:0:0:0:
290,93,123511,1,0,0:0:0:0:
187,182,123554,1,0,0:0:0:0:
172,150,123571,1,0,0:0:0:0:
349,99,123821,1,0,0:0:0:0:
313,217,123851,1,0,0:0:0:0:
299,114,123871,1,0,0:0:0:0:
216,254,124181,1,0,0:0:0:0:
158,217,124211,1,0,0:0:0:0:
313,261,124221,1,0,0:0:0:0:
129,175,124371,1,0,0:0:0:0:
156,230,124421,1,0,0:0:0:0:
38,151,124431,1,0,0:0:0:0:
166,102,124541,1,0,0:0:0:0:
109,121,124591,1,0,0:0:0:0:
131,113,124604,1,0,0:0:0:0:
255,105,124721,1,0,0:0:0:0:
290,95,124761,1,0,0:0:0:0:
306,169,124771,1,0,0:0:0:0:
272,185,124901,1,0,0:0:0:0:
309,80,124951,1,0,0:0:0:0:
316,152,124954,1,0,0:0:0:0:
244,233,125141,1,0,0:0:0:0:
238,149,125191,1,0,0:0:0:0:
205,263,125237,1,0,0:0:0:0:
159,115,125451,1,0,0:0:0:0:
141,247,125481,1,0,0:0:0:0:
100,122,125554,1,0,0:0:0:0:
282,148,125771,1,0,0:0:0:0:
276,113,125791,1,0,0:0:0:0:
299,129,125854,1,0,0:0:0:0:
347,136,125971,1,0,0:0:0:0:
279,150,125981,1,0,0:0:0:0:
303,123,126004,1,0,0:0:0:0:
343,219,126131,1,0,0:0:0:0:
206,177,126161,1,0,0:0:0:0:
301,167,126171,1,0,0:0:0:0:
316,231,126301,1,0,0:0:0:0:
185,138,126331,1,0,0:0:0:0:
208,148,126354,1,0,0:0:0:0:
268,61,126511,1,0,0:0:0:0:
351,93,126621,1,0,0:0:0:0:
136,102,126651,1,0,0:0:0:0:
162,187,126981,1,0,0:0:0:0:
359,134,127004,1,0,0:0:0:0:
243,129,127301,1,0,0:0:0:0:
122,134,127321,1,0,0:0:0:0:
98,100,127471,1,0,0:0:0:0:
254,128,127481,1,0,0:0:0:0:
235,207,127501,1,0,0:0:0:0:
251,250,127637,1,0,0:0:0:0:
306,183,127651,1,0,0:0:0:0:
339,151,127691,1,0,0:0:0:0:
333,213,127861,1,0,0:0:0:0:
301,234,127901,1,0,0:0:0:0:
294,158,127904,1,0,0:0:0:0:
361,86,128171,1,0,0:0:0:0:
269,175,128187,1,0,0:0:0:0:
134,117,128221,1,0,0:0:0:0:
191,197,128471,1,0,0:0:0:0:
304,113,128531,1,0,0:0:0:0:
346,74,128654,1,0,0:0:0:0:
262,143,128701,1,0,0:0:0:0:
107,157,128731,1,0,0:0:0:0:
349,69,128837,1,0,0:0:0:0:
221,170,128851,1,0,0:0:0:0:
147,88,128891,1,0,0:0:0:0:
257,345,128971,1,0,0:0:0:0:
167,217,129031,1,0,0:0:0:0:
234,123,129051,1,0,0:0:0:0:
244,179,129341,1,0,0:0:0:0:
116,235,129371,1,0,0:0:0:0:
339,107,129401,1,0,0:0:0:0:
292,234,129661,1,0,0:0:0:0:
232,116,129704,1,0,0:0:0:0:
208,207,129781,1,0,0:0:0:0:
284,278,129831,1,0,0:0:0:0:
196,300,130031,1,0,0:0:0:0:
321,268,130071,1,0,0:0:0:0:
10,177,130081,1,0,0:0:0:0:
193,205,130261,1,0,0:0:0:0:
305,103,130337,1,0,0:0:0:0:
156,222,130361,1,0,0:0:0:0:
224,153,130451,1,0,0:0:0:0:
152,224,130487,1,0,0:0:0:0:
145,233,130654,1,0,0:0:0:0:
244,207,130671,1,0,0:0:0:0:
121,126,130691,1,0,0:0:0:0:
164,136,130954,1,0,0:0:0:0:
364,115,130981,1,0,0:0:0:0:
386,283,131271,1,0,0:0:0:0:
410,212,131281,1,0,0:0:0:0:
272,201,131331,1,0,0:0:0:0:
371,261,131431,1,0,0:0:0:0:
119,160,131501,1,0,0:0:0:0:
279,157,131571,1,0,0:0:0:0:
298,272,131601,1,0,0:0:0:0:
77,151,131661,1,0,0:0:0:0:
219,166,131721,1,0,0:0:0:0:
192,248,131781,1,0,0:0:0:0:
153,240,131821,1,0,0:0:0:0:
196,197,131851,1,0,0:0:0:0:
284,120,132101,1,0,0:0:0:0:
425,156,132104,1,0,0:0:0:0:
171,127,132111,1,0,0:0:0:0:
261,88,132121,1,0,0:0:0:0:
274,108,132451,1,0,0:0:0:0:
356,63,132471,1,0,0:0:0:0:
261,88,132481,1,0,0:0:0:0:
363,114,132621,1,0,0:0:0:0:
351,149,132811,1,0,0:0:0:0:
138,188,132831,1,0,0:0:0:0:
239,212,132837,1,0,0:0:0:0:
229,123,133191,1,0,0:0:0:0:
328,182,133211,1,0,0:0:0:0:
156,155,133221,1,0,0:0:0:0:
346,275,133521,1,0,0:0:0:0:
280,164,133531,1,0,0:0:0:0:
193,177,133851,1,0,0:0:0:0:
357,113,133887,1,0,0:0:0:0:
182,170,133891,1,0,0:0:0:0:
121,288,134204,1,0,0:0:0:0:
342,187,134271,1,0,0:0:0:0:
149,98,134537,1,0,0:0:0:0:
173,118,134571,1,0,0:0:0:0:
381,131,134581,1,0,0:0:0:0:
243,261,134887,1,0,0:0:0:0:
328,258,134941,1,0,0:0:0:0:
215,240,134951,1,0,0:0:0:0:
276,133,135237,1,0,0:0:0:0:
304,86,135271,1,0,0:0:0:0:
233,165,135311,1,0,0:0:0:0:
298,318,135554,1,0,0:0:0:0:
177,240,135621,1,0,0:0:0:0:
142,213,135641,1,0,0:0:0:0:
51,58,135904,1,0,0:0:0:0:
127,95,135951,1,0,0:0:0:0:
225,161,135981,1,0,0:0:0:0:
281,225,136237,1,0,0:0:0:0:
337,117,136321,1,0,0:0:0:0:
267,207,136331,1,0,0:0:0:0:
367,72,136554,1,0,0:0:0:0:
371,258,136661,1,0,0:0:0:0:
210,145,136691,1,0,0:0:0:0:
338,303,136904,1,0,0:0:0:0:
157,196,137001,1,0,0:0:0:0:
175,214,137011,1,0,0:0:0:0:
138,237,137271,1,0,0:0:0:0:
156,155,137331,1,0,0:0:0:0:
247,153,137351,1,0,0:0:0:0:
286,211,137661,1,0,0:0:0:0:
311,133,137681,1,0,0:0:0:0:
301,127,137687,1,0,0:0:0:0:
307,205,138011,1,0,0:0:0:0:
230,289,138021,1,0,0:0:0:0:
166,162,138031,1,0,0:0:0:0:
91,137,138337,1,0,0:0:0:0:
133,185,138351,1,0,0:0:0:0:
147,251,138361,1,0,0:0:0:0:
246,230,138687,1,0,0:0:0:0:
282,137,138701,1,0,0:0:0:0:
273,81,138711,1,0,0:0:0:0:
357,229,139021,1,0,0:0:0:0:
261,138,139037,1,0,0:0:0:0:
406,153,139041,1,0,0:0:0:0:
226,152,139351,1,0,0:0:0:0:
182,263,139354,1,0,0:0:0:0:
110,192,139411,1,0,0:0:0:0:
220,163,139671,1,0,0:0:0:0:
128,211,139711,1,0,0:0:0:0:
301,217,140021,1,0,0:0:0:0:
232,114,140051,1,0,0:0:0:0:
235,135,140081,1,0,0:0:0:0:
369,223,140371,1,0,0:0:0:0:
343,135,140387,1,0,0:0:0:0:
151,188,140431,1,0,0:0:0:0:
121,266,140711,1,0,0:0:0:0:
294,293,140737,1,0,0:0:0:0:
118,151,140761,1,0,0:0:0:0:
116,193,141091,1,0,0:0:0:0:
284,131,141101,1,0,0:0:0:0:
197,178,141104,1,0,0:0:0:0:
166,104,141421,1,0,0:0:0:0:
311,196,141461,1,0,0:0:0:0:
306,221,141471,1,0,0:0:0:0:
279,207,141721,1,0,0:0:0:0:
59,214,141781,1,0,0:0:0:0:
330,135,141804,1,0,0:0:0:0:
346,135,142071,1,0,0:0:0:0:
208,39,142101,1,0,0:0:0:0:
261,182,142137,1,0,0:0:0:0:
346,205,142421,1,0,0:0:0:0:
304,176,142451,1,0,0:0:0:0:
240,155,142487,1,0,0:0:0:0:
338,113,142761,1,0,0:0:0:0:
211,176,142771,1,0,0:0:0:0:
321,224,142804,1,0,0:0:0:0:
177,165,143091,1,0,0:0:0:0:
314,177,143111,1,0,0:0:0:0:
344,146,143137,1,0,0:0:0:0:
149,312,143421,1,0,0:0:0:0:
169,146,143431,1,0,0:0:0:0:
270,145,143471,1,0,0:0:0:0:
215,107,144021,1,0,0:0:0:0:
317,137,144041,1,0,0:0:0:0:
258,163,144061,1,0,0:0:0:0:
179,157,144771,1,0,0:0:0:0:
336,187,144787,1,0,0:0:0:0:
397,142,145511,1,0,0:0:0:0:
159,145,145521,1,0,0:0:0:0:
410,118,145531,1,0,0:0:0:0:
286,175,146187,1,0,0:0:0:0:
148,175,146191,1,0,0:0:0:0:
241,165,146221,1,0,0:0:0:0:
408,237,146881,1,0,0:0:0:0:
400,165,146901,1,0,0:0:0:0:
134,157,146904,1,0,0:0:0:0:
212,144,146921,1,0,0:0:0:0:
184,263,147561,1,0,0:0:0:0:
368,103,147611,1,0,0:0:0:0:
233,187,147661,1,0,0:0:0:0:
331,111,147671,1,0,0:0:0:0:
474,68,148231,1,0,0:0:0:0:
420,170,148271,1,0,0:0:0:0:
105,164,148291,1,0,0:0:0:0:
181,142,148354,1,0,0:0:0:0:
306,123,148961,1,0,0:0:0:0:
193,199,148991,1,0,0:0:0:0:
239,202,149001,1,0,0:0:0:0:
366,257,149004,1,0,0:0:0:0:
271,188,149421,1,0,0:0:0:0:
96,211,149711,1,0,0:0:0:0:
433,152,149721,1,0,0:0:0:0:
271,188,150351,1,0,0:0:0:0:
202,188,150381,1,0,0:0:0:0:
391,101,150391,1,0,0:0:0:0:
361,157,150421,1,0,0:0:0:0:
373,141,151051,1,0,0:0:0:0:
199,208,151091,1,0,0:0:0:0:
161,183,151104,1,0,0:0:0:0:
142,202,151111,1,0,0:0:0:0:
377,131,151741,1,0,0:0:0:0:
170,197,151751,1,0,0:0:0:0:
351,163,151804,1,0,0:0:0:0:
136,271,151811,1,0,0:0:0:0:
280,220,152411,1,0,0:0:0:0:
450,136,152441,1,0,0:0:0:0:
46,179,152451,1,0,0:0:0:0:
134,150,152504,1,0,0:0:0:0:
378,172,153121,1,0,0:0:0:0:
106,216,153151,1,0,0:0:0:0:
136,70,153161,1,0,0:0:0:0:
327,117,153187,1,0,0:0:0:0:
272,230,153801,1,0,0:0:0:0:
191,204,153811,1,0,0:0:0:0:
331,142,153881,1,0,0:0:0:0:
178,209,153887,1,0,0:0:0:0:
264,152,154461,1,0,0:0:0:0:
167,242,154491,1,0,0:0:0:0:
304,122,154537,1,0,0:0:0:0:
196,149,154831,1,0,0:0:0:0:
276,235,154861,1,0,0:0:0:0:
166,156,154887,1,0,0:0:0:0:
195,157,155001,1,0,0:0:0:0:
276,239,155021,1,0,0:0:0:0:
236,248,155054,1,0,0:0:0:0:
260,160,155171,1,0,0:0:0:0:
272,238,155211,1,0,0:0:0:0:
298,152,155237,1,0,0:0:0:0:
277,120,155411,1,0,0:0:0:0:
220,359,155437,1,0,0:0:0:0:
100,245,155501,1,0,0:0:0:0:
342,285,155741,1,0,0:0:0:0:
117,196,155787,1,0,0:0:0:0:
331,193,155791,1,0,0:0:0:0:
179,212,156037,1,0,0:0:0:0:
314,219,156131,1,0,0:0:0:0:
192,156,156141,1,0,0:0:0:0:
289,155,156221,1,0,0:0:0:0:
180,124,156291,1,0,0:0:0:0:
211,320,156371,1,0,0:0:0:0:
155,114,156471,1,0,0:0:0:0:
295,244,156491,1,0,0:0:0:0:
163,322,156571,1,0,0:0:0:0:
128,121,156611,1,0,0:0:0:0:
300,216,156641,1,0,0:0:0:0:
119,197,156904,1,0,0:0:0:0:
123,189,156911,1,0,0:0:0:0:
199,188,156961,1,0,0:0:0:0:
342,67,157251,1,0,0:0:0:0:
248,128,157271,1,0,0:0:0:0:
246,191,157331,1,0,0:0:0:0:
218,161,157351,1,0,0:0:0:0:
369,113,157401,1,0,0:0:0:0:
421,334,157437,1,0,0:0:0:0:
246,191,157501,1,0,0:0:0:0:
218,161,157531,1,0,0:0:0:0:
377,233,157591,1,0,0:0:0:0:
231,216,157604,1,0,0:0:0:0:
229,187,157671,1,0,0:0:0:0:
328,105,157701,1,0,0:0:0:0:
221,184,157754,1,0,0:0:0:0:
361,241,157761,1,0,0:0:0:0:
246,191,157851,1,0,0:0:0:0:
314,154,157871,1,0,0:0:0:0:
156,140,157937,1,0,0:0:0:0:
285,195,157941,1,0,0:0:0:0:
309,157,158031,1,0,0:0:0:0:
262,202,158041,1,0,0:0:0:0:
160,176,158121,1,0,0:0:0:0:
209,139,158201,1,0,0:0:0:0:
130,124,158271,1,0,0:0:0:0:
248,224,158281,1,0,0:0:0:0:
168,171,158287,1,0,0:0:0:0:
216,93,158471,1,0,0:0:0:0:
127,262,158531,1,0,0:0:0:0:
196,176,158541,1,0,0:0:0:0:
287,157,158571,1,0,0:0:0:0:
245,187,158861,1,0,0:0:0:0:
406,134,158901,1,0,0:0:0:0:
354,95,158931,1,0,0:0:0:0:
208,279,159001,1,0,0:0:0:0:
265,159,159031,1,0,0:0:0:0:
355,115,159081,1,0,0:0:0:0:
269,273,159171,1,0,0:0:0:0:
156,354,159187,1,0,0:0:0:0:
320,136,159201,1,0,0:0:0:0:
343,144,159251,1,0,0:0:0:0:
337,237,159331,1,0,0:0:0:0:
404,180,159371,1,0,0:0:0:0:
314,116,159391,1,0,0:0:0:0:
328,148,159401,1,0,0:0:0:0:
337,165,159681,1,0,0:0:0:0:
304,136,159687,1,0,0:0:0:0:
81,86,159731,1,0,0:0:0:0:
253,107,160041,1,0,0:0:0:0:
178,121,160051,1,0,0:0:0:0:
191,153,160071,1,0,0:0:0:0:
181,170,160091,1,0,0:0:0:0:
172,250,160371,1,0,0:0:0:0:
280,89,160421,1,0,0:0:0:0:
262,258,160561,1,0,0:0:0:0:
272,223,160581,1,0,0:0:0:0:
357,194,160601,1,0,0:0:0:0:
299,245,160731,1,0,0:0:0:0:
237,100,160751,1,0,0:0:0:0:
356,220,160761,1,0,0:0:0:0:
336,148,160961,1,0,0:0:0:0:
173,173,161011,1,0,0:0:0:0:
141,176,161051,1,0,0:0:0:0:
168,133,161291,1,0,0:0:0:0:
388,217,161301,1,0,0:0:0:0:
349,95,161331,1,0,0:0:0:0:
366,302,161581,1,0,0:0:0:0:
327,166,161651,1,0,0:0:0:0:
288,123,161661,1,0,0:0:0:0:
240,307,161781,1,0,0:0:0:0:
336,123,161821,1,0,0:0:0:0:
258,165,161831,1,0,0:0:0:0:
165,306,161941,1,0,0:0:0:0:
333,166,161991,1,0,0:0:0:0:
146,258,162111,1,0,0:0:0:0:
202,88,162151,1,0,0:0:0:0:
293,156,162171,1,0,0:0:0:0:
127,191,162481,1,0,0:0:0:0:
231,131,162501,1,0,0:0:0:0:
344,151,162831,1,0,0:0:0:0:
205,169,162891,1,0,0:0:0:0:
318,207,162981,1,0,0:0:0:0:
301,176,163061,1,0,0:0:0:0:
213,266,163161,1,0,0:0:0:0:
309,161,163211,1,0,0:0:0:0:
181,156,163341,1,0,0:0:0:0:
316,136,163381,1,0,0:0:0:0:
276,113,163521,1,0,0:0:0:0:
315,122,163571,1,0,0:0:0:0:
315,109,163761,1,0,0:0:0:0:
276,113,163771,1,0,0:0:0:0:
265,253,164051,1,0,0:0:0:0:
224,130,164071,1,0,0:0:0:0:
104,166,164401,1,0,0:0:0:0:
305,192,164431,1,0,0:0:0:0:
108,140,164581,1,0,0:0:0:0:
377,159,164591,1,0,0:0:0:0:
397,191,164741,1,0,0:0:0:0:
163,123,164751,1,0,0:0:0:0:
352,240,164901,1,0,0:0:0:0:
245,118,164911,1,0,0:0:0:0:
272,244,165251,1,0,0:0:0:0:
214,105,165261,1,0,0:0:0:0:
77,229,165581,1,0,0:0:0:0:
119,248,165621,1,0,0:0:0:0:
268,173,165921,1,0,0:0:0:0:
366,126,165951,1,0,0:0:0:0:
250,175,165971,1,0,0:0:0:0:
355,195,166091,1,0,0:0:0:0:
281,148,166131,1,0,0:0:0:0:
286,193,166161,1,0,0:0:0:0:
289,114,166271,1,0,0:0:0:0:
320,258,166281,1,0,0:0:0:0:
316,207,166331,1,0,0:0:0:0:
90,129,166551,1,0,0:0:0:0:
211,72,166561,1,0,0:0:0:0:
183,133,166591,1,0,0:0:0:0:
156,219,166851,1,0,0:0:0:0:
179,270,166861,1,0,0:0:0:0:
178,165,166901,1,0,0:0:0:0:
286,104,167151,1,0,0:0:0:0:
257,203,167191,1,0,0:0:0:0:
295,177,167331,1,0,0:0:0:0:
335,305,167341,1,0,0:0:0:0:
274,188,167501,1,0,0:0:0:0:
250,144,167521,1,0,0:0:0:0:
234,136,167671,1,0,0:0:0:0:
187,257,167681,1,0,0:0:0:0:
96,120,167921,1,0,0:0:0:0:
149,95,168021,1,0,0:0:0:0:
153,201,168271,1,0,0:0:0:0:
39,118,168321,1,0,0:0:0:0:
351,82,168341,1,0,0:0:0:0:
216,222,168441,1,0,0:0:0:0:
97,167,168481,1,0,0:0:0:0:
358,192,168531,1,0,0:0:0:0:
261,181,168641,1,0,0:0:0:0:
188,122,168651,1,0,0:0:0:0:
342,214,168691,1,0,0:0:0:0:
298,135,168821,1,0,0:0:0:0:
196,118,168831,1,0,0:0:0:0:
230,221,168871,1,0,0:0:0:0:
334,180,168981,1,0,0:0:0:0:
216,254,169031,1,0,0:0:0:0:
223,157,169041,1,0,0:0:0:0:
356,251,169211,1,0,0:0:0:0:
255,67,169301,1,0,0:0:0:0:
414,59,169331,1,0,0:0:0:0:
247,164,169601,1,0,0:0:0:0:
256,175,169631,1,0,0:0:0:0:
203,184,169921,1,0,0:0:0:0:
269,203,169931,1,0,0:0:0:0:
192,177,169961,1,0,0:0:0:0:
207,229,170101,1,0,0:0:0:0:
161,201,170131,1,0,0:0:0:0:
175,116,170261,1,0,0:0:0:0:
281,243,170301,1,0,0:0:0:0:
234,206,170321,1,0,0:0:0:0:
159,129,170431,1,0,0:0:0:0:
347,214,170451,1,0,0:0:0:0:
296,125,170501,1,0,0:0:0:0:
326,113,170751,1,0,0:0:0:0:
351,74,170761,1,0,0:0:0:0:
327,140,170791,1,0,0:0:0:0:
216,96,171081,1,0,0:0:0:0:
374,209,171121,1,0,0:0:0:0:
292,243,171131,1,0,0:0:0:0:
211,182,171451,1,0,0:0:0:0:
207,177,171471,1,0,0:0:0:0:
54,103,171501,1,0,0:0:0:0:
228,228,171611,1,0,0:0:0:0:
162,200,171641,1,0,0:0:0:0:
299,169,171681,1,0,0:0:0:0:
261,256,171761,1,0,0:0:0:0:
144,260,171821,1,0,0:0:0:0:
321,104,171861,1,0,0:0:0:0:
328,180,172001,1,0,0:0:0:0:
170,322,172081,1,0,0:0:0:0:
249,236,172091,1,0,0:0:0:0:
373,284,172281,1,0,0:0:0:0:
116,237,172361,1,0,0:0:0:0:
349,167,172401,1,0,0:0:0:0:
268,228,172661,1,0,0:0:0:0:
129,157,172671,1,0,0:0:0:0:
346,251,172731,1,0,0:0:0:0:
195,166,172851,1,0,0:0:0:0:
201,157,172861,1,0,0:0:0:0:
280,220,172911,1,0,0:0:0:0:
182,125,173031,1,0,0:0:0:0:
278,110,173091,1,0,0:0:0:0:
215,117,173201,1,0,0:0:0:0:
273,108,173211,1,0,0:0:0:0:
128,108,173471,1,0,0:0:0:0:
301,120,173511,1,0,0:0:0:0:
179,209,173551,1,0,0:0:0:0:
117,227,173841,1,0,0:0:0:0:
348,168,173851,1,0,0:0:0:0:
166,137,173901,1,0,0:0:0:0:
146,255,174041,1,0,0:0:0:0:
286,258,174051,1,0,0:0:0:0:
323,210,174061,1,0,0:0:0:0:
245,243,174221,1,0,0:0:0:0:
355,206,174271,1,0,0:0:0:0:
256,79,174391,1,0,0:0:0:0:
217,193,174401,1,0,0:0:0:0:
351,123,174451,1,0,0:0:0:0:
266,88,174571,1,0,0:0:0:0:
217,142,174581,1,0,0:0:0:0:
182,227,174631,1,0,0:0:0:0:
346,171,174801,1,0,0:0:0:0:
174,110,174811,1,0,0:0:0:0:
131,192,174881,1,0,0:0:0:0:
397,188,175111,1,0,0:0:0:0:
146,180,175121,1,0,0:0:0:0:
223,131,175221,1,0,0:0:0:0:
155,239,175421,1,0,0:0:0:0:
245,276,175461,1,0,0:0:0:0:
166,263,175591,1,0,0:0:0:0:
211,237,175611,1,0,0:0:0:0:
293,205,175641,1,0,0:0:0:0:
214,265,175751,1,0,0:0:0:0:
185,210,175781,1,0,0:0:0:0:
226,215,175801,1,0,0:0:0:0:
179,207,175941,1,0,0:0:0:0:
258,172,175951,1,0,0:0:0:0:
272,96,176201,1,0,0:0:0:0:
170,117,176291,1,0,0:0:0:0:
183,147,176321,1,0,0:0:0:0:
405,185,176571,1,0,0:0:0:0:
274,152,176641,1,0,0:0:0:0:
257,147,176671,1,0,0:0:0:0:
386,222,176731,1,0,0:0:0:0:
268,169,176821,1,0,0:0:0:0:
257,147,176841,1,0,0:0:0:0:
346,229,176941,1,0,0:0:0:0:
257,147,176991,1,0,0:0:0:0:
268,169,177001,1,0,0:0:0:0:
280,198,177121,1,0,0:0:0:0:
264,171,177161,1,0,0:0:0:0:
261,176,177301,1,0,0:0:0:0:
262,169,177321,1,0,0:0:0:0:
137,186,177351,1,0,0:0:0:0:
228,187,177471,1,0,0:0:0:0:
125,253,177481,1,0,0:0:0:0:
264,164,177491,1,0,0:0:0:0:
221,252,177631,1,0,0:0:0:0:
265,160,177651,1,0,0:0:0:0:
251,283,177801,1,0,0:0:0:0:
236,173,177831,1,0,0:0:0:0:
186,195,177841,1,0,0:0:0:0:
282,285,177971,1,0,0:0:0:0:
226,149,178011,1,0,0:0:0:0:
156,268,178021,1,0,0:0:0:0:
335,209,178141,1,0,0:0:0:0:
194,133,178151,1,0,0:0:0:0:
206,262,178171,1,0,0:0:0:0:
335,156,178291,1,0,0:0:0:0:
266,209,178301,1,0,0:0:0:0:
361,143,178341,1,0,0:0:0:0:
339,142,178461,1,0,0:0:0:0:
153,234,178481,1,0,0:0:0:0:
364,107,178511,1,0,0:0:0:0:
357,173,178611,1,0,0:0:0:0:
167,251,178631,1,0,0:0:0:0:
219,149,178671,1,0,0:0:0:0:
356,242,178781,1,0,0:0:0:0:
333,268,178801,1,0,0:0:0:0:
176,100,178821,1,0,0:0:0:0:
125,226,178921,1,0,0:0:0:0:
325,282,178961,1,0,0:0:0:0:
176,100,179001,1,0,0:0:0:0:
232,179,179071,1,0,0:0:0:0:
200,261,179121,1,0,0:0:0:0:
188,167,179131,1,0,0:0:0:0:
246,173,179211,1,0,0:0:0:0:
212,160,179241,1,0,0:0:0:0:
173,232,179271,1,0,0:0:0:0:
244,184,179351,1,0,0:0:0:0:
236,126,179371,1,0,0:0:0:0:
158,212,179451,1,0,0:0:0:0:
216,148,179491,1,0,0:0:0:0:
142,99,179531,1,0,0:0:0:0:
161,265,179621,1,0,0:0:0:0:
206,141,179651,1,0,0:0:0:0:
171,155,179671,1,0,0:0:0:0:
297,318,179801,1,0,0:0:0:0:
150,170,179811,1,0,0:0:0:0:
271,142,179831,1,0,0:0:0:0:
291,108,179951,1,0,0:0:0:0:
215,237,179991,1,0,0:0:0:0:
337,296,180001,1,0,0:0:0:0:
222,118,180081,1,0,0:0:0:0:
337,255,180151,1,0,0:0:0:0:
334,132,180191,1,0,0:0:0:0:
174,202,180221,1,0,0:0:0:0:
322,203,180311,1,0,0:0:0:0:
246,304,180341,1,0,0:0:0:0:
235,224,180381,1,0,0:0:0:0:
331,185,180461,1,0,0:0:0:0:
290,175,180501,1,0,0:0:0:0:
136,277,180541,1,0,0:0:0:0:
357,180,180631,1,0,0:0:0:0:
288,189,180641,1,0,0:0:0:0:
151,200,180721,1,0,0:0:0:0:
166,216,180801,1,0,0:0:0:0:
366,268,180821,1,0,0:0:0:0:
261,136,180891,1,0,0:0:0:0:
151,91,180961,1,0,0:0:0:0:
341,299,181001,1,0,0:0:0:0:
267,142,181021,1,0,0:0:0:0:
312,154,181101,1,0,0:0:0:0:
287,273,181151,1,0,0:0:0:0:
242,204,181201,1,0,0:0:0:0:
346,172,181291,1,0,0:0:0:0:
236,234,181341,1,0,0:0:0:0:
63,105,181381,1,0,0:0:0:0:
304,140,181411,1,0,0:0:0:0:
223,175,181541,1,0,0:0:0:0:
221,301,181591,1,0,0:0:0:0:
180,200,181641,1,0,0:0:0:0:
306,109,181731,1,0,0:0:0:0:
106,290,181791,1,0,0:0:0:0:
181,181,181811,1,0,0:0:0:0:
311,123,181881,1,0,0:0:0:0:
180,269,181941,1,0,0:0:0:0:
224,208,181951,1,0,0:0:0:0:
288,166,182011,1,0,0:0:0:0:
271,252,182091,1,0,0:0:0:0:
204,105,182161,1,0,0:0:0:0:
199,132,182251,1,0,0:0:0:0:
318,255,182271,1,0,0:0:0:0:
285,135,182341,1,0,0:0:0:0:
167,247,182431,1,0,0:0:0:0:
321,180,182451,1,0,0:0:0:0:
382,173,182521,1,0,0:0:0:0:
291,287,182611,1,0,0:0:0:0:
251,153,182631,1,0,0:0:0:0:
318,177,182681,1,0,0:0:0:0:
341,184,182771,1,0,0:0:0:0:
206,185,182811,1,0,0:0:0:0:
115,295,182861,1,0,0:0:0:0:
283,128,182931,1,0,0:0:0:0:
184,217,182961,1,0,0:0:0:0:
95,159,183021,1,0,0:0:0:0:
173,168,183111,1,0,0:0:0:0:
138,234,183151,1,0,0:0:0:0:
329,199,183171,1,0,0:0:0:0:
207,257,183271,1,0,0:0:0:0:
353,125,183341,1,0,0:0:0:0:
136,207,183351,1,0,0:0:0:0:
460,226,183461,1,0,0:0:0:0:
164,192,183481,1,0,0:0:0:0:
204,282,183511,1,0,0:0:0:0:
474,223,183651,1,0,0:0:0:0:
205,224,183671,1,0,0:0:0:0:
144,206,183691,1,0,0:0:0:0:
256,263,183831,1,0,0:0:0:0:
263,194,183841,1,0,0:0:0:0:
283,210,183861,1,0,0:0:0:0:
393,115,183981,1,0,0:0:0:0:
311,249,184021,1,0,0:0:0:0:
315,176,184041,1,0,0:0:0:0:
354,121,184151,1,0,0:0:0:0:
316,220,184171,1,0,0:0:0:0:
171,297,184211,1,0,0:0:0:0:
269,180,184331,1,0,0:0:0:0:
129,261,184391,1,0,0:0:0:0:
194,216,184501,1,0,0:0:0:0:
275,133,184511,1,0,0:0:0:0:
339,185,184551,1,0,0:0:0:0:
144,222,184661,1,0,0:0:0:0:
358,175,184691,1,0,0:0:0:0:
244,143,184841,1,0,0:0:0:0:
235,167,184861,1,0,0:0:0:0:
232,178,185011,1,0,0:0:0:0:
263,137,185021,1,0,0:0:0:0:
246,212,185181,1,0,0:0:0:0:
298,190,185191,1,0,0:0:0:0:
305,208,185351,1,0,0:0:0:0:
358,175,185391,1,0,0:0:0:0:
441,191,185521,1,0,0:0:0:0:
251,217,185531,1,0,0:0:0:0:
318,217,185631,1,0,0:0:0:0:
450,167,185681,1,0,0:0:0:0:
214,228,185701,1,0,0:0:0:0:
141,335,185851,1,0,0:0:0:0:
238,114,185861,1,0,0:0:0:0:
95,229,185991,1,0,0:0:0:0:
137,168,186081,1,0,0:0:0:0:
101,101,186121,1,0,0:0:0:0:
304,124,186251,1,0,0:0:0:0:
189,180,186301,1,0,0:0:0:0:
380,107,186451,1,0,0:0:0:0:
276,119,186501,1,0,0:0:0:0:
372,127,186591,1,0,0:0:0:0:
91,318,186671,1,0,0:0:0:0:
412,35,186741,1,0,0:0:0:0:
314,175,186791,1,0,0:0:0:0:
97,264,186871,1,0,0:0:0:0:
286,143,186951,1,0,0:0:0:0:
231,231,187041,1,0,0:0:0:0:
282,144,187131,1,0,0:0:0:0:
265,179,187211,1,0,0:0:0:0:
372,127,187251,1,0,0:0:0:0:
280,142,187311,1,0,0:0:0:0:
261,187,187361,1,0,0:0:0:0:
259,157,187471,1,0,0:0:0:0:
211,195,187531,1,0,0:0:0:0:
256,166,187641,1,0,0:0:0:0:
227,120,187691,1,0,0:0:0:0:
309,154,187751,1,0,0:0:0:0:
345,135,188071,1,0,0:0:0:0:
278,139,188111,1,0,0:0:0:0:
345,95,188121,1,0,0:0:0:0:
319,152,188531,1,0,0:0:0:0:
326,119,188561,1,0,0:0:0:0:
147,168,188611,1,0,0:0:0:0:
208,204,188951,1,0,0:0:0:0:
347,87,188981,1,0,0:0:0:0:
331,145,189011,1,0,0:0:0:0:
314,227,189561,1,0,0:0:0:0:
263,236,189701,1,0,0:0:0:0:
285,155,189721,1,0,0:0:0:0:
314,227,189731,1,0,0:0:0:0:
337,100,190041,1,0,0:0:0:0:
289,152,190071,1,0,0:0:0:0:
125,152,190091,1,0,0:0:0:0:
237,244,190431,1,0,0:0:0:0:
320,210,190921,1,0,0:0:0:0:
198,172,190961,1,0,0:0:0:0:
144,180,190971,1,0,0:0:0:0:
266,131,191361,1,0,0:0:0:0:
242,199,191401,1,0,0:0:0:0:
369,117,191461,1,0,0:0:0:0:
302,199,192241,1,0,0:0:0:0:
163,190,192331,1,0,0:0:0:0:
193,189,192781,1,0,0:0:0:0:
326,144,192791,1,0,0:0:0:0:
360,122,193151,1,0,0:0:0:0:
135,214,193211,1,0,0:0:0:0:
145,195,193221,1,0,0:0:0:0:
327,146,193721,1,0,0:0:0:0:
294,110,193741,1,0,0:0:0:0:
241,138,193771,1,0,0:0:0:0:
331,113,194141,1,0,0:0:0:0:
203,209,194201,1,0,0:0:0:0:
140,166,194221,1,0,0:0:0:0:
249,156,194501,1,0,0:0:0:0:
332,133,194561,1,0,0:0:0:0:
283,177,194571,1,0,0:0:0:0:
395,122,195101,1,0,0:0:0:0:
102,110,195141,1,0,0:0:0:0:
173,194,195151,1,0,0:0:0:0:
365,260,195461,1,0,0:0:0:0:
306,181,195591,1,0,0:0:0:0:
259,177,195811,1,0,0:0:0:0:
288,225,195861,1,0,0:0:0:0:
261,179,195961,1,0,0:0:0:0:
111,204,195971,1,0,0:0:0:0:
261,189,196101,1,0,0:0:0:0:
296,201,196221,1,0,0:0:0:0:
480,124,196271,1,0,0:0:0:0:
297,160,196291,1,0,0:0:0:0:
256,192,196351,1,0,0:0:0:0:
237,172,196461,1,0,0:0:0:0:
296,201,196511,1,0,0:0:0:0:
333,130,196591,1,0,0:0:0:0:
249,208,196601,1,0,0:0:0:0:
296,201,196661,1,0,0:0:0:0:
146,200,196671,1,0,0:0:0:0:
262,150,196691,1,0,0:0:0:0:
285,200,196821,1,0,0:0:0:0:
3,310,196841,1,0,0:0:0:0:
38,251,196911,1,0,0:0:0:0:
235,218,196951,1,0,0:0:0:0:
273,170,196981,1,0,0:0:0:0:
206,93,196991,1,0,0:0:0:0:
187,198,197061,1,0,0:0:0:0:
242,249,197111,1,0,0:0:0:0:
193,135,197201,1,0,0:0:0:0:
279,248,197241,1,0,0:0:0:0:
296,200,197321,1,0,0:0:0:0:
270,167,197341,1,0,0:0:0:0:
294,226,197361,1,0,0:0:0:0:
292,186,198571,1,0,0:0:0:0:
126,207,198611,1,0,0:0:0:0:
126,98,198691,1,0,0:0:0:0:
291,189,198951,1,0,0:0:0:0:
102,222,199026,1,0,0:0:0:0:
179,183,199101,1,0,0:0:0:0:
292,186,199131,1,0,0:0:0:0:
223,210,199191,1,0,0:0:0:0:
179,194,199281,1,0,0:0:0:0:
251,211,199296,1,0,0:0:0:0:
277,133,199371,1,0,0:0:0:0:
266,127,199401,1,0,0:0:0:0:
216,222,199461,1,0,0:0:0:0:
205,280,199476,1,0,0:0:0:0:
230,197,199521,1,0,0:0:0:0:
277,151,199566,1,0,0:0:0:0:
152,122,199626,1,0,0:0:0:0:
192,326,199656,1,0,0:0:0:0:
189,209,199686,1,0,0:0:0:0:
226,171,199746,1,0,0:0:0:0:
264,103,199768,1,0,0:0:0:0:
316,251,199843,1,0,0:0:0:0:
148,152,199866,1,0,0:0:0:0:
158,64,199881,1,0,0:0:0:0:
319,159,199956,1,0,0:0:0:0:
328,202,200031,1,0,0:0:0:0:
321,151,200046,1,0,0:0:0:0:
341,86,200226,1,0,0:0:0:0:
305,213,200271,1,0,0:0:0:0:
185,191,200346,1,0,0:0:0:0:
238,214,200383,1,0,0:0:0:0:
227,206,200413,1,0,0:0:0:0:
197,197,200428,1,0,0:0:0:0:
257,222,200451,1,0,0:0:0:0:
160,221,200526,1,0,0:0:0:0:
160,199,200571,1,0,0:0:0:0:
169,192,200578,1,0,0:0:0:0:
198,196,200601,1,0,0:0:0:0:
211,201,200616,1,0,0:0:0:0:
178,270,200713,1,0,0:0:0:0:
347,165,200743,1,0,0:0:0:0:
311,248,200758,1,0,0:0:0:0:
186,191,200788,1,0,0:0:0:0:
119,177,200803,1,0,0:0:0:0:
210,245,200871,1,0,0:0:0:0:
355,141,200931,1,0,0:0:0:0:
335,198,200946,1,0,0:0:0:0:
261,122,201013,1,0,0:0:0:0:
175,226,201028,1,0,0:0:0:0:
231,204,201103,1,0,0:0:0:0:
106,138,201126,1,0,0:0:0:0:
255,175,201193,1,0,0:0:0:0:
278,124,201283,1,0,0:0:0:0:
187,188,201298,1,0,0:0:0:0:
314,202,201366,1,0,0:0:0:0:
115,211,201388,1,0,0:0:0:0:
76,215,201448,1,0,0:0:0:0:
206,142,201456,1,0,0:0:0:0:
312,188,201471,1,0,0:0:0:0:
297,158,201531,1,0,0:0:0:0:
127,178,201591,1,0,0:0:0:0:
93,242,201636,1,0,0:0:0:0:
337,159,201688,1,0,0:0:0:0:
281,140,201778,1,0,0:0:0:0:
157,262,201808,1,0,0:0:0:0:
164,191,201816,1,0,0:0:0:0:
86,210,201831,1,0,0:0:0:0:
336,231,201853,1,0,0:0:0:0:
281,145,201951,1,0,0:0:0:0:
312,177,201973,1,0,0:0:0:0:
215,273,201996,1,0,0:0:0:0:
287,262,202003,1,0,0:0:0:0:
324,150,202131,1,0,0:0:0:0:
148,193,202138,1,0,0:0:0:0:
218,218,202176,1,0,0:0:0:0:
194,161,202183,1,0,0:0:0:0:
166,194,202341,1,0,0:0:0:0:
283,171,202356,1,0,0:0:0:0:
342,82,202513,1,0,0:0:0:0:
232,90,202521,1,0,0:0:0:0:
285,151,202528,1,0,0:0:0:0:
213,289,202671,1,0,0:0:0:0:
359,170,202678,1,0,0:0:0:0:
234,156,202701,1,0,0:0:0:0:
182,211,202866,1,0,0:0:0:0:
278,228,202873,1,0,0:0:0:0:
279,221,202926,1,0,0:0:0:0:
346,140,202948,1,0,0:0:0:0:
143,200,203053,1,0,0:0:0:0:
159,182,203061,1,0,0:0:0:0:
297,275,203076,1,0,0:0:0:0:
378,226,203106,1,0,0:0:0:0:
263,234,203226,1,0,0:0:0:0:
285,286,203233,1,0,0:0:0:0:
369,293,203263,1,0,0:0:0:0:
258,181,203391,1,0,0:0:0:0:
368,143,203398,1,0,0:0:0:0:
360,299,203428,1,0,0:0:0:0:
341,200,203496,1,0,0:0:0:0:
368,143,203571,1,0,0:0:0:0:
131,162,203766,1,0,0:0:0:0:
291,98,203788,1,0,0:0:0:0:
371,244,203811,1,0,0:0:0:0:
251,78,203878,1,0,0:0:0:0:
260,131,203901,1,0,0:0:0:0:
194,162,204133,1,0,0:0:0:0:
123,221,204178,1,0,0:0:0:0:
205,268,204186,1,0,0:0:0:0:
142,213,204208,1,0,0:0:0:0:
150,111,204253,1,0,0:0:0:0:
226,255,204463,1,0,0:0:0:0:
227,207,204553,1,0,0:0:0:0:
349,212,204561,1,0,0:0:0:0:
365,129,204583,1,0,0:0:0:0:
279,249,204636,1,0,0:0:0:0:
349,212,204703,1,0,0:0:0:0:
315,202,204711,1,0,0:0:0:0:
276,152,204741,1,0,0:0:0:0:
348,131,204756,1,0,0:0:0:0:
335,197,204801,1,0,0:0:0:0:
333,273,204883,1,0,0:0:0:0:
339,249,204898,1,0,0:0:0:0:
266,214,204913,1,0,0:0:0:0:
255,127,204928,1,0,0:0:0:0:
259,242,205093,1,0,0:0:0:0:
365,129,205108,1,0,0:0:0:0:
276,304,205251,1,0,0:0:0:0:
230,212,205258,1,0,0:0:0:0:
271,179,205303,1,0,0:0:0:0:
205,338,205446,1,0,0:0:0:0:
185,151,205461,1,0,0:0:0:0:
315,196,205603,1,0,0:0:0:0:
194,202,205611,1,0,0:0:0:0:
346,118,205626,1,0,0:0:0:0:
143,283,205633,1,0,0:0:0:0:
315,196,205768,1,0,0:0:0:0:
148,176,205791,1,0,0:0:0:0:
348,117,205806,1,0,0:0:0:0:
115,235,205881,1,0,0:0:0:0:
316,206,205948,1,0,0:0:0:0:
194,131,205956,1,0,0:0:0:0:
210,123,205986,1,0,0:0:0:0:
107,194,206031,1,0,0:0:0:0:
251,124,206128,1,0,0:0:0:0:
266,215,206143,1,0,0:0:0:0:
282,108,206151,1,0,0:0:0:0:
107,163,206226,1,0,0:0:0:0:
291,103,206301,1,0,0:0:0:0:
237,208,206323,1,0,0:0:0:0:
270,125,206331,1,0,0:0:0:0:
108,150,206368,1,0,0:0:0:0:
256,292,206601,1,0,0:0:0:0:
255,170,206623,1,0,0:0:0:0:
249,137,206638,1,0,0:0:0:0:
373,212,206893,1,0,0:0:0:0:
294,100,206983,1,0,0:0:0:0:
340,124,206991,1,0,0:0:0:0:
373,212,207073,1,0,0:0:0:0:
268,150,207148,1,0,0:0:0:0:
170,116,207163,1,0,0:0:0:0:
466,181,207171,1,0,0:0:0:0:
334,264,207268,1,0,0:0:0:0:
434,210,207328,1,0,0:0:0:0:
315,122,207343,1,0,0:0:0:0:
259,241,207448,1,0,0:0:0:0:
401,240,207471,1,0,0:0:0:0:
187,127,207493,1,0,0:0:0:0:
294,134,207523,1,0,0:0:0:0:
244,208,207613,1,0,0:0:0:0:
362,264,207643,1,0,0:0:0:0:
144,203,207681,1,0,0:0:0:0:
176,164,207688,1,0,0:0:0:0:
187,159,207883,1,0,0:0:0:0:
330,137,207988,1,0,0:0:0:0:
162,126,207996,1,0,0:0:0:0:
300,103,208086,1,0,0:0:0:0:
329,64,208198,1,0,0:0:0:0:
344,185,208296,1,0,0:0:0:0:
295,171,208363,1,0,0:0:0:0:
95,229,208408,1,0,0:0:0:0:
304,102,208431,1,0,0:0:0:0:
207,177,208551,1,0,0:0:0:0:
110,261,208566,1,0,0:0:0:0:
296,239,208573,1,0,0:0:0:0:
304,101,208611,1,0,0:0:0:0:
170,110,208701,1,0,0:0:0:0:
163,284,208723,1,0,0:0:0:0:
205,206,208731,1,0,0:0:0:0:
304,95,208806,1,0,0:0:0:0:
208,128,208873,1,0,0:0:0:0:
250,298,208896,1,0,0:0:0:0:
191,204,208911,1,0,0:0:0:0:
303,95,208978,1,0,0:0:0:0:
263,37,209031,1,0,0:0:0:0:
260,283,209053,1,0,0:0:0:0:
207,283,209076,1,0,0:0:0:0:
336,139,209293,1,0,0:0:0:0:
343,195,209338,1,0,0:0:0:0:
406,142,209668,1,0,0:0:0:0:
372,136,209676,1,0,0:0:0:0:
294,95,209698,1,0,0:0:0:0:
342,213,209736,1,0,0:0:0:0:
346,175,209968,1,0,0:0:0:0:
294,95,210043,1,0,0:0:0:0:
181,129,210073,1,0,0:0:0:0:
296,180,210171,1,0,0:0:0:0:
266,142,210223,1,0,0:0:0:0:
244,122,210231,1,0,0:0:0:0:
238,157,210238,1,0,0:0:0:0:
225,184,210336,1,0,0:0:0:0:
260,147,210351,1,0,0:0:0:0:
305,99,210381,1,0,0:0:0:0:
316,92,210411,1,0,0:0:0:0:
214,189,210493,1,0,0:0:0:0:
313,90,210651,1,0,0:0:0:0:
170,162,210658,1,0,0:0:0:0:
220,239,210696,1,0,0:0:0:0:
348,169,210928,1,0,0:0:0:0:
154,177,210936,1,0,0:0:0:0:
191,103,210951,1,0,0:0:0:0:
115,132,210966,1,0,0:0:0:0:
342,181,211206,1,0,0:0:0:0:
200,213,211258,1,0,0:0:0:0:
203,206,211281,1,0,0:0:0:0:
265,271,211296,1,0,0:0:0:0:
317,191,211386,1,0,0:0:0:0:
364,49,211431,1,0,0:0:0:0:
315,282,211453,1,0,0:0:0:0:
265,167,211573,1,0,0:0:0:0:
195,370,211603,1,0,0:0:0:0:
281,146,211626,1,0,0:0:0:0:
317,273,211641,1,0,0:0:0:0:
228,162,211731,1,0,0:0:0:0:
320,232,211791,1,0,0:0:0:0:
139,273,211798,1,0,0:0:0:0:
228,162,211866,1,0,0:0:0:0:
263,187,212091,1,0,0:0:0:0:
306,230,212121,1,0,0:0:0:0:
304,54,212128,1,0,0:0:0:0:
377,207,212458,1,0,0:0:0:0:
198,117,212481,1,0,0:0:0:0:
346,114,212503,1,0,0:0:0:0:
365,205,212623,1,0,0:0:0:0:
186,130,212638,1,0,0:0:0:0:
290,205,212743,1,0,0:0:0:0:
285,216,212788,1,0,0:0:0:0:
156,163,212811,1,0,0:0:0:0:
191,122,212908,1,0,0:0:0:0:
251,214,212961,1,0,0:0:0:0:
186,200,212968,1,0,0:0:0:0:
209,127,213073,1,0,0:0:0:0:
224,197,213126,1,0,0:0:0:0:
242,181,213148,1,0,0:0:0:0:
229,157,213163,1,0,0:0:0:0:
247,73,213238,1,0,0:0:0:0:
375,114,213411,1,0,0:0:0:0:
262,81,213433,1,0,0:0:0:0:
361,215,213681,1,0,0:0:0:0:
361,258,213726,1,0,0:0:0:0:
288,166,213733,1,0,0:0:0:0:
298,317,213966,1,0,0:0:0:0:
303,335,214003,1,0,0:0:0:0:
153,151,214056,1,0,0:0:0:0:
279,288,214131,1,0,0:0:0:0:
328,157,214168,1,0,0:0:0:0:
245,301,214191,1,0,0:0:0:0:
116,113,214221,1,0,0:0:0:0:
167,260,214273,1,0,0:0:0:0:
158,217,214348,1,0,0:0:0:0:
180,268,214363,1,0,0:0:0:0:
181,133,214386,1,0,0:0:0:0:
141,253,214446,1,0,0:0:0:0:
157,234,214521,1,0,0:0:0:0:
142,184,214543,1,0,0:0:0:0:
283,125,214588,1,0,0:0:0:0:
93,117,214776,1,0,0:0:0:0:
70,131,214836,1,0,0:0:0:0:
306,85,214888,1,0,0:0:0:0:
324,217,214896,1,0,0:0:0:0:
178,82,215136,1,0,0:0:0:0:
109,252,215188,1,0,0:0:0:0:
395,120,215218,1,0,0:0:0:0:
278,231,215241,1,0,0:0:0:0:
233,123,215518,1,0,0:0:0:0:
197,246,215541,1,0,0:0:0:0:
141,171,215571,1,0,0:0:0:0:
233,207,215698,1,0,0:0:0:0:
249,245,215721,1,0,0:0:0:0:
125,85,215743,1,0,0:0:0:0:
208,101,215781,1,0,0:0:0:0:
233,220,215878,1,0,0:0:0:0:
358,253,215908,1,0,0:0:0:0:
257,81,215938,1,0,0:0:0:0:
232,224,216021,1,0,0:0:0:0:
391,155,216148,1,0,0:0:0:0:
57,153,216156,1,0,0:0:0:0:
314,203,216186,1,0,0:0:0:0:
257,230,216201,1,0,0:0:0:0:
231,74,216441,1,0,0:0:0:0:
139,186,216478,1,0,0:0:0:0:
370,126,216486,1,0,0:0:0:0:
288,226,216531,1,0,0:0:0:0:
227,140,216711,1,0,0:0:0:0:
331,210,216756,1,0,0:0:0:0:
298,140,216786,1,0,0:0:0:0:
302,126,216793,1,0,0:0:0:0:
141,207,216913,1,0,0:0:0:0:
352,218,216936,1,0,0:0:0:0:
242,162,216981,1,0,0:0:0:0:
185,210,217078,1,0,0:0:0:0:
321,267,217123,1,0,0:0:0:0:
181,193,217146,1,0,0:0:0:0:
295,274,217153,1,0,0:0:0:0:
263,137,217273,1,0,0:0:0:0:
309,270,217296,1,0,0:0:0:0:
120,122,217311,1,0,0:0:0:0:
220,244,217356,1,0,0:0:0:0:
304,91,217596,1,0,0:0:0:0:
103,92,217618,1,0,0:0:0:0:
151,136,217663,1,0,0:0:0:0:
186,103,217686,1,0,0:0:0:0:
165,74,217986,1,0,0:0:0:0:
236,225,218001,1,0,0:0:0:0:
139,162,218008,1,0,0:0:0:0:
358,81,218031,1,0,0:0:0:0:
270,212,218158,1,0,0:0:0:0:
230,200,218181,1,0,0:0:0:0:
225,228,218196,1,0,0:0:0:0:
264,216,218263,1,0,0:0:0:0:
311,122,218346,1,0,0:0:0:0:
237,217,218368,1,0,0:0:0:0:
345,216,218421,1,0,0:0:0:0:
190,161,218496,1,0,0:0:0:0:
243,156,218548,1,0,0:0:0:0:
366,162,218586,1,0,0:0:0:0:
210,158,218653,1,0,0:0:0:0:
283,223,218676,1,0,0:0:0:0:
163,95,218691,1,0,0:0:0:0:
288,172,218751,1,0,0:0:0:0:
242,132,218758,1,0,0:0:0:0:
232,127,218811,1,0,0:0:0:0:
291,183,218893,1,0,0:0:0:0:
201,201,218901,1,0,0:0:0:0:
232,127,218938,1,0,0:0:0:0:
260,196,219066,1,0,0:0:0:0:
114,102,219073,1,0,0:0:0:0:
232,127,219193,1,0,0:0:0:0:
201,201,219223,1,0,0:0:0:0:
209,183,219268,1,0,0:0:0:0:
222,164,219313,1,0,0:0:0:0:
222,176,219358,1,0,0:0:0:0:
147,248,219396,1,0,0:0:0:0:
245,209,219411,1,0,0:0:0:0:
221,118,219418,1,0,0:0:0:0:
205,197,219478,1,0,0:0:0:0:
237,199,219486,1,0,0:0:0:0:
281,185,219546,1,0,0:0:0:0:
204,204,219606,1,0,0:0:0:0:
241,210,219613,1,0,0:0:0:0:
222,142,219666,1,0,0:0:0:0:
213,207,219726,1,0,0:0:0:0:
212,108,219741,1,0,0:0:0:0:
282,142,219763,1,0,0:0:0:0:
196,176,219786,1,0,0:0:0:0:
212,203,219823,1,0,0:0:0:0:
360,158,219838,1,0,0:0:0:0:
333,210,219943,1,0,0:0:0:0:
303,164,219988,1,0,0:0:0:0:
149,214,220041,1,0,0:0:0:0:
214,228,220056,1,0,0:0:0:0:
219,222,220086,1,0,0:0:0:0:
184,107,220108,1,0,0:0:0:0:
298,179,220183,1,0,0:0:0:0:
205,233,220206,1,0,0:0:0:0:
248,204,220296,1,0,0:0:0:0:
296,162,220423,1,0,0:0:0:0:
217,200,220468,1,0,0:0:0:0:
366,233,220491,1,0,0:0:0:0:
283,171,220716,1,0,0:0:0:0:
270,210,220723,1,0,0:0:0:0:
296,160,220783,1,0,0:0:0:0:
288,96,220828,1,0,0:0:0:0:
270,187,221076,1,0,0:0:0:0:
326,211,221098,1,0,0:0:0:0:
294,164,221128,1,0,0:0:0:0:
174,142,221151,1,0,0:0:0:0:
261,200,221196,1,0,0:0:0:0:
326,218,221271,1,0,0:0:0:0:
253,171,221286,1,0,0:0:0:0:
164,160,221316,1,0,0:0:0:0:
242,242,221383,1,0,0:0:0:0:
326,211,221451,1,0,0:0:0:0:
223,203,221473,1,0,0:0:0:0:
234,142,221503,1,0,0:0:0:0:
198,240,221533,1,0,0:0:0:0:
336,194,221631,1,0,0:0:0:0:
260,238,221646,1,0,0:0:0:0:
247,117,221661,1,0,0:0:0:0:
159,220,221728,1,0,0:0:0:0:
336,183,221803,1,0,0:0:0:0:
376,202,221818,1,0,0:0:0:0:
258,91,221833,1,0,0:0:0:0:
165,207,221878,1,0,0:0:0:0:
319,192,221983,1,0,0:0:0:0:
378,172,222006,1,0,0:0:0:0:
322,163,222268,1,0,0:0:0:0:
216,168,222328,1,0,0:0:0:0:
250,143,222336,1,0,0:0:0:0:
309,96,222373,1,0,0:0:0:0:
331,183,222441,1,0,0:0:0:0:
393,169,222508,1,0,0:0:0:0:
258,141,222531,1,0,0:0:0:0:
331,227,222606,1,0,0:0:0:0:
136,134,222688,1,0,0:0:0:0:
373,77,222696,1,0,0:0:0:0:
219,213,222718,1,0,0:0:0:0:
306,229,222771,1,0,0:0:0:0:
191,219,222853,1,0,0:0:0:0:
201,256,222861,1,0,0:0:0:0:
86,162,223131,1,0,0:0:0:0:
113,204,223161,1,0,0:0:0:0:
322,198,223168,1,0,0:0:0:0:
110,84,223191,1,0,0:0:0:0:
354,67,223521,1,0,0:0:0:0:
244,123,223543,1,0,0:0:0:0:
171,233,223551,1,0,0:0:0:0:
252,221,223716,1,0,0:0:0:0:
185,252,223776,1,0,0:0:0:0:
201,274,223858,1,0,0:0:0:0:
280,91,223888,1,0,0:0:0:0:
258,217,223903,1,0,0:0:0:0:
174,202,223926,1,0,0:0:0:0:
137,260,224053,1,0,0:0:0:0:
347,129,224076,1,0,0:0:0:0:
260,219,224098,1,0,0:0:0:0:
176,184,224218,1,0,0:0:0:0:
368,172,224263,1,0,0:0:0:0:
250,204,224331,1,0,0:0:0:0:
182,189,224376,1,0,0:0:0:0:
330,222,224391,1,0,0:0:0:0:
292,134,224421,1,0,0:0:0:0:
250,204,224496,1,0,0:0:0:0:
383,175,224556,1,0,0:0:0:0:
289,247,224571,1,0,0:0:0:0:
199,138,224586,1,0,0:0:0:0:
237,201,224683,1,0,0:0:0:0:
264,246,224736,1,0,0:0:0:0:
217,137,224743,1,0,0:0:0:0:
319,127,225088,1,0,0:0:0:0:
184,160,225096,1,0,0:0:0:0:
249,195,225111,1,0,0:0:0:0:
284,289,225141,1,0,0:0:0:0:
280,182,225246,1,0,0:0:0:0:
162,156,225268,1,0,0:0:0:0:
341,253,225291,1,0,0:0:0:0:
160,165,225418,1,0,0:0:0:0:
287,155,225478,1,0,0:0:0:0:
335,222,225493,1,0,0:0:0:0:
135,263,225598,1,0,0:0:0:0:
255,141,225621,1,0,0:0:0:0:
336,174,225651,1,0,0:0:0:0:
159,289,225861,1,0,0:0:0:0:
375,157,225883,1,0,0:0:0:0:
333,93,225958,1,0,0:0:0:0:
81,228,225973,1,0,0:0:0:0:
277,202,226228,1,0,0:0:0:0:
380,162,226266,1,0,0:0:0:0:
142,101,226288,1,0,0:0:0:0:
325,293,226581,1,0,0:0:0:0:
276,293,226641,1,0,0:0:0:0:
196,212,226656,1,0,0:0:0:0:
346,320,226753,1,0,0:0:0:0:
240,184,226821,1,0,0:0:0:0:
165,275,226843,1,0,0:0:0:0:
368,318,226941,1,0,0:0:0:0:
241,157,226986,1,0,0:0:0:0:
157,226,227023,1,0,0:0:0:0:
400,242,227113,1,0,0:0:0:0:
240,184,227173,1,0,0:0:0:0:
186,204,227196,1,0,0:0:0:0:
415,192,227293,1,0,0:0:0:0:
236,156,227308,1,0,0:0:0:0:
254,185,227376,1,0,0:0:0:0:
428,108,227428,1,0,0:0:0:0:
236,128,227473,1,0,0:0:0:0:
409,221,227556,1,0,0:0:0:0:
303,192,227818,1,0,0:0:0:0:
179,61,227863,1,0,0:0:0:0:
311,223,227878,1,0,0:0:0:0:
356,266,227968,1,0,0:0:0:0:
310,175,228006,1,0,0:0:0:0:
112,118,228028,1,0,0:0:0:0:
311,223,228066,1,0,0:0:0:0:
319,260,228126,1,0,0:0:0:0:
243,190,228178,1,0,0:0:0:0:
79,204,228186,1,0,0:0:0:0:
321,222,228246,1,0,0:0:0:0:
318,253,228291,1,0,0:0:0:0:
71,307,228328,1,0,0:0:0:0:
233,189,228336,1,0,0:0:0:0:
321,212,228403,1,0,0:0:0:0:
228,201,228673,1,0,0:0:0:0:
223,196,228688,1,0,0:0:0:0:
341,276,229026,1,0,0:0:0:0:
200,247,229041,1,0,0:0:0:0:
270,279,229056,1,0,0:0:0:0:
265,259,229063,1,0,0:0:0:0:
258,228,229078,1,0,0:0:0:0:
294,180,229221,1,0,0:0:0:0:
140,129,229288,1,0,0:0:0:0:
311,281,229296,1,0,0:0:0:0:
254,233,229311,1,0,0:0:0:0:
325,124,229371,1,0,0:0:0:0:
159,131,229491,1,0,0:0:0:0:
206,311,229506,1,0,0:0:0:0:
244,235,229528,1,0,0:0:0:0:
221,196,229543,1,0,0:0:0:0:
179,128,229633,1,0,0:0:0:0:
161,295,229641,1,0,0:0:0:0:
150,146,229716,1,0,0:0:0:0:
244,230,229731,1,0,0:0:0:0:
173,126,229828,1,0,0:0:0:0:
236,263,229858,1,0,0:0:0:0:
243,129,229896,1,0,0:0:0:0:
255,223,229933,1,0,0:0:0:0:
156,124,229971,1,0,0:0:0:0:
271,260,230023,1,0,0:0:0:0:
282,76,230076,1,0,0:0:0:0:
259,217,230098,1,0,0:0:0:0:
158,126,230136,1,0,0:0:0:0:
295,224,230181,1,0,0:0:0:0:
276,83,230256,1,0,0:0:0:0:
259,213,230271,1,0,0:0:0:0:
269,143,230496,1,0,0:0:0:0:
241,186,230608,1,0,0:0:0:0:
180,136,230623,1,0,0:0:0:0:
399,192,230631,1,0,0:0:0:0:
247,164,230698,1,0,0:0:0:0:
241,186,230788,1,0,0:0:0:0:
385,191,230811,1,0,0:0:0:0:
224,164,230886,1,0,0:0:0:0:
411,253,230968,1,0,0:0:0:0:
409,50,230976,1,0,0:0:0:0:
170,152,231111,1,0,0:0:0:0:
405,54,231133,1,0,0:0:0:0:
250,187,231156,1,0,0:0:0:0:
315,254,231321,1,0,0:0:0:0:
306,278,231441,1,0,0:0:0:0:
250,187,231448,1,0,0:0:0:0:
162,176,231463,1,0,0:0:0:0:
211,219,231756,1,0,0:0:0:0:
344,115,231808,1,0,0:0:0:0:
273,97,231816,1,0,0:0:0:0:
426,154,231838,1,0,0:0:0:0:
277,72,232108,1,0,0:0:0:0:
157,228,232138,1,0,0:0:0:0:
357,189,232146,1,0,0:0:0:0:
178,200,232168,1,0,0:0:0:0:
283,106,232281,1,0,0:0:0:0:
188,237,232303,1,0,0:0:0:0:
330,189,232311,1,0,0:0:0:0:
217,162,232341,1,0,0:0:0:0:
294,146,232431,1,0,0:0:0:0:
294,161,232476,1,0,0:0:0:0:
308,78,232513,1,0,0:0:0:0:
216,222,232521,1,0,0:0:0:0:
365,113,232611,1,0,0:0:0:0:
236,220,232678,1,0,0:0:0:0:
293,157,232686,1,0,0:0:0:0:
353,119,232776,1,0,0:0:0:0:
215,199,232783,1,0,0:0:0:0:
271,206,232873,1,0,0:0:0:0:
295,163,232978,1,0,0:0:0:0:
68,157,233008,1,0,0:0:0:0:
270,138,233016,1,0,0:0:0:0:
271,194,233031,1,0,0:0:0:0:
299,168,233346,1,0,0:0:0:0:
218,145,233353,1,0,0:0:0:0:
152,178,233391,1,0,0:0:0:0:
331,85,233413,1,0,0:0:0:0:
219,151,233503,1,0,0:0:0:0:
311,163,233526,1,0,0:0:0:0:
148,212,233571,1,0,0:0:0:0:
287,204,233578,1,0,0:0:0:0:
192,156,233683,1,0,0:0:0:0:
326,149,233721,1,0,0:0:0:0:
252,205,233736,1,0,0:0:0:0:
209,256,233766,1,0,0:0:0:0:
333,141,233863,1,0,0:0:0:0:
186,151,233878,1,0,0:0:0:0:
185,137,233886,1,0,0:0:0:0:
222,245,233893,1,0,0:0:0:0:
348,94,234163,1,0,0:0:0:0:
323,123,234178,1,0,0:0:0:0:
99,116,234193,1,0,0:0:0:0:
264,165,234208,1,0,0:0:0:0:
258,183,234531,1,0,0:0:0:0:
113,72,234546,1,0,0:0:0:0:
269,134,234561,1,0,0:0:0:0:
253,105,234591,1,0,0:0:0:0:
316,264,234696,1,0,0:0:0:0:
132,178,234726,1,0,0:0:0:0:
185,127,234733,1,0,0:0:0:0:
120,177,234778,1,0,0:0:0:0:
321,283,234861,1,0,0:0:0:0:
272,190,234891,1,0,0:0:0:0:
224,88,234906,1,0,0:0:0:0:
186,249,234921,1,0,0:0:0:0:
237,286,235048,1,0,0:0:0:0:
273,146,235071,1,0,0:0:0:0:
235,245,235086,1,0,0:0:0:0:
215,279,235213,1,0,0:0:0:0:
140,152,235251,1,0,0:0:0:0:
259,205,235281,1,0,0:0:0:0:
146,190,235311,1,0,0:0:0:0:
179,234,235401,1,0,0:0:0:0:
88,111,235423,1,0,0:0:0:0:
256,163,235468,1,0,0:0:0:0:
212,155,235491,1,0,0:0:0:0:
246,220,235588,1,0,0:0:0:0:
219,159,235611,1,0,0:0:0:0:
251,136,235648,1,0,0:0:0:0:
254,144,235663,1,0,0:0:0:0:
316,122,235753,1,0,0:0:0:0:
252,192,235798,1,0,0:0:0:0:
278,142,235828,1,0,0:0:0:0:
296,74,236136,1,0,0:0:0:0:
353,200,236143,1,0,0:0:0:0:
307,165,236151,1,0,0:0:0:0:
192,206,236166,1,0,0:0:0:0:
351,244,236308,1,0,0:0:0:0:
196,197,236323,1,0,0:0:0:0:
254,99,236331,1,0,0:0:0:0:
326,279,236473,1,0,0:0:0:0:
310,118,236496,1,0,0:0:0:0:
233,147,236503,1,0,0:0:0:0:
321,114,236526,1,0,0:0:0:0:
321,288,236608,1,0,0:0:0:0:
310,118,236653,1,0,0:0:0:0:
217,150,236661,1,0,0:0:0:0:
326,109,236683,1,0,0:0:0:0:
288,146,236938,1,0,0:0:0:0:
191,201,236946,1,0,0:0:0:0:
214,58,236961,1,0,0:0:0:0:
197,169,237291,1,0,0:0:0:0:
103,97,237298,1,0,0:0:0:0:
290,126,237328,1,0,0:0:0:0:
287,138,237636,1,0,0:0:0:0:
182,162,237643,1,0,0:0:0:0:
183,149,237651,1,0,0:0:0:0:
144,240,237688,1,0,0:0:0:0:
279,134,237816,1,0,0:0:0:0:
266,159,237831,1,0,0:0:0:0:
186,149,237838,1,0,0:0:0:0:
130,262,237853,1,0,0:0:0:0:
205,153,238003,1,0,0:0:0:0:
191,148,238018,1,0,0:0:0:0:
259,183,238033,1,0,0:0:0:0:
267,144,238048,1,0,0:0:0:0:
319,215,238183,1,0,0:0:0:0:
237,191,238206,1,0,0:0:0:0:
276,157,238221,1,0,0:0:0:0:
234,154,238363,1,0,0:0:0:0:
263,216,238386,1,0,0:0:0:0:
338,127,238401,1,0,0:0:0:0:
253,240,238408,1,0,0:0:0:0:
269,138,238521,1,0,0:0:0:0:
281,235,238551,1,0,0:0:0:0:
341,118,238558,1,0,0:0:0:0:
204,148,238566,1,0,0:0:0:0:
284,115,238821,1,0,0:0:0:0:
299,147,238881,1,0,0:0:0:0:
342,272,238948,1,0,0:0:0:0:
339,85,238993,1,0,0:0:0:0:
252,182,239016,1,0,0:0:0:0:
278,144,239046,1,0,0:0:0:0:
119,262,239128,1,0,0:0:0:0:
307,160,239158,1,0,0:0:0:0:
276,144,239181,1,0,0:0:0:0:
238,184,239188,1,0,0:0:0:0:
106,256,239293,1,0,0:0:0:0:
276,146,239323,1,0,0:0:0:0:
158,183,239338,1,0,0:0:0:0:
255,163,239376,1,0,0:0:0:0:
124,193,239466,1,0,0:0:0:0:
273,187,239661,1,0,0:0:0:0:
126,138,239668,1,0,0:0:0:0:
82,59,239706,1,0,0:0:0:0:
308,138,239713,1,0,0:0:0:0:
191,69,240051,1,0,0:0:0:0:
232,209,240058,1,0,0:0:0:0:
256,123,240081,1,0,0:0:0:0:
255,144,240096,1,0,0:0:0:0:
251,74,240231,1,0,0:0:0:0:
285,103,240418,1,0,0:0:0:0:
138,153,240426,1,0,0:0:0:0:
257,148,240478,1,0,0:0:0:0:
301,221,240658,1,0,0:0:0:0:
261,171,240786,1,0,0:0:0:0:
266,135,240808,1,0,0:0:0:0:
182,141,241093,1,0,0:0:0:0:
206,174,241131,1,0,0:0:0:0:
262,171,241146,1,0,0:0:0:0:
266,135,241176,1,0,0:0:0:0:
202,149,241431,1,0,0:0:0:0:
297,66,241468,1,0,0:0:0:0:
259,211,241476,1,0,0:0:0:0:
259,128,241663,1,0,0:0:0:0:
262,181,241806,1,0,0:0:0:0:
251,191,241821,1,0,0:0:0:0:
265,154,241858,1,0,0:0:0:0:
277,222,241986,1,0,0:0:0:0:
256,182,241993,1,0,0:0:0:0:
258,143,242031,1,0,0:0:0:0:
241,193,242128,1,0,0:0:0:0:
238,177,242143,1,0,0:0:0:0:
249,146,242151,1,0,0:0:0:0:
256,142,242181,1,0,0:0:0:0:
186,158,242256,1,0,0:0:0:0:
223,181,242293,1,0,0:0:0:0:
253,143,242301,1,0,0:0:0:0:
257,142,242346,1,0,0:0:0:0:
217,153,242398,1,0,0:0:0:0:
247,215,242451,1,0,0:0:0:0:
259,141,242496,1,0,0:0:0:0:
250,142,242533,1,0,0:0:0:0:
271,171,242601,1,0,0:0:0:0:
273,127,242631,1,0,0:0:0:0:
271,128,242668,1,0,0:0:0:0:
255,90,242691,1,0,0:0:0:0:
125,130,242758,1,0,0:0:0:0:
272,128,242818,1,0,0:0:0:0:
270,128,242848,1,0,0:0:0:0:
189,138,242856,1,0,0:0:0:0:
285,118,243193,1,0,0:0:0:0:
276,175,243223,1,0,0:0:0:0:
314,138,243283,1,0,0:0:0:0:
329,77,243313,1,0,0:0:0:0:
219,180,243711,1,0,0:0:0:0:
304,87,243756,1,0,0:0:0:0:
204,149,243816,1,0,0:0:0:0:
178,166,243853,1,0,0:0:0:0:
326,113,244123,1,0,0:0:0:0:
296,215,244168,1,0,0:0:0:0:
344,83,244183,1,0,0:0:0:0:
322,101,244198,1,0,0:0:0:0:
196,121,244716,1,0,0:0:0:0:
372,117,244723,1,0,0:0:0:0:
151,122,244753,1,0,0:0:0:0:
228,134,244791,1,0,0:0:0:0:
376,117,244866,1,0,0:0:0:0:
209,119,244896,1,0,0:0:0:0:
164,137,244903,1,0,0:0:0:0:
248,119,244948,1,0,0:0:0:0:
303,163,245241,1,0,0:0:0:0:
337,52,245271,1,0,0:0:0:0:
376,28,245278,1,0,0:0:0:0:
305,209,245578,1,0,0:0:0:0:
238,247,245601,1,0,0:0:0:0:
243,245,245616,1,0,0:0:0:0:
257,181,245631,1,0,0:0:0:0:
135,115,246073,1,0,0:0:0:0:
304,143,246103,1,0,0:0:0:0:
370,124,246141,1,0,0:0:0:0:
148,125,246178,1,0,0:0:0:0:
386,89,246561,1,0,0:0:0:0:
125,183,246598,1,0,0:0:0:0:
291,134,246606,1,0,0:0:0:0:
383,37,246651,1,0,0:0:0:0:
257,258,247393,1,0,0:0:0:0:
335,195,247423,1,0,0:0:0:0:
171,163,247431,1,0,0:0:0:0:
231,134,247858,1,0,0:0:0:0:
199,182,247941,1,0,0:0:0:0:
363,59,247956,1,0,0:0:0:0:
79,170,247971,1,0,0:0:0:0:
133,131,248278,1,0,0:0:0:0:
134,199,248346,1,0,0:0:0:0:
215,183,248361,1,0,0:0:0:0:
337,138,248368,1,0,0:0:0:0:
271,243,248803,1,0,0:0:0:0:
311,198,248878,1,0,0:0:0:0:
334,144,248901,1,0,0:0:0:0:
257,280,248946,1,0,0:0:0:0:
213,118,249246,1,0,0:0:0:0:
163,167,249418,1,0,0:0:0:0:
310,134,249426,1,0,0:0:0:0:
221,139,249448,1,0,0:0:0:0:
186,247,249651,1,0,0:0:0:0:
340,178,249711,1,0,0:0:0:0:
347,122,249756,1,0,0:0:0:0:
383,289,249771,1,0,0:0:0:0:
289,160,250236,1,0,0:0:0:0:
148,273,250251,1,0,0:0:0:0:
132,152,250311,1,0,0:0:0:0:
289,160,250341,1,0,0:0:0:0:
261,223,250416,1,0,0:0:0:0:
140,152,250446,1,0,0:0:0:0:
226,180,250453,1,0,0:0:0:0:
362,45,250716,1,0,0:0:0:0:
420,168,250723,1,0,0:0:0:0:
294,152,250783,1,0,0:0:0:0:
243,111,250798,1,0,0:0:0:0:
233,96,251091,1,0,0:0:0:0:
401,208,251106,1,0,0:0:0:0:
244,185,251121,1,0,0:0:0:0:
196,188,251166,1,0,0:0:0:0:
213,154,251631,1,0,0:0:0:0:
178,255,251661,1,0,0:0:0:0:
338,137,251668,1,0,0:0:0:0:
321,187,252066,1,0,0:0:0:0:
177,143,252126,1,0,0:0:0:0:
241,141,252148,1,0,0:0:0:0:
386,114,252171,1,0,0:0:0:0:
138,147,252936,1,0,0:0:0:0:
340,167,252958,1,0,0:0:0:0:
256,170,252966,1,0,0:0:0:0:
307,282,253086,1,0,0:0:0:0:
318,74,253401,1,0,0:0:0:0:
319,151,253438,1,0,0:0:0:0:
117,161,253483,1,0,0:0:0:0:
189,261,253528,1,0,0:0:0:0:
218,213,253828,1,0,0:0:0:0:
266,99,253858,1,0,0:0:0:0:
383,50,253896,1,0,0:0:0:0:
318,259,254383,1,0,0:0:0:0:
389,167,254406,1,0,0:0:0:0:
219,56,254443,1,0,0:0:0:0:
260,346,254833,1,0,0:0:0:0:
317,130,254848,1,0,0:0:0:0:
286,246,254893,1,0,0:0:0:0:
161,133,254908,1,0,0:0:0:0:
70,244,255201,1,0,0:0:0:0:
167,204,255216,1,0,0:0:0:0:
306,72,255276,1,0,0:0:0:0:
345,113,255748,1,0,0:0:0:0:
64,132,255763,1,0,0:0:0:0:
334,199,255801,1,0,0:0:0:0:
91,120,255898,1,0,0:0:0:0:
360,251,255906,1,0,0:0:0:0:
294,168,255913,1,0,0:0:0:0:
337,207,255966,1,0,0:0:0:0:
192,101,256251,1,0,0:0:0:0:
135,125,256281,1,0,0:0:0:0:
173,176,256326,1,0,0:0:0:0:
309,169,256581,1,0,0:0:0:0:
186,261,256641,1,0,0:0:0:0:
411,101,257053,1,0,0:0:0:0:
362,99,257068,1,0,0:0:0:0:
298,116,257151,1,0,0:0:0:0:
205,232,257181,1,0,0:0:0:0:
421,264,257578,1,0,0:0:0:0:
241,220,257601,1,0,0:0:0:0:
368,282,257638,1,0,0:0:0:0:
312,181,257646,1,0,0:0:0:0:
191,196,258396,1,0,0:0:0:0:
165,114,258441,1,0,0:0:0:0:
77,192,258456,1,0,0:0:0:0:
383,131,258471,1,0,0:0:0:0:
228,102,258853,1,0,0:0:0:0:
201,235,258921,1,0,0:0:0:0:
183,166,258973,1,0,0:0:0:0:
301,215,259266,1,0,0:0:0:0:
274,91,259311,1,0,0:0:0:0:
205,218,259348,1,0,0:0:0:0:
339,152,259356,1,0,0:0:0:0:
182,247,259881,1,0,0:0:0:0:
373,224,259896,1,0,0:0:0:0:
310,213,259911,1,0,0:0:0:0:
201,141,259956,1,0,0:0:0:0:
343,116,260323,1,0,0:0:0:0:
372,81,260361,1,0,0:0:0:0:
328,92,260413,1,0,0:0:0:0:
151,243,260421,1,0,0:0:0:0:
322,236,260638,1,0,0:0:0:0:
342,254,260676,1,0,0:0:0:0:
341,130,260743,1,0,0:0:0:0:
258,223,260773,1,0,0:0:0:0:
229,109,261208,1,0,0:0:0:0:
198,132,261253,1,0,0:0:0:0:
219,193,261321,1,0,0:0:0:0:
229,109,261343,1,0,0:0:0:0:
198,132,261403,1,0,0:0:0:0:
166,124,261456,1,0,0:0:0:0:
220,185,261493,1,0,0:0:0:0:
237,244,261733,1,0,0:0:0:0:
303,119,261771,1,0,0:0:0:0:
275,94,261823,1,0,0:0:0:0:
272,147,261838,1,0,0:0:0:0:
325,216,262101,1,0,0:0:0:0:
176,118,262116,1,0,0:0:0:0:
256,187,262153,1,0,0:0:0:0:
285,192,262191,1,0,0:0:0:0:
318,119,262633,1,0,0:0:0:0:
373,186,262641,1,0,0:0:0:0:
190,193,262656,1,0,0:0:0:0:
155,200,262716,1,0,0:0:0:0:
266,263,263098,1,0,0:0:0:0:
370,21,263113,1,0,0:0:0:0:
213,113,263151,1,0,0:0:0:0:
315,178,263301,1,0,0:0:0:0:
