osu file format v14

[General]
AudioFilename: audio.mp3
AudioLeadIn: 0
PreviewTime: -1
Countdown: 1
SampleSet: None
StackLeniency: 0.7
Mode: 0
LetterboxInBreaks: 0
WidescreenStoryboard: 1

[Editor]
DistanceSpacing: 0.5
BeatDivisor: 4
GridSize: 16
TimelineZoom: 1

[Metadata]
Title:Deception Dive
TitleUnicode:Deception Dive
Artist:Bestrong
ArtistUnicode:Bestrong
Creator:BestrongGD
Version:Maniac
Source:Newgronds
Tags:
BeatmapID:1468917
BeatmapSetID:688760

[Difficulty]
HPDrainRate:10
CircleSize:7
OverallDifficulty:10
ApproachRate:10
SliderMultiplier:1.4
SliderTickRate:1

[Events]
//Background and Video events
0,0,"maxresdefault (4).jpg",0,0
//Break Periods
//Storyboard Layer 0 (Background)
//Storyboard Layer 1 (Fail)
//Storyboard Layer 2 (Pass)
//Storyboard Layer 3 (Foreground)
//Storyboard Sound Samples

[TimingPoints]
0,60,4,1,0,100,1,0
110321,40,4,1,0,100,1,0
198771,30,4,1,0,100,1,0

[Colours]
Combo1 : 64,0,128
Combo2 : 64,0,128

[HitObjects]
369,263,720,5,0,0:0:0:0:
192,160,870,5,0,0:0:0:0:
395,247,1095,1,0,0:0:0:0:
208,256,1110,1,0,0:0:0:0:
352,112,1395,1,0,0:0:0:0:
221,223,1425,1,0,0:0:0:0:
288,272,1680,1,0,0:0:0:0:
315,180,1770,1,0,0:0:0:0:
112,128,1995,1,0,0:0:0:0:
221,275,2130,1,0,0:0:0:0:
224,240,2340,1,0,0:0:0:0:
371,168,2475,1,0,0:0:0:0:
368,80,2655,1,0,0:0:0:0:
257,217,2865,1,0,0:0:0:0:
336,208,3015,1,0,0:0:0:0:
179,182,3045,1,0,0:0:0:0:
322,224,3195,1,0,0:0:0:0:
224,80,3345,1,0,0:0:0:0:
303,163,3375,1,0,0:0:0:0:
288,240,3690,1,0,0:0:0:0:
424,191,3720,1,0,0:0:0:0:
400,96,3990,1,0,0:0:0:0:
285,306,4095,1,0,0:0:0:0:
320,272,4365,1,0,0:0:0:0:
161,197,4440,1,0,0:0:0:0:
112,192,4740,1,0,0:0:0:0:
331,170,4860,1,0,0:0:0:0:
272,224,5115,1,0,0:0:0:0:
178,221,5280,1,0,0:0:0:0:
352,80,5490,1,0,0:0:0:0:
215,119,5550,1,0,0:0:0:0:
320,224,5835,1,0,0:0:0:0:
386,167,5910,1,0,0:0:0:0:
160,96,6180,1,0,0:0:0:0:
153,264,6270,1,0,0:0:0:0:
144,240,6540,1,0,0:0:0:0:
210,113,6585,1,0,0:0:0:0:
256,96,6885,1,0,0:0:0:0:
352,204,6930,1,0,0:0:0:0:
304,224,7230,1,0,0:0:0:0:
203,364,7290,1,0,0:0:0:0:
176,144,7575,1,0,0:0:0:0:
191,168,7620,1,0,0:0:0:0:
176,256,7905,1,0,0:0:0:0:
363,179,7995,1,0,0:0:0:0:
352,96,8235,1,0,0:0:0:0:
231,309,8355,1,0,0:0:0:0:
320,240,8595,1,0,0:0:0:0:
132,197,8640,1,0,0:0:0:0:
192,128,8940,1,0,0:0:0:0:
361,147,9000,1,0,0:0:0:0:
144,256,9285,1,0,0:0:0:0:
232,227,9435,1,0,0:0:0:0:
304,128,9615,1,0,0:0:0:0:
420,156,9765,1,0,0:0:0:0:
320,240,9975,1,0,0:0:0:0:
309,241,10095,1,0,0:0:0:0:
160,128,10320,1,0,0:0:0:0:
346,172,10515,1,0,0:0:0:0:
192,224,10695,1,0,0:0:0:0:
333,188,10830,1,0,0:0:0:0:
272,96,11025,1,0,0:0:0:0:
279,185,11115,1,0,0:0:0:0:
80,160,11580,1,0,0:0:0:0:
244,117,11610,1,0,0:0:0:0:
208,192,12045,1,0,0:0:0:0:
335,118,12060,1,0,0:0:0:0:
176,193,12405,1,0,0:0:0:0:
128,144,12480,1,0,0:0:0:0:
256,192,12945,1,0,0:0:0:0:
330,194,12960,1,0,0:0:0:0:
256,192,13080,1,0,0:0:0:0:
330,194,13110,1,0,0:0:0:0:
160,128,13425,1,0,0:0:0:0:
170,144,13470,1,0,0:0:0:0:
396,103,13815,1,0,0:0:0:0:
176,180,14310,1,0,0:0:0:0:
208,240,14340,1,0,0:0:0:0:
304,133,14805,1,0,0:0:0:0:
288,192,14835,1,0,0:0:0:0:
186,203,15630,1,0,0:0:0:0:
96,128,15675,1,0,0:0:0:0:
312,167,16110,1,0,0:0:0:0:
224,112,16170,1,0,0:0:0:0:
423,102,16545,1,0,0:0:0:0:
112,208,16605,1,0,0:0:0:0:
336,176,17100,1,0,0:0:0:0:
273,157,17130,1,0,0:0:0:0:
198,139,17610,1,0,0:0:0:0:
160,144,17640,1,0,0:0:0:0:
354,83,17955,1,0,0:0:0:0:
256,112,17985,1,0,0:0:0:0:
144,272,18465,1,0,0:0:0:0:
223,187,18525,1,0,0:0:0:0:
144,272,18600,1,0,0:0:0:0:
227,182,18690,1,0,0:0:0:0:
192,176,18930,1,0,0:0:0:0:
443,38,19020,1,0,0:0:0:0:
317,210,19350,1,0,0:0:0:0:
320,192,19365,1,0,0:0:0:0:
296,145,19845,1,0,0:0:0:0:
48,160,19890,1,0,0:0:0:0:
386,116,20325,1,0,0:0:0:0:
304,80,20355,1,0,0:0:0:0:
269,199,21225,1,0,0:0:0:0:
160,144,21255,1,0,0:0:0:0:
318,173,21735,1,0,0:0:0:0:
423,106,22080,1,0,0:0:0:0:
112,192,22140,1,0,0:0:0:0:
329,177,22455,1,0,0:0:0:0:
256,96,22485,1,0,0:0:0:0:
318,173,22620,1,0,0:0:0:0:
304,208,22635,1,0,0:0:0:0:
346,149,22800,1,0,0:0:0:0:
272,272,22830,1,0,0:0:0:0:
378,116,23055,1,0,0:0:0:0:
320,96,23385,1,0,0:0:0:0:
358,153,23400,1,0,0:0:0:0:
304,192,23655,1,0,0:0:0:0:
350,142,23685,1,0,0:0:0:0:
351,141,23850,1,0,0:0:0:0:
224,192,23865,1,0,0:0:0:0:
356,141,24030,1,0,0:0:0:0:
176,128,24045,1,0,0:0:0:0:
357,141,24210,1,0,0:0:0:0:
128,256,24525,1,0,0:0:0:0:
377,121,24540,1,0,0:0:0:0:
320,144,24840,1,0,0:0:0:0:
380,124,24900,1,0,0:0:0:0:
256,320,25020,1,0,0:0:0:0:
375,125,25065,1,0,0:0:0:0:
224,272,25215,1,0,0:0:0:0:
231,131,25230,1,0,0:0:0:0:
112,96,25380,1,0,0:0:0:0:
221,140,25425,1,0,0:0:0:0:
288,144,25560,1,0,0:0:0:0:
340,101,25605,1,0,0:0:0:0:
320,96,25800,1,0,0:0:0:0:
344,166,25845,1,0,0:0:0:0:
292,151,26145,1,0,0:0:0:0:
96,192,26415,1,0,0:0:0:0:
401,112,26475,1,0,0:0:0:0:
144,272,26595,1,0,0:0:0:0:
401,112,26640,1,0,0:0:0:0:
304,160,26775,1,0,0:0:0:0:
401,112,26805,1,0,0:0:0:0:
400,48,26955,1,0,0:0:0:0:
395,120,26985,1,0,0:0:0:0:
248,111,27300,1,0,0:0:0:0:
176,112,27630,1,0,0:0:0:0:
430,157,27675,1,0,0:0:0:0:
160,272,27975,1,0,0:0:0:0:
421,162,27990,1,0,0:0:0:0:
432,192,28155,1,0,0:0:0:0:
340,168,28170,1,0,0:0:0:0:
337,174,28335,1,0,0:0:0:0:
416,160,28365,1,0,0:0:0:0:
376,160,28575,1,0,0:0:0:0:
224,144,28605,1,0,0:0:0:0:
482,127,28845,1,0,0:0:0:0:
208,112,28905,1,0,0:0:0:0:
482,127,29160,1,0,0:0:0:0:
96,176,29190,1,0,0:0:0:0:
461,129,29340,1,0,0:0:0:0:
160,256,29355,1,0,0:0:0:0:
456,132,29505,1,0,0:0:0:0:
336,192,29550,1,0,0:0:0:0:
453,127,29685,1,0,0:0:0:0:
320,96,29760,1,0,0:0:0:0:
337,120,30060,1,0,0:0:0:0:
320,272,30090,1,0,0:0:0:0:
326,173,30405,1,0,0:0:0:0:
96,144,30420,1,0,0:0:0:0:
416,172,30570,1,0,0:0:0:0:
16,224,30600,1,0,0:0:0:0:
420,160,30735,1,0,0:0:0:0:
320,240,30810,1,0,0:0:0:0:
336,160,30960,1,0,0:0:0:0:
239,192,31155,1,0,0:0:0:0:
143,159,31380,1,0,0:0:0:0:
263,154,31395,1,0,0:0:0:0:
336,213,31635,1,0,0:0:0:0:
192,160,31650,1,0,0:0:0:0:
396,103,31950,1,0,0:0:0:0:
346,207,32100,1,0,0:0:0:0:
176,240,32115,1,0,0:0:0:0:
259,265,32235,1,0,0:0:0:0:
176,240,32250,1,0,0:0:0:0:
176,208,32415,1,0,0:0:0:0:
272,128,32760,1,0,0:0:0:0:
304,256,33135,1,0,0:0:0:0:
128,224,33495,1,0,0:0:0:0:
272,192,33660,1,0,0:0:0:0:
304,160,33840,1,0,0:0:0:0:
176,176,34125,1,0,0:0:0:0:
192,256,34440,1,0,0:0:0:0:
272,144,34740,1,0,0:0:0:0:
192,96,34935,1,0,0:0:0:0:
80,96,35085,1,0,0:0:0:0:
32,192,35250,1,0,0:0:0:0:
224,272,35580,1,0,0:0:0:0:
208,112,35925,1,0,0:0:0:0:
352,192,36105,1,0,0:0:0:0:
288,272,36285,1,0,0:0:0:0:
128,224,36480,1,0,0:0:0:0:
128,96,36585,1,0,0:0:0:0:
192,192,36885,1,0,0:0:0:0:
352,64,37155,1,0,0:0:0:0:
272,224,37455,1,0,0:0:0:0:
176,96,37605,1,0,0:0:0:0:
176,96,37800,1,0,0:0:0:0:
272,144,37995,1,0,0:0:0:0:
128,272,38310,1,0,0:0:0:0:
80,144,38625,1,0,0:0:0:0:
288,192,39030,1,0,0:0:0:0:
288,192,39165,1,0,0:0:0:0:
192,144,39375,1,0,0:0:0:0:
448,144,39630,1,0,0:0:0:0:
320,272,39870,1,0,0:0:0:0:
96,256,40185,1,0,0:0:0:0:
224,224,40395,1,0,0:0:0:0:
240,144,40590,1,0,0:0:0:0:
176,288,40770,1,0,0:0:0:0:
96,144,41055,1,0,0:0:0:0:
288,240,41460,1,0,0:0:0:0:
288,224,41610,1,0,0:0:0:0:
96,160,41790,1,0,0:0:0:0:
176,128,41970,1,0,0:0:0:0:
208,112,42150,1,0,0:0:0:0:
224,208,42390,1,0,0:0:0:0:
160,80,42690,1,0,0:0:0:0:
288,224,43020,1,0,0:0:0:0:
336,128,43185,1,0,0:0:0:0:
304,144,43290,1,0,0:0:0:0:
208,224,43410,1,0,0:0:0:0:
192,272,43560,1,0,0:0:0:0:
288,192,43830,1,0,0:0:0:0:
176,64,44160,1,0,0:0:0:0:
320,320,44340,1,0,0:0:0:0:
336,224,44550,1,0,0:0:0:0:
192,336,44730,1,0,0:0:0:0:
208,224,44910,1,0,0:0:0:0:
288,320,45075,1,0,0:0:0:0:
320,192,45270,1,0,0:0:0:0:
272,224,45435,1,0,0:0:0:0:
192,192,45570,1,0,0:0:0:0:
192,192,45720,1,0,0:0:0:0:
272,176,45885,1,0,0:0:0:0:
240,128,46050,1,0,0:0:0:0:
128,208,46200,1,0,0:0:0:0:
208,288,46380,1,0,0:0:0:0:
256,208,46530,1,0,0:0:0:0:
160,96,46650,1,0,0:0:0:0:
256,144,46785,1,0,0:0:0:0:
128,176,46830,1,0,0:0:0:0:
336,224,46890,1,0,0:0:0:0:
128,192,46965,1,0,0:0:0:0:
128,240,47040,1,0,0:0:0:0:
128,192,47190,1,0,0:0:0:0:
240,160,47340,1,0,0:0:0:0:
272,144,47520,1,0,0:0:0:0:
208,96,47640,1,0,0:0:0:0:
192,256,47805,1,0,0:0:0:0:
240,320,47970,1,0,0:0:0:0:
288,320,48135,1,0,0:0:0:0:
368,224,48285,1,0,0:0:0:0:
384,176,48480,1,0,0:0:0:0:
304,128,48660,1,0,0:0:0:0:
176,144,48780,1,0,0:0:0:0:
352,256,48945,1,0,0:0:0:0:
96,192,49155,1,0,0:0:0:0:
208,240,49350,1,0,0:0:0:0:
272,224,49365,1,0,0:0:0:0:
256,192,49380,1,0,0:0:0:0:
224,224,49515,1,0,0:0:0:0:
256,192,49530,1,0,0:0:0:0:
224,160,49620,1,0,0:0:0:0:
240,176,49785,1,0,0:0:0:0:
304,112,49950,1,0,0:0:0:0:
304,192,50085,1,0,0:0:0:0:
288,208,50100,1,0,0:0:0:0:
192,192,50280,1,0,0:0:0:0:
160,208,50415,1,0,0:0:0:0:
304,144,50760,1,0,0:0:0:0:
288,208,50850,1,0,0:0:0:0:
176,208,51000,1,0,0:0:0:0:
208,256,51105,1,0,0:0:0:0:
272,256,51150,1,0,0:0:0:0:
320,176,51345,1,0,0:0:0:0:
144,144,51420,1,0,0:0:0:0:
192,288,51525,1,0,0:0:0:0:
80,256,51720,1,0,0:0:0:0:
304,160,51780,1,0,0:0:0:0:
224,288,51885,1,0,0:0:0:0:
352,192,52065,1,0,0:0:0:0:
128,224,52155,1,0,0:0:0:0:
368,176,52245,1,0,0:0:0:0:
240,240,52455,1,0,0:0:0:0:
144,128,52470,1,0,0:0:0:0:
224,128,52620,1,0,0:0:0:0:
320,192,52800,1,0,0:0:0:0:
352,144,52980,1,0,0:0:0:0:
256,112,53010,1,0,0:0:0:0:
320,336,53175,1,0,0:0:0:0:
128,304,53340,1,0,0:0:0:0:
96,272,53520,1,0,0:0:0:0:
256,272,53730,1,0,0:0:0:0:
272,192,53880,1,0,0:0:0:0:
112,160,54210,1,0,0:0:0:0:
272,96,54255,1,0,0:0:0:0:
240,224,54420,1,0,0:0:0:0:
368,160,54585,1,0,0:0:0:0:
368,192,54765,1,0,0:0:0:0:
112,144,54840,1,0,0:0:0:0:
288,224,54930,1,0,0:0:0:0:
272,144,55230,1,0,0:0:0:0:
272,128,55245,1,0,0:0:0:0:
224,176,55545,1,0,0:0:0:0:
160,224,55740,1,0,0:0:0:0:
128,144,55770,1,0,0:0:0:0:
320,112,56220,1,0,0:0:0:0:
304,192,56235,1,0,0:0:0:0:
176,192,56580,1,0,0:0:0:0:
352,144,57090,1,0,0:0:0:0:
336,208,57135,1,0,0:0:0:0:
336,176,57255,1,0,0:0:0:0:
352,208,57300,1,0,0:0:0:0:
208,96,57615,1,0,0:0:0:0:
208,112,57645,1,0,0:0:0:0:
352,160,58020,1,0,0:0:0:0:
144,192,58560,1,0,0:0:0:0:
352,80,59010,1,0,0:0:0:0:
160,256,59850,1,0,0:0:0:0:
368,112,60360,1,0,0:0:0:0:
176,112,60810,1,0,0:0:0:0:
320,128,61305,1,0,0:0:0:0:
176,192,61815,1,0,0:0:0:0:
352,128,62175,1,0,0:0:0:0:
128,192,62730,1,0,0:0:0:0:
272,128,63195,1,0,0:0:0:0:
240,224,63570,1,0,0:0:0:0:
160,128,63870,1,0,0:0:0:0:
336,80,64215,1,0,0:0:0:0:
168,186,64245,1,0,0:0:0:0:
116,191,64395,1,0,0:0:0:0:
160,239,64545,1,0,0:0:0:0:
288,240,64590,1,0,0:0:0:0:
356,290,64680,1,0,0:0:0:0:
352,117,64845,1,0,0:0:0:0:
224,224,64860,1,0,0:0:0:0:
139,180,66285,1,0,0:0:0:0:
228,173,66315,1,0,0:0:0:0:
254,173,66585,1,0,0:0:0:0:
299,205,66630,1,0,0:0:0:0:
254,173,66750,1,0,0:0:0:0:
380,108,66795,1,0,0:0:0:0:
211,249,66885,1,0,0:0:0:0:
221,301,66990,1,0,0:0:0:0:
86,142,67170,1,0,0:0:0:0:
291,102,67455,1,0,0:0:0:0:
242,227,67515,1,0,0:0:0:0:
246,113,67725,1,0,0:0:0:0:
199,288,67770,1,0,0:0:0:0:
287,238,67920,1,0,0:0:0:0:
89,186,67935,1,0,0:0:0:0:
417,195,68100,1,0,0:0:0:0:
309,113,68280,1,0,0:0:0:0:
414,140,68295,1,0,0:0:0:0:
309,215,68610,1,0,0:0:0:0:
217,261,68685,1,0,0:0:0:0:
208,106,68955,1,0,0:0:0:0:
132,69,69030,1,0,0:0:0:0:
199,133,69090,1,0,0:0:0:0:
255,96,69240,1,0,0:0:0:0:
258,225,69330,1,0,0:0:0:0:
293,108,69480,1,0,0:0:0:0:
417,293,69600,1,0,0:0:0:0:
320,108,69645,1,0,0:0:0:0:
381,298,69765,1,0,0:0:0:0:
322,117,69795,1,0,0:0:0:0:
145,161,69990,1,0,0:0:0:0:
201,211,70020,1,0,0:0:0:0:
72,130,70260,1,0,0:0:0:0:
301,172,70320,1,0,0:0:0:0:
334,160,70575,1,0,0:0:0:0:
310,134,70605,1,0,0:0:0:0:
334,160,70740,1,0,0:0:0:0:
201,215,70785,1,0,0:0:0:0:
247,154,70935,1,0,0:0:0:0:
190,249,70950,1,0,0:0:0:0:
350,172,71100,1,0,0:0:0:0:
256,197,71130,1,0,0:0:0:0:
174,100,71430,1,0,0:0:0:0:
263,111,71460,1,0,0:0:0:0:
233,174,71820,1,0,0:0:0:0:
240,215,71850,1,0,0:0:0:0:
326,158,72135,1,0,0:0:0:0:
277,119,72150,1,0,0:0:0:0:
199,214,72330,1,0,0:0:0:0:
340,176,72345,1,0,0:0:0:0:
182,203,72495,1,0,0:0:0:0:
282,230,72525,1,0,0:0:0:0:
278,106,72780,1,0,0:0:0:0:
239,172,72885,1,0,0:0:0:0:
218,166,73200,1,0,0:0:0:0:
325,105,73245,1,0,0:0:0:0:
300,248,73425,1,0,0:0:0:0:
218,166,73455,1,0,0:0:0:0:
229,163,73620,1,0,0:0:0:0:
118,121,73665,1,0,0:0:0:0:
185,178,73800,1,0,0:0:0:0:
249,199,73815,1,0,0:0:0:0:
276,144,73860,1,0,0:0:0:0:
315,60,74115,1,0,0:0:0:0:
326,83,74160,1,0,0:0:0:0:
266,160,74220,1,0,0:0:0:0:
295,168,74565,1,0,0:0:0:0:
196,220,74745,1,0,0:0:0:0:
384,173,74760,1,0,0:0:0:0:
203,144,74910,1,0,0:0:0:0:
419,134,74925,1,0,0:0:0:0:
311,163,75075,1,0,0:0:0:0:
326,219,75105,1,0,0:0:0:0:
343,103,75270,1,0,0:0:0:0:
268,187,75300,1,0,0:0:0:0:
316,254,75450,1,0,0:0:0:0:
434,103,75570,1,0,0:0:0:0:
187,96,75795,1,0,0:0:0:0:
350,187,75855,1,0,0:0:0:0:
289,236,76080,1,0,0:0:0:0:
268,149,76155,1,0,0:0:0:0:
360,134,76260,1,0,0:0:0:0:
269,143,76320,1,0,0:0:0:0:
338,155,76440,1,0,0:0:0:0:
281,136,76470,1,0,0:0:0:0:
308,121,76635,1,0,0:0:0:0:
221,92,76935,1,0,0:0:0:0:
332,76,76980,1,0,0:0:0:0:
217,137,77295,1,0,0:0:0:0:
281,235,77325,1,0,0:0:0:0:
322,149,77655,1,0,0:0:0:0:
291,117,77700,1,0,0:0:0:0:
370,173,77835,1,0,0:0:0:0:
162,303,77850,1,0,0:0:0:0:
294,156,77865,1,0,0:0:0:0:
429,102,78030,1,0,0:0:0:0:
235,183,78045,1,0,0:0:0:0:
300,239,78270,1,0,0:0:0:0:
185,139,78285,1,0,0:0:0:0:
268,106,78300,1,0,0:0:0:0:
206,113,78555,1,0,0:0:0:0:
340,220,78570,1,0,0:0:0:0:
194,245,78585,1,0,0:0:0:0:
127,150,78870,1,0,0:0:0:0:
336,127,78915,1,0,0:0:0:0:
199,282,79065,1,0,0:0:0:0:
306,233,79095,1,0,0:0:0:0:
289,237,79260,1,0,0:0:0:0:
178,208,79275,1,0,0:0:0:0:
355,136,79440,1,0,0:0:0:0:
194,110,79680,1,0,0:0:0:0:
355,136,79725,1,0,0:0:0:0:
350,139,80025,1,0,0:0:0:0:
293,215,80055,1,0,0:0:0:0:
354,276,80205,1,0,0:0:0:0:
196,193,80220,1,0,0:0:0:0:
303,262,80385,1,0,0:0:0:0:
188,161,80415,1,0,0:0:0:0:
246,165,80580,1,0,0:0:0:0:
292,119,80625,1,0,0:0:0:0:
275,71,80760,1,0,0:0:0:0:
336,116,80805,1,0,0:0:0:0:
421,105,81030,1,0,0:0:0:0:
298,177,81060,1,0,0:0:0:0:
427,206,81240,1,0,0:0:0:0:
194,104,81300,1,0,0:0:0:0:
295,208,81615,1,0,0:0:0:0:
268,147,81630,1,0,0:0:0:0:
172,172,81645,1,0,0:0:0:0:
295,208,81795,1,0,0:0:0:0:
365,94,81810,1,0,0:0:0:0:
308,162,81825,1,0,0:0:0:0:
319,199,81990,1,0,0:0:0:0:
361,83,82005,1,0,0:0:0:0:
321,131,82020,1,0,0:0:0:0:
362,166,82170,1,0,0:0:0:0:
284,193,82185,1,0,0:0:0:0:
191,82,82485,1,0,0:0:0:0:
183,189,82515,1,0,0:0:0:0:
337,151,82830,1,0,0:0:0:0:
284,161,82845,1,0,0:0:0:0:
328,112,83190,1,0,0:0:0:0:
211,162,83205,1,0,0:0:0:0:
307,209,83340,1,0,0:0:0:0:
345,134,83385,1,0,0:0:0:0:
396,25,83550,1,0,0:0:0:0:
286,267,83790,1,0,0:0:0:0:
159,170,84090,1,0,0:0:0:0:
328,112,84105,1,0,0:0:0:0:
324,134,84315,1,0,0:0:0:0:
198,216,84390,1,0,0:0:0:0:
268,173,84495,1,0,0:0:0:0:
318,132,84555,1,0,0:0:0:0:
227,114,84705,1,0,0:0:0:0:
323,123,84750,1,0,0:0:0:0:
258,66,84930,1,0,0:0:0:0:
279,109,84945,1,0,0:0:0:0:
225,207,85245,1,0,0:0:0:0:
333,136,85290,1,0,0:0:0:0:
276,157,85590,1,0,0:0:0:0:
255,217,85620,1,0,0:0:0:0:
302,157,85830,1,0,0:0:0:0:
184,147,85965,1,0,0:0:0:0:
302,157,86040,1,0,0:0:0:0:
302,157,86250,1,0,0:0:0:0:
345,68,86310,1,0,0:0:0:0:
301,152,86475,1,0,0:0:0:0:
301,152,86640,1,0,0:0:0:0:
334,242,86655,1,0,0:0:0:0:
301,148,86775,1,0,0:0:0:0:
301,146,86925,1,0,0:0:0:0:
216,137,86970,1,0,0:0:0:0:
301,144,87030,1,0,0:0:0:0:
301,143,87150,1,0,0:0:0:0:
301,144,87255,1,0,0:0:0:0:
253,98,87270,1,0,0:0:0:0:
301,152,87360,1,0,0:0:0:0:
300,157,87480,1,0,0:0:0:0:
286,160,87600,1,0,0:0:0:0:
265,102,87645,1,0,0:0:0:0:
232,142,87705,1,0,0:0:0:0:
161,298,87720,1,0,0:0:0:0:
285,275,87855,1,0,0:0:0:0:
163,293,87885,1,0,0:0:0:0:
190,241,88035,1,0,0:0:0:0:
240,174,88050,1,0,0:0:0:0:
368,222,88080,1,0,0:0:0:0:
360,211,88200,1,0,0:0:0:0:
317,198,88335,1,0,0:0:0:0:
227,132,88410,1,0,0:0:0:0:
284,185,88665,1,0,0:0:0:0:
244,113,88740,1,0,0:0:0:0:
303,183,88830,1,0,0:0:0:0:
265,113,88920,1,0,0:0:0:0:
317,173,89010,1,0,0:0:0:0:
271,116,89085,1,0,0:0:0:0:
318,169,89190,1,0,0:0:0:0:
233,162,89280,1,0,0:0:0:0:
313,167,89355,1,0,0:0:0:0:
210,143,89430,1,0,0:0:0:0:
308,166,89535,1,0,0:0:0:0:
200,97,89610,1,0,0:0:0:0:
251,171,89880,1,0,0:0:0:0:
262,66,89955,1,0,0:0:0:0:
241,156,90090,1,0,0:0:0:0:
337,110,90120,1,0,0:0:0:0:
247,150,90300,1,0,0:0:0:0:
381,73,90480,1,0,0:0:0:0:
314,175,90780,1,0,0:0:0:0:
264,124,91095,1,0,0:0:0:0:
264,98,91125,1,0,0:0:0:0:
359,121,91470,1,0,0:0:0:0:
301,243,91485,1,0,0:0:0:0:
271,155,91650,1,0,0:0:0:0:
251,117,91845,1,0,0:0:0:0:
259,112,92010,1,0,0:0:0:0:
250,183,92025,1,0,0:0:0:0:
263,178,92175,1,0,0:0:0:0:
281,108,92205,1,0,0:0:0:0:
254,153,92340,1,0,0:0:0:0:
284,105,92370,1,0,0:0:0:0:
308,92,92670,1,0,0:0:0:0:
259,197,92715,1,0,0:0:0:0:
308,92,92880,1,0,0:0:0:0:
122,218,92895,1,0,0:0:0:0:
285,84,93060,1,0,0:0:0:0:
372,250,93090,1,0,0:0:0:0:
207,47,93225,1,0,0:0:0:0:
349,130,93465,1,0,0:0:0:0:
234,132,93540,1,0,0:0:0:0:
320,73,93870,1,0,0:0:0:0:
157,269,93885,1,0,0:0:0:0:
143,176,94230,1,0,0:0:0:0:
246,81,94275,1,0,0:0:0:0:
208,166,94410,1,0,0:0:0:0:
251,85,94440,1,0,0:0:0:0:
226,167,94590,1,0,0:0:0:0:
269,80,94620,1,0,0:0:0:0:
230,220,94755,1,0,0:0:0:0:
271,76,94800,1,0,0:0:0:0:
215,229,94920,1,0,0:0:0:0:
272,73,94950,1,0,0:0:0:0:
213,221,95100,1,0,0:0:0:0:
271,67,95130,1,0,0:0:0:0:
269,45,95430,1,0,0:0:0:0:
243,155,95460,1,0,0:0:0:0:
257,61,95625,1,0,0:0:0:0:
230,177,95640,1,0,0:0:0:0:
252,57,95805,1,0,0:0:0:0:
362,350,95820,1,0,0:0:0:0:
252,47,95970,1,0,0:0:0:0:
238,182,96285,1,0,0:0:0:0:
327,147,96300,1,0,0:0:0:0:
380,54,96600,1,0,0:0:0:0:
204,276,96630,1,0,0:0:0:0:
292,232,96765,1,0,0:0:0:0:
180,268,96840,1,0,0:0:0:0:
185,155,96975,1,0,0:0:0:0:
326,152,97005,1,0,0:0:0:0:
231,209,97155,1,0,0:0:0:0:
328,138,97170,1,0,0:0:0:0:
446,75,97335,1,0,0:0:0:0:
281,112,97500,1,0,0:0:0:0:
426,125,97515,1,0,0:0:0:0:
168,147,97665,1,0,0:0:0:0:
265,253,97695,1,0,0:0:0:0:
240,220,97845,1,0,0:0:0:0:
271,124,98235,1,0,0:0:0:0:
255,138,98400,1,0,0:0:0:0:
246,209,98580,1,0,0:0:0:0:
247,212,98745,1,0,0:0:0:0:
132,81,99015,1,0,0:0:0:0:
215,116,99375,1,0,0:0:0:0:
297,207,99405,1,0,0:0:0:0:
267,101,99735,1,0,0:0:0:0:
267,101,99915,1,0,0:0:0:0:
284,202,99945,1,0,0:0:0:0:
296,153,100095,1,0,0:0:0:0:
204,261,100140,1,0,0:0:0:0:
296,170,100260,1,0,0:0:0:0:
90,155,100305,1,0,0:0:0:0:
256,174,100440,1,0,0:0:0:0:
124,137,100470,1,0,0:0:0:0:
286,192,100620,1,0,0:0:0:0:
318,108,100935,1,0,0:0:0:0:
211,222,100980,1,0,0:0:0:0:
324,117,101115,1,0,0:0:0:0:
220,214,101160,1,0,0:0:0:0:
319,164,101295,1,0,0:0:0:0:
226,188,101340,1,0,0:0:0:0:
238,167,101490,1,0,0:0:0:0:
226,173,101505,1,0,0:0:0:0:
334,77,101775,1,0,0:0:0:0:
287,130,101790,1,0,0:0:0:0:
352,226,102150,1,0,0:0:0:0:
241,235,102180,1,0,0:0:0:0:
246,213,102345,1,0,0:0:0:0:
281,152,102510,1,0,0:0:0:0:
248,269,102525,1,0,0:0:0:0:
225,165,102675,1,0,0:0:0:0:
217,227,102705,1,0,0:0:0:0:
284,199,102855,1,0,0:0:0:0:
206,121,103035,1,0,0:0:0:0:
252,88,103110,1,0,0:0:0:0:
258,108,103200,1,0,0:0:0:0:
284,184,103290,1,0,0:0:0:0:
266,109,103365,1,0,0:0:0:0:
208,155,103635,1,0,0:0:0:0:
212,327,103800,1,0,0:0:0:0:
311,194,103815,1,0,0:0:0:0:
193,309,103950,1,0,0:0:0:0:
301,177,104010,1,0,0:0:0:0:
173,272,104145,1,0,0:0:0:0:
204,175,104205,1,0,0:0:0:0:
166,148,104520,1,0,0:0:0:0:
274,157,104880,1,0,0:0:0:0:
289,162,104895,1,0,0:0:0:0:
332,252,105225,1,0,0:0:0:0:
89,153,105240,1,0,0:0:0:0:
164,225,105390,1,0,0:0:0:0:
168,310,105435,1,0,0:0:0:0:
159,217,105570,1,0,0:0:0:0:
306,127,105615,1,0,0:0:0:0:
175,168,105720,1,0,0:0:0:0:
313,94,105765,1,0,0:0:0:0:
247,99,105885,1,0,0:0:0:0:
190,223,105945,1,0,0:0:0:0:
271,73,106020,1,0,0:0:0:0:
178,122,106125,1,0,0:0:0:0:
271,218,106410,1,0,0:0:0:0:
346,90,106500,1,0,0:0:0:0:
211,226,106590,1,0,0:0:0:0:
326,167,106680,1,0,0:0:0:0:
190,215,106770,1,0,0:0:0:0:
303,158,106845,1,0,0:0:0:0:
162,149,106935,1,0,0:0:0:0:
270,144,106995,1,0,0:0:0:0:
209,68,107280,1,0,0:0:0:0:
156,149,107295,1,0,0:0:0:0:
240,125,107640,1,0,0:0:0:0:
243,137,107670,1,0,0:0:0:0:
211,111,108015,1,0,0:0:0:0:
204,128,108045,1,0,0:0:0:0:
293,154,108345,1,0,0:0:0:0:
320,83,108360,1,0,0:0:0:0:
220,132,108720,1,0,0:0:0:0:
201,126,109005,1,0,0:0:0:0:
219,135,109065,1,0,0:0:0:0:
201,130,109170,1,0,0:0:0:0:
219,140,109200,1,0,0:0:0:0:
201,126,109290,1,0,0:0:0:0:
220,137,109335,1,0,0:0:0:0:
201,126,109410,1,0,0:0:0:0:
201,126,109500,1,0,0:0:0:0:
235,213,109530,1,0,0:0:0:0:
205,127,109635,1,0,0:0:0:0:
286,243,109680,1,0,0:0:0:0:
211,136,109770,1,0,0:0:0:0:
208,129,109965,1,0,0:0:0:0:
197,119,110055,1,0,0:0:0:0:
198,120,110190,1,0,0:0:0:0:
215,123,110310,1,0,0:0:0:0:
294,129,110571,1,0,0:0:0:0:
181,139,110671,1,0,0:0:0:0:
261,275,110787,1,0,0:0:0:0:
294,129,110804,1,0,0:0:0:0:
301,175,110987,1,0,0:0:0:0:
246,96,111104,1,0,0:0:0:0:
251,219,111154,1,0,0:0:0:0:
178,136,111387,1,0,0:0:0:0:
142,113,111404,1,0,0:0:0:0:
322,69,111687,1,0,0:0:0:0:
341,64,111937,1,0,0:0:0:0:
275,112,112021,1,0,0:0:0:0:
172,199,112061,1,0,0:0:0:0:
235,311,112087,1,0,0:0:0:0:
219,120,112187,1,0,0:0:0:0:
211,192,112231,1,0,0:0:0:0:
84,273,112271,1,0,0:0:0:0:
191,197,112354,1,0,0:0:0:0:
269,179,112401,1,0,0:0:0:0:
95,161,112437,1,0,0:0:0:0:
358,233,112537,1,0,0:0:0:0:
225,12,112787,1,0,0:0:0:0:
272,141,112821,1,0,0:0:0:0:
400,100,112837,1,0,0:0:0:0:
154,192,113154,1,0,0:0:0:0:
324,68,113171,1,0,0:0:0:0:
173,276,113187,1,0,0:0:0:0:
109,175,113337,1,0,0:0:0:0:
309,147,113361,1,0,0:0:0:0:
131,176,113387,1,0,0:0:0:0:
285,164,113491,1,0,0:0:0:0:
280,129,113504,1,0,0:0:0:0:
328,127,113571,1,0,0:0:0:0:
185,84,113671,1,0,0:0:0:0:
283,127,113687,1,0,0:0:0:0:
329,168,113721,1,0,0:0:0:0:
188,85,113861,1,0,0:0:0:0:
160,183,113887,1,0,0:0:0:0:
286,264,113904,1,0,0:0:0:0:
141,53,114087,1,0,0:0:0:0:
377,40,114091,1,0,0:0:0:0:
184,173,114171,1,0,0:0:0:0:
362,146,114401,1,0,0:0:0:0:
367,155,114454,1,0,0:0:0:0:
62,192,114471,1,0,0:0:0:0:
228,119,114741,1,0,0:0:0:0:
136,242,114754,1,0,0:0:0:0:
214,123,114921,1,0,0:0:0:0:
376,184,114937,1,0,0:0:0:0:
393,143,115087,1,0,0:0:0:0:
220,115,115101,1,0,0:0:0:0:
259,132,115121,1,0,0:0:0:0:
272,304,115254,1,0,0:0:0:0:
247,91,115271,1,0,0:0:0:0:
286,79,115287,1,0,0:0:0:0:
331,77,115611,1,0,0:0:0:0:
112,268,115621,1,0,0:0:0:0:
86,207,115637,1,0,0:0:0:0:
64,121,115887,1,0,0:0:0:0:
217,153,115954,1,0,0:0:0:0:
209,154,115971,1,0,0:0:0:0:
255,315,116271,1,0,0:0:0:0:
141,113,116291,1,0,0:0:0:0:
264,250,116321,1,0,0:0:0:0:
296,221,116437,1,0,0:0:0:0:
262,145,116491,1,0,0:0:0:0:
188,257,116504,1,0,0:0:0:0:
262,145,116621,1,0,0:0:0:0:
148,223,116671,1,0,0:0:0:0:
354,77,116681,1,0,0:0:0:0:
345,121,116881,1,0,0:0:0:0:
175,128,116887,1,0,0:0:0:0:
85,210,116921,1,0,0:0:0:0:
171,225,117171,1,0,0:0:0:0:
206,93,117204,1,0,0:0:0:0:
181,42,117211,1,0,0:0:0:0:
454,6,117437,1,0,0:0:0:0:
152,158,117521,1,0,0:0:0:0:
258,208,117621,1,0,0:0:0:0:
323,215,117671,1,0,0:0:0:0:
283,200,117701,1,0,0:0:0:0:
180,193,117821,1,0,0:0:0:0:
185,312,117871,1,0,0:0:0:0:
309,142,117891,1,0,0:0:0:0:
195,92,117971,1,0,0:0:0:0:
118,276,118037,1,0,0:0:0:0:
346,60,118041,1,0,0:0:0:0:
271,83,118337,1,0,0:0:0:0:
349,213,118361,1,0,0:0:0:0:
199,283,118687,1,0,0:0:0:0:
121,163,118887,1,0,0:0:0:0:
185,127,119071,1,0,0:0:0:0:
221,107,119271,1,0,0:0:0:0:
194,114,119421,1,0,0:0:0:0:
259,205,119671,1,0,0:0:0:0:
80,110,119971,1,0,0:0:0:0:
276,228,120271,1,0,0:0:0:0:
311,160,120471,1,0,0:0:0:0:
291,135,120621,1,0,0:0:0:0:
219,130,120754,1,0,0:0:0:0:
109,207,121101,1,0,0:0:0:0:
151,113,121104,1,0,0:0:0:0:
255,108,121461,1,0,0:0:0:0:
158,206,121471,1,0,0:0:0:0:
177,181,121481,1,0,0:0:0:0:
232,147,121787,1,0,0:0:0:0:
153,160,121831,1,0,0:0:0:0:
298,156,121971,1,0,0:0:0:0:
315,212,122011,1,0,0:0:0:0:
286,157,122154,1,0,0:0:0:0:
347,146,122161,1,0,0:0:0:0:
238,288,122401,1,0,0:0:0:0:
197,123,122421,1,0,0:0:0:0:
90,167,122731,1,0,0:0:0:0:
293,252,122737,1,0,0:0:0:0:
348,183,123054,1,0,0:0:0:0:
273,157,123071,1,0,0:0:0:0:
306,184,123231,1,0,0:0:0:0:
249,148,123237,1,0,0:0:0:0:
205,170,123387,1,0,0:0:0:0:
248,199,123431,1,0,0:0:0:0:
187,182,123554,1,0,0:0:0:0:
172,150,123571,1,0,0:0:0:0:
349,99,123821,1,0,0:0:0:0:
299,114,123871,1,0,0:0:0:0:
158,217,124211,1,0,0:0:0:0:
313,261,124221,1,0,0:0:0:0:
156,230,124421,1,0,0:0:0:0:
38,151,124431,1,0,0:0:0:0:
109,121,124591,1,0,0:0:0:0:
131,113,124604,1,0,0:0:0:0:
290,95,124761,1,0,0:0:0:0:
306,169,124771,1,0,0:0:0:0:
309,80,124951,1,0,0:0:0:0:
316,152,124954,1,0,0:0:0:0:
238,149,125191,1,0,0:0:0:0:
205,263,125237,1,0,0:0:0:0:
159,115,125451,1,0,0:0:0:0:
100,122,125554,1,0,0:0:0:0:
276,113,125791,1,0,0:0:0:0:
299,129,125854,1,0,0:0:0:0:
279,150,125981,1,0,0:0:0:0:
303,123,126004,1,0,0:0:0:0:
206,177,126161,1,0,0:0:0:0:
301,167,126171,1,0,0:0:0:0:
185,138,126331,1,0,0:0:0:0:
208,148,126354,1,0,0:0:0:0:
268,61,126511,1,0,0:0:0:0:
351,93,126621,1,0,0:0:0:0:
123,232,126981,1,0,0:0:0:0:
359,134,127004,1,0,0:0:0:0:
122,134,127321,1,0,0:0:0:0:
98,100,127471,1,0,0:0:0:0:
235,207,127501,1,0,0:0:0:0:
251,250,127637,1,0,0:0:0:0:
339,151,127691,1,0,0:0:0:0:
301,234,127901,1,0,0:0:0:0:
294,158,127904,1,0,0:0:0:0:
269,175,128187,1,0,0:0:0:0:
134,117,128221,1,0,0:0:0:0:
191,197,128471,1,0,0:0:0:0:
110,180,128531,1,0,0:0:0:0:
346,74,128654,1,0,0:0:0:0:
107,157,128731,1,0,0:0:0:0:
349,69,128837,1,0,0:0:0:0:
147,88,128891,1,0,0:0:0:0:
257,345,128971,1,0,0:0:0:0:
234,123,129051,1,0,0:0:0:0:
116,235,129371,1,0,0:0:0:0:
339,107,129401,1,0,0:0:0:0:
232,116,129704,1,0,0:0:0:0:
208,207,129781,1,0,0:0:0:0:
321,268,130071,1,0,0:0:0:0:
10,177,130081,1,0,0:0:0:0:
193,205,130261,1,0,0:0:0:0:
305,103,130337,1,0,0:0:0:0:
224,153,130451,1,0,0:0:0:0:
152,224,130487,1,0,0:0:0:0:
145,233,130654,1,0,0:0:0:0:
244,207,130671,1,0,0:0:0:0:
164,136,130954,1,0,0:0:0:0:
381,86,130981,1,0,0:0:0:0:
386,283,131271,1,0,0:0:0:0:
272,201,131331,1,0,0:0:0:0:
119,160,131501,1,0,0:0:0:0:
279,157,131571,1,0,0:0:0:0:
77,151,131661,1,0,0:0:0:0:
219,166,131721,1,0,0:0:0:0:
153,240,131821,1,0,0:0:0:0:
196,197,131851,1,0,0:0:0:0:
284,120,132101,1,0,0:0:0:0:
425,156,132104,1,0,0:0:0:0:
261,88,132121,1,0,0:0:0:0:
356,63,132471,1,0,0:0:0:0:
261,88,132481,1,0,0:0:0:0:
261,88,132811,1,0,0:0:0:0:
138,188,132831,1,0,0:0:0:0:
239,212,132837,1,0,0:0:0:0:
229,123,133191,1,0,0:0:0:0:
156,155,133221,1,0,0:0:0:0:
346,275,133521,1,0,0:0:0:0:
294,260,133531,1,0,0:0:0:0:
193,177,133851,1,0,0:0:0:0:
357,113,133887,1,0,0:0:0:0:
121,288,134204,1,0,0:0:0:0:
149,98,134537,1,0,0:0:0:0:
173,118,134571,1,0,0:0:0:0:
243,261,134887,1,0,0:0:0:0:
215,240,134951,1,0,0:0:0:0:
276,133,135237,1,0,0:0:0:0:
304,86,135271,1,0,0:0:0:0:
298,318,135554,1,0,0:0:0:0:
177,240,135621,1,0,0:0:0:0:
51,58,135904,1,0,0:0:0:0:
127,95,135951,1,0,0:0:0:0:
281,225,136237,1,0,0:0:0:0:
337,117,136321,1,0,0:0:0:0:
367,72,136554,1,0,0:0:0:0:
371,258,136661,1,0,0:0:0:0:
338,303,136904,1,0,0:0:0:0:
157,196,137001,1,0,0:0:0:0:
138,237,137271,1,0,0:0:0:0:
156,155,137331,1,0,0:0:0:0:
311,133,137681,1,0,0:0:0:0:
301,127,137687,1,0,0:0:0:0:
307,205,138011,1,0,0:0:0:0:
230,289,138021,1,0,0:0:0:0:
91,137,138337,1,0,0:0:0:0:
133,185,138351,1,0,0:0:0:0:
246,230,138687,1,0,0:0:0:0:
273,81,138711,1,0,0:0:0:0:
261,138,139037,1,0,0:0:0:0:
406,153,139041,1,0,0:0:0:0:
182,263,139354,1,0,0:0:0:0:
110,192,139411,1,0,0:0:0:0:
220,163,139671,1,0,0:0:0:0:
152,125,139711,1,0,0:0:0:0:
301,217,140021,1,0,0:0:0:0:
235,135,140081,1,0,0:0:0:0:
343,135,140387,1,0,0:0:0:0:
151,188,140431,1,0,0:0:0:0:
294,293,140737,1,0,0:0:0:0:
118,151,140761,1,0,0:0:0:0:
284,131,141101,1,0,0:0:0:0:
197,178,141104,1,0,0:0:0:0:
311,196,141461,1,0,0:0:0:0:
306,221,141471,1,0,0:0:0:0:
59,214,141781,1,0,0:0:0:0:
330,135,141804,1,0,0:0:0:0:
208,39,142101,1,0,0:0:0:0:
261,182,142137,1,0,0:0:0:0:
304,176,142451,1,0,0:0:0:0:
240,155,142487,1,0,0:0:0:0:
338,113,142761,1,0,0:0:0:0:
321,224,142804,1,0,0:0:0:0:
314,177,143111,1,0,0:0:0:0:
344,146,143137,1,0,0:0:0:0:
149,312,143421,1,0,0:0:0:0:
270,145,143471,1,0,0:0:0:0:
215,107,144021,1,0,0:0:0:0:
258,163,144061,1,0,0:0:0:0:
124,210,144771,1,0,0:0:0:0:
336,187,144787,1,0,0:0:0:0:
159,145,145521,1,0,0:0:0:0:
410,118,145531,1,0,0:0:0:0:
286,175,146187,1,0,0:0:0:0:
148,175,146191,1,0,0:0:0:0:
408,237,146881,1,0,0:0:0:0:
134,157,146904,1,0,0:0:0:0:
212,144,146921,1,0,0:0:0:0:
184,263,147561,1,0,0:0:0:0:
368,103,147611,1,0,0:0:0:0:
331,111,147671,1,0,0:0:0:0:
474,68,148231,1,0,0:0:0:0:
105,164,148291,1,0,0:0:0:0:
181,142,148354,1,0,0:0:0:0:
306,123,148961,1,0,0:0:0:0:
193,199,148991,1,0,0:0:0:0:
366,257,149004,1,0,0:0:0:0:
271,188,149421,1,0,0:0:0:0:
96,211,149711,1,0,0:0:0:0:
154,187,149721,1,0,0:0:0:0:
271,188,150351,1,0,0:0:0:0:
391,101,150391,1,0,0:0:0:0:
361,157,150421,1,0,0:0:0:0:
199,208,151091,1,0,0:0:0:0:
161,183,151104,1,0,0:0:0:0:
142,202,151111,1,0,0:0:0:0:
377,131,151741,1,0,0:0:0:0:
351,163,151804,1,0,0:0:0:0:
136,271,151811,1,0,0:0:0:0:
280,220,152411,1,0,0:0:0:0:
46,179,152451,1,0,0:0:0:0:
134,150,152504,1,0,0:0:0:0:
378,172,153121,1,0,0:0:0:0:
106,216,153151,1,0,0:0:0:0:
327,117,153187,1,0,0:0:0:0:
272,230,153801,1,0,0:0:0:0:
191,204,153811,1,0,0:0:0:0:
178,209,153887,1,0,0:0:0:0:
167,242,154491,1,0,0:0:0:0:
304,122,154537,1,0,0:0:0:0:
276,235,154861,1,0,0:0:0:0:
166,156,154887,1,0,0:0:0:0:
276,239,155021,1,0,0:0:0:0:
236,248,155054,1,0,0:0:0:0:
272,238,155211,1,0,0:0:0:0:
298,152,155237,1,0,0:0:0:0:
220,359,155437,1,0,0:0:0:0:
100,245,155501,1,0,0:0:0:0:
117,196,155787,1,0,0:0:0:0:
331,193,155791,1,0,0:0:0:0:
179,212,156037,1,0,0:0:0:0:
314,219,156131,1,0,0:0:0:0:
289,155,156221,1,0,0:0:0:0:
211,320,156371,1,0,0:0:0:0:
295,244,156491,1,0,0:0:0:0:
163,322,156571,1,0,0:0:0:0:
300,216,156641,1,0,0:0:0:0:
119,197,156904,1,0,0:0:0:0:
199,188,156961,1,0,0:0:0:0:
248,128,157271,1,0,0:0:0:0:
246,191,157331,1,0,0:0:0:0:
218,161,157351,1,0,0:0:0:0:
421,334,157437,1,0,0:0:0:0:
246,191,157501,1,0,0:0:0:0:
218,161,157531,1,0,0:0:0:0:
231,216,157604,1,0,0:0:0:0:
229,187,157671,1,0,0:0:0:0:
328,105,157701,1,0,0:0:0:0:
221,184,157754,1,0,0:0:0:0:
246,191,157851,1,0,0:0:0:0:
314,154,157871,1,0,0:0:0:0:
156,140,157937,1,0,0:0:0:0:
309,157,158031,1,0,0:0:0:0:
262,202,158041,1,0,0:0:0:0:
160,176,158121,1,0,0:0:0:0:
130,124,158271,1,0,0:0:0:0:
248,224,158281,1,0,0:0:0:0:
168,171,158287,1,0,0:0:0:0:
216,93,158471,1,0,0:0:0:0:
196,176,158541,1,0,0:0:0:0:
287,157,158571,1,0,0:0:0:0:
245,187,158861,1,0,0:0:0:0:
406,134,158901,1,0,0:0:0:0:
354,95,158931,1,0,0:0:0:0:
265,159,159031,1,0,0:0:0:0:
355,115,159081,1,0,0:0:0:0:
156,354,159187,1,0,0:0:0:0:
320,136,159201,1,0,0:0:0:0:
343,144,159251,1,0,0:0:0:0:
404,180,159371,1,0,0:0:0:0:
314,116,159391,1,0,0:0:0:0:
328,148,159401,1,0,0:0:0:0:
83,96,159681,1,0,0:0:0:0:
304,136,159687,1,0,0:0:0:0:
81,86,159731,1,0,0:0:0:0:
253,107,160041,1,0,0:0:0:0:
191,153,160071,1,0,0:0:0:0:
181,170,160091,1,0,0:0:0:0:
280,89,160421,1,0,0:0:0:0:
272,223,160581,1,0,0:0:0:0:
357,194,160601,1,0,0:0:0:0:
237,100,160751,1,0,0:0:0:0:
356,220,160761,1,0,0:0:0:0:
173,173,161011,1,0,0:0:0:0:
141,176,161051,1,0,0:0:0:0:
168,133,161291,1,0,0:0:0:0:
349,95,161331,1,0,0:0:0:0:
327,166,161651,1,0,0:0:0:0:
288,123,161661,1,0,0:0:0:0:
336,123,161821,1,0,0:0:0:0:
258,165,161831,1,0,0:0:0:0:
333,166,161991,1,0,0:0:0:0:
202,88,162151,1,0,0:0:0:0:
293,156,162171,1,0,0:0:0:0:
127,191,162481,1,0,0:0:0:0:
231,131,162501,1,0,0:0:0:0:
344,151,162831,1,0,0:0:0:0:
205,169,162891,1,0,0:0:0:0:
318,207,162981,1,0,0:0:0:0:
301,176,163061,1,0,0:0:0:0:
213,266,163161,1,0,0:0:0:0:
309,161,163211,1,0,0:0:0:0:
181,156,163341,1,0,0:0:0:0:
316,136,163381,1,0,0:0:0:0:
276,113,163521,1,0,0:0:0:0:
315,122,163571,1,0,0:0:0:0:
315,109,163761,1,0,0:0:0:0:
276,113,163771,1,0,0:0:0:0:
265,253,164051,1,0,0:0:0:0:
224,130,164071,1,0,0:0:0:0:
104,166,164401,1,0,0:0:0:0:
305,192,164431,1,0,0:0:0:0:
108,140,164581,1,0,0:0:0:0:
377,159,164591,1,0,0:0:0:0:
397,191,164741,1,0,0:0:0:0:
163,123,164751,1,0,0:0:0:0:
352,240,164901,1,0,0:0:0:0:
245,118,164911,1,0,0:0:0:0:
272,244,165251,1,0,0:0:0:0:
214,105,165261,1,0,0:0:0:0:
77,229,165581,1,0,0:0:0:0:
119,248,165621,1,0,0:0:0:0:
366,126,165951,1,0,0:0:0:0:
250,175,165971,1,0,0:0:0:0:
355,195,166091,1,0,0:0:0:0:
281,148,166131,1,0,0:0:0:0:
289,114,166271,1,0,0:0:0:0:
320,258,166281,1,0,0:0:0:0:
90,129,166551,1,0,0:0:0:0:
211,72,166561,1,0,0:0:0:0:
156,219,166851,1,0,0:0:0:0:
179,270,166861,1,0,0:0:0:0:
286,104,167151,1,0,0:0:0:0:
340,236,167191,1,0,0:0:0:0:
295,177,167331,1,0,0:0:0:0:
335,305,167341,1,0,0:0:0:0:
274,188,167501,1,0,0:0:0:0:
254,334,167521,1,0,0:0:0:0:
187,257,167681,1,0,0:0:0:0:
149,95,168021,1,0,0:0:0:0:
39,118,168321,1,0,0:0:0:0:
351,82,168341,1,0,0:0:0:0:
97,167,168481,1,0,0:0:0:0:
358,192,168531,1,0,0:0:0:0:
188,122,168651,1,0,0:0:0:0:
342,214,168691,1,0,0:0:0:0:
196,118,168831,1,0,0:0:0:0:
230,221,168871,1,0,0:0:0:0:
216,254,169031,1,0,0:0:0:0:
223,157,169041,1,0,0:0:0:0:
255,67,169301,1,0,0:0:0:0:
414,59,169331,1,0,0:0:0:0:
381,151,169601,1,0,0:0:0:0:
256,175,169631,1,0,0:0:0:0:
269,203,169931,1,0,0:0:0:0:
192,177,169961,1,0,0:0:0:0:
201,123,170101,1,0,0:0:0:0:
161,201,170131,1,0,0:0:0:0:
175,116,170261,1,0,0:0:0:0:
234,206,170321,1,0,0:0:0:0:
159,129,170431,1,0,0:0:0:0:
296,125,170501,1,0,0:0:0:0:
351,74,170761,1,0,0:0:0:0:
327,140,170791,1,0,0:0:0:0:
374,209,171121,1,0,0:0:0:0:
292,243,171131,1,0,0:0:0:0:
207,177,171471,1,0,0:0:0:0:
54,103,171501,1,0,0:0:0:0:
162,200,171641,1,0,0:0:0:0:
299,169,171681,1,0,0:0:0:0:
144,260,171821,1,0,0:0:0:0:
321,104,171861,1,0,0:0:0:0:
170,322,172081,1,0,0:0:0:0:
249,236,172091,1,0,0:0:0:0:
116,237,172361,1,0,0:0:0:0:
349,167,172401,1,0,0:0:0:0:
129,157,172671,1,0,0:0:0:0:
346,251,172731,1,0,0:0:0:0:
195,166,172851,1,0,0:0:0:0:
280,220,172911,1,0,0:0:0:0:
225,206,173031,1,0,0:0:0:0:
278,110,173091,1,0,0:0:0:0:
273,108,173211,1,0,0:0:0:0:
128,108,173471,1,0,0:0:0:0:
179,209,173551,1,0,0:0:0:0:
117,227,173841,1,0,0:0:0:0:
166,137,173901,1,0,0:0:0:0:
146,255,174041,1,0,0:0:0:0:
323,210,174061,1,0,0:0:0:0:
250,208,174221,1,0,0:0:0:0:
355,206,174271,1,0,0:0:0:0:
256,79,174391,1,0,0:0:0:0:
351,123,174451,1,0,0:0:0:0:
266,88,174571,1,0,0:0:0:0:
182,227,174631,1,0,0:0:0:0:
346,171,174801,1,0,0:0:0:0:
131,192,174881,1,0,0:0:0:0:
397,188,175111,1,0,0:0:0:0:
223,131,175221,1,0,0:0:0:0:
245,276,175461,1,0,0:0:0:0:
211,237,175611,1,0,0:0:0:0:
293,205,175641,1,0,0:0:0:0:
185,210,175781,1,0,0:0:0:0:
226,215,175801,1,0,0:0:0:0:
179,207,175941,1,0,0:0:0:0:
170,117,176291,1,0,0:0:0:0:
183,147,176321,1,0,0:0:0:0:
274,152,176641,1,0,0:0:0:0:
257,147,176671,1,0,0:0:0:0:
268,169,176821,1,0,0:0:0:0:
257,147,176841,1,0,0:0:0:0:
257,147,176991,1,0,0:0:0:0:
268,169,177001,1,0,0:0:0:0:
264,171,177161,1,0,0:0:0:0:
262,169,177321,1,0,0:0:0:0:
137,186,177351,1,0,0:0:0:0:
125,253,177481,1,0,0:0:0:0:
264,164,177491,1,0,0:0:0:0:
265,160,177651,1,0,0:0:0:0:
236,173,177831,1,0,0:0:0:0:
186,195,177841,1,0,0:0:0:0:
226,149,178011,1,0,0:0:0:0:
156,268,178021,1,0,0:0:0:0:
194,133,178151,1,0,0:0:0:0:
206,262,178171,1,0,0:0:0:0:
266,209,178301,1,0,0:0:0:0:
361,143,178341,1,0,0:0:0:0:
153,234,178481,1,0,0:0:0:0:
364,107,178511,1,0,0:0:0:0:
167,251,178631,1,0,0:0:0:0:
219,149,178671,1,0,0:0:0:0:
333,268,178801,1,0,0:0:0:0:
176,100,178821,1,0,0:0:0:0:
125,226,178921,1,0,0:0:0:0:
176,100,179001,1,0,0:0:0:0:
232,179,179071,1,0,0:0:0:0:
188,167,179131,1,0,0:0:0:0:
246,173,179211,1,0,0:0:0:0:
212,160,179241,1,0,0:0:0:0:
244,184,179351,1,0,0:0:0:0:
236,126,179371,1,0,0:0:0:0:
216,148,179491,1,0,0:0:0:0:
142,99,179531,1,0,0:0:0:0:
206,141,179651,1,0,0:0:0:0:
171,155,179671,1,0,0:0:0:0:
150,170,179811,1,0,0:0:0:0:
271,142,179831,1,0,0:0:0:0:
291,108,179951,1,0,0:0:0:0:
215,237,179991,1,0,0:0:0:0:
222,118,180081,1,0,0:0:0:0:
334,132,180191,1,0,0:0:0:0:
174,202,180221,1,0,0:0:0:0:
246,304,180341,1,0,0:0:0:0:
235,224,180381,1,0,0:0:0:0:
290,175,180501,1,0,0:0:0:0:
136,277,180541,1,0,0:0:0:0:
288,189,180641,1,0,0:0:0:0:
151,200,180721,1,0,0:0:0:0:
166,216,180801,1,0,0:0:0:0:
261,136,180891,1,0,0:0:0:0:
151,91,180961,1,0,0:0:0:0:
267,142,181021,1,0,0:0:0:0:
312,154,181101,1,0,0:0:0:0:
242,204,181201,1,0,0:0:0:0:
346,172,181291,1,0,0:0:0:0:
63,105,181381,1,0,0:0:0:0:
304,140,181411,1,0,0:0:0:0:
223,175,181541,1,0,0:0:0:0:
221,301,181591,1,0,0:0:0:0:
306,109,181731,1,0,0:0:0:0:
106,290,181791,1,0,0:0:0:0:
311,123,181881,1,0,0:0:0:0:
180,269,181941,1,0,0:0:0:0:
288,166,182011,1,0,0:0:0:0:
281,216,182091,1,0,0:0:0:0:
204,105,182161,1,0,0:0:0:0:
199,132,182251,1,0,0:0:0:0:
285,135,182341,1,0,0:0:0:0:
167,247,182431,1,0,0:0:0:0:
382,173,182521,1,0,0:0:0:0:
291,287,182611,1,0,0:0:0:0:
318,177,182681,1,0,0:0:0:0:
341,184,182771,1,0,0:0:0:0:
115,295,182861,1,0,0:0:0:0:
283,128,182931,1,0,0:0:0:0:
95,159,183021,1,0,0:0:0:0:
173,168,183111,1,0,0:0:0:0:
329,199,183171,1,0,0:0:0:0:
207,257,183271,1,0,0:0:0:0:
353,125,183341,1,0,0:0:0:0:
460,226,183461,1,0,0:0:0:0:
204,282,183511,1,0,0:0:0:0:
474,223,183651,1,0,0:0:0:0:
144,206,183691,1,0,0:0:0:0:
263,194,183841,1,0,0:0:0:0:
283,210,183861,1,0,0:0:0:0:
393,115,183981,1,0,0:0:0:0:
261,123,184021,1,0,0:0:0:0:
315,176,184041,1,0,0:0:0:0:
354,121,184151,1,0,0:0:0:0:
171,297,184211,1,0,0:0:0:0:
269,180,184331,1,0,0:0:0:0:
129,261,184391,1,0,0:0:0:0:
194,216,184501,1,0,0:0:0:0:
339,185,184551,1,0,0:0:0:0:
144,222,184661,1,0,0:0:0:0:
358,175,184691,1,0,0:0:0:0:
294,150,184841,1,0,0:0:0:0:
235,167,184861,1,0,0:0:0:0:
269,179,185011,1,0,0:0:0:0:
263,137,185021,1,0,0:0:0:0:
246,212,185181,1,0,0:0:0:0:
298,190,185191,1,0,0:0:0:0:
305,208,185351,1,0,0:0:0:0:
441,191,185521,1,0,0:0:0:0:
251,217,185531,1,0,0:0:0:0:
450,167,185681,1,0,0:0:0:0:
214,228,185701,1,0,0:0:0:0:
141,335,185851,1,0,0:0:0:0:
96,254,185861,1,0,0:0:0:0:
95,229,185991,1,0,0:0:0:0:
137,168,186081,1,0,0:0:0:0:
101,101,186121,1,0,0:0:0:0:
304,124,186251,1,0,0:0:0:0:
189,180,186301,1,0,0:0:0:0:
380,107,186451,1,0,0:0:0:0:
276,119,186501,1,0,0:0:0:0:
372,127,186591,1,0,0:0:0:0:
91,318,186671,1,0,0:0:0:0:
314,175,186791,1,0,0:0:0:0:
97,264,186871,1,0,0:0:0:0:
286,143,186951,1,0,0:0:0:0:
231,231,187041,1,0,0:0:0:0:
282,144,187131,1,0,0:0:0:0:
265,179,187211,1,0,0:0:0:0:
280,142,187311,1,0,0:0:0:0:
261,187,187361,1,0,0:0:0:0:
259,157,187471,1,0,0:0:0:0:
211,195,187531,1,0,0:0:0:0:
256,166,187641,1,0,0:0:0:0:
227,120,187691,1,0,0:0:0:0:
345,135,188071,1,0,0:0:0:0:
345,95,188121,1,0,0:0:0:0:
319,152,188531,1,0,0:0:0:0:
147,168,188611,1,0,0:0:0:0:
347,87,188981,1,0,0:0:0:0:
331,145,189011,1,0,0:0:0:0:
278,169,189561,1,0,0:0:0:0:
263,236,189701,1,0,0:0:0:0:
285,155,189721,1,0,0:0:0:0:
337,100,190041,1,0,0:0:0:0:
289,152,190071,1,0,0:0:0:0:
370,137,190431,1,0,0:0:0:0:
198,172,190961,1,0,0:0:0:0:
144,180,190971,1,0,0:0:0:0:
266,131,191361,1,0,0:0:0:0:
369,117,191461,1,0,0:0:0:0:
163,190,192331,1,0,0:0:0:0:
269,101,192781,1,0,0:0:0:0:
326,144,192791,1,0,0:0:0:0:
135,214,193211,1,0,0:0:0:0:
145,195,193221,1,0,0:0:0:0:
327,146,193721,1,0,0:0:0:0:
294,110,193741,1,0,0:0:0:0:
203,209,194201,1,0,0:0:0:0:
140,166,194221,1,0,0:0:0:0:
332,133,194561,1,0,0:0:0:0:
283,177,194571,1,0,0:0:0:0:
102,110,195141,1,0,0:0:0:0:
173,194,195151,1,0,0:0:0:0:
306,181,195591,1,0,0:0:0:0:
259,177,195811,1,0,0:0:0:0:
261,179,195961,1,0,0:0:0:0:
111,204,195971,1,0,0:0:0:0:
261,189,196101,1,0,0:0:0:0:
264,199,196221,1,0,0:0:0:0:
480,124,196271,1,0,0:0:0:0:
297,160,196291,1,0,0:0:0:0:
256,192,196351,1,0,0:0:0:0:
237,172,196461,1,0,0:0:0:0:
333,130,196591,1,0,0:0:0:0:
249,208,196601,1,0,0:0:0:0:
146,200,196671,1,0,0:0:0:0:
262,150,196691,1,0,0:0:0:0:
3,310,196841,1,0,0:0:0:0:
38,251,196911,1,0,0:0:0:0:
273,170,196981,1,0,0:0:0:0:
206,93,196991,1,0,0:0:0:0:
187,198,197061,1,0,0:0:0:0:
193,135,197201,1,0,0:0:0:0:
296,200,197321,1,0,0:0:0:0:
270,167,197341,1,0,0:0:0:0:
280,179,197361,1,0,0:0:0:0:
126,207,198611,1,0,0:0:0:0:
126,98,198691,1,0,0:0:0:0:
179,166,198951,1,0,0:0:0:0:
102,222,199026,1,0,0:0:0:0:
179,183,199101,1,0,0:0:0:0:
223,210,199191,1,0,0:0:0:0:
179,194,199281,1,0,0:0:0:0:
277,133,199371,1,0,0:0:0:0:
266,127,199401,1,0,0:0:0:0:
230,197,199521,1,0,0:0:0:0:
277,151,199566,1,0,0:0:0:0:
189,209,199686,1,0,0:0:0:0:
226,171,199746,1,0,0:0:0:0:
148,152,199866,1,0,0:0:0:0:
158,64,199881,1,0,0:0:0:0:
321,151,200046,1,0,0:0:0:0:
341,86,200226,1,0,0:0:0:0:
238,214,200383,1,0,0:0:0:0:
227,206,200413,1,0,0:0:0:0:
197,197,200428,1,0,0:0:0:0:
160,199,200571,1,0,0:0:0:0:
169,192,200578,1,0,0:0:0:0:
198,196,200601,1,0,0:0:0:0:
347,165,200743,1,0,0:0:0:0:
311,248,200758,1,0,0:0:0:0:
119,177,200803,1,0,0:0:0:0:
355,141,200931,1,0,0:0:0:0:
335,198,200946,1,0,0:0:0:0:
261,122,201013,1,0,0:0:0:0:
231,204,201103,1,0,0:0:0:0:
255,175,201193,1,0,0:0:0:0:
278,124,201283,1,0,0:0:0:0:
187,188,201298,1,0,0:0:0:0:
115,211,201388,1,0,0:0:0:0:
206,142,201456,1,0,0:0:0:0:
312,188,201471,1,0,0:0:0:0:
127,178,201591,1,0,0:0:0:0:
308,177,201636,1,0,0:0:0:0:
281,140,201778,1,0,0:0:0:0:
164,191,201816,1,0,0:0:0:0:
86,210,201831,1,0,0:0:0:0:
281,145,201951,1,0,0:0:0:0:
312,177,201973,1,0,0:0:0:0:
124,124,201996,1,0,0:0:0:0:
324,150,202131,1,0,0:0:0:0:
148,193,202138,1,0,0:0:0:0:
194,161,202183,1,0,0:0:0:0:
282,92,202341,1,0,0:0:0:0:
283,171,202356,1,0,0:0:0:0:
342,82,202513,1,0,0:0:0:0:
285,151,202528,1,0,0:0:0:0:
359,170,202678,1,0,0:0:0:0:
234,156,202701,1,0,0:0:0:0:
182,211,202866,1,0,0:0:0:0:
278,228,202873,1,0,0:0:0:0:
143,200,203053,1,0,0:0:0:0:
159,182,203061,1,0,0:0:0:0:
263,234,203226,1,0,0:0:0:0:
258,181,203391,1,0,0:0:0:0:
368,143,203398,1,0,0:0:0:0:
368,143,203571,1,0,0:0:0:0:
251,78,203878,1,0,0:0:0:0:
260,131,203901,1,0,0:0:0:0:
142,213,204208,1,0,0:0:0:0:
150,111,204253,1,0,0:0:0:0:
308,182,204553,1,0,0:0:0:0:
365,129,204583,1,0,0:0:0:0:
276,152,204741,1,0,0:0:0:0:
348,131,204756,1,0,0:0:0:0:
266,214,204913,1,0,0:0:0:0:
255,127,204928,1,0,0:0:0:0:
266,238,205093,1,0,0:0:0:0:
365,129,205108,1,0,0:0:0:0:
292,115,205258,1,0,0:0:0:0:
271,179,205303,1,0,0:0:0:0:
295,129,205446,1,0,0:0:0:0:
185,151,205461,1,0,0:0:0:0:
195,199,205611,1,0,0:0:0:0:
346,118,205626,1,0,0:0:0:0:
148,176,205791,1,0,0:0:0:0:
348,117,205806,1,0,0:0:0:0:
194,131,205956,1,0,0:0:0:0:
210,123,205986,1,0,0:0:0:0:
251,124,206128,1,0,0:0:0:0:
282,108,206151,1,0,0:0:0:0:
291,103,206301,1,0,0:0:0:0:
270,125,206331,1,0,0:0:0:0:
255,170,206623,1,0,0:0:0:0:
294,100,206638,1,0,0:0:0:0:
294,100,206983,1,0,0:0:0:0:
110,93,206991,1,0,0:0:0:0:
268,150,207148,1,0,0:0:0:0:
170,116,207163,1,0,0:0:0:0:
315,122,207343,1,0,0:0:0:0:
187,127,207493,1,0,0:0:0:0:
294,134,207523,1,0,0:0:0:0:
144,203,207681,1,0,0:0:0:0:
176,164,207688,1,0,0:0:0:0:
187,159,207883,1,0,0:0:0:0:
300,103,208086,1,0,0:0:0:0:
329,64,208198,1,0,0:0:0:0:
295,171,208363,1,0,0:0:0:0:
304,102,208431,1,0,0:0:0:0:
207,177,208551,1,0,0:0:0:0:
304,101,208611,1,0,0:0:0:0:
170,110,208701,1,0,0:0:0:0:
304,95,208806,1,0,0:0:0:0:
208,128,208873,1,0,0:0:0:0:
303,95,208978,1,0,0:0:0:0:
263,37,209031,1,0,0:0:0:0:
294,95,209698,1,0,0:0:0:0:
342,213,209736,1,0,0:0:0:0:
294,95,210043,1,0,0:0:0:0:
181,129,210073,1,0,0:0:0:0:
244,122,210231,1,0,0:0:0:0:
238,157,210238,1,0,0:0:0:0:
305,99,210381,1,0,0:0:0:0:
316,92,210411,1,0,0:0:0:0:
313,90,210651,1,0,0:0:0:0:
284,182,210696,1,0,0:0:0:0:
191,103,210951,1,0,0:0:0:0:
115,132,210966,1,0,0:0:0:0:
200,213,211258,1,0,0:0:0:0:
203,206,211281,1,0,0:0:0:0:
364,49,211431,1,0,0:0:0:0:
227,210,211453,1,0,0:0:0:0:
195,370,211603,1,0,0:0:0:0:
281,146,211626,1,0,0:0:0:0:
283,131,211791,1,0,0:0:0:0:
139,273,211798,1,0,0:0:0:0:
171,85,212091,1,0,0:0:0:0:
306,230,212121,1,0,0:0:0:0:
339,102,212481,1,0,0:0:0:0:
346,114,212503,1,0,0:0:0:0:
281,220,212638,1,0,0:0:0:0:
290,205,212743,1,0,0:0:0:0:
170,201,212811,1,0,0:0:0:0:
191,122,212908,1,0,0:0:0:0:
175,201,212968,1,0,0:0:0:0:
209,127,213073,1,0,0:0:0:0:
229,157,213163,1,0,0:0:0:0:
247,73,213238,1,0,0:0:0:0:
181,191,213411,1,0,0:0:0:0:
262,81,213433,1,0,0:0:0:0:
153,176,213681,1,0,0:0:0:0:
288,166,213733,1,0,0:0:0:0:
356,108,214003,1,0,0:0:0:0:
153,151,214056,1,0,0:0:0:0:
328,157,214168,1,0,0:0:0:0:
116,113,214221,1,0,0:0:0:0:
158,217,214348,1,0,0:0:0:0:
181,133,214386,1,0,0:0:0:0:
142,184,214543,1,0,0:0:0:0:
283,125,214588,1,0,0:0:0:0:
306,85,214888,1,0,0:0:0:0:
324,217,214896,1,0,0:0:0:0:
395,120,215218,1,0,0:0:0:0:
278,231,215241,1,0,0:0:0:0:
141,171,215571,1,0,0:0:0:0:
125,85,215743,1,0,0:0:0:0:
208,101,215781,1,0,0:0:0:0:
143,101,215908,1,0,0:0:0:0:
257,81,215938,1,0,0:0:0:0:
57,153,216156,1,0,0:0:0:0:
314,203,216186,1,0,0:0:0:0:
231,74,216441,1,0,0:0:0:0:
139,186,216478,1,0,0:0:0:0:
227,140,216711,1,0,0:0:0:0:
298,140,216786,1,0,0:0:0:0:
141,207,216913,1,0,0:0:0:0:
324,110,216981,1,0,0:0:0:0:
185,210,217078,1,0,0:0:0:0:
295,274,217153,1,0,0:0:0:0:
263,137,217273,1,0,0:0:0:0:
220,244,217356,1,0,0:0:0:0:
304,91,217596,1,0,0:0:0:0:
186,103,217686,1,0,0:0:0:0:
165,74,217986,1,0,0:0:0:0:
358,81,218031,1,0,0:0:0:0:
270,212,218158,1,0,0:0:0:0:
230,200,218181,1,0,0:0:0:0:
264,216,218263,1,0,0:0:0:0:
237,209,218346,1,0,0:0:0:0:
345,216,218421,1,0,0:0:0:0:
190,161,218496,1,0,0:0:0:0:
366,162,218586,1,0,0:0:0:0:
210,158,218653,1,0,0:0:0:0:
163,95,218691,1,0,0:0:0:0:
242,132,218758,1,0,0:0:0:0:
232,127,218811,1,0,0:0:0:0:
201,201,218901,1,0,0:0:0:0:
232,127,218938,1,0,0:0:0:0:
177,216,219066,1,0,0:0:0:0:
279,99,219073,1,0,0:0:0:0:
232,127,219193,1,0,0:0:0:0:
201,201,219223,1,0,0:0:0:0:
222,164,219313,1,0,0:0:0:0:
205,195,219358,1,0,0:0:0:0:
245,209,219411,1,0,0:0:0:0:
221,118,219418,1,0,0:0:0:0:
205,197,219478,1,0,0:0:0:0:
281,185,219546,1,0,0:0:0:0:
204,204,219606,1,0,0:0:0:0:
222,142,219666,1,0,0:0:0:0:
317,206,219726,1,0,0:0:0:0:
212,108,219741,1,0,0:0:0:0:
196,176,219786,1,0,0:0:0:0:
360,158,219838,1,0,0:0:0:0:
333,210,219943,1,0,0:0:0:0:
149,214,220041,1,0,0:0:0:0:
214,228,220056,1,0,0:0:0:0:
184,107,220108,1,0,0:0:0:0:
229,191,220183,1,0,0:0:0:0:
248,204,220296,1,0,0:0:0:0:
217,200,220468,1,0,0:0:0:0:
270,210,220723,1,0,0:0:0:0:
288,96,220828,1,0,0:0:0:0:
326,211,221098,1,0,0:0:0:0:
174,142,221151,1,0,0:0:0:0:
326,218,221271,1,0,0:0:0:0:
164,160,221316,1,0,0:0:0:0:
326,211,221451,1,0,0:0:0:0:
234,142,221503,1,0,0:0:0:0:
336,194,221631,1,0,0:0:0:0:
247,117,221661,1,0,0:0:0:0:
336,183,221803,1,0,0:0:0:0:
258,91,221833,1,0,0:0:0:0:
319,192,221983,1,0,0:0:0:0:
234,107,222006,1,0,0:0:0:0:
216,168,222328,1,0,0:0:0:0:
250,143,222336,1,0,0:0:0:0:
393,169,222508,1,0,0:0:0:0:
136,134,222688,1,0,0:0:0:0:
373,77,222696,1,0,0:0:0:0:
201,256,222861,1,0,0:0:0:0:
113,204,223161,1,0,0:0:0:0:
322,198,223168,1,0,0:0:0:0:
354,67,223521,1,0,0:0:0:0:
185,252,223776,1,0,0:0:0:0:
201,274,223858,1,0,0:0:0:0:
174,202,223926,1,0,0:0:0:0:
137,260,224053,1,0,0:0:0:0:
260,219,224098,1,0,0:0:0:0:
176,184,224218,1,0,0:0:0:0:
302,124,224263,1,0,0:0:0:0:
182,189,224376,1,0,0:0:0:0:
292,134,224421,1,0,0:0:0:0:
383,175,224556,1,0,0:0:0:0:
199,138,224586,1,0,0:0:0:0:
365,163,224736,1,0,0:0:0:0:
217,137,224743,1,0,0:0:0:0:
319,127,225088,1,0,0:0:0:0:
249,195,225111,1,0,0:0:0:0:
280,182,225246,1,0,0:0:0:0:
311,177,225291,1,0,0:0:0:0:
235,175,225418,1,0,0:0:0:0:
287,155,225478,1,0,0:0:0:0:
236,159,225598,1,0,0:0:0:0:
255,141,225621,1,0,0:0:0:0:
333,93,225958,1,0,0:0:0:0:
81,228,225973,1,0,0:0:0:0:
142,101,226288,1,0,0:0:0:0:
196,212,226656,1,0,0:0:0:0:
240,184,226821,1,0,0:0:0:0:
241,157,226986,1,0,0:0:0:0:
240,184,227173,1,0,0:0:0:0:
236,156,227308,1,0,0:0:0:0:
236,128,227473,1,0,0:0:0:0:
303,192,227818,1,0,0:0:0:0:
310,175,228006,1,0,0:0:0:0:
243,190,228178,1,0,0:0:0:0:
233,189,228336,1,0,0:0:0:0:
288,110,228673,1,0,0:0:0:0:
200,247,229041,1,0,0:0:0:0:
265,259,229063,1,0,0:0:0:0:
294,180,229221,1,0,0:0:0:0:
140,129,229288,1,0,0:0:0:0:
325,124,229371,1,0,0:0:0:0:
159,131,229491,1,0,0:0:0:0:
221,196,229543,1,0,0:0:0:0:
179,129,229633,1,0,0:0:0:0:
150,146,229716,1,0,0:0:0:0:
173,126,229828,1,0,0:0:0:0:
243,129,229896,1,0,0:0:0:0:
156,124,229971,1,0,0:0:0:0:
282,76,230076,1,0,0:0:0:0:
158,126,230136,1,0,0:0:0:0:
276,83,230256,1,0,0:0:0:0:
269,143,230496,1,0,0:0:0:0:
180,136,230623,1,0,0:0:0:0:
247,164,230698,1,0,0:0:0:0:
266,226,230788,1,0,0:0:0:0:
224,164,230886,1,0,0:0:0:0:
409,50,230976,1,0,0:0:0:0:
170,152,231111,1,0,0:0:0:0:
405,54,231133,1,0,0:0:0:0:
306,278,231441,1,0,0:0:0:0:
162,176,231463,1,0,0:0:0:0:
344,115,231808,1,0,0:0:0:0:
273,97,231816,1,0,0:0:0:0:
277,72,232108,1,0,0:0:0:0:
178,200,232168,1,0,0:0:0:0:
283,106,232281,1,0,0:0:0:0:
217,162,232341,1,0,0:0:0:0:
294,146,232431,1,0,0:0:0:0:
308,78,232513,1,0,0:0:0:0:
365,113,232611,1,0,0:0:0:0:
353,119,232776,1,0,0:0:0:0:
215,199,232783,1,0,0:0:0:0:
68,157,233008,1,0,0:0:0:0:
270,138,233016,1,0,0:0:0:0:
218,145,233353,1,0,0:0:0:0:
331,85,233413,1,0,0:0:0:0:
219,151,233503,1,0,0:0:0:0:
287,204,233578,1,0,0:0:0:0:
192,156,233683,1,0,0:0:0:0:
252,205,233736,1,0,0:0:0:0:
186,151,233878,1,0,0:0:0:0:
185,137,233886,1,0,0:0:0:0:
99,116,234193,1,0,0:0:0:0:
264,165,234208,1,0,0:0:0:0:
113,72,234546,1,0,0:0:0:0:
269,134,234561,1,0,0:0:0:0:
132,178,234726,1,0,0:0:0:0:
185,127,234733,1,0,0:0:0:0:
272,190,234891,1,0,0:0:0:0:
224,88,234906,1,0,0:0:0:0:
273,146,235071,1,0,0:0:0:0:
140,152,235251,1,0,0:0:0:0:
146,190,235311,1,0,0:0:0:0:
88,111,235423,1,0,0:0:0:0:
212,155,235491,1,0,0:0:0:0:
246,220,235588,1,0,0:0:0:0:
251,136,235648,1,0,0:0:0:0:
316,122,235753,1,0,0:0:0:0:
251,136,235798,1,0,0:0:0:0:
307,165,236151,1,0,0:0:0:0:
192,206,236166,1,0,0:0:0:0:
196,197,236323,1,0,0:0:0:0:
315,152,236331,1,0,0:0:0:0:
233,147,236503,1,0,0:0:0:0:
321,114,236526,1,0,0:0:0:0:
217,150,236661,1,0,0:0:0:0:
326,109,236683,1,0,0:0:0:0:
288,146,236938,1,0,0:0:0:0:
103,97,237298,1,0,0:0:0:0:
290,126,237328,1,0,0:0:0:0:
182,162,237643,1,0,0:0:0:0:
144,240,237688,1,0,0:0:0:0:
266,159,237831,1,0,0:0:0:0:
130,262,237853,1,0,0:0:0:0:
259,183,238033,1,0,0:0:0:0:
267,144,238048,1,0,0:0:0:0:
241,151,238206,1,0,0:0:0:0:
276,157,238221,1,0,0:0:0:0:
234,154,238363,1,0,0:0:0:0:
263,216,238386,1,0,0:0:0:0:
269,138,238521,1,0,0:0:0:0:
204,148,238566,1,0,0:0:0:0:
284,115,238821,1,0,0:0:0:0:
339,85,238993,1,0,0:0:0:0:
252,182,239016,1,0,0:0:0:0:
307,160,239158,1,0,0:0:0:0:
238,184,239188,1,0,0:0:0:0:
158,183,239338,1,0,0:0:0:0:
255,163,239376,1,0,0:0:0:0:
82,59,239706,1,0,0:0:0:0:
308,138,239713,1,0,0:0:0:0:
256,123,240081,1,0,0:0:0:0:
255,144,240096,1,0,0:0:0:0:
138,153,240426,1,0,0:0:0:0:
257,148,240478,1,0,0:0:0:0:
266,135,240808,1,0,0:0:0:0:
206,174,241131,1,0,0:0:0:0:
266,135,241176,1,0,0:0:0:0:
202,149,241431,1,0,0:0:0:0:
333,91,241476,1,0,0:0:0:0:
262,181,241806,1,0,0:0:0:0:
277,222,241986,1,0,0:0:0:0:
241,193,242128,1,0,0:0:0:0:
249,146,242151,1,0,0:0:0:0:
186,158,242256,1,0,0:0:0:0:
253,143,242301,1,0,0:0:0:0:
217,153,242398,1,0,0:0:0:0:
258,137,242451,1,0,0:0:0:0:
250,142,242533,1,0,0:0:0:0:
273,127,242631,1,0,0:0:0:0:
255,90,242691,1,0,0:0:0:0:
270,128,242848,1,0,0:0:0:0:
189,138,242856,1,0,0:0:0:0:
314,138,243283,1,0,0:0:0:0:
329,77,243313,1,0,0:0:0:0:
204,149,243816,1,0,0:0:0:0:
178,166,243853,1,0,0:0:0:0:
344,83,244183,1,0,0:0:0:0:
322,101,244198,1,0,0:0:0:0:
151,122,244753,1,0,0:0:0:0:
228,134,244791,1,0,0:0:0:0:
164,137,244903,1,0,0:0:0:0:
248,119,244948,1,0,0:0:0:0:
380,59,245241,1,0,0:0:0:0:
376,28,245278,1,0,0:0:0:0:
243,245,245616,1,0,0:0:0:0:
257,181,245631,1,0,0:0:0:0:
304,143,246103,1,0,0:0:0:0:
148,125,246178,1,0,0:0:0:0:
125,183,246598,1,0,0:0:0:0:
383,37,246651,1,0,0:0:0:0:
335,195,247423,1,0,0:0:0:0:
171,163,247431,1,0,0:0:0:0:
199,182,247941,1,0,0:0:0:0:
363,59,247956,1,0,0:0:0:0:
134,199,248346,1,0,0:0:0:0:
215,183,248361,1,0,0:0:0:0:
311,198,248878,1,0,0:0:0:0:
334,144,248901,1,0,0:0:0:0:
163,167,249418,1,0,0:0:0:0:
221,139,249448,1,0,0:0:0:0:
340,178,249711,1,0,0:0:0:0:
347,122,249756,1,0,0:0:0:0:
148,273,250251,1,0,0:0:0:0:
219,192,250311,1,0,0:0:0:0:
261,223,250416,1,0,0:0:0:0:
226,180,250453,1,0,0:0:0:0:
362,45,250716,1,0,0:0:0:0:
294,152,250783,1,0,0:0:0:0:
244,185,251121,1,0,0:0:0:0:
196,188,251166,1,0,0:0:0:0:
213,154,251631,1,0,0:0:0:0:
338,137,251668,1,0,0:0:0:0:
241,141,252148,1,0,0:0:0:0:
386,114,252171,1,0,0:0:0:0:
340,167,252958,1,0,0:0:0:0:
307,282,253086,1,0,0:0:0:0:
117,161,253483,1,0,0:0:0:0:
189,261,253528,1,0,0:0:0:0:
266,99,253858,1,0,0:0:0:0:
383,50,253896,1,0,0:0:0:0:
219,56,254443,1,0,0:0:0:0:
317,130,254848,1,0,0:0:0:0:
286,246,254893,1,0,0:0:0:0:
167,204,255216,1,0,0:0:0:0:
345,113,255748,1,0,0:0:0:0:
294,168,255801,1,0,0:0:0:0:
360,251,255906,1,0,0:0:0:0:
294,168,255913,1,0,0:0:0:0:
123,142,256251,1,0,0:0:0:0:
135,125,256281,1,0,0:0:0:0:
155,138,256581,1,0,0:0:0:0:
281,108,256641,1,0,0:0:0:0:
411,101,257053,1,0,0:0:0:0:
205,232,257181,1,0,0:0:0:0:
241,220,257601,1,0,0:0:0:0:
312,181,257646,1,0,0:0:0:0:
191,196,258396,1,0,0:0:0:0:
383,131,258471,1,0,0:0:0:0:
281,156,258921,1,0,0:0:0:0:
183,166,258973,1,0,0:0:0:0:
205,218,259348,1,0,0:0:0:0:
339,152,259356,1,0,0:0:0:0:
310,213,259911,1,0,0:0:0:0:
201,141,259956,1,0,0:0:0:0:
328,92,260413,1,0,0:0:0:0:
151,243,260421,1,0,0:0:0:0:
341,130,260743,1,0,0:0:0:0:
258,223,260773,1,0,0:0:0:0:
219,193,261321,1,0,0:0:0:0:
166,124,261456,1,0,0:0:0:0:
220,185,261493,1,0,0:0:0:0:
275,94,261823,1,0,0:0:0:0:
272,147,261838,1,0,0:0:0:0:
256,187,262153,1,0,0:0:0:0:
285,192,262191,1,0,0:0:0:0:
318,119,262633,1,0,0:0:0:0:
155,200,262716,1,0,0:0:0:0:
370,21,263113,1,0,0:0:0:0:
315,178,263301,1,0,0:0:0:0:
