osu file format v14

[General]
AudioFilename: audio.mp3
AudioLeadIn: 0
PreviewTime: -1
Countdown: 1
SampleSet: Normal
StackLeniency: 0.7
Mode: 0
LetterboxInBreaks: 0
WidescreenStoryboard: 0

[Editor]
DistanceSpacing: 0.5
BeatDivisor: 4
GridSize: 16
TimelineZoom: 1

[Metadata]
Title:Deception Dive
TitleUnicode:Deception Dive
Artist:Bestrong
ArtistUnicode:Bestrong
Creator:BestrongGD
Version:Insane
Source:Newgronds
Tags:
BeatmapID:1457884
BeatmapSetID:688760

[Difficulty]
HPDrainRate:6
CircleSize:6
OverallDifficulty:7
ApproachRate:10
SliderMultiplier:1.4
SliderTickRate:1

[Events]
//Background and Video events
0,0,"maxresdefault (4).jpg",0,0
//Break Periods
//Storyboard Layer 0 (Background)
//Storyboard Layer 1 (Fail)
//Storyboard Layer 2 (Pass)
//Storyboard Layer 3 (Foreground)
//Storyboard Sound Samples

[TimingPoints]
0,120,4,1,0,100,1,0
110321,85.7142857142857,4,1,0,100,1,0
198771,66.6666666666667,4,1,0,100,1,0

[Colours]
Combo1 : 64,0,128
Combo2 : 64,0,128

[HitObjects]
237,202,0,1,0,0:0:0:0:
237,202,150,1,0,0:0:0:0:
240,224,540,1,0,0:0:0:0:
336,128,780,1,0,0:0:0:0:
240,272,1080,1,0,0:0:0:0:
80,160,1440,1,0,0:0:0:0:
256,192,1770,1,0,0:0:0:0:
368,336,2100,1,0,0:0:0:0:
224,208,2430,1,0,0:0:0:0:
416,128,2790,1,0,0:0:0:0:
288,256,3120,1,0,0:0:0:0:
144,112,3480,1,0,0:0:0:0:
240,288,3840,1,0,0:0:0:0:
320,112,4170,1,0,0:0:0:0:
320,304,4500,1,0,0:0:0:0:
176,160,4860,1,0,0:0:0:0:
384,208,5250,1,0,0:0:0:0:
208,272,5580,1,0,0:0:0:0:
144,96,5910,1,0,0:0:0:0:
288,224,6270,1,0,0:0:0:0:
448,160,6570,1,0,0:0:0:0:
400,320,6870,1,0,0:0:0:0:
224,256,7200,1,0,0:0:0:0:
96,80,7560,1,0,0:0:0:0:
288,160,7950,1,0,0:0:0:0:
304,352,8280,1,0,0:0:0:0:
176,192,8640,1,0,0:0:0:0:
80,48,8940,1,0,0:0:0:0:
272,128,9300,1,0,0:0:0:0:
320,320,9630,1,0,0:0:0:0:
176,160,10020,1,0,0:0:0:0:
336,96,10320,1,0,0:0:0:0:
128,176,10710,1,0,0:0:0:0:
328,108,11070,1,0,0:0:0:0:
126,135,11430,1,0,0:0:0:0:
359,296,11910,1,0,0:0:0:0:
239,203,12180,1,0,0:0:0:0:
128,92,12450,1,0,0:0:0:0:
390,220,12960,1,0,0:0:0:0:
315,183,13110,1,0,0:0:0:0:
142,82,13470,1,0,0:0:0:0:
278,176,13770,1,0,0:0:0:0:
58,15,14250,1,0,0:0:0:0:
144,96,14310,1,0,0:0:0:0:
377,137,14730,1,0,0:0:0:0:
432,32,14820,1,0,0:0:0:0:
154,132,15810,1,0,0:0:0:0:
154,132,16200,1,0,0:0:0:0:
372,72,16590,1,0,0:0:0:0:
135,250,17100,1,0,0:0:0:0:
114,77,17550,1,0,0:0:0:0:
119,299,17940,1,0,0:0:0:0:
314,115,18420,1,0,0:0:0:0:
306,197,18570,1,0,0:0:0:0:
241,251,18720,1,0,0:0:0:0:
139,133,18990,1,0,0:0:0:0:
323,84,19320,1,0,0:0:0:0:
68,278,19890,1,0,0:0:0:0:
299,166,20340,1,0,0:0:0:0:
187,149,21270,1,0,0:0:0:0:
465,100,21780,1,0,0:0:0:0:
298,162,22110,1,0,0:0:0:0:
108,154,22440,1,0,0:0:0:0:
200,145,22620,1,0,0:0:0:0:
282,164,22770,1,0,0:0:0:0:
122,164,23040,1,0,0:0:0:0:
265,167,23310,1,0,0:0:0:0:
312,349,23640,1,0,0:0:0:0:
303,241,23850,1,0,0:0:0:0:
319,164,24000,1,0,0:0:0:0:
239,160,24150,1,0,0:0:0:0:
63,247,24510,1,0,0:0:0:0:
180,109,24840,1,0,0:0:0:0:
239,160,24990,1,0,0:0:0:0:
277,258,25170,1,0,0:0:0:0:
277,258,25380,1,0,0:0:0:0:
323,171,25560,1,0,0:0:0:0:
168,102,25860,1,0,0:0:0:0:
202,237,26100,1,0,0:0:0:0:
399,249,26460,1,0,0:0:0:0:
330,201,26610,1,0,0:0:0:0:
330,201,26790,1,0,0:0:0:0:
321,107,26970,1,0,0:0:0:0:
128,174,27330,1,0,0:0:0:0:
248,292,27630,1,0,0:0:0:0:
375,130,27990,1,0,0:0:0:0:
315,202,28170,1,0,0:0:0:0:
238,259,28350,1,0,0:0:0:0:
177,117,28620,1,0,0:0:0:0:
322,117,28890,1,0,0:0:0:0:
264,266,29160,1,0,0:0:0:0:
250,165,29340,1,0,0:0:0:0:
161,198,29520,1,0,0:0:0:0:
217,120,29700,1,0,0:0:0:0:
382,99,30000,1,0,0:0:0:0:
222,254,30390,1,0,0:0:0:0:
277,180,30540,1,0,0:0:0:0:
192,173,30690,1,0,0:0:0:0:
283,160,30870,1,0,0:0:0:0:
277,180,31050,1,0,0:0:0:0:
194,125,31230,1,0,0:0:0:0:
270,170,31410,1,0,0:0:0:0:
283,160,31620,1,0,0:0:0:0:
92,141,31950,1,0,0:0:0:0:
176,191,32130,1,0,0:0:0:0:
253,232,32280,1,0,0:0:0:0:
199,149,32460,1,0,0:0:0:0:
242,208,32610,1,0,0:0:0:0:
250,97,32820,1,0,0:0:0:0:
218,288,33150,1,0,0:0:0:0:
52,166,33510,1,0,0:0:0:0:
151,165,33690,1,0,0:0:0:0:
260,136,33900,1,0,0:0:0:0:
144,157,34110,1,0,0:0:0:0:
304,140,34410,1,0,0:0:0:0:
134,158,34710,1,0,0:0:0:0:
223,136,34890,1,0,0:0:0:0:
129,159,35070,1,0,0:0:0:0:
207,120,35250,1,0,0:0:0:0:
364,20,35580,1,0,0:0:0:0:
291,195,35910,1,0,0:0:0:0:
181,206,36090,1,0,0:0:0:0:
147,107,36270,1,0,0:0:0:0:
208,205,36480,1,0,0:0:0:0:
288,169,36630,1,0,0:0:0:0:
179,150,36840,1,0,0:0:0:0:
288,266,37110,1,0,0:0:0:0:
274,59,37470,1,0,0:0:0:0:
271,158,37650,1,0,0:0:0:0:
207,247,37860,1,0,0:0:0:0:
196,155,38040,1,0,0:0:0:0:
358,157,38340,1,0,0:0:0:0:
188,279,38700,1,0,0:0:0:0:
343,178,39030,1,0,0:0:0:0:
267,110,39210,1,0,0:0:0:0:
193,195,39420,1,0,0:0:0:0:
319,203,39660,1,0,0:0:0:0:
419,79,39960,1,0,0:0:0:0:
307,215,40260,1,0,0:0:0:0:
198,243,40470,1,0,0:0:0:0:
111,182,40680,1,0,0:0:0:0:
163,123,40830,1,0,0:0:0:0:
312,107,41100,1,0,0:0:0:0:
292,300,41430,1,0,0:0:0:0:
290,181,41640,1,0,0:0:0:0:
245,275,41820,1,0,0:0:0:0:
215,161,42030,1,0,0:0:0:0:
157,238,42210,1,0,0:0:0:0:
240,165,42420,1,0,0:0:0:0:
370,173,42660,1,0,0:0:0:0:
308,339,42960,1,0,0:0:0:0:
277,233,43140,1,0,0:0:0:0:
277,233,43320,1,0,0:0:0:0:
277,233,43470,1,0,0:0:0:0:
171,57,43830,1,0,0:0:0:0:
268,218,44160,1,0,0:0:0:0:
268,218,44790,1,0,0:0:0:0:
268,218,45030,1,0,0:0:0:0:
268,218,45240,1,0,0:0:0:0:
268,218,45420,1,0,0:0:0:0:
268,218,45570,1,0,0:0:0:0:
268,218,45720,1,0,0:0:0:0:
268,218,45900,1,0,0:0:0:0:
268,218,46080,1,0,0:0:0:0:
268,218,46260,1,0,0:0:0:0:
268,218,46380,1,0,0:0:0:0:
268,218,46560,1,0,0:0:0:0:
268,218,46710,1,0,0:0:0:0:
268,218,46830,1,0,0:0:0:0:
265,148,46950,1,0,0:0:0:0:
286,254,47160,1,0,0:0:0:0:
270,173,47310,1,0,0:0:0:0:
286,252,47460,1,0,0:0:0:0:
266,155,47640,1,0,0:0:0:0:
285,244,47790,1,0,0:0:0:0:
263,142,47970,1,0,0:0:0:0:
285,245,48180,1,0,0:0:0:0:
268,165,48330,1,0,0:0:0:0:
285,243,48480,1,0,0:0:0:0:
263,143,48660,1,0,0:0:0:0:
283,233,48840,1,0,0:0:0:0:
264,148,48990,1,0,0:0:0:0:
289,258,49200,1,0,0:0:0:0:
273,190,49320,1,0,0:0:0:0:
273,190,49470,1,0,0:0:0:0:
273,190,49590,1,0,0:0:0:0:
273,190,49680,1,0,0:0:0:0:
273,190,49890,1,0,0:0:0:0:
273,190,50040,1,0,0:0:0:0:
273,190,50400,1,0,0:0:0:0:
273,190,50700,1,0,0:0:0:0:
273,190,51030,1,0,0:0:0:0:
273,190,51390,1,0,0:0:0:0:
100,136,51720,1,0,0:0:0:0:
256,260,52080,1,0,0:0:0:0:
363,96,52440,1,0,0:0:0:0:
294,272,52770,1,0,0:0:0:0:
172,108,53130,1,0,0:0:0:0:
254,297,53490,1,0,0:0:0:0:
357,118,53850,1,0,0:0:0:0:
319,309,54210,1,0,0:0:0:0:
211,142,54570,1,0,0:0:0:0:
124,316,54900,1,0,0:0:0:0:
215,166,55200,1,0,0:0:0:0:
402,217,55560,1,0,0:0:0:0:
113,71,56130,1,0,0:0:0:0:
266,247,56550,1,0,0:0:0:0:
256,170,57150,1,0,0:0:0:0:
256,170,57300,1,0,0:0:0:0:
256,170,57630,1,0,0:0:0:0:
37,124,58020,1,0,0:0:0:0:
306,248,58530,1,0,0:0:0:0:
291,122,59010,1,0,0:0:0:0:
177,152,59880,1,0,0:0:0:0:
474,218,60420,1,0,0:0:0:0:
177,152,60780,1,0,0:0:0:0:
425,329,61320,1,0,0:0:0:0:
273,141,61740,1,0,0:0:0:0:
184,353,62160,1,0,0:0:0:0:
165,47,62700,1,0,0:0:0:0:
255,251,63090,1,0,0:0:0:0:
376,68,63480,1,0,0:0:0:0:
119,261,64020,1,0,0:0:0:0:
225,33,64470,1,0,0:0:0:0:
264,227,64830,1,0,0:0:0:0:
232,180,66120,1,0,0:0:0:0:
232,180,66480,1,0,0:0:0:0:
162,175,66600,1,0,0:0:0:0:
106,260,66780,1,0,0:0:0:0:
141,177,66930,1,0,0:0:0:0:
295,187,67200,1,0,0:0:0:0:
164,112,67470,1,0,0:0:0:0:
144,115,67500,1,0,0:0:0:0:
320,147,67830,1,0,0:0:0:0:
320,147,67980,1,0,0:0:0:0:
255,212,68130,1,0,0:0:0:0:
150,164,68340,1,0,0:0:0:0:
256,1,68700,1,0,0:0:0:0:
202,184,69030,1,0,0:0:0:0:
317,224,69240,1,0,0:0:0:0:
284,123,69420,1,0,0:0:0:0:
317,224,69600,1,0,0:0:0:0:
226,243,69780,1,0,0:0:0:0:
155,141,69990,1,0,0:0:0:0:
9,224,70290,1,0,0:0:0:0:
195,237,70620,1,0,0:0:0:0:
295,240,70800,1,0,0:0:0:0:
395,215,70980,1,0,0:0:0:0:
355,138,71130,1,0,0:0:0:0:
173,136,71460,1,0,0:0:0:0:
153,320,71790,1,0,0:0:0:0:
282,174,72150,1,0,0:0:0:0:
351,245,72330,1,0,0:0:0:0:
279,320,72510,1,0,0:0:0:0:
194,215,72750,1,0,0:0:0:0:
350,180,73050,1,0,0:0:0:0:
393,344,73350,1,0,0:0:0:0:
286,288,73560,1,0,0:0:0:0:
211,213,73770,1,0,0:0:0:0:
150,163,73920,1,0,0:0:0:0:
203,319,74220,1,0,0:0:0:0:
306,165,74550,1,0,0:0:0:0:
360,251,74730,1,0,0:0:0:0:
273,289,74910,1,0,0:0:0:0:
227,214,75060,1,0,0:0:0:0:
306,165,75240,1,0,0:0:0:0:
428,101,75480,1,0,0:0:0:0:
275,155,75780,1,0,0:0:0:0:
186,312,76110,1,0,0:0:0:0:
132,242,76260,1,0,0:0:0:0:
132,155,76410,1,0,0:0:0:0:
149,240,76560,1,0,0:0:0:0:
79,189,76710,1,0,0:0:0:0:
201,211,76950,1,0,0:0:0:0:
310,40,77310,1,0,0:0:0:0:
250,231,77670,1,0,0:0:0:0:
326,190,77820,1,0,0:0:0:0:
266,288,78030,1,0,0:0:0:0:
192,175,78270,1,0,0:0:0:0:
348,198,78540,1,0,0:0:0:0:
165,236,78870,1,0,0:0:0:0:
77,219,79050,1,0,0:0:0:0:
145,158,79230,1,0,0:0:0:0:
145,158,79380,1,0,0:0:0:0:
301,120,79680,1,0,0:0:0:0:
290,329,80040,1,0,0:0:0:0:
182,260,80280,1,0,0:0:0:0:
183,178,80430,1,0,0:0:0:0:
274,190,80580,1,0,0:0:0:0:
358,245,80760,1,0,0:0:0:0:
384,102,81030,1,0,0:0:0:0:
234,135,81300,1,0,0:0:0:0:
225,284,81570,1,0,0:0:0:0:
324,273,81750,1,0,0:0:0:0:
405,214,81930,1,0,0:0:0:0:
300,174,82140,1,0,0:0:0:0:
136,108,82440,1,0,0:0:0:0:
347,87,82830,1,0,0:0:0:0:
240,245,83160,1,0,0:0:0:0:
128,218,83370,1,0,0:0:0:0:
53,168,83550,1,0,0:0:0:0:
171,169,83760,1,0,0:0:0:0:
336,225,84060,1,0,0:0:0:0:
176,264,84360,1,0,0:0:0:0:
204,163,84540,1,0,0:0:0:0:
246,66,84720,1,0,0:0:0:0:
320,133,84900,1,0,0:0:0:0:
408,311,85260,1,0,0:0:0:0:
250,239,85560,1,0,0:0:0:0:
160,181,85740,1,0,0:0:0:0:
200,91,85920,1,0,0:0:0:0:
249,156,86070,1,0,0:0:0:0:
249,156,86250,1,0,0:0:0:0:
268,243,86400,1,0,0:0:0:0:
207,152,86580,1,0,0:0:0:0:
285,200,86730,1,0,0:0:0:0:
249,156,86910,1,0,0:0:0:0:
249,156,87030,1,0,0:0:0:0:
249,156,87180,1,0,0:0:0:0:
249,156,87330,1,0,0:0:0:0:
249,156,87450,1,0,0:0:0:0:
249,156,87570,1,0,0:0:0:0:
249,156,87690,1,0,0:0:0:0:
249,156,87780,1,0,0:0:0:0:
249,156,87900,1,0,0:0:0:0:
249,156,88050,1,0,0:0:0:0:
236,103,88170,1,0,0:0:0:0:
230,183,88320,1,0,0:0:0:0:
45,269,88680,1,0,0:0:0:0:
147,256,88860,1,0,0:0:0:0:
244,221,89040,1,0,0:0:0:0:
207,118,89250,1,0,0:0:0:0:
161,160,89370,1,0,0:0:0:0:
197,252,89550,1,0,0:0:0:0:
393,68,90030,1,0,0:0:0:0:
438,152,90210,1,0,0:0:0:0:
406,221,90360,1,0,0:0:0:0:
315,186,90540,1,0,0:0:0:0:
236,142,90720,1,0,0:0:0:0:
139,125,90900,1,0,0:0:0:0:
159,275,91170,1,0,0:0:0:0:
278,224,91410,1,0,0:0:0:0:
278,224,91560,1,0,0:0:0:0:
340,140,91740,1,0,0:0:0:0:
264,204,91920,1,0,0:0:0:0:
330,130,92100,1,0,0:0:0:0:
265,203,92280,1,0,0:0:0:0:
76,114,92640,1,0,0:0:0:0:
170,169,92850,1,0,0:0:0:0:
255,205,93030,1,0,0:0:0:0:
330,201,93180,1,0,0:0:0:0:
171,92,93510,1,0,0:0:0:0:
188,305,93900,1,0,0:0:0:0:
247,105,94260,1,0,0:0:0:0:
294,190,94440,1,0,0:0:0:0:
322,295,94650,1,0,0:0:0:0:
303,204,94830,1,0,0:0:0:0:
324,303,95010,1,0,0:0:0:0:
210,160,95340,1,0,0:0:0:0:
124,227,95550,1,0,0:0:0:0:
303,204,95730,1,0,0:0:0:0:
266,118,95910,1,0,0:0:0:0:
437,203,96240,1,0,0:0:0:0:
223,208,96630,1,0,0:0:0:0:
100,117,96900,1,0,0:0:0:0:
174,156,97050,1,0,0:0:0:0:
313,83,97320,1,0,0:0:0:0:
250,183,97530,1,0,0:0:0:0:
203,89,97710,1,0,0:0:0:0:
250,183,97890,1,0,0:0:0:0:
431,37,98280,1,0,0:0:0:0:
387,140,98490,1,0,0:0:0:0:
296,194,98670,1,0,0:0:0:0:
194,151,98880,1,0,0:0:0:0:
116,118,99030,1,0,0:0:0:0:
387,140,99390,1,0,0:0:0:0:
413,335,99750,1,0,0:0:0:0:
321,285,99930,1,0,0:0:0:0:
244,215,100110,1,0,0:0:0:0:
150,163,100320,1,0,0:0:0:0:
110,81,100500,1,0,0:0:0:0:
273,193,100860,1,0,0:0:0:0:
255,109,101010,1,0,0:0:0:0:
209,112,101100,1,0,0:0:0:0:
123,120,101250,1,0,0:0:0:0:
199,175,101430,1,0,0:0:0:0:
281,0,101760,1,0,0:0:0:0:
199,175,102180,1,0,0:0:0:0:
199,175,102360,1,0,0:0:0:0:
291,151,102540,1,0,0:0:0:0:
193,170,102720,1,0,0:0:0:0:
199,175,102870,1,0,0:0:0:0:
305,187,103050,1,0,0:0:0:0:
211,165,103230,1,0,0:0:0:0:
211,165,103380,1,0,0:0:0:0:
231,108,103830,1,0,0:0:0:0:
198,197,104010,1,0,0:0:0:0:
277,162,104160,1,0,0:0:0:0:
101,54,104520,1,0,0:0:0:0:
245,220,104910,1,0,0:0:0:0:
172,80,105180,1,0,0:0:0:0:
211,176,105360,1,0,0:0:0:0:
230,73,105540,1,0,0:0:0:0:
211,176,105750,1,0,0:0:0:0:
259,107,105900,1,0,0:0:0:0:
212,200,106080,1,0,0:0:0:0:
268,129,106530,1,0,0:0:0:0:
182,207,106740,1,0,0:0:0:0:
221,286,106920,1,0,0:0:0:0:
114,116,107280,1,0,0:0:0:0:
316,177,107640,1,0,0:0:0:0:
218,165,107820,1,0,0:0:0:0:
218,165,108000,1,0,0:0:0:0:
218,165,108180,1,0,0:0:0:0:
248,256,108360,1,0,0:0:0:0:
241,158,108540,1,0,0:0:0:0:
241,158,108690,1,0,0:0:0:0:
241,158,108870,1,0,0:0:0:0:
218,165,109050,1,0,0:0:0:0:
241,158,109170,1,0,0:0:0:0:
241,158,109320,1,0,0:0:0:0:
241,158,109470,1,0,0:0:0:0:
241,158,109710,1,0,0:0:0:0:
241,158,109830,1,0,0:0:0:0:
241,158,109980,1,0,0:0:0:0:
241,158,110130,1,0,0:0:0:0:
155,145,110385,1,0,0:0:0:0:
264,127,110706,1,0,0:0:0:0:
246,185,110899,1,0,0:0:0:0:
122,180,111092,1,0,0:0:0:0:
286,129,111371,1,0,0:0:0:0:
230,320,111649,1,0,0:0:0:0:
47,152,111971,1,0,0:0:0:0:
318,213,112163,1,0,0:0:0:0:
336,150,112313,1,0,0:0:0:0:
186,240,112485,1,0,0:0:0:0:
76,121,112785,1,0,0:0:0:0:
265,176,113171,1,0,0:0:0:0:
266,210,113299,1,0,0:0:0:0:
198,261,113492,1,0,0:0:0:0:
129,187,113663,1,0,0:0:0:0:
160,159,113856,1,0,0:0:0:0:
271,142,114113,1,0,0:0:0:0:
344,276,114371,1,0,0:0:0:0:
37,216,114756,1,0,0:0:0:0:
180,73,114928,1,0,0:0:0:0:
265,182,115099,1,0,0:0:0:0:
304,200,115271,1,0,0:0:0:0:
300,83,115528,1,0,0:0:0:0:
113,260,115913,1,0,0:0:0:0:
111,162,116256,1,0,0:0:0:0:
263,314,116449,1,0,0:0:0:0:
340,176,116663,1,0,0:0:0:0:
296,305,116878,1,0,0:0:0:0:
155,112,117178,1,0,0:0:0:0:
147,225,117478,1,0,0:0:0:0:
306,171,117692,1,0,0:0:0:0:
348,157,117885,1,0,0:0:0:0:
331,243,118035,1,0,0:0:0:0:
151,123,118356,1,0,0:0:0:0:
356,103,118635,1,0,0:0:0:0:
192,255,119021,1,0,0:0:0:0:
161,187,119192,1,0,0:0:0:0:
366,192,119406,1,0,0:0:0:0:
368,129,119621,1,0,0:0:0:0:
260,251,119921,1,0,0:0:0:0:
171,133,120221,1,0,0:0:0:0:
49,167,120413,1,0,0:0:0:0:
36,294,120606,1,0,0:0:0:0:
226,185,120778,1,0,0:0:0:0:
264,144,121078,1,0,0:0:0:0:
370,149,121442,1,0,0:0:0:0:
295,284,121785,1,0,0:0:0:0:
165,157,121978,1,0,0:0:0:0:
130,145,122192,1,0,0:0:0:0:
126,148,122213,1,0,0:0:0:0:
265,174,122471,1,0,0:0:0:0:
286,171,122728,1,0,0:0:0:0:
155,219,123049,1,0,0:0:0:0:
110,167,123221,1,0,0:0:0:0:
103,137,123371,1,0,0:0:0:0:
174,119,123521,1,0,0:0:0:0:
230,108,123821,1,0,0:0:0:0:
253,323,124185,1,0,0:0:0:0:
108,202,124528,1,0,0:0:0:0:
100,201,124699,1,0,0:0:0:0:
186,106,124871,1,0,0:0:0:0:
286,170,125106,1,0,0:0:0:0:
288,229,125385,1,0,0:0:0:0:
136,122,125749,1,0,0:0:0:0:
120,130,125921,1,0,0:0:0:0:
134,162,126092,1,0,0:0:0:0:
185,129,126263,1,0,0:0:0:0:
269,107,126563,1,0,0:0:0:0:
291,246,126928,1,0,0:0:0:0:
116,189,127313,1,0,0:0:0:0:
143,195,127485,1,0,0:0:0:0:
333,174,127678,1,0,0:0:0:0:
376,264,127935,1,0,0:0:0:0:
36,141,128278,1,0,0:0:0:0:
273,196,128578,1,0,0:0:0:0:
278,114,128771,1,0,0:0:0:0:
223,266,128942,1,0,0:0:0:0:
221,270,129092,1,0,0:0:0:0:
150,146,129371,1,0,0:0:0:0:
254,194,129735,1,0,0:0:0:0:
184,214,129971,1,0,0:0:0:0:
134,175,130121,1,0,0:0:0:0:
273,209,130292,1,0,0:0:0:0:
287,79,130463,1,0,0:0:0:0:
196,258,130656,1,0,0:0:0:0:
67,113,130935,1,0,0:0:0:0:
341,82,131406,1,0,0:0:0:0:
363,157,131513,1,0,0:0:0:0:
243,318,131663,1,0,0:0:0:0:
195,236,131792,1,0,0:0:0:0:
167,170,132071,1,0,0:0:0:0:
111,136,132478,1,0,0:0:0:0:
211,176,132799,1,0,0:0:0:0:
211,176,133185,1,0,0:0:0:0:
211,176,133549,1,0,0:0:0:0:
211,176,133892,1,0,0:0:0:0:
211,176,134235,1,0,0:0:0:0:
211,176,134621,1,0,0:0:0:0:
166,153,134942,1,0,0:0:0:0:
205,237,135263,1,0,0:0:0:0:
311,151,135606,1,0,0:0:0:0:
311,281,135906,1,0,0:0:0:0:
164,170,136292,1,0,0:0:0:0:
53,243,136635,1,0,0:0:0:0:
234,91,136956,1,0,0:0:0:0:
305,188,137299,1,0,0:0:0:0:
296,261,137642,1,0,0:0:0:0:
120,139,137985,1,0,0:0:0:0:
333,85,138306,1,0,0:0:0:0:
356,218,138649,1,0,0:0:0:0:
218,178,139013,1,0,0:0:0:0:
133,236,139378,1,0,0:0:0:0:
72,149,139721,1,0,0:0:0:0:
243,113,140042,1,0,0:0:0:0:
326,223,140385,1,0,0:0:0:0:
245,310,140706,1,0,0:0:0:0:
61,157,141071,1,0,0:0:0:0:
264,94,141392,1,0,0:0:0:0:
360,225,141735,1,0,0:0:0:0:
236,178,142121,1,0,0:0:0:0:
156,263,142463,1,0,0:0:0:0:
286,203,142721,1,0,0:0:0:0:
159,182,143128,1,0,0:0:0:0:
67,177,143449,1,0,0:0:0:0:
81,231,143792,1,0,0:0:0:0:
191,132,144135,1,0,0:0:0:0:
242,197,144478,1,0,0:0:0:0:
308,133,144821,1,0,0:0:0:0:
294,253,145142,1,0,0:0:0:0:
77,192,145506,1,0,0:0:0:0:
132,127,145849,1,0,0:0:0:0:
237,155,146213,1,0,0:0:0:0:
267,242,146556,1,0,0:0:0:0:
125,274,146878,1,0,0:0:0:0:
52,186,147263,1,0,0:0:0:0:
90,117,147585,1,0,0:0:0:0:
215,133,147928,1,0,0:0:0:0:
289,218,148271,1,0,0:0:0:0:
290,291,148613,1,0,0:0:0:0:
320,156,148978,1,0,0:0:0:0:
265,255,149278,1,0,0:0:0:0:
76,153,149663,1,0,0:0:0:0:
88,224,150049,1,0,0:0:0:0:
204,147,150371,1,0,0:0:0:0:
301,323,150692,1,0,0:0:0:0:
356,182,151056,1,0,0:0:0:0:
366,270,151378,1,0,0:0:0:0:
231,179,151721,1,0,0:0:0:0:
178,276,152106,1,0,0:0:0:0:
87,165,152428,1,0,0:0:0:0:
170,227,152771,1,0,0:0:0:0:
265,158,153113,1,0,0:0:0:0:
324,249,153435,1,0,0:0:0:0:
331,166,153799,1,0,0:0:0:0:
272,251,154163,1,0,0:0:0:0:
108,112,154442,1,0,0:0:0:0:
208,220,154892,1,0,0:0:0:0:
262,167,155106,1,0,0:0:0:0:
176,218,155278,1,0,0:0:0:0:
94,127,155513,1,0,0:0:0:0:
327,325,155749,1,0,0:0:0:0:
317,216,156113,1,0,0:0:0:0:
224,229,156285,1,0,0:0:0:0:
176,189,156456,1,0,0:0:0:0:
139,165,156606,1,0,0:0:0:0:
311,117,156949,1,0,0:0:0:0:
386,186,157271,1,0,0:0:0:0:
225,242,157571,1,0,0:0:0:0:
112,189,157742,1,0,0:0:0:0:
91,173,157935,1,0,0:0:0:0:
286,106,158192,1,0,0:0:0:0:
424,205,158471,1,0,0:0:0:0:
277,282,158835,1,0,0:0:0:0:
231,274,159006,1,0,0:0:0:0:
207,207,159178,1,0,0:0:0:0:
213,190,159349,1,0,0:0:0:0:
312,103,159671,1,0,0:0:0:0:
181,253,160013,1,0,0:0:0:0:
117,166,160378,1,0,0:0:0:0:
209,216,160571,1,0,0:0:0:0:
287,182,160763,1,0,0:0:0:0:
308,148,160999,1,0,0:0:0:0:
351,358,161256,1,0,0:0:0:0:
130,230,161599,1,0,0:0:0:0:
94,190,161771,1,0,0:0:0:0:
126,116,161942,1,0,0:0:0:0:
135,118,162113,1,0,0:0:0:0:
332,154,162456,1,0,0:0:0:0:
324,303,162842,1,0,0:0:0:0:
278,294,163013,1,0,0:0:0:0:
259,259,163185,1,0,0:0:0:0:
224,225,163378,1,0,0:0:0:0:
158,173,163528,1,0,0:0:0:0:
106,115,163763,1,0,0:0:0:0:
467,279,164063,1,0,0:0:0:0:
413,172,164428,1,0,0:0:0:0:
273,206,164578,1,0,0:0:0:0:
205,253,164749,1,0,0:0:0:0:
106,220,164899,1,0,0:0:0:0:
90,47,165242,1,0,0:0:0:0:
289,75,165563,1,0,0:0:0:0:
405,325,165949,1,0,0:0:0:0:
253,278,166121,1,0,0:0:0:0:
163,235,166271,1,0,0:0:0:0:
141,141,166549,1,0,0:0:0:0:
293,116,166849,1,0,0:0:0:0:
360,146,167171,1,0,0:0:0:0:
327,217,167342,1,0,0:0:0:0:
283,232,167471,1,0,0:0:0:0:
157,197,167663,1,0,0:0:0:0:
191,73,168006,1,0,0:0:0:0:
377,113,168349,1,0,0:0:0:0:
379,253,168521,1,0,0:0:0:0:
337,293,168713,1,0,0:0:0:0:
77,204,168906,1,0,0:0:0:0:
46,172,169078,1,0,0:0:0:0:
256,108,169335,1,0,0:0:0:0:
407,167,169592,1,0,0:0:0:0:
350,264,169913,1,0,0:0:0:0:
306,258,170106,1,0,0:0:0:0:
168,231,170256,1,0,0:0:0:0:
41,182,170428,1,0,0:0:0:0:
96,67,170792,1,0,0:0:0:0:
275,138,171113,1,0,0:0:0:0:
231,230,171435,1,0,0:0:0:0:
192,234,171628,1,0,0:0:0:0:
86,174,171821,1,0,0:0:0:0:
86,139,172035,1,0,0:0:0:0:
279,159,172335,1,0,0:0:0:0:
318,270,172678,1,0,0:0:0:0:
270,280,172849,1,0,0:0:0:0:
216,283,173021,1,0,0:0:0:0:
147,243,173192,1,0,0:0:0:0:
141,147,173535,1,0,0:0:0:0:
376,152,173878,1,0,0:0:0:0:
388,257,174049,1,0,0:0:0:0:
341,278,174242,1,0,0:0:0:0:
238,248,174413,1,0,0:0:0:0:
169,217,174585,1,0,0:0:0:0:
208,137,174821,1,0,0:0:0:0:
367,160,175121,1,0,0:0:0:0:
386,225,175442,1,0,0:0:0:0:
369,236,175592,1,0,0:0:0:0:
270,247,175806,1,0,0:0:0:0:
256,242,175935,1,0,0:0:0:0:
185,138,176299,1,0,0:0:0:0:
219,209,176578,1,0,0:0:0:0:
314,147,176621,1,0,0:0:0:0:
219,209,176728,1,0,0:0:0:0:
219,209,176899,1,0,0:0:0:0:
219,209,177071,1,0,0:0:0:0:
219,209,177242,1,0,0:0:0:0:
221,227,177263,1,0,0:0:0:0:
219,209,177392,1,0,0:0:0:0:
158,197,177456,1,0,0:0:0:0:
219,209,177563,1,0,0:0:0:0:
158,197,177649,1,0,0:0:0:0:
219,209,177735,1,0,0:0:0:0:
158,197,177821,1,0,0:0:0:0:
219,209,177906,1,0,0:0:0:0:
158,197,178013,1,0,0:0:0:0:
219,209,178078,1,0,0:0:0:0:
219,209,178228,1,0,0:0:0:0:
219,209,178399,1,0,0:0:0:0:
219,209,178549,1,0,0:0:0:0:
219,209,178721,1,0,0:0:0:0:
219,209,178871,1,0,0:0:0:0:
219,209,179042,1,0,0:0:0:0:
219,209,179192,1,0,0:0:0:0:
219,209,179363,1,0,0:0:0:0:
219,209,179535,1,0,0:0:0:0:
219,209,179685,1,0,0:0:0:0:
219,209,179878,1,0,0:0:0:0:
223,207,180049,1,0,0:0:0:0:
223,206,180221,1,0,0:0:0:0:
223,206,180371,1,0,0:0:0:0:
223,206,180563,1,0,0:0:0:0:
223,206,180756,1,0,0:0:0:0:
223,207,180949,1,0,0:0:0:0:
223,206,181121,1,0,0:0:0:0:
223,206,181292,1,0,0:0:0:0:
223,206,181485,1,0,0:0:0:0:
223,206,181656,1,0,0:0:0:0:
235,208,181785,1,0,0:0:0:0:
257,183,181935,1,0,0:0:0:0:
238,196,182085,1,0,0:0:0:0:
239,192,182213,1,0,0:0:0:0:
240,191,182406,1,0,0:0:0:0:
241,191,182578,1,0,0:0:0:0:
241,191,182771,1,0,0:0:0:0:
241,191,182942,1,0,0:0:0:0:
241,191,183135,1,0,0:0:0:0:
240,191,183306,1,0,0:0:0:0:
241,191,183478,1,0,0:0:0:0:
241,191,183649,1,0,0:0:0:0:
241,191,183928,1,0,0:0:0:0:
241,191,184099,1,0,0:0:0:0:
240,191,184271,1,0,0:0:0:0:
250,190,184463,1,0,0:0:0:0:
254,189,184635,1,0,0:0:0:0:
252,189,184828,1,0,0:0:0:0:
252,189,184956,1,0,0:0:0:0:
254,189,185106,1,0,0:0:0:0:
255,189,185278,1,0,0:0:0:0:
255,188,185449,1,0,0:0:0:0:
254,189,185621,1,0,0:0:0:0:
252,189,185792,1,0,0:0:0:0:
252,189,185963,1,0,0:0:0:0:
254,189,186156,1,0,0:0:0:0:
250,188,186306,1,0,0:0:0:0:
250,188,186499,1,0,0:0:0:0:
252,189,186692,1,0,0:0:0:0:
252,189,186863,1,0,0:0:0:0:
248,182,187056,1,0,0:0:0:0:
247,180,187249,1,0,0:0:0:0:
247,180,187421,1,0,0:0:0:0:
188,132,187635,1,0,0:0:0:0:
311,118,188149,1,0,0:0:0:0:
208,215,188685,1,0,0:0:0:0:
314,158,189028,1,0,0:0:0:0:
99,196,189542,1,0,0:0:0:0:
115,191,189713,1,0,0:0:0:0:
185,146,190056,1,0,0:0:0:0:
266,128,190399,1,0,0:0:0:0:
105,201,190956,1,0,0:0:0:0:
226,166,191449,1,0,0:0:0:0:
44,145,192263,1,0,0:0:0:0:
169,120,192756,1,0,0:0:0:0:
266,134,193163,1,0,0:0:0:0:
99,180,193742,1,0,0:0:0:0:
303,123,194192,1,0,0:0:0:0:
183,238,194578,1,0,0:0:0:0:
346,168,195135,1,0,0:0:0:0:
141,122,195606,1,0,0:0:0:0:
337,85,195928,1,0,0:0:0:0:
246,211,196035,1,0,0:0:0:0:
246,211,196206,1,0,0:0:0:0:
246,206,196313,1,0,0:0:0:0:
246,206,196528,1,0,0:0:0:0:
292,277,196613,1,0,0:0:0:0:
246,200,196656,1,0,0:0:0:0:
248,186,196763,1,0,0:0:0:0:
248,181,196871,1,0,0:0:0:0:
289,217,196956,1,0,0:0:0:0:
248,190,196978,1,0,0:0:0:0:
248,192,197063,1,0,0:0:0:0:
240,129,198649,1,0,0:0:0:0:
141,206,198971,1,0,0:0:0:0:
366,144,199204,1,0,0:0:0:0:
208,220,199371,1,0,0:0:0:0:
141,206,199621,1,0,0:0:0:0:
206,52,199787,1,0,0:0:0:0:
264,238,199987,1,0,0:0:0:0:
348,73,200171,1,0,0:0:0:0:
268,236,200354,1,0,0:0:0:0:
107,276,200521,1,0,0:0:0:0:
186,103,200704,1,0,0:0:0:0:
447,289,201021,1,0,0:0:0:0:
108,134,201387,1,0,0:0:0:0:
287,220,201587,1,0,0:0:0:0:
167,57,201787,1,0,0:0:0:0:
230,230,201971,1,0,0:0:0:0:
91,359,202154,1,0,0:0:0:0:
203,194,202354,1,0,0:0:0:0:
370,261,202537,1,0,0:0:0:0:
204,186,202721,1,0,0:0:0:0:
367,163,202887,1,0,0:0:0:0:
101,146,203154,1,0,0:0:0:0:
103,310,203321,1,0,0:0:0:0:
236,190,203504,1,0,0:0:0:0:
305,153,203837,1,0,0:0:0:0:
224,233,204171,1,0,0:0:0:0:
178,196,204454,1,0,0:0:0:0:
177,226,204654,1,0,0:0:0:0:
351,137,204854,1,0,0:0:0:0:
177,226,205054,1,0,0:0:0:0:
20,99,205254,1,0,0:0:0:0:
216,224,205487,1,0,0:0:0:0:
414,198,205687,1,0,0:0:0:0:
213,222,205887,1,0,0:0:0:0:
18,128,206104,1,0,0:0:0:0:
196,174,206287,1,0,0:0:0:0:
326,192,206621,1,0,0:0:0:0:
2,187,206937,1,0,0:0:0:0:
168,253,207121,1,0,0:0:0:0:
352,199,207304,1,0,0:0:0:0:
148,193,207504,1,0,0:0:0:0:
303,90,207687,1,0,0:0:0:0:
141,280,207937,1,0,0:0:0:0:
288,127,208137,1,0,0:0:0:0:
248,322,208337,1,0,0:0:0:0:
273,70,208587,1,0,0:0:0:0:
223,229,208754,1,0,0:0:0:0:
258,70,208921,1,0,0:0:0:0:
225,229,209087,1,0,0:0:0:0:
238,157,209387,1,0,0:0:0:0:
3,160,209704,1,0,0:0:0:0:
326,185,210021,1,0,0:0:0:0:
147,169,210204,1,0,0:0:0:0:
78,296,210354,1,0,0:0:0:0:
186,95,210571,1,0,0:0:0:0:
291,260,210771,1,0,0:0:0:0:
226,70,210971,1,0,0:0:0:0:
175,331,211237,1,0,0:0:0:0:
265,177,211421,1,0,0:0:0:0:
284,45,211554,1,0,0:0:0:0:
200,185,211721,1,0,0:0:0:0:
511,49,212054,1,0,0:0:0:0:
208,206,212387,1,0,0:0:0:0:
72,81,212571,1,0,0:0:0:0:
190,167,212721,1,0,0:0:0:0:
312,295,212904,1,0,0:0:0:0:
264,157,213054,1,0,0:0:0:0:
102,126,213221,1,0,0:0:0:0:
190,167,213437,1,0,0:0:0:0:
264,157,213704,1,0,0:0:0:0:
227,234,213954,1,0,0:0:0:0:
41,173,214154,1,0,0:0:0:0:
183,197,214304,1,0,0:0:0:0:
378,210,214504,1,0,0:0:0:0:
82,90,214821,1,0,0:0:0:0:
49,177,214837,1,0,0:0:0:0:
449,161,215237,1,0,0:0:0:0:
101,207,215587,1,0,0:0:0:0:
284,153,215787,1,0,0:0:0:0:
130,70,215971,1,0,0:0:0:0:
290,265,216221,1,0,0:0:0:0:
262,19,216471,1,0,0:0:0:0:
184,303,216771,1,0,0:0:0:0:
151,114,216971,1,0,0:0:0:0:
217,275,217154,1,0,0:0:0:0:
215,90,217337,1,0,0:0:0:0:
504,199,217637,1,0,0:0:0:0:
119,196,218021,1,0,0:0:0:0:
300,92,218237,1,0,0:0:0:0:
257,241,218404,1,0,0:0:0:0:
328,84,218587,1,0,0:0:0:0:
225,203,218754,1,0,0:0:0:0:
340,74,218937,1,0,0:0:0:0:
239,194,219104,1,0,0:0:0:0:
336,75,219254,1,0,0:0:0:0:
220,219,219437,1,0,0:0:0:0:
306,110,219587,1,0,0:0:0:0:
210,226,219737,1,0,0:0:0:0:
291,116,219871,1,0,0:0:0:0:
199,244,220037,1,0,0:0:0:0:
286,118,220187,1,0,0:0:0:0:
200,241,220337,1,0,0:0:0:0:
288,116,220504,1,0,0:0:0:0:
219,217,220637,1,0,0:0:0:0:
256,59,220804,1,0,0:0:0:0:
34,307,221137,1,0,0:0:0:0:
180,221,221304,1,0,0:0:0:0:
323,116,221487,1,0,0:0:0:0:
152,145,221671,1,0,0:0:0:0:
91,163,221837,1,0,0:0:0:0:
254,101,222021,1,0,0:0:0:0:
229,192,222354,1,0,0:0:0:0:
57,115,222537,1,0,0:0:0:0:
207,166,222704,1,0,0:0:0:0:
334,43,222887,1,0,0:0:0:0:
144,246,223171,1,0,0:0:0:0:
190,194,223537,1,0,0:0:0:0:
167,197,223837,1,0,0:0:0:0:
330,127,224021,1,0,0:0:0:0:
151,188,224221,1,0,0:0:0:0:
310,115,224404,1,0,0:0:0:0:
182,174,224554,1,0,0:0:0:0:
315,63,224737,1,0,0:0:0:0:
137,322,225054,1,0,0:0:0:0:
200,136,225254,1,0,0:0:0:0:
200,136,225437,1,0,0:0:0:0:
292,239,225587,1,0,0:0:0:0:
245,146,225921,1,0,0:0:0:0:
171,185,226271,1,0,0:0:0:0:
483,91,226587,1,0,0:0:0:0:
304,167,226787,1,0,0:0:0:0:
130,167,226971,1,0,0:0:0:0:
319,181,227171,1,0,0:0:0:0:
163,160,227337,1,0,0:0:0:0:
316,160,227487,1,0,0:0:0:0:
61,317,227787,1,0,0:0:0:0:
94,144,227971,1,0,0:0:0:0:
256,89,228154,1,0,0:0:0:0:
279,251,228321,1,0,0:0:0:0:
4,37,228671,1,0,0:0:0:0:
331,220,229037,1,0,0:0:0:0:
164,156,229221,1,0,0:0:0:0:
101,249,229337,1,0,0:0:0:0:
264,205,229521,1,0,0:0:0:0:
192,42,229704,1,0,0:0:0:0:
247,225,229904,1,0,0:0:0:0:
198,60,230087,1,0,0:0:0:0:
241,205,230237,1,0,0:0:0:0:
193,243,230554,1,0,0:0:0:0:
257,39,230771,1,0,0:0:0:0:
283,203,230937,1,0,0:0:0:0:
160,332,231121,1,0,0:0:0:0:
156,39,231404,1,0,0:0:0:0:
312,365,231754,1,0,0:0:0:0:
279,176,231954,1,0,0:0:0:0:
140,187,232104,1,0,0:0:0:0:
14,312,232287,1,0,0:0:0:0:
133,220,232437,1,0,0:0:0:0:
335,168,232654,1,0,0:0:0:0:
218,136,232787,1,0,0:0:0:0:
178,321,232987,1,0,0:0:0:0:
196,208,233337,1,0,0:0:0:0:
196,208,233521,1,0,0:0:0:0:
196,208,233687,1,0,0:0:0:0:
196,208,233871,1,0,0:0:0:0:
137,176,234187,1,0,0:0:0:0:
324,157,234554,1,0,0:0:0:0:
165,228,234737,1,0,0:0:0:0:
329,174,234921,1,0,0:0:0:0:
194,203,235071,1,0,0:0:0:0:
390,199,235271,1,0,0:0:0:0:
233,176,235437,1,0,0:0:0:0:
233,176,235604,1,0,0:0:0:0:
233,176,235771,1,0,0:0:0:0:
105,137,236071,1,0,0:0:0:0:
265,234,236254,1,0,0:0:0:0:
411,92,236454,1,0,0:0:0:0:
285,156,236604,1,0,0:0:0:0:
41,326,236904,1,0,0:0:0:0:
246,41,237254,1,0,0:0:0:0:
184,324,237537,1,0,0:0:0:0:
236,135,237737,1,0,0:0:0:0:
108,191,237887,1,0,0:0:0:0:
262,210,238054,1,0,0:0:0:0:
129,72,238254,1,0,0:0:0:0:
220,173,238404,1,0,0:0:0:0:
208,292,238537,1,0,0:0:0:0:
150,177,238887,1,0,0:0:0:0:
11,277,239071,1,0,0:0:0:0:
164,193,239254,1,0,0:0:0:0:
164,193,239404,1,0,0:0:0:0:
415,122,239671,1,0,0:0:0:0:
277,202,239837,1,0,0:0:0:0:
116,206,240004,1,0,0:0:0:0:
166,159,240337,1,0,0:0:0:0:
307,259,240521,1,0,0:0:0:0:
212,157,240671,1,0,0:0:0:0:
341,256,240837,1,0,0:0:0:0:
181,178,241021,1,0,0:0:0:0:
299,202,241154,1,0,0:0:0:0:
135,163,241337,1,0,0:0:0:0:
260,190,241471,1,0,0:0:0:0:
146,154,241604,1,0,0:0:0:0:
241,186,241721,1,0,0:0:0:0:
141,152,241837,1,0,0:0:0:0:
226,177,241937,1,0,0:0:0:0:
226,177,242037,1,0,0:0:0:0:
226,177,242271,1,0,0:0:0:0:
226,177,242504,1,0,0:0:0:0:
141,152,242854,1,0,0:0:0:0:
220,214,243254,1,0,0:0:0:0:
243,149,243821,1,0,0:0:0:0:
153,216,244187,1,0,0:0:0:0:
271,183,244721,1,0,0:0:0:0:
271,183,244887,1,0,0:0:0:0:
176,205,245221,1,0,0:0:0:0:
194,146,245554,1,0,0:0:0:0:
314,175,245971,1,0,0:0:0:0:
217,232,246337,1,0,0:0:0:0:
198,61,246504,1,0,0:0:0:0:
287,176,247387,1,0,0:0:0:0:
179,189,247837,1,0,0:0:0:0:
288,195,248271,1,0,0:0:0:0:
179,189,248804,1,0,0:0:0:0:
328,158,249271,1,0,0:0:0:0:
236,204,249654,1,0,0:0:0:0:
328,158,250187,1,0,0:0:0:0:
170,148,250354,1,0,0:0:0:0:
209,142,250704,1,0,0:0:0:0:
244,193,251037,1,0,0:0:0:0:
306,144,251554,1,0,0:0:0:0:
176,190,252104,1,0,0:0:0:0:
274,141,252921,1,0,0:0:0:0:
163,142,253454,1,0,0:0:0:0:
288,146,253804,1,0,0:0:0:0:
174,162,254421,1,0,0:0:0:0:
304,120,254871,1,0,0:0:0:0:
61,101,255254,1,0,0:0:0:0:
212,113,255771,1,0,0:0:0:0:
219,112,255937,1,0,0:0:0:0:
150,215,256254,1,0,0:0:0:0:
83,127,256604,1,0,0:0:0:0:
344,118,257154,1,0,0:0:0:0:
251,186,257704,1,0,0:0:0:0:
66,210,258654,1,0,0:0:0:0:
272,147,259021,1,0,0:0:0:0:
308,254,259337,1,0,0:0:0:0:
159,210,259937,1,0,0:0:0:0:
343,137,260387,1,0,0:0:0:0:
320,250,260754,1,0,0:0:0:0:
76,127,261304,1,0,0:0:0:0:
76,127,261471,1,0,0:0:0:0:
228,127,261787,1,0,0:0:0:0:
264,243,262137,1,0,0:0:0:0:
126,186,262671,1,0,0:0:0:0:
