osu file format v14

[General]
AudioFilename: audio.mp3
AudioLeadIn: 0
PreviewTime: 13064
Countdown: 0
SampleSet: Normal
StackLeniency: 0.7
Mode: 1
LetterboxInBreaks: 0
WidescreenStoryboard: 0

[Editor]
Bookmarks: 13481,34814,45481,56147
DistanceSpacing: 0.5
BeatDivisor: 4
GridSize: 4
TimelineZoom: 2.5

[Metadata]
Title:Fugitives Last Stand
TitleUnicode:Fugitives Last Stand
Artist:Bespinben
ArtistUnicode:Bespinben
Creator:Coryn
Version:Run Away, Inner Oni!
Source:ポケモン不思議のダンジョン
Tags:gba ds red blue rescue team pokemon pokémon mystery dungeon nintendo gamefreak spike chunsoft arata iiyoshi atsuhiro ishizuna
BeatmapID:1905760
BeatmapSetID:912250

[Difficulty]
HPDrainRate:5
CircleSize:4
OverallDifficulty:5.4
ApproachRate:5
SliderMultiplier:1.4
SliderTickRate:1

[Events]
//Background and Video events
0,0,"d8iclzw-02b6a8e5-cee0-41c5-9913-778626b2d7eb.png",0,0
//Break Periods
//Storyboard Layer 0 (Background)
//Storyboard Layer 1 (Fail)
//Storyboard Layer 2 (Pass)
//Storyboard Layer 3 (Foreground)
//Storyboard Layer 4 (Overlay)
//Storyboard Sound Samples

[TimingPoints]
148,333.333333333333,4,1,0,51,1,0
13481,-100,4,1,0,50,0,0
34564,-101.010101010101,4,1,0,50,0,0
34647,-102.040816326531,4,1,0,50,0,0
34703,-102.459016393443,4,1,0,50,0,0
34759,-102.774922918808,4,1,0,50,0,0
34814,-104.166666666667,4,1,0,50,0,0
35147,-106.382978723404,4,1,0,50,0,0
35314,-108.695652173913,4,1,0,50,0,0
35814,-111.111111111111,4,1,0,30,0,0
44814,-109.89010989011,4,1,0,40,0,0
44981,-107.52688172043,4,1,0,50,0,0
45064,-106.382978723404,4,1,0,50,0,0
45147,-105.263157894737,4,1,0,50,0,0
45314,-103.092783505155,4,1,0,50,0,0
45397,-102.040816326531,4,1,0,50,0,0
45481,-101.010101010101,4,1,0,50,0,0
52414,-100,4,1,0,50,0,0
66131,-99.009900990099,4,1,0,50,0,0
66214,-98.0392156862745,4,1,0,50,0,0
66297,-97.0873786407767,4,1,0,50,0,0
66381,-96.1538461538461,4,1,0,50,0,0
66464,-95.2380952380952,4,1,0,50,0,0
66547,-94.3396226415094,4,1,0,50,0,0
66631,-93.4579439252336,4,1,0,50,0,0
66714,-92.5925925925926,4,1,0,50,0,0
66797,-91.743119266055,4,1,0,50,0,1
67131,-90.9090909090909,4,1,0,50,0,1
77481,-90.9090909090909,4,1,0,50,0,0
78814,-92.5925925925926,4,1,0,50,0,0
79481,-98.0392156862745,4,1,0,50,0,0

[HitObjects]
385,173,148,5,8,0:0:0:0:
371,146,814,1,8,0:0:0:0:
330,128,1481,1,8,0:0:0:0:
330,128,1814,1,8,0:0:0:0:
323,111,2147,1,8,0:0:0:0:
329,111,2231,1,8,0:0:0:0:
329,111,2314,1,0,0:0:0:0:
329,111,2397,1,0,0:0:0:0:
329,111,2481,1,8,0:0:0:0:
329,111,2564,1,0,0:0:0:0:
329,111,2647,1,0,0:0:0:0:
329,111,2731,1,0,0:0:0:0:
329,111,2814,1,12,0:0:0:0:
343,183,2981,1,8,0:0:0:0:
248,79,3147,1,0,0:0:0:0:
248,79,3314,1,12,0:0:0:0:
169,99,3647,1,8,0:0:0:0:
169,105,3814,1,8,0:0:0:0:
169,105,3981,1,0,0:0:0:0:
241,107,4147,1,12,0:0:0:0:
352,172,4314,1,8,0:0:0:0:
231,122,4481,1,0,0:0:0:0:
231,122,4647,1,12,0:0:0:0:
233,146,4981,1,8,0:0:0:0:
233,146,5147,1,0,0:0:0:0:
233,146,5314,1,8,0:0:0:0:
233,146,5481,1,12,0:0:0:0:
241,128,5647,1,0,0:0:0:0:
241,128,5814,1,0,0:0:0:0:
241,128,5981,1,12,0:0:0:0:
239,108,6314,1,0,0:0:0:0:
239,108,6481,1,12,0:0:0:0:
31,166,6647,1,0,0:0:0:0:
414,163,6814,1,12,0:0:0:0:
411,146,7147,1,8,0:0:0:0:
355,168,7314,1,8,0:0:0:0:
291,158,7481,1,8,0:0:0:0:
291,158,7564,1,0,0:0:0:0:
291,158,7647,1,0,0:0:0:0:
291,158,7731,1,0,0:0:0:0:
300,152,7814,1,8,0:0:0:0:
300,152,7897,1,8,0:0:0:0:
300,152,7981,1,0,0:0:0:0:
300,152,8064,1,0,0:0:0:0:
300,152,8147,1,12,0:0:0:0:
335,130,8314,1,8,0:0:0:0:
282,70,8481,1,0,0:0:0:0:
282,70,8647,1,12,0:0:0:0:
282,70,8981,1,8,0:0:0:0:
282,70,9147,1,0,0:0:0:0:
282,70,9314,1,0,0:0:0:0:
282,70,9481,1,12,0:0:0:0:
306,102,9647,1,8,0:0:0:0:
308,195,9814,1,0,0:0:0:0:
300,158,9981,1,12,0:0:0:0:
302,134,10314,1,8,0:0:0:0:
302,134,10481,1,0,0:0:0:0:
302,134,10647,1,8,0:0:0:0:
224,105,10814,1,12,0:0:0:0:
294,117,10981,1,0,0:0:0:0:
294,117,11147,1,0,0:0:0:0:
294,117,11314,1,12,0:0:0:0:
294,117,11647,1,0,0:0:0:0:
392,218,11814,1,12,0:0:0:0:
372,225,11981,1,8,0:0:0:0:
407,122,12147,1,8,0:0:0:0:
337,195,12231,1,0,0:0:0:0:
337,195,12314,1,8,0:0:0:0:
340,190,12397,1,0,0:0:0:0:
337,187,12481,1,8,0:0:0:0:
267,117,12536,1,0,0:0:0:0:
267,117,12592,1,8,0:0:0:0:
267,117,12647,1,0,0:0:0:0:
267,117,12703,1,8,0:0:0:0:
267,117,12759,1,0,0:0:0:0:
267,117,12814,1,8,0:0:0:0:
326,122,12897,1,8,0:0:0:0:
326,122,12981,1,0,0:0:0:0:
326,122,13064,1,0,0:0:0:0:
326,122,13147,1,8,0:0:0:0:
232,122,13231,1,0,0:0:0:0:
232,122,13314,1,0,0:0:0:0:
244,120,13397,1,0,0:0:0:0:
256,117,13481,1,12,0:0:0:0:
398,134,13814,1,8,0:0:0:0:
335,138,13981,1,8,0:0:0:0:
329,198,14064,1,8,0:0:0:0:
396,172,14147,1,0,0:0:0:0:
396,172,14314,1,0,0:0:0:0:
396,172,14481,1,8,0:0:0:0:
358,172,14647,1,8,0:0:0:0:
364,210,14731,1,8,0:0:0:0:
282,122,14814,1,0,0:0:0:0:
282,122,15147,1,8,0:0:0:0:
265,148,15314,1,8,0:0:0:0:
244,238,15397,1,8,0:0:0:0:
279,82,15481,1,0,0:0:0:0:
279,82,15647,1,0,0:0:0:0:
361,157,15731,1,0,0:0:0:0:
279,82,15814,1,8,0:0:0:0:
236,241,15897,1,0,0:0:0:0:
270,122,15981,1,8,0:0:0:0:
230,235,16064,1,8,0:0:0:0:
279,82,16147,1,4,0:0:0:0:
293,143,16481,1,8,0:0:0:0:
104,83,16647,1,8,0:0:0:0:
293,120,16814,1,0,0:0:0:0:
299,111,16981,1,0,0:0:0:0:
302,139,17064,1,0,0:0:0:0:
299,111,17147,1,8,0:0:0:0:
282,158,17314,1,8,0:0:0:0:
282,81,17397,1,8,0:0:0:0:
300,87,17481,1,0,0:0:0:0:
335,123,17564,1,0,0:0:0:0:
282,154,17647,1,8,0:0:0:0:
300,87,17814,1,8,0:0:0:0:
308,112,17897,1,0,0:0:0:0:
366,223,17981,1,0,0:0:0:0:
299,76,18147,1,0,0:0:0:0:
299,76,18314,1,0,0:0:0:0:
171,109,18397,1,0,0:0:0:0:
299,76,18481,1,8,0:0:0:0:
270,111,18647,1,8,0:0:0:0:
296,87,18731,1,8,0:0:0:0:
267,97,18814,1,4,0:0:0:0:
267,113,19147,1,8,0:0:0:0:
341,142,19314,1,0,0:0:0:0:
197,132,19397,1,8,0:0:0:0:
267,113,19481,1,0,0:0:0:0:
259,119,19647,1,8,0:0:0:0:
238,247,19731,1,0,0:0:0:0:
256,122,19814,1,8,0:0:0:0:
281,140,19981,1,8,0:0:0:0:
252,105,20147,1,0,0:0:0:0:
252,105,20481,1,8,0:0:0:0:
323,144,20647,1,0,0:0:0:0:
261,200,20731,1,8,0:0:0:0:
252,105,20814,1,0,0:0:0:0:
252,105,20981,1,0,0:0:0:0:
247,97,21064,1,0,0:0:0:0:
252,105,21147,1,8,0:0:0:0:
256,87,21314,1,8,0:0:0:0:
256,87,21481,1,4,0:0:0:0:
267,134,21814,1,8,0:0:0:0:
267,134,22147,1,0,0:0:0:0:
267,134,22314,1,0,0:0:0:0:
267,134,22481,1,8,0:0:0:0:
226,114,22814,1,4,0:0:0:0:
270,102,23147,1,8,0:0:0:0:
256,84,23481,1,8,0:0:0:0:
256,84,23564,1,0,0:0:0:0:
256,84,23647,1,0,0:0:0:0:
166,87,23731,1,8,0:0:0:0:
256,84,23814,1,0,0:0:0:0:
256,84,23897,1,8,0:0:0:0:
256,84,23981,1,8,0:0:0:0:
241,90,24064,1,8,0:0:0:0:
241,90,24147,1,4,0:0:0:0:
244,193,24481,1,8,0:0:0:0:
306,150,24647,1,8,0:0:0:0:
241,134,24731,1,8,0:0:0:0:
322,107,24814,1,0,0:0:0:0:
322,107,24981,1,0,0:0:0:0:
236,82,25064,1,0,0:0:0:0:
322,107,25147,1,8,0:0:0:0:
212,190,25314,1,8,0:0:0:0:
250,89,25481,1,0,0:0:0:0:
250,89,25814,1,8,0:0:0:0:
363,179,25981,1,8,0:0:0:0:
113,85,26064,1,8,0:0:0:0:
244,66,26147,1,0,0:0:0:0:
121,85,26314,1,0,0:0:0:0:
121,85,26397,1,0,0:0:0:0:
244,66,26481,1,8,0:0:0:0:
280,202,26564,1,8,0:0:0:0:
280,202,26647,1,0,0:0:0:0:
261,138,26814,1,0,0:0:0:0:
259,136,27147,1,8,0:0:0:0:
259,136,27314,1,8,0:0:0:0:
256,227,27397,1,8,0:0:0:0:
259,136,27481,1,0,0:0:0:0:
253,136,27647,1,0,0:0:0:0:
256,227,27731,1,0,0:0:0:0:
253,136,27814,1,8,0:0:0:0:
246,127,27981,1,8,0:0:0:0:
246,127,28147,1,4,0:0:0:0:
236,124,28314,1,0,0:0:0:0:
236,124,28481,1,0,0:0:0:0:
226,118,28647,1,12,0:0:0:0:
323,119,28814,1,8,0:0:0:0:
226,118,28981,1,0,0:0:0:0:
226,112,29147,1,8,0:0:0:0:
226,112,29231,1,0,0:0:0:0:
226,112,29314,1,8,0:0:0:0:
226,112,29397,1,8,0:0:0:0:
226,112,29481,1,4,0:0:0:0:
197,127,29814,1,8,0:0:0:0:
276,173,29981,1,8,0:0:0:0:
174,142,30147,1,0,0:0:0:0:
174,142,30314,1,0,0:0:0:0:
366,152,30397,1,8,0:0:0:0:
174,142,30481,1,8,0:0:0:0:
335,111,30647,1,8,0:0:0:0:
174,142,30814,1,0,0:0:0:0:
340,125,30897,1,0,0:0:0:0:
341,137,30981,1,8,0:0:0:0:
174,142,31147,1,8,0:0:0:0:
273,173,31314,1,0,0:0:0:0:
259,148,31481,1,0,0:0:0:0:
259,148,31647,1,0,0:0:0:0:
282,122,31731,1,8,0:0:0:0:
259,148,31814,1,8,0:0:0:0:
300,163,31897,1,0,0:0:0:0:
393,112,31981,1,0,0:0:0:0:
387,112,32036,1,8,0:0:0:0:
387,112,32092,1,8,0:0:0:0:
387,112,32147,1,0,0:0:0:0:
285,87,32481,1,8,0:0:0:0:
279,87,32814,1,0,0:0:0:0:
279,87,32981,1,0,0:0:0:0:
279,87,33147,1,8,0:0:0:0:
328,124,33481,1,0,0:0:0:0:
233,147,33647,1,0,0:0:0:0:
331,122,33814,1,8,0:0:0:0:
253,204,33981,1,8,0:0:0:0:
331,122,34147,1,8,0:0:0:0:
331,122,34231,1,0,0:0:0:0:
331,122,34314,1,0,0:0:0:0:
331,122,34397,1,8,0:0:0:0:
331,122,34481,1,0,0:0:0:0:
331,122,34564,1,8,0:0:0:0:
331,122,34647,1,8,0:0:0:0:
331,122,34703,1,0,0:0:0:0:
194,156,34759,1,0,0:0:0:0:
331,122,34814,1,8,0:0:0:0:
256,126,35147,1,8,0:0:0:0:
256,126,35314,1,0,0:0:0:0:
256,126,35814,1,8,0:0:0:0:
309,126,36147,1,8,0:0:0:0:
309,126,36314,1,8,0:0:0:0:
309,126,36481,1,0,0:0:0:0:
309,126,36647,1,8,0:0:0:0:
402,108,36689,1,8,0:0:0:0:
256,126,37147,1,8,0:0:0:0:
274,128,37481,1,8,0:0:0:0:
268,129,37647,1,0,0:0:0:0:
268,134,37814,1,8,0:0:0:0:
268,106,37981,1,8,0:0:0:0:
338,173,38481,1,8,0:0:0:0:
330,97,38814,1,8,0:0:0:0:
330,97,38981,1,8,0:0:0:0:
330,97,39147,1,0,0:0:0:0:
295,91,39314,1,8,0:0:0:0:
303,67,39356,1,8,0:0:0:0:
99,100,39814,1,8,0:0:0:0:
236,120,40147,1,8,0:0:0:0:
236,120,40314,1,0,0:0:0:0:
236,120,40481,1,8,0:0:0:0:
236,120,40647,1,8,0:0:0:0:
183,164,41147,1,8,0:0:0:0:
283,88,41481,1,8,0:0:0:0:
283,88,41647,1,8,0:0:0:0:
283,88,41814,1,0,0:0:0:0:
396,117,41981,1,8,0:0:0:0:
396,117,42022,1,8,0:0:0:0:
350,117,42481,1,8,0:0:0:0:
350,117,42814,1,8,0:0:0:0:
350,117,42981,1,0,0:0:0:0:
312,71,43147,1,8,0:0:0:0:
312,71,43314,1,8,0:0:0:0:
301,70,43814,1,8,0:0:0:0:
286,79,44147,1,8,0:0:0:0:
286,79,44314,1,8,0:0:0:0:
286,79,44481,1,0,0:0:0:0:
286,79,44647,1,0,0:0:0:0:
231,82,44814,1,0,0:0:0:0:
225,93,44981,1,0,0:0:0:0:
99,178,45064,1,0,0:0:0:0:
210,47,45147,1,0,0:0:0:0:
155,91,45314,1,0,0:0:0:0:
291,196,45397,1,0,0:0:0:0:
207,52,45481,1,12,0:0:0:0:
256,119,45814,1,8,0:0:0:0:
286,107,45981,1,8,0:0:0:0:
233,127,46147,1,0,0:0:0:0:
233,127,46314,1,8,0:0:0:0:
268,119,46397,1,0,0:0:0:0:
233,127,46481,1,8,0:0:0:0:
265,125,46564,1,8,0:0:0:0:
317,152,46647,1,0,0:0:0:0:
189,131,46731,1,0,0:0:0:0:
183,131,46814,1,4,0:0:0:0:
189,102,47147,1,8,0:0:0:0:
189,78,47314,1,0,0:0:0:0:
189,78,47481,1,0,0:0:0:0:
189,78,47647,1,0,0:0:0:0:
186,52,47731,1,0,0:0:0:0:
186,52,47814,1,8,0:0:0:0:
306,187,47897,1,0,0:0:0:0:
177,43,47981,1,8,0:0:0:0:
177,43,48064,1,8,0:0:0:0:
177,116,48147,1,8,0:0:0:0:
121,140,48314,1,8,0:0:0:0:
236,143,48397,1,0,0:0:0:0:
236,143,48481,1,0,0:0:0:0:
224,140,48647,1,0,0:0:0:0:
224,140,48731,1,0,0:0:0:0:
224,140,48814,1,8,0:0:0:0:
139,119,48981,1,8,0:0:0:0:
148,139,49064,1,0,0:0:0:0:
148,139,49147,1,8,0:0:0:0:
265,92,49231,1,0,0:0:0:0:
197,163,49314,1,0,0:0:0:0:
265,92,49397,1,8,0:0:0:0:
280,154,49481,1,0,0:0:0:0:
306,152,49647,1,8,0:0:0:0:
279,125,49814,1,8,0:0:0:0:
224,157,49981,1,8,0:0:0:0:
323,163,50147,1,0,0:0:0:0:
276,117,50314,1,0,0:0:0:0:
276,117,50397,1,0,0:0:0:0:
276,117,50481,1,8,0:0:0:0:
276,117,50564,1,8,0:0:0:0:
191,99,50647,1,0,0:0:0:0:
244,72,50731,1,8,0:0:0:0:
276,117,50814,1,4,0:0:0:0:
241,67,51147,1,8,0:0:0:0:
306,84,51314,5,8,0:0:0:0:
241,43,51481,1,0,0:0:0:0:
241,49,51647,1,0,0:0:0:0:
306,70,51731,1,0,0:0:0:0:
241,49,51814,1,8,0:0:0:0:
311,96,51897,1,0,0:0:0:0:
311,96,51981,1,8,0:0:0:0:
311,96,52064,1,8,0:0:0:0:
311,96,52147,1,4,0:0:0:0:
186,104,52481,1,8,0:0:0:0:
279,122,52647,5,8,0:0:0:0:
279,122,52814,1,0,0:0:0:0:
279,131,52981,1,0,0:0:0:0:
276,146,53064,1,0,0:0:0:0:
276,146,53147,1,8,0:0:0:0:
259,102,53231,1,0,0:0:0:0:
276,146,53314,1,8,0:0:0:0:
276,146,53397,1,8,0:0:0:0:
276,146,53481,1,0,0:0:0:0:
285,110,53647,1,0,0:0:0:0:
288,113,53731,1,0,0:0:0:0:
288,113,53814,1,8,0:0:0:0:
288,113,53981,1,8,0:0:0:0:
288,113,54064,1,8,0:0:0:0:
288,113,54147,1,0,0:0:0:0:
136,163,54314,1,0,0:0:0:0:
210,49,54397,1,8,0:0:0:0:
201,61,54481,1,0,0:0:0:0:
201,61,54564,1,0,0:0:0:0:
201,61,54647,1,8,0:0:0:0:
192,78,54731,1,8,0:0:0:0:
192,78,54814,1,12,0:0:0:0:
216,125,54981,1,8,0:0:0:0:
271,84,55147,1,8,0:0:0:0:
265,87,55314,1,8,0:0:0:0:
276,98,55481,1,0,0:0:0:0:
282,81,55564,1,0,0:0:0:0:
280,84,55647,1,8,0:0:0:0:
238,58,55731,1,0,0:0:0:0:
238,58,55814,1,8,0:0:0:0:
238,58,55897,1,8,0:0:0:0:
238,58,55981,1,0,0:0:0:0:
236,72,56064,1,0,0:0:0:0:
256,117,56147,1,12,0:0:0:0:
398,134,56481,1,8,0:0:0:0:
335,138,56647,1,8,0:0:0:0:
329,198,56731,1,8,0:0:0:0:
396,172,56814,1,0,0:0:0:0:
396,172,56981,1,0,0:0:0:0:
396,172,57147,1,8,0:0:0:0:
358,172,57314,1,8,0:0:0:0:
282,122,57481,1,0,0:0:0:0:
282,122,57814,1,8,0:0:0:0:
265,148,57980,1,8,0:0:0:0:
244,238,58064,1,8,0:0:0:0:
279,82,58147,1,0,0:0:0:0:
279,82,58314,1,0,0:0:0:0:
361,157,58397,1,0,0:0:0:0:
279,82,58481,1,8,0:0:0:0:
270,122,58647,1,8,0:0:0:0:
279,82,58814,1,0,0:0:0:0:
293,143,59147,1,8,0:0:0:0:
104,83,59314,1,8,0:0:0:0:
293,120,59481,1,0,0:0:0:0:
299,111,59647,1,0,0:0:0:0:
302,139,59731,1,0,0:0:0:0:
299,111,59814,1,8,0:0:0:0:
282,158,59981,1,8,0:0:0:0:
300,87,60147,1,0,0:0:0:0:
282,154,60314,1,8,0:0:0:0:
308,112,60397,1,8,0:0:0:0:
300,87,60481,1,8,0:0:0:0:
366,223,60647,1,0,0:0:0:0:
299,76,60814,1,0,0:0:0:0:
171,109,60981,1,0,0:0:0:0:
299,76,61064,1,0,0:0:0:0:
299,76,61147,1,8,0:0:0:0:
270,111,61314,1,8,0:0:0:0:
267,97,61481,1,4,0:0:0:0:
267,113,61814,1,8,0:0:0:0:
341,142,61981,1,0,0:0:0:0:
267,113,62147,1,0,0:0:0:0:
259,119,62314,1,8,0:0:0:0:
238,247,62397,1,0,0:0:0:0:
256,122,62481,1,8,0:0:0:0:
281,140,62647,1,8,0:0:0:0:
252,105,62814,1,0,0:0:0:0:
252,105,63147,1,8,0:0:0:0:
323,144,63314,1,0,0:0:0:0:
252,105,63481,1,0,0:0:0:0:
252,105,63647,1,0,0:0:0:0:
247,97,63731,1,0,0:0:0:0:
252,105,63814,1,8,0:0:0:0:
256,87,63981,1,8,0:0:0:0:
256,87,64147,1,4,0:0:0:0:
267,134,64481,1,8,0:0:0:0:
267,134,64814,1,0,0:0:0:0:
267,134,64981,1,0,0:0:0:0:
267,134,65147,1,8,0:0:0:0:
226,114,65481,1,4,0:0:0:0:
270,102,65814,1,8,0:0:0:0:
256,84,66147,1,8,0:0:0:0:
256,84,66230,1,0,0:0:0:0:
256,84,66314,1,8,0:0:0:0:
166,87,66397,1,8,0:0:0:0:
256,84,66481,1,0,0:0:0:0:
256,84,66563,1,0,0:0:0:0:
256,84,66647,1,8,0:0:0:0:
241,90,66731,1,8,0:0:0:0:
241,90,66814,1,4,0:0:0:0:
244,193,67147,1,8,0:0:0:0:
241,134,67314,1,8,0:0:0:0:
306,150,67397,1,8,0:0:0:0:
322,107,67481,1,0,0:0:0:0:
203,268,67564,1,8,0:0:0:0:
322,107,67647,1,0,0:0:0:0:
236,82,67730,1,0,0:0:0:0:
322,107,67813,1,8,0:0:0:0:
212,190,67980,1,8,0:0:0:0:
294,102,68064,1,8,0:0:0:0:
250,89,68147,1,0,0:0:0:0:
259,98,68314,1,8,0:0:0:0:
250,89,68481,1,8,0:0:0:0:
363,179,68647,1,8,0:0:0:0:
113,85,68731,1,8,0:0:0:0:
244,66,68814,1,0,0:0:0:0:
411,215,68897,1,8,0:0:0:0:
121,85,68981,1,0,0:0:0:0:
121,85,69064,1,0,0:0:0:0:
244,66,69147,1,8,0:0:0:0:
280,202,69231,1,8,0:0:0:0:
280,202,69314,1,0,0:0:0:0:
261,138,69481,1,0,0:0:0:0:
236,92,69647,1,8,0:0:0:0:
259,136,69814,1,8,0:0:0:0:
259,136,69981,1,8,0:0:0:0:
256,227,70064,1,8,0:0:0:0:
259,136,70147,1,0,0:0:0:0:
253,136,70314,1,0,0:0:0:0:
256,227,70397,1,0,0:0:0:0:
253,136,70481,1,8,0:0:0:0:
246,127,70647,1,8,0:0:0:0:
246,127,70814,1,4,0:0:0:0:
236,124,70981,1,0,0:0:0:0:
236,124,71147,1,0,0:0:0:0:
226,118,71314,1,12,0:0:0:0:
323,119,71481,1,8,0:0:0:0:
226,118,71647,1,0,0:0:0:0:
226,112,71813,1,8,0:0:0:0:
226,112,71897,1,0,0:0:0:0:
226,112,71980,1,8,0:0:0:0:
226,112,72063,1,8,0:0:0:0:
226,112,72147,1,4,0:0:0:0:
442,279,72314,1,8,0:0:0:0:
197,127,72481,1,8,0:0:0:0:
276,173,72647,1,8,0:0:0:0:
174,142,72814,1,0,0:0:0:0:
174,142,72981,1,0,0:0:0:0:
366,152,73064,1,8,0:0:0:0:
174,142,73147,1,8,0:0:0:0:
335,111,73314,1,8,0:0:0:0:
247,107,73397,1,8,0:0:0:0:
174,142,73481,1,0,0:0:0:0:
340,125,73564,1,0,0:0:0:0:
341,137,73647,1,8,0:0:0:0:
174,142,73814,1,8,0:0:0:0:
273,173,73981,1,0,0:0:0:0:
259,148,74147,1,0,0:0:0:0:
259,148,74314,1,0,0:0:0:0:
282,122,74397,1,8,0:0:0:0:
259,148,74481,1,8,0:0:0:0:
300,163,74564,1,0,0:0:0:0:
393,112,74647,1,0,0:0:0:0:
387,112,74703,1,8,0:0:0:0:
387,112,74759,1,8,0:0:0:0:
387,112,74814,1,0,0:0:0:0:
285,87,75147,1,8,0:0:0:0:
279,87,75481,1,0,0:0:0:0:
279,87,75647,1,0,0:0:0:0:
279,87,75814,1,8,0:0:0:0:
328,124,76147,1,0,0:0:0:0:
233,147,76314,1,0,0:0:0:0:
331,122,76481,1,8,0:0:0:0:
253,204,76647,1,8,0:0:0:0:
331,122,76814,1,8,0:0:0:0:
331,122,76897,1,0,0:0:0:0:
331,122,76981,1,0,0:0:0:0:
331,122,77064,1,8,0:0:0:0:
331,122,77147,1,0,0:0:0:0:
331,122,77231,1,8,0:0:0:0:
331,122,77314,1,0,0:0:0:0:
331,122,77370,1,8,0:0:0:0:
194,156,77425,1,0,0:0:0:0:
331,122,77481,1,8,0:0:0:0:
332,98,77814,1,0,0:0:0:0:
329,107,77981,1,12,0:0:0:0:
317,96,78314,1,0,0:0:0:0:
422,159,78481,1,12,0:0:0:0:
405,148,78814,1,0,0:0:0:0:
332,143,79481,1,0,0:0:0:0:
