osu file format v14

[General]
AudioFilename: audio.mp3
AudioLeadIn: 0
PreviewTime: 13064
Countdown: 0
SampleSet: Normal
StackLeniency: 0.7
Mode: 1
LetterboxInBreaks: 0
WidescreenStoryboard: 1

[Editor]
Bookmarks: 13481,34814,45481,56147
DistanceSpacing: 0.5
BeatDivisor: 16
GridSize: 4
TimelineZoom: 2.5

[Metadata]
Title:Fugitives Last Stand
TitleUnicode:Fugitives Last Stand
Artist:Bespinben
ArtistUnicode:Bespinben
Creator:Coryn
Version:Run Away, Inner Oni! (2023)
Source:ポケモン不思議のダンジョン
Tags:gba ds red blue rescue team pokemon pokémon mystery dungeon nintendo gamefreak spike chunsoft arata iiyoshi atsuhiro ishizuna
BeatmapID:4331026
BeatmapSetID:912250

[Difficulty]
HPDrainRate:5
CircleSize:4
OverallDifficulty:5.4
ApproachRate:5
SliderMultiplier:1.4
SliderTickRate:1

[Events]
//Background and Video events
0,0,"d8iclzw-02b6a8e5-cee0-41c5-9913-778626b2d7eb.png",0,0
//Break Periods
//Storyboard Layer 0 (Background)
//Storyboard Layer 1 (Fail)
//Storyboard Layer 2 (Pass)
//Storyboard Layer 3 (Foreground)
//Storyboard Layer 4 (Overlay)
//Storyboard Sound Samples

[TimingPoints]
148,333.333333333333,4,1,0,51,1,0
34814,-100,4,1,0,30,0,0
44981,-100,4,1,0,40,0,0
45481,-100,4,1,0,50,0,0
66814,-100,4,1,0,50,0,1
77481,-100,4,1,0,50,0,0

[HitObjects]
261,134,148,5,2,0:0:0:0:
254,136,814,1,2,0:0:0:0:
254,136,1481,1,2,0:0:0:0:
260,135,1814,1,2,0:0:0:0:
260,135,2147,1,2,0:0:0:0:
351,161,2231,1,0,0:0:0:0:
351,161,2314,1,0,0:0:0:0:
351,161,2397,1,0,0:0:0:0:
351,161,2481,1,2,0:0:0:0:
351,161,2564,1,0,0:0:0:0:
351,161,2647,1,0,0:0:0:0:
351,161,2731,1,0,0:0:0:0:
351,161,2814,1,6,0:0:0:0:
329,86,3147,1,0,0:0:0:0:
275,71,3314,1,2,0:0:0:0:
262,72,4147,1,6,0:0:0:0:
303,121,4481,1,0,0:0:0:0:
224,55,4647,1,2,0:0:0:0:
250,96,5481,1,6,0:0:0:0:
303,121,5814,1,0,0:0:0:0:
303,121,5981,1,2,0:0:0:0:
294,60,6314,1,0,0:0:0:0:
294,60,6481,1,2,0:0:0:0:
294,60,6647,1,2,0:0:0:0:
250,91,6814,1,4,0:0:0:0:
310,91,7147,1,2,0:0:0:0:
306,85,7481,1,2,0:0:0:0:
306,85,7564,1,0,0:0:0:0:
306,85,7647,1,0,0:0:0:0:
309,85,7731,1,0,0:0:0:0:
311,85,7814,1,2,0:0:0:0:
312,85,7897,1,0,0:0:0:0:
313,85,7981,1,0,0:0:0:0:
318,84,8064,1,0,0:0:0:0:
250,91,8147,1,6,0:0:0:0:
299,60,8481,1,0,0:0:0:0:
299,60,8647,1,2,0:0:0:0:
250,95,9481,1,6,0:0:0:0:
311,68,9814,1,0,0:0:0:0:
311,68,9981,1,2,0:0:0:0:
250,95,10814,5,6,0:0:0:0:
320,47,11147,1,0,0:0:0:0:
320,47,11314,1,2,0:0:0:0:
271,157,11647,1,0,0:0:0:0:
301,56,11731,1,0,0:0:0:0:
271,157,11814,1,2,0:0:0:0:
276,153,11981,1,0,0:0:0:0:
364,120,12147,5,2,0:0:0:0:
364,120,12231,1,2,0:0:0:0:
364,120,12314,1,2,0:0:0:0:
364,120,12397,1,2,0:0:0:0:
314,86,12481,1,0,0:0:0:0:
314,91,12536,1,2,0:0:0:0:
293,61,12592,1,0,0:0:0:0:
293,61,12647,1,2,0:0:0:0:
198,85,12703,1,0,0:0:0:0:
159,59,12759,1,2,0:0:0:0:
159,59,12814,1,0,0:0:0:0:
384,164,12897,1,0,0:0:0:0:
384,164,12981,1,0,0:0:0:0:
384,164,13064,1,0,0:0:0:0:
384,164,13147,1,2,0:0:0:0:
158,108,13231,1,0,0:0:0:0:
158,108,13314,1,0,0:0:0:0:
168,113,13397,1,0,0:0:0:0:
164,111,13481,1,6,0:0:0:0:
246,55,13647,1,0,0:0:0:0:
246,55,13814,1,2,0:0:0:0:
358,90,13981,1,2,0:0:0:0:
358,90,14064,1,2,0:0:0:0:
358,90,14147,1,2,0:0:0:0:
246,55,14314,1,0,0:0:0:0:
331,50,14481,1,2,0:0:0:0:
331,50,14564,1,2,0:0:0:0:
318,47,14647,1,2,0:0:0:0:
297,39,14814,1,2,0:0:0:0:
188,63,14897,1,2,0:0:0:0:
188,63,14981,1,0,0:0:0:0:
266,44,15147,1,2,0:0:0:0:
387,78,15314,1,2,0:0:0:0:
302,103,15397,1,2,0:0:0:0:
306,97,15481,1,2,0:0:0:0:
266,44,15647,1,0,0:0:0:0:
387,78,15814,1,2,0:0:0:0:
305,96,15897,1,2,0:0:0:0:
307,94,15981,1,2,0:0:0:0:
255,65,16064,1,2,0:0:0:0:
387,78,16147,1,0,0:0:0:0:
303,67,16231,1,2,0:0:0:0:
306,60,16314,1,0,0:0:0:0:
285,34,16481,1,2,0:0:0:0:
387,78,16647,1,2,0:0:0:0:
313,63,16731,1,2,0:0:0:0:
313,65,16814,1,2,0:0:0:0:
272,54,16981,1,0,0:0:0:0:
387,78,17147,1,2,0:0:0:0:
329,67,17231,1,2,0:0:0:0:
329,67,17314,1,0,0:0:0:0:
387,78,17481,1,2,0:0:0:0:
331,68,17564,1,0,0:0:0:0:
330,68,17647,1,0,0:0:0:0:
344,52,17814,1,2,0:0:0:0:
387,78,17981,1,2,0:0:0:0:
319,62,18064,1,2,0:0:0:0:
317,64,18147,1,2,0:0:0:0:
344,52,18314,1,0,0:0:0:0:
387,78,18481,1,2,0:0:0:0:
317,65,18564,1,2,0:0:0:0:
317,65,18647,1,2,0:0:0:0:
141,109,18731,1,2,0:0:0:0:
387,78,18814,1,0,0:0:0:0:
319,62,18897,1,0,0:0:0:0:
319,62,18981,1,0,0:0:0:0:
258,61,19147,1,2,0:0:0:0:
387,78,19314,1,2,0:0:0:0:
317,65,19397,1,2,0:0:0:0:
310,62,19481,1,0,0:0:0:0:
258,61,19647,1,0,0:0:0:0:
387,78,19814,1,2,0:0:0:0:
319,62,19897,1,0,0:0:0:0:
325,65,19981,1,0,0:0:0:0:
387,78,20147,1,2,0:0:0:0:
270,60,20231,1,0,0:0:0:0:
270,60,20314,1,0,0:0:0:0:
258,61,20481,1,2,0:0:0:0:
380,77,20647,1,2,0:0:0:0:
270,60,20731,1,2,0:0:0:0:
270,60,20814,1,0,0:0:0:0:
257,62,20981,1,0,0:0:0:0:
380,77,21147,1,2,0:0:0:0:
275,57,21231,1,0,0:0:0:0:
270,60,21314,1,2,0:0:0:0:
323,71,21397,1,2,0:0:0:0:
361,76,21481,1,0,0:0:0:0:
278,58,21564,1,0,0:0:0:0:
308,53,21647,1,0,0:0:0:0:
296,44,21814,1,2,0:0:0:0:
296,44,21981,1,0,0:0:0:0:
296,44,22147,1,0,0:0:0:0:
279,86,22231,1,0,0:0:0:0:
296,44,22314,1,0,0:0:0:0:
296,44,22481,1,2,0:0:0:0:
220,42,22647,1,0,0:0:0:0:
199,56,22814,1,2,0:0:0:0:
278,65,22897,1,2,0:0:0:0:
250,52,22981,1,0,0:0:0:0:
275,65,23064,1,0,0:0:0:0:
304,53,23147,1,2,0:0:0:0:
304,53,23314,1,0,0:0:0:0:
302,71,23481,1,2,0:0:0:0:
303,62,23564,1,0,0:0:0:0:
236,54,23647,1,0,0:0:0:0:
303,62,23731,1,0,0:0:0:0:
236,54,23814,1,2,0:0:0:0:
236,54,23897,1,0,0:0:0:0:
236,54,23981,1,0,0:0:0:0:
236,54,24064,1,0,0:0:0:0:
236,54,24147,1,6,0:0:0:0:
275,111,24314,1,0,0:0:0:0:
275,111,24481,1,2,0:0:0:0:
408,98,24647,1,2,0:0:0:0:
393,84,24731,1,2,0:0:0:0:
392,84,24814,1,2,0:0:0:0:
281,60,24981,1,0,0:0:0:0:
371,130,25147,1,2,0:0:0:0:
371,130,25231,1,2,0:0:0:0:
371,130,25314,1,2,0:0:0:0:
371,130,25481,1,2,0:0:0:0:
371,130,25564,1,2,0:0:0:0:
371,130,25647,1,0,0:0:0:0:
281,60,25814,1,2,0:0:0:0:
371,130,25981,1,2,0:0:0:0:
371,130,26064,1,2,0:0:0:0:
371,130,26147,1,2,0:0:0:0:
281,60,26314,1,0,0:0:0:0:
371,130,26481,1,2,0:0:0:0:
371,130,26564,1,2,0:0:0:0:
371,130,26647,1,2,0:0:0:0:
340,99,26731,1,2,0:0:0:0:
371,130,26814,1,0,0:0:0:0:
371,130,26897,1,2,0:0:0:0:
371,130,26981,1,0,0:0:0:0:
281,60,27147,1,2,0:0:0:0:
371,130,27314,1,2,0:0:0:0:
371,130,27397,1,2,0:0:0:0:
371,130,27481,1,2,0:0:0:0:
281,60,27647,1,0,0:0:0:0:
371,130,27814,1,2,0:0:0:0:
371,130,27897,1,2,0:0:0:0:
371,130,27981,1,0,0:0:0:0:
371,130,28147,1,6,0:0:0:0:
317,56,28314,1,2,0:0:0:0:
274,25,28481,1,0,0:0:0:0:
274,25,28647,1,2,0:0:0:0:
302,50,28981,1,2,0:0:0:0:
302,50,29147,1,2,0:0:0:0:
411,133,29231,1,0,0:0:0:0:
411,133,29314,1,0,0:0:0:0:
411,133,29397,1,0,0:0:0:0:
411,133,29481,1,6,0:0:0:0:
353,121,29647,1,0,0:0:0:0:
353,121,29814,1,2,0:0:0:0:
296,85,29981,1,2,0:0:0:0:
337,93,30064,1,0,0:0:0:0:
337,93,30147,1,0,0:0:0:0:
264,69,30314,1,0,0:0:0:0:
296,85,30481,1,2,0:0:0:0:
411,131,30564,1,0,0:0:0:0:
411,131,30647,1,0,0:0:0:0:
296,85,30814,1,0,0:0:0:0:
411,131,30897,1,0,0:0:0:0:
411,131,30981,1,0,0:0:0:0:
232,41,31147,1,2,0:0:0:0:
296,85,31314,1,2,0:0:0:0:
281,62,31397,1,0,0:0:0:0:
281,62,31481,1,0,0:0:0:0:
232,41,31647,1,0,0:0:0:0:
296,85,31814,1,2,0:0:0:0:
281,62,31897,1,0,0:0:0:0:
281,62,31981,1,2,0:0:0:0:
149,84,32064,1,0,0:0:0:0:
296,85,32147,1,0,0:0:0:0:
375,79,32231,1,0,0:0:0:0:
386,84,32314,1,0,0:0:0:0:
386,84,32481,1,2,0:0:0:0:
386,84,32647,1,0,0:0:0:0:
386,84,32814,1,0,0:0:0:0:
366,76,32897,1,0,0:0:0:0:
386,84,32981,1,0,0:0:0:0:
177,49,33147,1,2,0:0:0:0:
177,49,33314,1,0,0:0:0:0:
177,49,33481,1,2,0:0:0:0:
358,45,33564,1,2,0:0:0:0:
334,98,33647,1,0,0:0:0:0:
358,45,33731,1,0,0:0:0:0:
365,45,33814,1,2,0:0:0:0:
334,98,33981,1,0,0:0:0:0:
365,45,34147,1,2,0:0:0:0:
487,152,34231,1,0,0:0:0:0:
487,152,34314,1,0,0:0:0:0:
487,152,34397,1,0,0:0:0:0:
487,152,34481,1,2,0:0:0:0:
318,86,34564,1,0,0:0:0:0:
318,86,34647,1,0,0:0:0:0:
318,86,34731,1,0,0:0:0:0:
318,86,34814,1,0,0:0:0:0:
356,86,35147,1,2,0:0:0:0:
356,86,35314,1,0,0:0:0:0:
356,86,35814,1,2,0:0:0:0:
301,80,36147,1,2,0:0:0:0:
301,80,36314,1,0,0:0:0:0:
236,66,36481,1,0,0:0:0:0:
236,66,36647,1,2,0:0:0:0:
289,60,37147,1,0,0:0:0:0:
342,79,37481,1,2,0:0:0:0:
342,79,37647,1,0,0:0:0:0:
342,79,37814,1,2,0:0:0:0:
342,79,37981,1,2,0:0:0:0:
291,85,38481,1,0,0:0:0:0:
330,78,38814,1,2,0:0:0:0:
330,78,38981,1,0,0:0:0:0:
330,78,39147,1,0,0:0:0:0:
330,78,39314,1,2,0:0:0:0:
250,91,39814,1,0,0:0:0:0:
330,78,40147,1,2,0:0:0:0:
330,78,40314,1,0,0:0:0:0:
330,78,40481,1,2,0:0:0:0:
330,78,40647,1,2,0:0:0:0:
250,91,41147,1,0,0:0:0:0:
330,78,41481,1,2,0:0:0:0:
330,78,41647,1,0,0:0:0:0:
330,78,41814,1,0,0:0:0:0:
330,78,41981,1,2,0:0:0:0:
250,91,42481,1,0,0:0:0:0:
341,74,42814,1,2,0:0:0:0:
341,74,42981,1,0,0:0:0:0:
325,68,43147,1,2,0:0:0:0:
325,68,43314,1,2,0:0:0:0:
250,91,43814,1,0,0:0:0:0:
325,68,44147,1,2,0:0:0:0:
325,68,44314,1,2,0:0:0:0:
325,68,44481,1,2,0:0:0:0:
325,68,44647,1,0,0:0:0:0:
444,175,44981,1,2,0:0:0:0:
353,36,45064,1,2,0:0:0:0:
450,175,45147,1,2,0:0:0:0:
306,55,45314,1,2,0:0:0:0:
306,55,45481,1,4,0:0:0:0:
364,59,45647,1,0,0:0:0:0:
372,60,45814,1,2,0:0:0:0:
342,49,45981,1,0,0:0:0:0:
342,49,46147,1,0,0:0:0:0:
319,105,46314,1,2,0:0:0:0:
319,105,46397,1,2,0:0:0:0:
319,105,46481,1,0,0:0:0:0:
319,105,46564,1,0,0:0:0:0:
319,105,46647,1,2,0:0:0:0:
328,65,46731,1,2,0:0:0:0:
319,105,46814,1,0,0:0:0:0:
342,49,46981,1,0,0:0:0:0:
342,49,47147,1,2,0:0:0:0:
342,49,47314,1,0,0:0:0:0:
342,49,47481,1,0,0:0:0:0:
322,109,47647,1,2,0:0:0:0:
322,109,47731,1,2,0:0:0:0:
322,109,47814,1,0,0:0:0:0:
322,109,47897,1,0,0:0:0:0:
322,109,47981,1,2,0:0:0:0:
322,109,48064,1,2,0:0:0:0:
322,109,48147,1,2,0:0:0:0:
322,109,48314,1,0,0:0:0:0:
322,109,48397,1,0,0:0:0:0:
322,109,48481,1,0,0:0:0:0:
322,109,48564,1,2,0:0:0:0:
322,109,48647,1,0,0:0:0:0:
322,109,48731,1,0,0:0:0:0:
322,109,48814,1,2,0:0:0:0:
322,109,48897,1,2,0:0:0:0:
322,109,48981,1,0,0:0:0:0:
322,109,49064,1,2,0:0:0:0:
322,109,49147,1,2,0:0:0:0:
322,109,49231,1,2,0:0:0:0:
322,109,49314,1,0,0:0:0:0:
322,109,49481,1,0,0:0:0:0:
240,36,49647,1,0,0:0:0:0:
313,35,49814,1,2,0:0:0:0:
313,35,49981,1,0,0:0:0:0:
313,35,50147,1,0,0:0:0:0:
311,88,50314,5,2,0:0:0:0:
311,88,50397,1,2,0:0:0:0:
311,88,50481,1,0,0:0:0:0:
311,88,50564,1,0,0:0:0:0:
311,88,50647,1,2,0:0:0:0:
332,98,50731,1,2,0:0:0:0:
272,60,50814,1,0,0:0:0:0:
310,55,50981,1,0,0:0:0:0:
222,33,51147,1,2,0:0:0:0:
222,33,51314,1,0,0:0:0:0:
222,33,51481,1,0,0:0:0:0:
317,62,51647,1,2,0:0:0:0:
317,62,51731,1,2,0:0:0:0:
317,62,51814,1,0,0:0:0:0:
317,62,51897,1,0,0:0:0:0:
317,62,51981,1,2,0:0:0:0:
166,72,52064,1,2,0:0:0:0:
317,62,52147,1,0,0:0:0:0:
175,28,52314,1,0,0:0:0:0:
175,28,52481,1,2,0:0:0:0:
175,28,52647,1,0,0:0:0:0:
175,28,52814,1,0,0:0:0:0:
325,69,52981,1,2,0:0:0:0:
325,69,53064,1,2,0:0:0:0:
325,69,53147,1,0,0:0:0:0:
325,69,53231,1,0,0:0:0:0:
325,69,53314,1,2,0:0:0:0:
325,69,53397,1,2,0:0:0:0:
325,69,53481,1,2,0:0:0:0:
325,69,53647,1,0,0:0:0:0:
325,69,53731,1,0,0:0:0:0:
325,69,53814,1,0,0:0:0:0:
325,69,53897,1,2,0:0:0:0:
325,69,53981,1,0,0:0:0:0:
325,69,54064,1,0,0:0:0:0:
325,69,54147,1,2,0:0:0:0:
325,69,54231,1,2,0:0:0:0:
325,69,54314,1,0,0:0:0:0:
325,69,54397,1,2,0:0:0:0:
325,69,54481,1,2,0:0:0:0:
325,69,54564,1,2,0:0:0:0:
325,69,54647,1,0,0:0:0:0:
287,59,54731,1,2,0:0:0:0:
325,69,54814,1,2,0:0:0:0:
297,22,54897,1,2,0:0:0:0:
273,42,54981,1,2,0:0:0:0:
297,22,55064,1,2,0:0:0:0:
273,42,55147,1,2,0:0:0:0:
269,27,55314,1,0,0:0:0:0:
393,191,55481,1,2,0:0:0:0:
393,191,55564,1,0,0:0:0:0:
393,191,55647,1,0,0:0:0:0:
393,191,55731,1,0,0:0:0:0:
393,191,55814,1,2,0:0:0:0:
312,95,55897,1,0,0:0:0:0:
312,95,55981,1,0,0:0:0:0:
308,100,56064,1,0,0:0:0:0:
308,101,56147,1,2,0:0:0:0:
404,180,56231,1,2,0:0:0:0:
404,180,56314,1,2,0:0:0:0:
404,180,56397,1,2,0:0:0:0:
404,180,56481,1,2,0:0:0:0:
404,180,56564,1,2,0:0:0:0:
404,180,56647,1,0,0:0:0:0:
404,180,56731,1,0,0:0:0:0:
404,180,56814,1,2,0:0:0:0:
404,180,56981,1,0,0:0:0:0:
404,180,57147,1,2,0:0:0:0:
404,180,57231,1,2,0:0:0:0:
404,180,57314,1,0,0:0:0:0:
404,180,57397,1,2,0:0:0:0:
404,180,57481,1,0,0:0:0:0:
404,180,57564,1,2,0:0:0:0:
404,180,57647,1,2,0:0:0:0:
404,180,57731,1,2,0:0:0:0:
404,180,57814,1,2,0:0:0:0:
404,180,57897,1,2,0:0:0:0:
404,180,57981,1,0,0:0:0:0:
404,180,58064,1,0,0:0:0:0:
404,180,58147,1,2,0:0:0:0:
404,180,58314,1,0,0:0:0:0:
404,180,58481,1,2,0:0:0:0:
404,180,58564,1,2,0:0:0:0:
404,180,58647,1,0,0:0:0:0:
404,180,58731,1,2,0:0:0:0:
404,180,58814,1,0,0:0:0:0:
404,180,58897,1,0,0:0:0:0:
404,180,58981,1,2,0:0:0:0:
404,180,59064,1,2,0:0:0:0:
404,180,59147,1,2,0:0:0:0:
404,180,59231,1,2,0:0:0:0:
404,180,59314,1,0,0:0:0:0:
404,180,59397,1,0,0:0:0:0:
404,180,59481,1,2,0:0:0:0:
404,180,59647,1,0,0:0:0:0:
388,164,59814,1,2,0:0:0:0:
388,164,59897,1,2,0:0:0:0:
388,164,59981,1,2,0:0:0:0:
388,164,60064,1,2,0:0:0:0:
389,164,60147,1,0,0:0:0:0:
389,164,60231,1,0,0:0:0:0:
389,164,60314,1,0,0:0:0:0:
389,164,60397,1,0,0:0:0:0:
389,164,60481,1,2,0:0:0:0:
389,164,60564,1,2,0:0:0:0:
389,164,60647,1,0,0:0:0:0:
388,164,60731,1,0,0:0:0:0:
388,164,60814,1,2,0:0:0:0:
388,164,60981,1,0,0:0:0:0:
389,164,61147,1,2,0:0:0:0:
389,164,61231,1,2,0:0:0:0:
389,164,61314,1,0,0:0:0:0:
389,164,61397,1,2,0:0:0:0:
389,164,61481,1,0,0:0:0:0:
389,164,61564,1,0,0:0:0:0:
389,164,61647,1,2,0:0:0:0:
388,164,61814,1,2,0:0:0:0:
388,164,61981,1,0,0:0:0:0:
388,164,62064,1,0,0:0:0:0:
389,164,62147,1,2,0:0:0:0:
389,164,62314,1,0,0:0:0:0:
389,164,62481,1,2,0:0:0:0:
389,164,62564,1,2,0:0:0:0:
389,164,62647,1,0,0:0:0:0:
265,84,62731,1,2,0:0:0:0:
388,164,62814,1,0,0:0:0:0:
388,164,62897,1,2,0:0:0:0:
388,164,62981,1,2,0:0:0:0:
389,164,63147,1,2,0:0:0:0:
389,164,63314,1,0,0:0:0:0:
389,164,63397,1,0,0:0:0:0:
389,164,63481,1,2,0:0:0:0:
389,164,63647,1,2,0:0:0:0:
394,164,63814,1,2,0:0:0:0:
364,103,63897,1,2,0:0:0:0:
157,116,63981,1,0,0:0:0:0:
353,75,64064,1,2,0:0:0:0:
395,164,64147,1,0,0:0:0:0:
258,47,64231,1,0,0:0:0:0:
258,47,64314,1,0,0:0:0:0:
242,55,64481,1,2,0:0:0:0:
242,55,64647,1,0,0:0:0:0:
242,55,64814,1,0,0:0:0:0:
290,61,64897,1,0,0:0:0:0:
280,61,64981,1,0,0:0:0:0:
280,60,65147,1,2,0:0:0:0:
280,60,65314,1,0,0:0:0:0:
286,47,65481,1,2,0:0:0:0:
281,47,65564,1,2,0:0:0:0:
283,52,65647,1,0,0:0:0:0:
290,61,65731,1,0,0:0:0:0:
296,56,65814,1,2,0:0:0:0:
324,36,65981,1,0,0:0:0:0:
201,25,66147,1,2,0:0:0:0:
201,25,66231,1,0,0:0:0:0:
201,25,66314,1,0,0:0:0:0:
155,11,66397,1,0,0:0:0:0:
155,11,66481,1,2,0:0:0:0:
175,12,66564,1,0,0:0:0:0:
174,12,66647,1,0,0:0:0:0:
174,12,66731,1,0,0:0:0:0:
308,101,66814,1,2,0:0:0:0:
404,180,66898,1,2,0:0:0:0:
404,180,66981,1,2,0:0:0:0:
404,180,67064,1,2,0:0:0:0:
404,180,67148,1,2,0:0:0:0:
404,180,67231,1,2,0:0:0:0:
404,180,67314,1,0,0:0:0:0:
404,180,67398,1,0,0:0:0:0:
404,180,67481,1,2,0:0:0:0:
359,47,67564,1,2,0:0:0:0:
404,180,67648,1,0,0:0:0:0:
327,130,67731,1,0,0:0:0:0:
404,180,67814,1,2,0:0:0:0:
404,180,67898,1,2,0:0:0:0:
404,180,67981,1,0,0:0:0:0:
404,180,68064,1,2,0:0:0:0:
404,180,68148,1,0,0:0:0:0:
404,180,68231,1,2,0:0:0:0:
404,180,68314,1,2,0:0:0:0:
404,180,68398,1,2,0:0:0:0:
404,180,68481,1,2,0:0:0:0:
404,180,68564,1,2,0:0:0:0:
404,180,68648,1,0,0:0:0:0:
404,180,68731,1,0,0:0:0:0:
404,180,68814,1,2,0:0:0:0:
266,32,68897,1,2,0:0:0:0:
404,180,68981,1,0,0:0:0:0:
322,76,69064,1,0,0:0:0:0:
404,180,69148,1,2,0:0:0:0:
404,180,69231,1,2,0:0:0:0:
404,180,69314,1,0,0:0:0:0:
404,180,69398,1,2,0:0:0:0:
404,180,69481,1,0,0:0:0:0:
404,180,69564,1,0,0:0:0:0:
404,180,69648,1,2,0:0:0:0:
404,180,69731,1,2,0:0:0:0:
404,180,69814,1,2,0:0:0:0:
404,180,69898,1,2,0:0:0:0:
404,180,69981,1,0,0:0:0:0:
404,180,70064,1,0,0:0:0:0:
404,180,70148,1,2,0:0:0:0:
288,40,70231,1,2,0:0:0:0:
404,180,70314,1,0,0:0:0:0:
322,76,70397,1,0,0:0:0:0:
388,164,70481,1,2,0:0:0:0:
388,164,70564,1,2,0:0:0:0:
388,164,70648,1,2,0:0:0:0:
388,164,70731,1,2,0:0:0:0:
389,164,70814,1,0,0:0:0:0:
389,164,70981,1,0,0:0:0:0:
389,164,71148,1,2,0:0:0:0:
389,164,71314,1,0,0:0:0:0:
388,164,71481,1,2,0:0:0:0:
388,164,71648,1,0,0:0:0:0:
389,164,71814,1,2,0:0:0:0:
389,164,71898,1,0,0:0:0:0:
389,164,71981,1,0,0:0:0:0:
389,164,72064,1,0,0:0:0:0:
389,164,72148,1,2,0:0:0:0:
389,164,72231,1,0,0:0:0:0:
389,164,72314,1,2,0:0:0:0:
351,38,72397,1,2,0:0:0:0:
388,164,72481,1,2,0:0:0:0:
388,164,72648,1,0,0:0:0:0:
388,164,72731,1,0,0:0:0:0:
389,164,72814,1,2,0:0:0:0:
389,164,72981,1,0,0:0:0:0:
389,164,73148,1,2,0:0:0:0:
389,164,73231,1,2,0:0:0:0:
389,164,73314,1,0,0:0:0:0:
265,84,73398,1,2,0:0:0:0:
388,164,73481,1,0,0:0:0:0:
388,164,73564,1,2,0:0:0:0:
388,164,73648,1,2,0:0:0:0:
318,38,73731,1,0,0:0:0:0:
389,164,73814,1,2,0:0:0:0:
389,164,73981,5,0,0:0:0:0:
389,164,74064,1,0,0:0:0:0:
389,164,74148,1,2,0:0:0:0:
389,164,74314,1,2,0:0:0:0:
394,164,74481,1,2,0:0:0:0:
364,103,74564,1,2,0:0:0:0:
157,116,74648,1,0,0:0:0:0:
353,75,74731,1,2,0:0:0:0:
395,164,74814,1,0,0:0:0:0:
258,47,74898,1,0,0:0:0:0:
258,47,74981,1,0,0:0:0:0:
248,29,75147,1,2,0:0:0:0:
248,29,75314,1,0,0:0:0:0:
248,29,75481,1,0,0:0:0:0:
248,29,75564,1,0,0:0:0:0:
248,29,75647,1,0,0:0:0:0:
258,25,75814,1,2,0:0:0:0:
258,25,75981,1,0,0:0:0:0:
288,46,76147,1,2,0:0:0:0:
279,49,76231,1,2,0:0:0:0:
358,43,76314,1,0,0:0:0:0:
288,46,76481,1,2,0:0:0:0:
331,55,76647,1,0,0:0:0:0:
337,63,76814,1,2,0:0:0:0:
327,29,76897,1,2,0:0:0:0:
174,16,76981,1,0,0:0:0:0:
174,16,77147,1,2,0:0:0:0:
303,76,77314,1,0,0:0:0:0:
260,59,77481,1,6,0:0:0:0:
194,137,77814,1,0,0:0:0:0:
286,51,77981,1,6,0:0:0:0:
403,116,78314,1,0,0:0:0:0:
286,51,78481,1,6,0:0:0:0:
286,51,78814,1,6,0:0:0:0:
359,96,79481,1,0,0:0:0:0:
