osu file format v14

[General]
AudioFilename: audio.ogg
AudioLeadIn: 0
PreviewTime: 64537
Countdown: 0
SampleSet: Soft
StackLeniency: 0.7
Mode: 0
LetterboxInBreaks: 0
WidescreenStoryboard: 0

[Editor]
Bookmarks: 64695
DistanceSpacing: 1.1
BeatDivisor: 4
GridSize: 4
TimelineZoom: 3.250002

[Metadata]
Title:Maji Bomber!! (TV Size)
TitleUnicode:本気ボンバー!! (TV Size)
Artist:Berryz Kobo
ArtistUnicode:Berryz工房
Creator:Aurorance
Version:Summer!
Source:イナズマイレブン
Tags:kennethbbg mocaotic pop jpop j-pop rock jrock j-rock japanese fifth ending ed 5 football anime world cup koubou 清水佐紀 Shimizu Saki 嗣永桃子 Tsugunaga Momoko 徳永千奈美 Tokunaga Chinami 須藤茉麻 Sudo Maasa 夏焼雅 Natsuyaki Miyabi 熊井友理奈 Kumai Yurina 菅谷梨沙子 Sugaya Risako 世界への挑戦!! Inazuma Eleven 3 Sekai e no Chousen!! Bomber video game
BeatmapID:3885475
BeatmapSetID:1886832

[Difficulty]
HPDrainRate:5
CircleSize:4
OverallDifficulty:8.2
ApproachRate:9.2
SliderMultiplier:2.2
SliderTickRate:1

[Events]
//Background and Video events
0,0,"938999.jpg",0,0
//Break Periods
//Storyboard Layer 0 (Background)
//Storyboard Layer 1 (Fail)
//Storyboard Layer 2 (Pass)
//Storyboard Layer 3 (Foreground)
//Storyboard Layer 4 (Overlay)
//Storyboard Sound Samples

[TimingPoints]
1538,315.789473684211,4,2,1,70,1,0
21274,-111.111111111111,4,2,1,70,0,0
21748,-100,4,2,1,70,0,0
22853,-100,4,2,1,60,0,0
24274,-100,4,2,1,40,0,0
25380,-133.333333333333,4,2,1,40,0,0
34380,-133.333333333333,4,2,1,50,0,0
41959,-133.333333333333,4,2,1,60,0,0
44485,-133.333333333333,4,2,1,70,0,0
45274,-100,4,2,1,70,0,0
64380,-83.3333333333333,4,2,1,70,0,0
65011,-133.333333333333,4,2,1,70,0,0
65801,-88.4955752212389,4,2,1,80,0,1
80959,-80,4,2,1,80,0,1
83643,-80,4,2,1,80,0,0
84432,-111.111111111111,4,2,1,80,0,0
86011,-100,4,2,1,80,0,0

[Colours]
Combo1 : 255,128,0
Combo2 : 255,114,111
Combo3 : 39,252,82
Combo4 : 255,255,0

[HitObjects]
392,47,1538,5,10,3:2:0:0:
343,257,1695,1,10,3:2:0:0:
214,108,1853,1,10,3:2:0:0:
214,108,2169,5,2,3:2:0:0:
110,185,2327,2,0,P|52:169|-1:163,1,110,2|8,3:2|2:0,2:0:0:0:
176,365,2643,6,0,B|160:297|192:286|225:275|211:211,1,165,6|0,3:2|2:0,2:0:0:0:
196,195,2959,1,2,3:2:0:0:
294,300,3116,1,8,2:0:0:0:
110,276,3274,2,0,P|195:281|302:294,1,165,2|0,3:2|2:0,2:0:0:0:
294,300,3590,1,2,3:2:0:0:
442,184,3748,1,8,2:0:0:0:
337,141,3906,6,0,P|358:209|366:277,1,110,2|0,2:0|3:2,2:0:0:0:
197,157,4222,2,0,P|207:103|225:51,1,110,2|8,2:0|2:0,2:0:0:0:
337,141,4538,2,0,P|358:209|366:277,1,110,2|0,2:0|3:2,2:0:0:0:
285,357,4853,1,2,3:2:0:0:
395,275,5011,1,8,2:0:0:0:
242,157,5169,2,0,B|140:122|139:228|36:194,1,220,2|0,3:2|3:2,2:0:0:0:
308,58,5643,5,14,2:0:0:0:
242,157,5801,2,0,P|257:214|269:281,1,110,2|0,2:0|3:2,2:0:0:0:
308,58,6116,1,2,3:2:0:0:
394,178,6274,1,14,2:0:0:0:
266,264,6432,2,0,P|251:321|239:388,1,110,2|0,2:0|3:2,2:0:0:0:
241,371,6906,6,0,P|224:294|189:186,1,165,10|0,2:0|2:0,2:0:0:0:
182,195,7222,1,2,3:2:0:0:
81,278,7380,1,2,3:2:0:0:
18,162,7538,1,8,2:0:0:0:
182,195,7695,6,0,P|256:175|270:88,1,165,2|0,3:2|2:0,2:0:0:0:
257,81,8011,1,2,3:2:0:0:
352,8,8169,1,8,2:0:0:0:
436,122,8327,2,0,P|360:107|270:96,1,165,2|0,3:2|2:0,2:0:0:0:
257,81,8643,1,2,3:2:0:0:
337,198,8801,1,8,2:0:0:0:
189,262,8959,1,8,2:0:0:0:
189,262,9038,1,8,2:0:0:0:
189,262,9116,6,0,P|93:239|5:228,1,165,2|0,3:2|2:0,2:0:0:0:
6,236,9432,1,10,2:0:0:0:
177,115,9590,2,0,P|116:126|65:142,1,110,2|0,2:0|3:2,2:0:0:0:
6,236,9906,1,2,3:2:0:0:
108,341,10064,1,8,2:0:0:0:
242,193,10222,6,0,P|307:199|334:299,1,165,6|0,3:2|2:0,2:0:0:0:
325,300,10538,1,2,3:2:0:0:
400,146,10695,1,8,2:0:0:0:
314,83,10853,1,8,2:0:0:0:
314,83,10932,1,8,2:0:0:0:
314,83,11011,2,0,P|249:96|200:100,1,110,10|0,2:0|3:2,2:0:0:0:
93,28,11327,1,10,2:0:0:0:
76,24,11406,1,8,2:0:0:0:
60,27,11485,1,0,3:2:0:0:
46,35,11564,1,0,3:2:0:0:
36,48,11643,5,8,3:2:0:0:
73,217,11801,1,8,3:2:0:0:
214,109,11959,1,8,3:2:0:0:
214,109,12274,5,2,3:2:0:0:
290,210,12432,2,0,P|276:269|266:338,1,110,2|8,3:2|2:0,2:0:0:0:
15,237,12748,6,0,P|96:220|178:212,1,165,6|0,3:2|2:0,2:0:0:0:
196,199,13064,1,2,3:2:0:0:
97,123,13222,1,8,2:0:0:0:
90,300,13380,2,0,B|70:209|132:222|109:133,1,165,2|0,3:2|2:0,2:0:0:0:
97,123,13695,1,2,3:2:0:0:
196,199,13853,1,8,2:0:0:0:
257,41,14011,6,0,P|310:53|335:114,1,110,2|0,2:0|3:2,2:0:0:0:
414,191,14327,2,0,P|449:151|444:98,1,110,2|8,2:0|2:0,2:0:0:0:
257,41,14643,2,0,P|310:53|335:114,1,110,2|0,2:0|3:2,2:0:0:0:
196,199,14959,1,2,3:2:0:0:
317,139,15116,1,8,2:0:0:0:
378,316,15274,2,0,B|276:281|275:387|172:353,1,220,2|0,3:2|3:2,2:0:0:0:
0,269,15748,5,14,2:0:0:0:
99,203,15906,2,0,P|156:218|223:230,1,110,2|0,2:0|3:2,2:0:0:0:
0,269,16222,1,2,3:2:0:0:
118,322,16380,1,14,2:0:0:0:
206,227,16538,2,0,P|263:212|330:200,1,110,2|0,2:0|3:2,2:0:0:0:
313,202,17011,6,0,P|243:185|220:90,1,165,10|0,2:0|2:0,2:0:0:0:
223,82,17327,1,2,3:2:0:0:
336,109,17485,1,2,3:2:0:0:
395,8,17643,1,8,2:0:0:0:
508,115,17801,6,0,P|487:193|469:283,1,165,6|0,3:2|2:0,2:0:0:0:
484,292,18116,1,2,3:2:0:0:
402,168,18274,1,8,2:0:0:0:
320,326,18432,2,0,B|391:339|393:261|469:275,1,165,6|0,3:2|2:0,2:0:0:0:
484,292,18748,1,2,3:2:0:0:
402,168,18906,1,8,2:0:0:0:
232,280,19064,6,0,B|185:273|146:299|146:299|92:249|19:256,1,220,14|0,2:0|2:0,2:0:0:0:
158,192,19538,1,8,2:0:0:0:
213,378,19695,1,0,3:2:0:0:
213,378,19774,1,8,2:0:0:0:
213,378,19853,1,8,2:0:0:0:
316,264,20011,1,0,3:2:0:0:
290,145,20169,1,0,3:2:0:0:
206,116,20327,1,0,3:2:0:0:
157,142,20485,1,2,3:2:0:0:
157,142,21274,6,0,L|164:208,1,49.5,0|0,3:2|2:0,2:0:0:0:
228,265,21432,2,0,B|251:234|251:234|267:126,1,148.5,12|0,2:0|2:0,2:0:0:0:
256,107,21748,6,0,P|274:162|334:172,1,110,0|0,3:2|2:0,2:0:0:0:
452,112,22064,1,8,2:0:0:0:
500,356,22380,5,0,3:2:0:0:
344,274,22538,1,0,3:2:0:0:
456,247,22695,1,8,2:0:0:0:
310,384,22853,6,0,P|237:362|140:347,1,165,4|0,3:2|2:0,2:0:0:0:
130,359,23169,1,8,3:2:0:0:
15,208,23327,1,8,3:2:0:0:
42,384,23485,2,0,B|15:281|131:287|104:182,1,220,8|0,3:2|3:2,2:0:0:0:
8,62,23959,1,8,2:0:0:0:
8,62,24274,5,4,3:2:0:0:
105,185,24590,5,10,2:0:0:0:
183,158,24748,1,2,2:0:0:0:
264,173,24906,1,2,3:2:0:0:
326,226,25064,1,2,3:2:0:0:
211,236,25222,1,10,2:0:0:0:
237,95,25380,2,0,P|317:88|401:74,1,165,2|0,2:0|2:0,2:0:0:0:
450,183,25853,5,10,2:0:0:0:
370,152,26011,1,2,3:2:0:0:
318,88,26169,1,2,2:0:0:0:
307,6,26327,1,2,3:2:0:0:
400,74,26485,1,10,2:0:0:0:
288,166,26643,2,0,P|243:155|181:149,2,82.5000000000002,2|0|0,2:0|3:2|2:0,2:0:0:0:
360,272,27116,5,10,2:0:0:0:
288,328,27274,1,2,2:0:0:0:
203,295,27432,1,2,3:2:0:0:
132,352,27590,1,2,3:2:0:0:
190,206,27748,1,10,2:0:0:0:
288,328,27906,2,0,P|360:332|395:243,1,165,2|0,2:0|2:0,2:0:0:0:
327,152,28380,5,10,2:0:0:0:
241,179,28538,1,2,3:2:0:0:
308,240,28695,1,2,2:0:0:0:
394,213,28853,1,2,3:2:0:0:
288,328,29011,1,10,2:0:0:0:
241,179,29169,2,0,P|199:164|142:162,2,82.5000000000002,2|0|0,2:0|3:2|2:0,2:0:0:0:
389,118,29643,5,10,2:0:0:0:
279,30,29801,2,0,P|291:69|300:110,1,82.5000000000002,2|0,2:0|3:2,2:0:0:0:
393,205,30116,1,2,3:2:0:0:
452,56,30274,1,8,2:0:0:0:
300,109,30432,2,0,P|248:99|199:88,1,82.5000000000002,2|0,2:0|3:2,2:0:0:0:
93,195,30748,2,0,P|145:185|194:174,1,82.5000000000002,2|8,2:0|2:0,2:0:0:0:
300,109,31064,2,0,P|200:88|116:65,1,165,2|0,3:2|3:2,2:0:0:0:
10,94,31538,1,8,2:0:0:0:
74,308,31853,5,0,3:2:0:0:
220,150,32169,5,10,2:0:0:0:
297,181,32327,1,2,2:0:0:0:
328,104,32485,1,2,3:2:0:0:
251,73,32643,1,2,3:2:0:0:
232,232,32801,1,10,2:0:0:0:
379,169,32959,1,2,2:0:0:0:
333,287,33116,2,0,P|318:249|309:208,2,82.5000000000002,0|0|8,3:2|2:0|2:0,2:0:0:0:
431,377,33590,5,2,3:2:0:0:
431,377,33748,2,0,P|452:322|470:244,1,123.75,2|0,2:0|2:0,2:0:0:0:
491,251,34064,2,0,P|470:196|452:118,1,123.75,10|0,2:0|2:0,2:0:0:0:
499,58,34380,5,4,3:2:0:0:
499,58,34695,5,10,2:0:0:0:
401,5,34853,1,2,2:0:0:0:
313,115,35011,2,0,P|309:79|295:21,1,82.5000000000002,2|0,3:2|3:2,2:0:0:0:
401,149,35327,1,10,2:0:0:0:
216,92,35485,6,0,P|161:105|151:179,1,123.75,6|0,3:2|2:0,2:0:0:0:
153,182,35801,1,2,2:0:0:0:
230,280,35959,1,8,2:0:0:0:
302,148,36116,2,0,B|383:140|374:208|459:199,1,165,2|0,3:2|3:2,2:0:0:0:
512,123,36590,1,8,2:0:0:0:
498,355,36906,6,0,P|438:335|361:321,1,123.75,6|0,3:2|2:0,2:0:0:0:
359,330,37222,1,10,2:0:0:0:
383,226,37380,2,0,P|338:235|280:237,1,82.5000000000002,2|0,2:0|3:2,2:0:0:0:
197,169,37695,1,2,3:2:0:0:
288,253,37853,1,10,2:0:0:0:
149,366,38011,6,0,B|160:284|100:292|112:208,1,165,6|0,3:2|2:0,2:0:0:0:
189,81,38485,1,8,2:0:0:0:
45,157,38643,1,0,3:2:0:0:
45,157,38722,1,8,2:0:0:0:
45,157,38801,5,10,2:0:0:0:
84,6,38959,1,2,3:2:0:0:
189,81,39116,5,10,2:0:0:0:
84,6,39274,1,2,2:0:0:0:
147,176,39432,6,0,P|208:165|285:156,1,123.75,6|0,3:2|2:0,2:0:0:0:
285,144,39748,1,10,2:0:0:0:
324,295,39906,2,0,P|331:252|341:210,1,82.5000000000002,2|0,2:0|3:2,2:0:0:0:
285,144,40222,1,2,3:2:0:0:
420,249,40380,1,8,2:0:0:0:
236,330,40538,6,0,P|228:265|215:203,1,123.75,6|0,3:2|2:0,2:0:0:0:
203,192,40853,1,2,2:0:0:0:
131,286,41011,1,8,2:0:0:0:
74,157,41169,2,0,P|93:94|108:32,1,123.75,2|0,3:2|2:0,2:0:0:0:
101,18,41485,1,2,3:2:0:0:
202,109,41643,1,8,2:0:0:0:
39,307,41959,6,0,P|29:269|10:216,1,82.5000000000002,6|0,3:2|2:0,2:0:0:0:
94,115,42274,1,8,2:0:0:0:
94,115,42353,1,8,2:0:0:0:
94,115,42432,1,8,2:0:0:0:
149,250,42590,5,6,3:2:0:0:
243,225,42748,1,0,3:2:0:0:
325,139,42906,1,8,2:0:0:0:
255,0,43064,1,6,3:2:0:0:
255,0,43380,5,8,2:0:0:0:
242,94,43538,1,8,2:0:0:0:
325,139,43695,1,0,3:2:0:0:
434,46,43853,2,0,P|424:93|415:149,1,82.5000000000002,8|0,2:0|3:2,2:0:0:0:
357,228,44169,1,8,2:0:0:0:
360,244,44248,1,8,2:0:0:0:
364,259,44327,1,8,2:0:0:0:
367,275,44406,1,8,2:0:0:0:
370,291,44485,5,10,3:2:0:0:
249,171,44643,1,10,3:2:0:0:
450,130,44801,1,10,3:2:0:0:
450,130,45116,5,2,3:2:0:0:
313,24,45274,2,0,P|332:84|344:139,1,110,2|8,3:2|2:0,2:0:0:0:
179,239,45590,6,0,B|109:242|103:209|98:175|33:177,1,165,6|0,3:2|2:0,2:0:0:0:
15,189,45906,1,2,3:2:0:0:
135,111,46064,1,8,2:0:0:0:
79,288,46222,2,0,P|98:205|130:102,1,165,2|0,3:2|2:0,2:0:0:0:
135,111,46538,1,2,3:2:0:0:
196,220,46695,1,8,2:0:0:0:
266,48,46853,6,0,P|328:41|400:26,1,110,2|0,2:0|3:2,2:0:0:0:
461,177,47169,2,0,P|399:184|327:199,1,110,2|8,2:0|2:0,2:0:0:0:
266,48,47485,2,0,P|328:41|400:26,1,110,2|0,2:0|3:2,2:0:0:0:
508,93,47801,1,2,3:2:0:0:
407,5,47959,1,8,2:0:0:0:
344,177,48116,2,0,B|301:213|242:212|242:212|205:164|141:169,1,220,2|0,3:2|3:2,2:0:0:0:
68,0,48590,5,14,2:0:0:0:
172,62,48748,2,0,P|156:114|146:168,1,110,2|0,2:0|3:2,2:0:0:0:
68,0,49064,1,2,3:2:0:0:
49,111,49222,1,14,2:0:0:0:
146,169,49380,2,0,P|161:221|171:275,1,110,2|0,2:0|3:2,2:0:0:0:
171,275,49853,6,0,P|206:191|283:196,1,165,10|0,2:0|2:0,2:0:0:0:
289,199,50169,1,2,3:2:0:0:
204,106,50327,1,2,3:2:0:0:
355,54,50485,1,8,2:0:0:0:
289,199,50643,6,0,P|375:180|460:171,1,165,2|0,3:2|2:0,2:0:0:0:
472,179,50959,1,2,3:2:0:0:
373,282,51116,1,8,2:0:0:0:
351,101,51274,2,0,P|373:188|384:277,1,165,2|0,3:2|2:0,2:0:0:0:
373,282,51590,1,2,3:2:0:0:
250,209,51748,1,8,2:0:0:0:
187,372,51906,1,8,2:0:0:0:
187,372,51985,1,8,2:0:0:0:
187,372,52064,6,0,P|111:348|100:262,1,165,2|0,3:2|2:0,2:0:0:0:
105,251,52380,1,10,2:0:0:0:
271,278,52538,2,0,P|243:220|185:206,1,110,2|0,2:0|3:2,2:0:0:0:
105,251,52853,1,2,3:2:0:0:
41,144,53011,1,8,2:0:0:0:
178,30,53169,6,0,B|242:9|281:86|344:65,1,165,6|0,3:2|2:0,2:0:0:0:
351,54,53485,1,2,3:2:0:0:
199,122,53643,1,8,2:0:0:0:
301,183,53801,1,8,2:0:0:0:
301,183,53880,1,8,2:0:0:0:
301,183,53959,2,0,P|285:242|278:302,1,110,10|0,2:0|3:2,2:0:0:0:
154,280,54274,1,10,2:0:0:0:
163,300,54353,1,8,2:0:0:0:
172,321,54432,1,0,3:2:0:0:
178,343,54511,1,0,3:2:0:0:
183,364,54590,5,8,3:2:0:0:
377,259,54748,1,8,3:2:0:0:
190,165,54906,1,8,3:2:0:0:
190,165,55222,5,2,3:2:0:0:
298,129,55380,2,0,P|286:183|276:237,1,110,2|8,3:2|2:0,2:0:0:0:
465,371,55695,6,0,P|387:340|383:256,1,165,6|0,3:2|2:0,2:0:0:0:
394,252,56011,1,2,3:2:0:0:
279,336,56169,1,8,2:0:0:0:
240,188,56327,2,0,B|308:185|308:269|377:267,1,165,2|0,3:2|2:0,2:0:0:0:
394,252,56643,1,2,3:2:0:0:
279,336,56801,1,8,2:0:0:0:
240,188,56959,6,0,P|258:137|264:78,1,110,2|0,2:0|3:2,2:0:0:0:
79,170,57274,2,0,P|87:224|109:275,1,110,2|8,2:0|2:0,2:0:0:0:
240,188,57590,2,0,P|258:137|264:78,1,110,2|0,2:0|3:2,2:0:0:0:
127,0,57906,1,2,3:2:0:0:
258,41,58064,1,8,2:0:0:0:
131,193,58222,2,0,P|62:183|35:47,1,220,2|0,3:2|3:2,2:0:0:0:
197,119,58695,5,14,2:0:0:0:
265,222,58853,2,0,P|317:206|371:196,1,110,2|0,2:0|3:2,2:0:0:0:
197,119,59169,1,2,3:2:0:0:
315,100,59327,1,14,2:0:0:0:
372,196,59485,2,0,P|424:211|478:221,1,110,2|0,2:0|3:2,2:0:0:0:
478,221,59959,6,0,P|394:228|312:247,1,165,10|0,2:0|2:0,2:0:0:0:
301,263,60274,1,2,3:2:0:0:
198,196,60432,1,2,3:2:0:0:
141,344,60590,1,8,2:0:0:0:
301,263,60748,6,0,P|311:189|335:82,1,165,6|0,3:2|2:0,2:0:0:0:
347,88,61064,1,2,3:2:0:0:
413,184,61222,1,8,2:0:0:0:
235,190,61380,2,0,B|308:208|324:153|395:171,1,165,6|0,3:2|2:0,2:0:0:0:
413,184,61695,1,2,3:2:0:0:
339,305,61853,1,8,2:0:0:0:
268,110,62011,6,0,P|156:93|37:63,1,220,14|0,2:0|2:0,2:0:0:0:
5,232,62485,1,8,2:0:0:0:
88,180,62643,1,0,3:2:0:0:
88,180,62722,1,8,2:0:0:0:
88,180,62801,1,8,2:0:0:0:
152,331,62959,1,0,3:2:0:0:
302,206,63116,2,0,P|248:217|194:226,1,110,0|0,3:2|3:2,2:0:0:0:
69,384,63432,5,10,3:2:0:0:
88,180,63590,1,10,3:2:0:0:
191,353,63748,1,10,3:2:0:0:
5,275,63906,1,10,3:2:0:0:
203,229,64064,2,0,P|246:160|230:80,1,165,10|0,3:2|2:0,2:0:0:0:
198,52,64380,2,0,B|161:97|161:97|302:79,1,198,12|0,3:2|2:0,2:0:0:0:
317,66,64695,5,10,3:2:0:0:
508,131,64853,1,10,3:2:0:0:
359,276,65011,2,0,P|369:321|376:371,1,82.5000000000002,10|8,3:2|2:0,2:0:0:0:
367,380,65248,1,8,2:0:0:0:
367,380,65327,5,2,3:2:0:0:
427,201,65485,1,2,3:2:0:0:
427,201,65801,6,0,B|336:220|351:120|263:142,1,186.45,6|0,3:2|2:0,2:0:0:0:
250,156,66116,1,2,3:2:0:0:
133,36,66274,1,8,2:0:0:0:
15,180,66432,2,0,B|73:161|78:226|135:207,1,124.3,2|8,3:2|2:0,2:0:0:0:
306,298,66748,1,2,3:2:0:0:
150,381,66906,1,8,2:0:0:0:
283,192,67064,5,2,2:0:0:0:
391,230,67222,1,0,3:2:0:0:
306,88,67380,1,2,3:2:0:0:
197,127,67538,1,8,2:0:0:0:
283,192,67695,1,2,2:0:0:0:
391,230,67853,1,8,2:0:0:0:
213,269,68011,1,2,3:2:0:0:
124,178,68169,1,8,2:0:0:0:
48,362,68327,2,0,P|39:305|18:240,2,124.3,2|8|0,3:2|3:2|3:2,2:0:0:0:
124,178,68801,5,10,2:0:0:0:
245,249,68959,2,0,P|306:238|368:232,1,124.3,2|8,2:0|2:0,2:0:0:0:
124,178,69274,1,2,3:2:0:0:
265,118,69432,1,10,2:0:0:0:
368,232,69590,2,0,P|442:252|506:259,1,124.3,2|8,3:2|3:2,2:0:0:0:
454,152,69906,1,0,3:2:0:0:
356,332,70064,6,0,B|320:333|289:350|289:350|236:323|177:316,1,186.45,10|0,2:0|2:0,2:0:0:0:
156,326,70380,1,10,2:0:0:0:
209,204,70538,1,2,3:2:0:0:
65,153,70695,1,8,2:0:0:0:
156,326,70853,6,0,P|215:315|282:310,1,124.3,2|8,3:2|3:2,2:0:0:0:
298,324,71090,1,0,3:2:0:0:
298,324,71169,1,2,3:2:0:0:
371,204,71327,1,8,2:0:0:0:
474,380,71485,2,0,P|484:319|497:258,1,124.3,2|8,2:0|2:0,2:0:0:0:
482,132,71801,1,2,3:2:0:0:
389,301,71959,5,8,2:0:0:0:
278,161,72116,1,0,3:2:0:0:
278,161,72195,1,0,3:2:0:0:
278,161,72274,6,0,B|187:128|202:237|112:207,1,186.45,10|0,3:2|2:0,2:0:0:0:
93,202,72590,1,10,2:0:0:0:
35,53,72748,2,0,P|92:50|125:107,1,124.3,2|8,2:0|2:0,2:0:0:0:
93,202,73064,1,2,3:2:0:0:
8,89,73222,1,8,2:0:0:0:
204,214,73380,6,0,P|265:202|297:150,1,124.3,2|8,3:2|3:2,2:0:0:0:
296,137,73616,1,0,3:2:0:0:
296,137,73695,2,0,P|270:75|253:1,1,124.3,2|8,3:2|2:0,2:0:0:0:
426,117,74011,1,2,2:0:0:0:
426,117,74090,1,2,2:0:0:0:
426,117,74169,2,0,P|400:179|383:254,1,124.3,10|0,2:0|3:2,2:0:0:0:
321,373,74485,1,10,2:0:0:0:
314,347,74564,1,8,2:0:0:0:
298,326,74643,1,0,3:2:0:0:
276,312,74722,1,8,2:0:0:0:
251,306,74801,5,10,3:2:0:0:
80,374,74959,1,10,3:2:0:0:
128,161,75116,1,10,3:2:0:0:
128,161,75432,5,2,3:2:0:0:
245,198,75590,2,0,P|315:185|387:176,1,124.3,2|0,3:2|2:0,2:0:0:0:
483,350,75906,6,0,B|394:369|410:266|319:290,1,186.45,6|0,3:2|2:0,2:0:0:0:
301,296,76222,1,2,3:2:0:0:
462,225,76380,1,8,2:0:0:0:
322,133,76538,2,0,P|259:146|257:222,1,124.3,2|8,3:2|2:0,2:0:0:0:
301,296,76853,1,2,3:2:0:0:
462,225,77011,1,8,2:0:0:0:
322,133,77169,5,2,2:0:0:0:
206,114,77327,1,0,3:2:0:0:
295,0,77485,1,2,3:2:0:0:
401,51,77643,1,8,2:0:0:0:
322,133,77801,1,2,2:0:0:0:
206,114,77959,1,8,2:0:0:0:
37,155,78116,1,2,3:2:0:0:
103,59,78274,1,8,2:0:0:0:
210,220,78432,2,0,P|149:233|89:249,2,124.3,2|8|0,3:2|3:2|3:2,2:0:0:0:
318,383,78906,5,10,2:0:0:0:
402,224,79064,2,0,P|386:165|337:130,1,124.3,2|8,2:0|2:0,2:0:0:0:
318,383,79380,1,2,3:2:0:0:
249,227,79538,1,10,2:0:0:0:
336,129,79695,1,2,3:2:0:0:
130,227,79853,5,8,3:2:0:0:
130,227,80011,1,0,3:2:0:0:
11,137,80169,2,0,B|101:162|97:75|187:101,1,186.45,10|0,2:0|2:0,2:0:0:0:
203,106,80485,1,10,2:0:0:0:
281,25,80643,1,2,3:2:0:0:
115,0,80801,1,8,2:0:0:0:
303,135,80959,6,0,B|345:228|242:235|280:333,1,206.25,6|0,3:2|2:0,2:0:0:0:
287,348,81274,1,2,3:2:0:0:
199,206,81432,1,8,2:0:0:0:
394,74,81590,2,0,P|490:109|477:211,1,206.25,6|0,2:0|2:0,2:0:0:0:
475,217,81906,1,2,3:2:0:0:
274,74,82064,1,8,2:0:0:0:
274,74,82143,1,8,2:0:0:0:
274,74,82222,6,0,B|298:183|298:183|348:203|348:203|372:324,1,275,6|0,3:2|3:2,2:0:0:0:
212,369,82695,1,8,2:0:0:0:
86,321,82853,1,0,3:2:0:0:
86,321,82932,1,8,2:0:0:0:
86,321,83011,1,8,2:0:0:0:
68,199,83169,1,0,3:2:0:0:
138,128,83327,1,8,3:2:0:0:
223,132,83485,1,0,3:2:0:0:
352,284,83643,1,14,3:2:0:0:
352,284,84432,6,0,L|345:218,1,49.5,2|0,3:2|3:2,2:0:0:0:
309,148,84590,2,0,B|278:171|278:171|163:156,1,148.5,12|0,2:0|2:0,2:0:0:0:
135,127,84906,5,0,3:2:0:0:
288,44,85222,1,8,2:0:0:0:
169,225,85538,5,0,3:2:0:0:
135,127,85695,1,0,3:2:0:0:
103,303,85853,1,8,2:0:0:0:
266,189,86011,6,0,P|351:198|434:210,1,165,4|0,3:2|2:0,2:0:0:0:
449,219,86327,1,0,3:2:0:0:
290,314,86485,2,0,P|350:301|416:293,1,110,8|0,2:0|3:2,2:0:0:0:
449,219,86801,1,0,2:0:0:0:
387,115,86959,1,8,2:0:0:0:
387,115,87038,1,8,2:0:0:0:
387,115,87116,6,0,L|315:124,1,55,8|8,2:0|2:0,2:0:0:0:
266,189,87274,2,0,L|194:180,1,55,8|8,2:0|2:0,2:0:0:0:
144,48,87432,1,4,3:2:0:0:
256,192,87511,12,8,88695,3:2:0:0:
