osu file format v14

[General]
AudioFilename: audio.ogg
AudioLeadIn: 0
PreviewTime: 64537
Countdown: 0
SampleSet: Soft
StackLeniency: 0.7
Mode: 0
LetterboxInBreaks: 0
WidescreenStoryboard: 1

[Editor]
Bookmarks: 64695
DistanceSpacing: 1.1
BeatDivisor: 4
GridSize: 4
TimelineZoom: 2.050003

[Metadata]
Title:Maji Bomber!! (TV Size)
TitleUnicode:本気ボンバー!! (TV Size)
Artist:Berryz Kobo
ArtistUnicode:Berryz工房
Creator:Aurorance
Version:Normal!
Source:イナズマイレブン
Tags:kennethbbg mocaotic pop jpop j-pop rock jrock j-rock japanese fifth ending ed 5 football anime world cup koubou 清水佐紀 Shimizu Saki 嗣永桃子 Tsugunaga Momoko 徳永千奈美 Tokunaga Chinami 須藤茉麻 Sudo Maasa 夏焼雅 Natsuyaki Miyabi 熊井友理奈 Kumai Yurina 菅谷梨沙子 Sugaya Risako 世界への挑戦!! Inazuma Eleven 3 Sekai e no Chousen!! Bomber video game
BeatmapID:3885952
BeatmapSetID:1886832

[Difficulty]
HPDrainRate:4
CircleSize:3
OverallDifficulty:4.4
ApproachRate:5.5
SliderMultiplier:0.999999999999999
SliderTickRate:1

[Events]
//Background and Video events
0,0,"938999.jpg",0,0
//Break Periods
//Storyboard Layer 0 (Background)
//Storyboard Layer 1 (Fail)
//Storyboard Layer 2 (Pass)
//Storyboard Layer 3 (Foreground)
//Storyboard Layer 4 (Overlay)
//Storyboard Sound Samples

[TimingPoints]
1538,315.789473684211,4,2,1,70,1,0
22853,-100,4,2,1,60,0,0
24274,-100,4,2,1,40,0,0
34380,-100,4,2,1,50,0,0
41959,-100,4,2,1,60,0,0
44485,-100,4,2,1,70,0,0
65801,-100,4,2,1,80,0,1
83643,-100,4,2,1,80,0,0

[Colours]
Combo1 : 255,128,0
Combo2 : 255,114,111
Combo3 : 39,252,82
Combo4 : 255,255,0

[HitObjects]
257,88,1538,6,0,L|192:77,2,50,10|10|10,3:2|3:2|3:2,2:0:0:0:
351,29,2169,1,2,3:2:0:0:
351,29,2327,2,0,L|419:21,1,50,2|8,3:2|2:0,2:0:0:0:
452,42,2643,1,6,3:2:0:0:
508,136,2959,2,0,L|493:204,1,50,2|8,3:2|2:0,2:0:0:0:
456,221,3274,2,0,P|411:188|354:184,1,99.9999999999999,2|2,3:2|3:2,2:0:0:0:
321,208,3748,1,8,2:0:0:0:
321,208,3906,6,0,P|270:227|213:225,1,99.9999999999999,2|2,2:0|2:0,2:0:0:0:
159,137,4538,2,0,P|108:118|51:120,1,99.9999999999999,2|2,2:0|3:2,2:0:0:0:
21,152,5011,1,8,2:0:0:0:
21,152,5169,2,0,P|35:206|44:256,1,99.9999999999999,2|0,3:2|3:2,2:0:0:0:
91,286,5643,1,14,2:0:0:0:
91,286,5801,1,2,2:0:0:0:
186,232,6116,2,0,P|190:199|196:169,2,50,2|14|2,3:2|2:0|2:0,2:0:0:0:
220,275,6590,5,0,3:2:0:0:
316,221,6906,1,10,2:0:0:0:
273,125,7222,1,2,3:2:0:0:
273,125,7380,2,0,L|265:67,1,50,2|8,3:2|2:0,2:0:0:0:
290,25,7695,2,0,P|343:23|383:77,1,99.9999999999999,2|2,3:2|3:2,2:0:0:0:
482,81,8327,2,0,P|466:129|453:204,1,99.9999999999999,2|2,3:2|3:2,2:0:0:0:
416,216,8801,1,8,2:0:0:0:
494,292,9116,6,0,P|477:342|423:359,1,99.9999999999999,2|10,3:2|2:0,2:0:0:0:
384,340,9590,2,0,P|333:324|268:319,1,99.9999999999999,2|2,2:0|3:2,2:0:0:0:
240,344,10064,1,8,2:0:0:0:
240,344,10222,1,6,3:2:0:0:
183,255,10538,1,2,3:2:0:0:
183,255,10695,2,0,L|196:184,1,50,8|8,2:0|2:0,2:0:0:0:
239,177,11011,2,0,L|226:106,1,50,10|0,2:0|3:2,2:0:0:0:
187,91,11327,1,10,2:0:0:0:
273,23,11643,6,0,L|333:17,2,50,8|8|8,3:2|3:2|3:2,2:0:0:0:
187,91,12274,1,2,3:2:0:0:
187,91,12432,2,0,L|116:82,1,50,2|8,3:2|2:0,2:0:0:0:
92,52,12748,1,6,3:2:0:0:
20,135,13064,2,0,P|36:176|41:202,1,50,2|8,3:2|2:0,2:0:0:0:
84,210,13380,2,0,P|71:265|64:320,1,99.9999999999999,2|2,3:2|3:2,2:0:0:0:
97,359,13853,1,8,2:0:0:0:
97,359,14011,6,0,P|157:360|194:323,1,99.9999999999999,2|2,2:0|2:0,2:0:0:0:
252,248,14643,2,0,P|303:251|358:291,1,99.9999999999999,2|2,2:0|3:2,2:0:0:0:
383,321,15116,1,8,2:0:0:0:
383,321,15274,2,0,P|394:264|409:210,1,99.9999999999999,2|0,3:2|3:2,2:0:0:0:
452,193,15748,1,14,2:0:0:0:
452,193,15906,1,2,2:0:0:0:
381,108,16222,2,0,P|377:78|372:48,2,50,2|14|2,3:2|2:0|2:0,2:0:0:0:
337,142,16695,5,0,3:2:0:0:
264,59,17011,1,10,2:0:0:0:
177,125,17327,1,2,3:2:0:0:
177,125,17485,2,0,L|188:194,1,50,2|8,3:2|2:0,2:0:0:0:
233,200,17801,2,0,P|220:254|212:308,1,99.9999999999999,6|2,3:2|3:2,2:0:0:0:
137,377,18432,2,0,P|90:351|38:348,1,99.9999999999999,6|2,3:2|3:2,2:0:0:0:
5,316,18906,1,8,2:0:0:0:
5,316,19064,6,0,B|1:237|63:254|58:182,1,150,14|8,2:0|2:0,2:0:0:0:
22,139,19695,1,0,3:2:0:0:
89,52,20011,2,0,L|159:59,2,50,0|0|0,3:2|3:2|3:2,2:0:0:0:
45,17,20485,1,2,3:2:0:0:
45,17,21748,6,0,P|99:33|159:41,1,99.9999999999999,0|8,3:2|2:0,2:0:0:0:
238,94,22380,2,0,P|265:85|303:81,1,50,0|0,3:2|3:2,2:0:0:0:
338,112,22695,1,8,2:0:0:0:
338,112,22853,2,0,L|319:234,1,99.9999999999999,4|8,3:2|3:2,2:0:0:0:
285,252,23327,1,8,3:2:0:0:
285,252,23485,1,8,3:2:0:0:
26,350,24274,6,0,P|74:336|129:338,1,99.9999999999999,4|10,3:2|2:0,2:0:0:0:
207,264,24906,2,0,P|199:243|192:213,1,50,2|2,3:2|3:2,2:0:0:0:
149,181,25222,2,0,P|164:136|179:76,1,99.9999999999999,10|0,2:0|3:2,2:0:0:0:
267,21,25853,1,10,2:0:0:0:
267,21,26011,2,0,P|307:59|369:56,1,99.9999999999999,2|2,3:2|3:2,2:0:0:0:
395,30,26485,1,10,2:0:0:0:
486,91,26801,5,0,3:2:0:0:
402,161,27116,1,10,2:0:0:0:
484,234,27432,2,0,L|496:297,1,50,2|2,3:2|3:2,2:0:0:0:
464,330,27748,2,0,P|413:337|356:353,1,99.9999999999999,10|0,2:0|3:2,2:0:0:0:
276,295,28380,1,10,2:0:0:0:
276,295,28538,2,0,P|289:242|300:171,1,99.9999999999999,2|2,3:2|3:2,2:0:0:0:
273,147,29011,1,10,2:0:0:0:
345,64,29327,5,0,3:2:0:0:
256,8,29643,1,10,2:0:0:0:
256,8,29801,2,0,P|205:25|141:36,1,99.9999999999999,2|2,2:0|3:2,2:0:0:0:
54,0,30432,1,2,2:0:0:0:
12,102,30748,1,2,2:0:0:0:
116,135,31064,2,0,P|133:199|139:248,1,99.9999999999999,2|0,3:2|3:2,2:0:0:0:
113,282,31538,1,8,2:0:0:0:
202,345,31853,6,0,P|256:326|312:318,1,99.9999999999999,0|10,3:2|2:0,2:0:0:0:
345,289,32327,1,2,2:0:0:0:
345,289,32485,2,0,L|350:236,2,50,2|2|10,3:2|3:2|2:0,2:0:0:0:
439,345,33116,2,0,L|453:227,1,99.9999999999999,0|8,3:2|2:0,2:0:0:0:
491,208,33590,1,2,3:2:0:0:
491,208,33748,2,0,P|473:156|419:147,1,99.9999999999999,2|10,2:0|2:0,2:0:0:0:
332,187,34380,5,4,3:2:0:0:
253,110,34695,2,0,L|188:120,1,50,10|2,2:0|2:0,2:0:0:0:
167,159,35011,2,0,L|102:150,2,50,2|0|10,3:2|3:2|2:0,2:0:0:0:
197,204,35485,1,6,3:2:0:0:
140,298,35801,2,0,P|107:301|67:311,1,50,2|8,2:0|2:0,2:0:0:0:
46,337,36116,2,0,P|42:291|26:231,1,99.9999999999999,2|0,3:2|3:2,2:0:0:0:
2,190,36590,1,8,2:0:0:0:
97,134,36906,6,0,P|109:79|127:21,1,99.9999999999999,6|10,3:2|2:0,2:0:0:0:
167,6,37380,1,2,2:0:0:0:
259,65,37695,2,0,L|271:127,1,50,2|10,3:2|2:0,2:0:0:0:
315,144,38011,2,0,L|289:265,1,99.9999999999999,6|0,3:2|2:0,2:0:0:0:
250,275,38485,1,8,2:0:0:0:
178,191,38801,2,0,L|115:182,1,50,10|2,2:0|3:2,2:0:0:0:
97,138,39116,2,0,L|34:129,1,50,10|2,2:0|2:0,2:0:0:0:
1,161,39432,5,6,3:2:0:0:
44,267,39748,1,10,2:0:0:0:
44,267,39906,2,0,P|98:275|150:294,1,99.9999999999999,2|2,2:0|3:2,2:0:0:0:
178,337,40380,1,8,2:0:0:0:
178,337,40538,2,0,P|225:321|274:314,1,99.9999999999999,6|2,3:2|2:0,2:0:0:0:
339,224,41169,2,0,P|323:174|264:165,1,99.9999999999999,2|2,3:2|3:2,2:0:0:0:
230,181,41643,1,8,2:0:0:0:
152,103,41959,5,6,3:2:0:0:
229,24,42274,2,0,L|287:32,1,50,8|8,2:0|2:0,2:0:0:0:
314,72,42590,2,0,L|363:65,2,50,6|0|8,3:2|3:2|2:0,2:0:0:0:
284,118,43064,1,6,3:2:0:0:
379,183,43380,1,8,2:0:0:0:
379,183,43538,2,0,L|367:255,1,50,8|0,2:0|3:2,2:0:0:0:
324,261,43853,2,0,L|332:331,1,50,8|0,2:0|3:2,2:0:0:0:
371,346,44169,1,8,2:0:0:0:
462,285,44485,6,0,L|518:280,2,50,10|10|10,3:2|3:2|3:2,2:0:0:0:
371,346,45116,1,2,3:2:0:0:
371,346,45274,2,0,L|301:338,1,50,2|8,3:2|2:0,2:0:0:0:
275,309,45590,1,6,3:2:0:0:
354,233,45906,2,0,L|363:178,1,50,2|8,3:2|2:0,2:0:0:0:
406,150,46222,2,0,P|399:102|337:83,1,99.9999999999999,2|2,3:2|3:2,2:0:0:0:
308,101,46695,1,8,2:0:0:0:
308,101,46853,6,0,P|253:87|198:79,1,99.9999999999999,2|2,2:0|2:0,2:0:0:0:
131,3,47485,2,0,P|81:11|33:23,1,99.9999999999999,2|2,2:0|3:2,2:0:0:0:
4,72,47959,1,8,2:0:0:0:
4,72,48116,2,0,P|25:125|38:174,1,99.9999999999999,2|0,3:2|3:2,2:0:0:0:
87,200,48590,1,14,2:0:0:0:
87,200,48748,1,2,2:0:0:0:
177,137,49064,2,0,L|185:72,2,50,2|14|2,3:2|2:0|2:0,2:0:0:0:
214,177,49538,5,0,3:2:0:0:
168,276,49853,1,10,2:0:0:0:
263,341,50169,1,2,3:2:0:0:
263,341,50327,2,0,L|330:332,1,50,2|8,3:2|2:0,2:0:0:0:
360,362,50643,2,0,P|409:359|433:293,1,99.9999999999999,2|2,3:2|3:2,2:0:0:0:
499,230,51274,2,0,P|484:182|475:124,1,99.9999999999999,2|2,3:2|3:2,2:0:0:0:
503,84,51748,1,8,2:0:0:0:
415,16,52064,6,0,P|370:40|308:40,1,99.9999999999999,2|10,3:2|2:0,2:0:0:0:
268,26,52538,2,0,P|285:89|294:143,1,99.9999999999999,2|2,2:0|3:2,2:0:0:0:
269,175,53011,1,8,2:0:0:0:
269,175,53169,1,6,3:2:0:0:
185,113,53485,1,2,3:2:0:0:
185,113,53643,2,0,L|129:120,1,50,8|8,2:0|2:0,2:0:0:0:
103,164,53959,2,0,L|48:156,1,50,10|0,2:0|3:2,2:0:0:0:
7,127,54274,1,10,2:0:0:0:
75,40,54590,6,0,L|129:31,2,50,8|8|8,3:2|3:2|3:2,2:0:0:0:
7,127,55222,1,2,3:2:0:0:
7,127,55380,2,0,L|16:187,1,50,2|8,3:2|2:0,2:0:0:0:
56,211,55695,1,6,3:2:0:0:
160,175,56011,2,0,L|170:111,1,50,2|8,3:2|2:0,2:0:0:0:
206,86,56327,2,0,P|251:87|279:142,1,99.9999999999999,2|2,3:2|3:2,2:0:0:0:
328,165,56801,1,8,2:0:0:0:
328,165,56959,6,0,P|310:220|300:279,1,99.9999999999999,2|2,2:0|2:0,2:0:0:0:
230,344,57590,2,0,P|181:327|127:319,1,99.9999999999999,2|2,2:0|3:2,2:0:0:0:
85,342,58064,1,8,2:0:0:0:
85,342,58222,2,0,P|80:293|61:227,1,99.9999999999999,2|0,3:2|3:2,2:0:0:0:
27,214,58695,1,14,2:0:0:0:
27,214,58853,1,2,2:0:0:0:
103,135,59169,2,0,L|176:141,2,50,2|14|2,3:2|2:0|2:0,2:0:0:0:
68,91,59643,5,0,3:2:0:0:
151,18,59959,1,10,2:0:0:0:
249,77,60274,1,2,3:2:0:0:
249,77,60432,2,0,L|314:70,1,50,2|8,3:2|2:0,2:0:0:0:
343,104,60748,2,0,P|342:164|303:197,1,99.9999999999999,6|2,3:2|3:2,2:0:0:0:
225,254,61380,2,0,P|228:307|273:348,1,99.9999999999999,6|2,3:2|3:2,2:0:0:0:
311,368,61853,1,8,2:0:0:0:
311,368,62011,6,0,P|368:355|424:346,1,99.9999999999999,14|0,2:0|2:0,2:0:0:0:
450,311,62485,1,8,2:0:0:0:
450,311,62643,1,0,3:2:0:0:
385,228,62959,1,0,3:2:0:0:
385,228,63116,2,0,L|394:178,1,50,0|0,3:2|3:2,2:0:0:0:
441,150,63432,2,0,B|452:100|452:100|426:50,2,99.9999999999999,10|10|10,3:2|3:2|3:2,2:0:0:0:
343,201,64380,1,12,3:2:0:0:
265,122,64695,6,0,L|275:64,2,50,10|10|10,3:2|3:2|3:2,2:0:0:0:
188,201,65327,1,2,3:2:0:0:
188,201,65485,2,0,L|198:277,1,50,2|0,3:2|2:0,2:0:0:0:
233,289,65801,1,6,3:2:0:0:
153,364,66116,2,0,L|81:354,1,50,2|8,3:2|2:0,2:0:0:0:
68,313,66432,2,0,L|-1:319,2,50,2|8|2,3:2|2:0|3:2,2:0:0:0:
105,272,66906,1,8,2:0:0:0:
105,272,67064,1,2,2:0:0:0:
23,198,67380,6,0,L|15:128,1,50,2|8,3:2|2:0,2:0:0:0:
45,100,67695,2,0,P|91:119|150:125,1,99.9999999999999,2|2,2:0|3:2,2:0:0:0:
191,158,68169,1,8,2:0:0:0:
191,158,68327,2,0,P|246:139|304:137,1,99.9999999999999,2|0,3:2|3:2,2:0:0:0:
340,166,68801,1,10,2:0:0:0:
340,166,68959,1,2,2:0:0:0:
413,84,69274,2,0,L|425:34,2,50,2|10|2,3:2|2:0|3:2,2:0:0:0:
460,113,69748,6,0,L|470:182,1,50,8|0,3:2|3:2,2:0:0:0:
433,206,70064,1,10,2:0:0:0:
509,292,70380,1,10,2:0:0:0:
509,292,70538,2,0,L|501:347,1,50,2|8,3:2|2:0,2:0:0:0:
459,376,70853,2,0,P|408:360|354:351,1,99.9999999999999,2|2,3:2|3:2,2:0:0:0:
325,318,71327,1,8,2:0:0:0:
325,318,71485,2,0,P|267:333|225:333,1,99.9999999999999,2|2,2:0|3:2,2:0:0:0:
178,306,71959,1,8,2:0:0:0:
246,220,72274,6,0,P|264:177|253:114,1,99.9999999999999,10|10,3:2|2:0,2:0:0:0:
229,77,72748,2,0,P|176:93|113:90,1,99.9999999999999,2|2,2:0|3:2,2:0:0:0:
92,63,73222,1,8,2:0:0:0:
92,63,73380,1,2,3:2:0:0:
19,145,73695,1,2,3:2:0:0:
19,145,73853,2,0,L|29:206,1,50,8|2,2:0|2:0,2:0:0:0:
72,225,74169,2,0,L|62:286,1,50,10|0,2:0|3:2,2:0:0:0:
26,314,74485,1,10,2:0:0:0:
118,373,74801,6,0,L|190:361,2,50,10|10|10,3:2|3:2|3:2,2:0:0:0:
26,314,75432,1,2,3:2:0:0:
26,314,75590,2,0,L|38:249,1,50,2|0,3:2|2:0,2:0:0:0:
72,225,75906,1,6,3:2:0:0:
173,267,76222,2,0,L|239:275,1,50,2|8,3:2|2:0,2:0:0:0:
268,242,76538,2,0,L|258:189,2,50,2|8|2,3:2|2:0|3:2,2:0:0:0:
315,280,77011,1,8,2:0:0:0:
315,280,77169,1,2,2:0:0:0:
378,189,77485,6,0,L|389:128,1,50,2|8,3:2|2:0,2:0:0:0:
428,103,77801,2,0,P|410:52|360:40,1,99.9999999999999,2|2,2:0|3:2,2:0:0:0:
323,65,78274,1,8,2:0:0:0:
323,65,78432,2,0,P|264:53|205:48,1,99.9999999999999,2|0,3:2|3:2,2:0:0:0:
178,77,78906,1,10,2:0:0:0:
178,77,79064,1,2,2:0:0:0:
217,179,79380,2,0,L|283:172,2,50,2|10|2,3:2|2:0|3:2,2:0:0:0:
177,217,79853,6,0,L|122:208,1,50,8|0,3:2|3:2,2:0:0:0:
86,172,80169,1,10,2:0:0:0:
4,244,80485,1,10,2:0:0:0:
4,244,80643,2,0,L|11:295,1,50,2|8,3:2|2:0,2:0:0:0:
47,335,80959,1,6,3:2:0:0:
150,297,81274,2,0,L|215:305,1,50,2|8,3:2|2:0,2:0:0:0:
244,335,81590,2,0,P|289:320|299:265,1,99.9999999999999,6|2,2:0|3:2,2:0:0:0:
273,232,82064,1,8,2:0:0:0:
273,232,82222,6,0,B|259:169|259:169|265:143|265:143|251:86,1,150,6|8,3:2|2:0,2:0:0:0:
205,54,82853,1,0,3:2:0:0:
121,125,83169,2,0,L|55:132,2,50,0|8|0,3:2|3:2|3:2,2:0:0:0:
160,164,83643,1,14,3:2:0:0:
160,164,84906,5,0,3:2:0:0:
260,119,85222,1,8,2:0:0:0:
317,213,85538,2,0,L|309:270,1,50,0|0,3:2|3:2,2:0:0:0:
342,313,85853,1,8,2:0:0:0:
342,313,86011,2,0,P|317:357|263:362,1,99.9999999999999,4|0,3:2|3:2,2:0:0:0:
224,334,86485,1,8,2:0:0:0:
154,248,86801,2,0,L|146:167,1,50,0|8,2:0|2:0,2:0:0:0:
186,157,87116,2,0,L|194:76,1,50,8|8,2:0|2:0,2:0:0:0:
164,58,87432,5,4,3:2:0:0:
256,192,87511,12,8,88695,3:2:0:0:
