osu file format v14

[General]
AudioFilename: audio.ogg
AudioLeadIn: 0
PreviewTime: 64537
Countdown: 0
SampleSet: Soft
StackLeniency: 0.7
Mode: 0
LetterboxInBreaks: 0
WidescreenStoryboard: 1

[Editor]
Bookmarks: 64695
DistanceSpacing: 0.4
BeatDivisor: 4
GridSize: 4
TimelineZoom: 3.350002

[Metadata]
Title:Maji Bomber!! (TV Size)
TitleUnicode:本気ボンバー!! (TV Size)
Artist:Berryz Kobo
ArtistUnicode:Berryz工房
Creator:Aurorance
Version:Mocaotic's Insane!
Source:イナズマイレブン
Tags:kennethbbg mocaotic pop jpop j-pop rock jrock j-rock japanese fifth ending ed 5 football anime world cup koubou 清水佐紀 Shimizu Saki 嗣永桃子 Tsugunaga Momoko 徳永千奈美 Tokunaga Chinami 須藤茉麻 Sudo Maasa 夏焼雅 Natsuyaki Miyabi 熊井友理奈 Kumai Yurina 菅谷梨沙子 Sugaya Risako 世界への挑戦!! Inazuma Eleven 3 Sekai e no Chousen!! Bomber video game
BeatmapID:3888276
BeatmapSetID:1886832

[Difficulty]
HPDrainRate:5
CircleSize:4
OverallDifficulty:8
ApproachRate:9
SliderMultiplier:1.74
SliderTickRate:1

[Events]
//Background and Video events
0,0,"938999.jpg",0,0
//Break Periods
//Storyboard Layer 0 (Background)
//Storyboard Layer 1 (Fail)
//Storyboard Layer 2 (Pass)
//Storyboard Layer 3 (Foreground)
//Storyboard Layer 4 (Overlay)
//Storyboard Sound Samples

[TimingPoints]
1538,315.789473684211,4,2,1,70,1,0
2327,-133.333333333333,4,2,1,70,0,0
2643,-100,4,2,1,70,0,0
3274,-111.111111111111,4,2,1,70,0,0
10222,-90.9090909090909,4,2,1,70,0,0
11327,-111.111111111111,4,2,1,70,0,0
12432,-133.333333333333,4,2,1,70,0,0
12748,-100,4,2,1,70,0,0
13380,-111.111111111111,4,2,1,70,0,0
22853,-111.111111111111,4,2,1,60,0,0
24274,-111.111111111111,4,2,1,40,0,0
29801,-133.333333333333,4,2,1,40,0,0
34064,-111.111111111111,4,2,1,40,0,0
34379,-111.111111111111,4,2,1,50,0,0
35011,-133.333333333333,4,2,1,50,0,0
39432,-111.111111111111,4,2,1,50,0,0
39906,-133.333333333333,4,2,1,50,0,0
40538,-111.111111111111,4,2,1,50,0,0
41959,-111.111111111111,4,2,1,60,0,0
43064,-125,4,2,1,60,0,0
44485,-125,4,2,1,70,0,0
45274,-133.333333333333,4,2,1,70,0,0
45590,-100,4,2,1,70,0,0
46222,-111.111111111111,4,2,1,70,0,0
53169,-90.9090909090909,4,2,1,70,0,0
55380,-133.333333333333,4,2,1,70,0,0
55695,-100,4,2,1,70,0,0
56327,-111.111111111111,4,2,1,70,0,0
65485,-125,4,2,1,70,0,0
65801,-86.9565217391304,4,2,1,80,0,1
66432,-95.2380952380952,4,2,1,80,0,1
73380,-86.9565217391304,4,2,1,80,0,1
75590,-117.647058823529,4,2,1,80,0,1
75906,-86.9565217391304,4,2,1,80,0,1
76538,-95.2380952380952,4,2,1,80,0,1
83643,-95.2380952380952,4,2,1,80,0,0
84432,-111.111111111111,4,2,1,80,0,0

[Colours]
Combo1 : 255,128,0
Combo2 : 255,114,111
Combo3 : 39,252,82
Combo4 : 255,255,0

[HitObjects]
349,231,1538,5,10,3:2:0:0:
239,90,1695,1,10,3:2:0:0:
202,265,1853,1,10,3:2:0:0:
365,52,2169,5,2,3:2:0:0:
365,52,2327,2,0,P|354:93|348:129,1,65.2500000000002,2|8,3:2|2:0,2:0:0:0:
451,280,2643,6,0,P|406:214|312:222,1,174,6|2,3:2|3:2,2:0:0:0:
239,328,3116,1,8,2:0:0:0:
319,374,3274,2,0,P|377:354|407:348,1,78.3000000000001,2|0,3:2|2:0,2:0:0:0:
226,236,3590,2,0,P|168:256|138:262,1,78.3000000000001,2|8,3:2|2:0,2:0:0:0:
336,266,3906,6,0,P|317:191|308:130,1,117.45,2|0,2:0|2:0,2:0:0:0:
315,137,4222,1,2,2:0:0:0:
425,66,4380,1,8,2:0:0:0:
425,66,4538,2,0,P|441:113|445:157,1,78.3000000000001,2|0,2:0|3:2,2:0:0:0:
261,62,4853,2,0,P|308:46|352:42,1,78.3000000000001,2|8,3:2|2:0,2:0:0:0:
242,213,5169,6,0,B|166:168|151:237|83:186,1,156.6,2|0,3:2|3:2,2:0:0:0:
12,132,5643,1,14,2:0:0:0:
154,39,5801,2,0,P|142:84|138:118,1,78.3000000000001,2|0,2:0|3:2,2:0:0:0:
12,132,6116,5,2,3:2:0:0:
52,39,6274,1,14,2:0:0:0:
154,39,6432,2,0,P|142:84|138:118,1,78.3000000000001,2|0,2:0|3:2,2:0:0:0:
0,331,6906,6,0,P|54:289|130:302,1,117.45,10|0,2:0|2:0,2:0:0:0:
112,302,7222,1,2,3:2:0:0:
196,234,7380,2,0,P|210:194|196:153,1,78.3000000000001,2|8,3:2|2:0,2:0:0:0:
119,316,7695,6,0,P|204:334|282:357,1,156.6,2|2,3:2|3:2,2:0:0:0:
418,306,8169,1,8,2:0:0:0:
300,203,8327,2,0,P|313:240|323:278,1,78.3000000000001,2|0,3:2|2:0,2:0:0:0:
423,111,8643,2,0,P|403:49|396:13,1,78.3000000000001,2|8,3:2|2:0,2:0:0:0:
512,228,8959,5,8,2:0:0:0:
512,228,9038,1,8,2:0:0:0:
512,228,9116,2,0,P|457:209|387:192,1,117.45,2|0,3:2|2:0,2:0:0:0:
383,200,9432,1,10,2:0:0:0:
400,36,9590,6,0,P|409:74|423:111,1,78.3000000000001,2|0,2:0|3:2,2:0:0:0:
322,277,9906,2,0,P|312:239|300:203,1,78.3000000000001,2|8,3:2|2:0,2:0:0:0:
152,106,10222,6,0,P|220:84|287:58,1,143.55,6|0,3:2|2:0,2:0:0:0:
301,66,10538,2,0,P|316:101|322:121,2,47.85,2|0|8,3:2|2:0|2:0,2:0:0:0:
146,101,10853,1,8,2:0:0:0:
146,101,10932,1,8,2:0:0:0:
146,101,11011,2,0,P|130:57|118:0,1,95.7,10|0,2:0|3:2,2:0:0:0:
272,167,11327,6,0,P|265:196|262:228,3,39.15,10|8|0|0,2:0|2:0|3:2|3:2,2:0:0:0:
349,231,11643,5,8,3:2:0:0:
239,90,11801,1,8,3:2:0:0:
202,265,11959,1,8,3:2:0:0:
123,56,12274,5,2,3:2:0:0:
123,56,12432,2,0,P|137:96|145:130,1,65.2500000000002,2|8,3:2|2:0,2:0:0:0:
82,255,12748,6,0,P|175:255|205:184,1,174,6|2,3:2|3:2,2:0:0:0:
54,104,13222,1,8,2:0:0:0:
222,97,13380,2,0,P|189:103|139:118,1,78.3000000000001,2|0,3:2|2:0,2:0:0:0:
6,235,13695,2,0,P|38:241|88:256,1,78.3000000000001,2|8,3:2|2:0,2:0:0:0:
201,365,14011,6,0,P|187:291|165:204,1,156.6,2|2,2:0|2:0,2:0:0:0:
307,120,14485,1,8,2:0:0:0:
307,120,14643,2,0,P|274:125|224:139,1,78.3000000000001,2|0,2:0|3:2,2:0:0:0:
399,251,14959,2,0,P|393:218|379:168,1,78.3000000000001,2|8,3:2|2:0,2:0:0:0:
247,357,15274,6,0,B|335:379|314:298|420:353,1,156.6,2|0,3:2|3:2,2:0:0:0:
481,384,15748,1,14,2:0:0:0:
424,226,15906,2,0,P|384:238|339:243,1,78.3000000000001,2|0,2:0|3:2,2:0:0:0:
481,384,16222,5,2,3:2:0:0:
502,287,16380,1,14,2:0:0:0:
424,226,16538,2,0,P|384:238|339:243,1,78.3000000000001,2|0,2:0|3:2,2:0:0:0:
136,91,17011,6,0,P|160:28|245:29,1,156.6,10|2,2:0|3:2,2:0:0:0:
342,19,17485,2,0,P|324:86|321:123,1,78.3000000000001,2|8,3:2|2:0,2:0:0:0:
266,248,17801,6,0,P|249:182|222:102,1,117.45,6|0,3:2|2:0,2:0:0:0:
222,122,18116,1,2,3:2:0:0:
347,174,18274,1,8,2:0:0:0:
392,2,18432,6,0,P|408:67|435:147,1,117.45,6|0,3:2|2:0,2:0:0:0:
436,128,18748,1,2,3:2:0:0:
311,76,18906,1,8,2:0:0:0:
196,215,19064,6,0,B|281:233|255:155|352:184,1,156.6,14|0,2:0|2:0,2:0:0:0:
237,38,19538,1,8,2:0:0:0:
215,131,19695,1,0,3:2:0:0:
215,131,19774,1,8,2:0:0:0:
215,131,19853,1,8,2:0:0:0:
322,264,20011,5,0,3:2:0:0:
341,181,20169,1,0,3:2:0:0:
254,206,20327,1,0,3:2:0:0:
411,242,20485,1,2,3:2:0:0:
411,242,21274,6,0,P|436:228|470:221,2,39.15,0|0|12,3:2|2:0|2:0,2:0:0:0:
512,384,21748,6,0,P|446:357|332:332,1,156.6,0|8,3:2|2:0,2:0:0:0:
355,343,22380,1,0,3:2:0:0:
272,368,22538,1,0,3:2:0:0:
216,302,22695,1,8,2:0:0:0:
336,141,22853,6,0,P|306:227|297:264,1,117.45,4|0,3:2|2:0,2:0:0:0:
301,271,23169,1,8,3:2:0:0:
392,248,23327,1,8,3:2:0:0:
227,335,23485,6,0,P|168:321|152:205,1,156.6,8|0,3:2|3:2,2:0:0:0:
310,211,23959,2,0,B|265:213|243:178|243:178|254:231|209:258,1,156.6,8|4,2:0|3:2,2:0:0:0:
27,384,24590,5,10,2:0:0:0:
0,315,24748,1,2,2:0:0:0:
27,384,24906,1,2,3:2:0:0:
0,315,25064,1,2,3:2:0:0:
27,384,25222,1,10,2:0:0:0:
0,315,25380,1,2,2:0:0:0:
93,318,25853,5,10,2:0:0:0:
66,249,26011,1,2,3:2:0:0:
93,318,26169,1,2,2:0:0:0:
66,249,26327,1,2,3:2:0:0:
93,318,26485,1,10,2:0:0:0:
66,249,26643,1,2,2:0:0:0:
227,145,27116,5,10,2:0:0:0:
190,253,27274,1,2,2:0:0:0:
227,145,27432,1,2,3:2:0:0:
190,253,27590,1,2,3:2:0:0:
227,145,27748,1,10,2:0:0:0:
190,253,27906,1,2,2:0:0:0:
345,133,28380,5,10,2:0:0:0:
308,242,28538,1,2,3:2:0:0:
345,133,28695,1,2,2:0:0:0:
308,242,28853,1,2,3:2:0:0:
345,133,29011,1,10,2:0:0:0:
308,242,29169,1,2,2:0:0:0:
486,384,29643,5,10,2:0:0:0:
486,384,29801,2,0,P|455:367|419:357,1,65.2500000000002,2|0,2:0|3:2,2:0:0:0:
334,358,30116,2,0,P|351:327|361:291,1,65.2500000000002,2|8,3:2|2:0,2:0:0:0:
360,206,30432,2,0,P|391:223|427:233,1,65.2500000000002,2|0,2:0|3:2,2:0:0:0:
512,232,30748,2,0,P|495:263|485:299,1,65.2500000000002,2|8,2:0|2:0,2:0:0:0:
423,150,31064,6,0,P|449:89|474:10,1,130.5,2|0,3:2|3:2,2:0:0:0:
344,121,31538,2,0,P|364:59|390:0,1,130.5,8|0,2:0|3:2,2:0:0:0:
507,183,32169,5,10,2:0:0:0:
417,159,32327,1,2,2:0:0:0:
366,237,32485,1,2,3:2:0:0:
425,308,32643,1,2,3:2:0:0:
511,275,32801,1,10,2:0:0:0:
443,233,32959,5,2,2:0:0:0:
341,319,33116,2,0,P|274:303|193:292,1,130.5,0|8,3:2|2:0,2:0:0:0:
205,299,33748,5,2,2:0:0:0:
353,235,33906,1,0,3:2:0:0:
234,112,34064,2,0,P|169:144|181:239,1,156.6,10|4,2:0|3:2,2:0:0:0:
41,353,34695,5,10,2:0:0:0:
121,322,34853,1,2,2:0:0:0:
36,356,35011,2,0,P|18:299|7:274,1,65.2500000000002,2|0,3:2|3:2,2:0:0:0:
105,145,35327,1,10,2:0:0:0:
209,253,35485,6,0,B|149:217|134:265|74:222,1,130.5,6|2,3:2|2:0,2:0:0:0:
214,156,35959,1,8,2:0:0:0:
4,151,36116,2,0,P|76:133|133:115,1,130.5,2|0,3:2|3:2,2:0:0:0:
195,9,36590,1,8,2:0:0:0:
195,9,36906,6,0,P|213:81|231:138,1,130.5,6|10,3:2|2:0,2:0:0:0:
377,143,37380,2,0,P|338:158|308:169,1,65.2500000000002,2|0,2:0|3:2,2:0:0:0:
315,166,37695,1,2,3:2:0:0:
407,222,37853,1,10,2:0:0:0:
507,104,38011,6,0,P|454:53|391:74,1,130.5,6|0,3:2|2:0,2:0:0:0:
295,24,38485,2,0,P|313:65|321:99,1,65.2500000000002,8|0,2:0|3:2,2:0:0:0:
319,107,38722,1,8,2:0:0:0:
319,107,38801,5,10,2:0:0:0:
435,137,38959,1,2,3:2:0:0:
319,107,39116,1,10,2:0:0:0:
435,137,39274,1,2,2:0:0:0:
415,312,39432,6,0,P|394:249|362:167,1,117.45,6|0,3:2|2:0,2:0:0:0:
361,188,39748,1,10,2:0:0:0:
273,342,39906,2,0,P|305:348|339:356,1,65.2500000000002,2|0,2:0|3:2,2:0:0:0:
239,196,40222,2,0,P|233:228|225:262,1,65.2500000000002,2|8,3:2|2:0,2:0:0:0:
40,384,40538,6,0,B|131:395|93:322|201:340,1,156.6,6|2,3:2|2:0,2:0:0:0:
75,232,41011,1,8,2:0:0:0:
75,232,41169,2,0,P|44:276|52:314,1,78.3000000000001,2|0,3:2|2:0,2:0:0:0:
176,240,41485,1,2,3:2:0:0:
31,153,41643,1,8,2:0:0:0:
31,153,41959,6,0,P|114:133|172:106,1,117.45,6|0,3:2|2:0,2:0:0:0:
205,80,42274,1,8,2:0:0:0:
219,99,42353,1,8,2:0:0:0:
218,123,42432,1,8,2:0:0:0:
134,37,42590,5,6,3:2:0:0:
302,84,42748,1,0,3:2:0:0:
176,198,42906,1,8,2:0:0:0:
202,114,43064,2,0,P|235:20|250:-9,1,104.4,6|0,3:2|2:0,2:0:0:0:
255,0,43380,1,8,2:0:0:0:
41,124,43538,6,0,P|82:133|121:147,1,69.6,8|0,2:0|3:2,2:0:0:0:
232,277,43853,1,8,2:0:0:0:
155,314,44011,1,0,3:2:0:0:
242,197,44169,1,8,2:0:0:0:
268,205,44248,1,8,2:0:0:0:
294,213,44327,1,8,2:0:0:0:
321,222,44406,1,8,2:0:0:0:
349,231,44485,5,10,3:2:0:0:
239,90,44643,1,10,3:2:0:0:
202,265,44801,1,10,3:2:0:0:
375,88,45116,5,2,3:2:0:0:
375,88,45274,2,0,P|432:73|456:70,1,65.2500000000002,2|8,3:2|2:0,2:0:0:0:
386,234,45590,6,0,P|297:207|316:114,1,174,6|2,3:2|3:2,2:0:0:0:
431,135,46064,1,8,2:0:0:0:
498,198,46222,2,0,P|484:242|477:281,1,78.3000000000001,2|0,3:2|2:0,2:0:0:0:
362,75,46538,2,0,P|376:31|383:-8,1,78.3000000000001,2|8,3:2|2:0,2:0:0:0:
410,182,46853,6,0,P|333:156|286:146,1,117.45,2|0,2:0|2:0,2:0:0:0:
280,153,47169,1,2,2:0:0:0:
216,21,47327,1,8,2:0:0:0:
216,21,47485,2,0,P|204:76|189:114,1,78.3000000000001,2|0,2:0|3:2,2:0:0:0:
119,170,47801,2,0,P|174:182|212:197,1,78.3000000000001,2|8,3:2|2:0,2:0:0:0:
344,211,48116,6,0,B|247:201|298:277|174:275,1,156.6,2|0,3:2|3:2,2:0:0:0:
137,329,48590,1,14,2:0:0:0:
317,375,48748,2,0,P|324:332|338:291,1,78.3000000000001,2|0,2:0|3:2,2:0:0:0:
137,329,49064,5,2,3:2:0:0:
218,384,49222,1,14,2:0:0:0:
317,375,49380,2,0,P|324:332|338:291,1,78.3000000000001,2|0,2:0|3:2,2:0:0:0:
481,99,49853,6,0,P|506:177|515:230,1,117.45,10|0,2:0|2:0,2:0:0:0:
506,226,50169,1,2,3:2:0:0:
338,202,50327,2,0,P|377:190|415:184,1,78.3000000000001,2|8,3:2|2:0,2:0:0:0:
459,312,50643,6,0,P|387:325|298:351,1,156.6,2|2,3:2|3:2,2:0:0:0:
158,286,51116,1,8,2:0:0:0:
269,196,51274,2,0,P|255:251|248:296,1,78.3000000000001,2|0,3:2|2:0,2:0:0:0:
156,94,51590,2,0,P|170:39|177:-6,1,78.3000000000001,2|8,3:2|2:0,2:0:0:0:
63,210,51906,5,8,2:0:0:0:
63,210,51985,1,8,2:0:0:0:
63,210,52064,2,0,P|106:179|177:188,1,117.45,2|0,3:2|2:0,2:0:0:0:
182,193,52380,1,10,2:0:0:0:
173,17,52538,6,0,P|166:56|156:93,1,78.3000000000001,2|0,2:0|3:2,2:0:0:0:
251,272,52853,2,0,P|258:233|269:196,1,78.3000000000001,2|8,3:2|2:0,2:0:0:0:
442,135,53169,6,0,P|364:123|246:94,1,191.4,6|2,3:2|3:2,2:0:0:0:
93,156,53643,1,8,2:0:0:0:
162,73,53801,1,8,2:0:0:0:
162,73,53880,1,8,2:0:0:0:
162,73,53959,1,10,2:0:0:0:
261,187,54116,5,0,3:2:0:0:
195,258,54274,2,0,P|137:242|131:242,2,47.85,10|8|0,2:0|2:0|3:2,2:0:0:0:
349,231,54590,5,8,3:2:0:0:
239,90,54748,1,8,3:2:0:0:
202,265,54906,1,8,3:2:0:0:
110,59,55222,5,2,3:2:0:0:
110,59,55380,2,0,P|71:50|24:31,1,65.2500000000002,2|8,3:2|2:0,2:0:0:0:
145,186,55695,6,0,P|186:130|282:159,1,174,6|2,3:2|3:2,2:0:0:0:
351,268,56169,1,8,2:0:0:0:
270,313,56327,2,0,P|215:299|180:296,1,78.3000000000001,2|0,3:2|2:0,2:0:0:0:
368,179,56643,2,0,P|423:193|458:196,1,78.3000000000001,2|8,3:2|2:0,2:0:0:0:
300,67,56959,6,0,P|289:149|268:243,1,156.6,2|2,2:0|2:0,2:0:0:0:
330,321,57432,1,8,2:0:0:0:
330,321,57590,2,0,P|273:313|227:300,1,78.3000000000001,2|0,2:0|3:2,2:0:0:0:
150,374,57906,2,0,P|157:317|170:271,1,78.3000000000001,2|8,3:2|2:0,2:0:0:0:
46,229,58222,6,0,B|134:232|91:153|206:177,1,156.6,2|0,3:2|3:2,2:0:0:0:
242,101,58695,1,14,2:0:0:0:
68,66,58853,2,0,P|57:116|46:158,1,78.3000000000001,2|0,2:0|3:2,2:0:0:0:
242,101,59169,5,2,3:2:0:0:
164,38,59327,1,14,2:0:0:0:
68,66,59485,2,0,P|57:116|46:158,1,78.3000000000001,2|0,2:0|3:2,2:0:0:0:
199,347,59959,6,0,P|210:297|251:162,1,156.6,10|2,2:0|3:2,2:0:0:0:
56,243,60432,2,0,P|103:252|156:268,1,78.3000000000001,2|8,3:2|2:0,2:0:0:0:
283,99,60748,6,0,P|219:108|139:136,1,117.45,6|0,3:2|2:0,2:0:0:0:
152,120,61064,1,2,3:2:0:0:
235,212,61222,1,8,2:0:0:0:
81,332,61380,6,0,P|144:322|224:294,1,117.45,6|0,3:2|2:0,2:0:0:0:
212,311,61695,1,2,3:2:0:0:
129,219,61853,1,8,2:0:0:0:
195,93,62011,6,0,P|258:134|223:223,1,156.6,14|0,2:0|2:0,2:0:0:0:
162,320,62485,1,8,2:0:0:0:
162,320,62643,2,0,P|236:296|312:278,1,156.6,0|0,3:2|3:2,2:0:0:0:
461,380,63116,2,0,P|412:374|387:338,1,78.3000000000001,0|0,3:2|3:2,2:0:0:0:
496,165,63432,5,10,3:2:0:0:
452,299,63590,1,10,3:2:0:0:
317,255,63748,1,10,3:2:0:0:
361,121,63906,1,10,3:2:0:0:
512,244,64064,5,10,3:2:0:0:
256,188,64380,1,12,3:2:0:0:
349,231,64695,5,10,3:2:0:0:
239,90,64853,1,10,3:2:0:0:
202,265,65011,1,10,3:2:0:0:
256,188,65169,6,0,P|285:175|319:164,2,39.15,8|8|2,2:0|2:0|3:2,2:0:0:0:
128,323,65485,2,0,P|62:305|57:251,1,104.4,2|0,3:2|2:0,2:0:0:0:
0,206,65801,6,0,B|122:168|122:168|128:129|169:110,1,200.1,6|2,3:2|3:2,2:0:0:0:
287,141,66274,1,8,2:0:0:0:
245,277,66432,2,0,P|224:222|201:175,1,91.35,2|8,3:2|2:0,2:0:0:0:
328,0,66748,2,0,P|349:55|372:102,1,91.35,2|8,3:2|2:0,2:0:0:0:
512,201,67064,5,2,2:0:0:0:
512,201,67222,1,0,3:2:0:0:
392,177,67380,1,2,3:2:0:0:
392,177,67538,1,8,2:0:0:0:
369,297,67695,1,2,2:0:0:0:
369,297,67853,1,8,2:0:0:0:
488,319,68011,1,2,3:2:0:0:
488,319,68169,1,8,2:0:0:0:
313,222,68327,5,2,3:2:0:0:
313,222,68406,1,8,2:0:0:0:
313,222,68485,2,0,P|239:239|205:249,1,91.35,8|0,3:2|3:2,2:0:0:0:
131,206,68801,5,10,2:0:0:0:
223,343,68959,1,2,2:0:0:0:
223,343,69116,1,8,2:0:0:0:
131,206,69274,5,2,3:2:0:0:
126,311,69432,1,10,2:0:0:0:
223,343,69590,2,0,P|267:331|311:321,1,91.35,2|8,3:2|3:2,2:0:0:0:
469,253,69906,5,0,3:2:0:0:
469,253,69985,1,0,3:2:0:0:
469,253,70064,2,0,B|376:180|370:282|285:200,1,182.7,10|10,2:0|2:0,2:0:0:0:
391,54,70538,2,0,P|370:105|358:151,1,91.35,2|8,3:2|2:0,2:0:0:0:
188,234,70853,6,0,P|209:183|238:98,1,137.025,2|0,3:2|2:0,2:0:0:0:
232,84,71169,1,2,3:2:0:0:
31,136,71327,1,8,2:0:0:0:
31,136,71485,2,0,P|87:153|127:173,1,91.35,2|8,2:0|2:0,2:0:0:0:
204,335,71801,2,0,P|147:317|107:297,1,91.35,2|8,3:2|2:0,2:0:0:0:
217,130,72116,5,0,3:2:0:0:
217,130,72195,1,0,3:2:0:0:
217,130,72274,2,0,P|267:176|246:258,1,137.025,10|0,3:2|2:0,2:0:0:0:
249,255,72590,1,10,2:0:0:0:
118,303,72748,6,0,P|160:322|204:335,1,91.35,2|8,2:0|2:0,2:0:0:0:
116,167,73064,2,0,P|74:148|30:136,1,91.35,2|8,3:2|2:0,2:0:0:0:
199,16,73380,2,0,P|277:37|360:75,1,150.075,2|0,3:2|2:0,2:0:0:0:
355,80,73695,1,2,3:2:0:0:
489,23,73853,6,0,P|471:71|461:118,1,100.05,8|2,2:0|2:0,2:0:0:0:
232,274,74169,2,0,P|249:225|259:178,1,100.05,10|0,2:0|3:2,2:0:0:0:
355,135,74485,1,10,2:0:0:0:
349,231,74643,5,0,3:2:0:0:
349,231,74722,1,8,2:0:0:0:
349,231,74801,1,10,3:2:0:0:
239,90,74959,1,10,3:2:0:0:
202,265,75116,1,10,3:2:0:0:
401,47,75432,5,2,3:2:0:0:
401,47,75590,2,0,P|458:49|474:103,1,110.925,2|0,3:2|2:0,2:0:0:0:
512,162,75906,6,0,B|444:185|444:185|414:232|414:232|339:253,1,200.1,6|2,3:2|3:2,2:0:0:0:
234,301,76380,1,8,2:0:0:0:
287,113,76538,2,0,P|265:175|256:213,1,91.35,2|8,3:2|2:0,2:0:0:0:
103,361,76853,2,0,P|125:299|134:261,1,91.35,2|8,3:2|2:0,2:0:0:0:
25,185,77169,5,2,2:0:0:0:
25,185,77327,1,0,3:2:0:0:
144,163,77485,1,2,3:2:0:0:
144,163,77643,1,8,2:0:0:0:
121,43,77801,1,2,2:0:0:0:
121,43,77959,1,8,2:0:0:0:
1,67,78116,1,2,3:2:0:0:
1,67,78274,1,8,2:0:0:0:
211,94,78432,5,2,3:2:0:0:
211,94,78511,1,8,2:0:0:0:
211,94,78590,2,0,P|278:108|322:124,1,91.35,8|0,3:2|3:2,2:0:0:0:
390,182,78906,5,10,2:0:0:0:
341,32,79064,1,2,2:0:0:0:
341,32,79222,1,8,2:0:0:0:
390,182,79380,5,2,3:2:0:0:
424,88,79538,1,10,2:0:0:0:
341,32,79695,2,0,P|297:18|252:10,1,91.35,2|8,3:2|3:2,2:0:0:0:
383,263,80169,6,0,P|447:282|484:301,1,91.35,10|0,2:0|2:0,2:0:0:0:
367,170,80485,1,10,2:0:0:0:
512,124,80643,2,0,P|448:105|411:86,1,91.35,2|8,3:2|2:0,2:0:0:0:
239,0,80959,6,0,P|267:73|286:151,1,137.025,6|0,3:2|2:0,2:0:0:0:
275,144,81274,1,2,3:2:0:0:
380,92,81432,1,8,2:0:0:0:
512,292,81590,6,0,P|484:219|465:141,1,137.025,6|0,2:0|2:0,2:0:0:0:
476,148,81906,1,2,3:2:0:0:
371,200,82064,1,8,2:0:0:0:
228,45,82222,6,0,B|329:26|293:141|406:100,1,182.7,6|0,3:2|3:2,2:0:0:0:
276,215,82695,1,8,2:0:0:0:
244,131,82853,1,0,3:2:0:0:
244,131,82932,1,8,2:0:0:0:
244,131,83011,1,8,2:0:0:0:
131,269,83169,5,0,3:2:0:0:
162,355,83327,1,8,3:2:0:0:
222,282,83485,1,0,3:2:0:0:
69,342,83643,1,14,3:2:0:0:
69,342,84432,6,0,P|50:357|7:364,2,39.15,2|0|12,3:2|3:2|2:0,2:0:0:0:
36,232,84906,6,0,P|107:245|184:270,1,117.45,0|0,3:2|2:0,2:0:0:0:
165,254,85222,2,0,P|189:226|181:183,1,78.3000000000001,8|0,2:0|2:0,2:0:0:0:
83,45,85538,1,0,3:2:0:0:
156,106,85695,1,0,3:2:0:0:
351,80,85853,5,8,2:0:0:0:
276,0,86011,2,0,P|252:80|242:127,1,117.45,4|0,3:2|2:0,2:0:0:0:
250,128,86327,1,0,3:2:0:0:
427,171,86485,2,0,P|441:121|450:87,1,78.3000000000001,8|0,2:0|3:2,2:0:0:0:
279,202,86801,6,0,P|316:212|354:222,1,78.3000000000001,0|8,2:0|2:0,2:0:0:0:
354,222,87038,1,8,2:0:0:0:
354,222,87116,1,8,2:0:0:0:
354,222,87195,1,8,2:0:0:0:
354,222,87274,1,8,2:0:0:0:
234,128,87432,5,4,3:2:0:0:
256,192,87511,12,8,88695,3:2:0:0:
