osu file format v14

[General]
AudioFilename: audio.mp3
AudioLeadIn: 0
PreviewTime: -1
Countdown: 0
SampleSet: None
StackLeniency: 0.7
Mode: 0
LetterboxInBreaks: 0
WidescreenStoryboard: 0

[Editor]
Bookmarks: 115754
DistanceSpacing: 0.5
BeatDivisor: 6
GridSize: 8
TimelineZoom: 1.5

[Metadata]
Title:God Jammit
TitleUnicode:God Jammit
Artist:Berried Alive
ArtistUnicode:Berried Alive
Creator:Critality
Version:
Source:
Tags:
BeatmapID:1768338
BeatmapSetID:845418

[Difficulty]
HPDrainRate:7
CircleSize:4
OverallDifficulty:9
ApproachRate:10
SliderMultiplier:1.5
SliderTickRate:1

[Events]
//Background and Video events
0,0,"a2392407765_10.png",0,0
//Break Periods
2,67934,70107
2,182303,183065
2,206794,217654
2,284657,301654
//Storyboard Layer 0 (Background)
//Storyboard Layer 1 (Fail)
//Storyboard Layer 2 (Pass)
//Storyboard Layer 3 (Foreground)
//Storyboard Sound Samples

[TimingPoints]
-30,705.882352941176,4,1,0,51,1,0
21852,352.941176470588,4,1,0,51,1,0
21852,-25,4,1,0,51,0,0
22557,352.941176470588,4,1,0,51,1,0
45146,235.294117647059,3,1,0,51,1,0
67734,352.941176470588,4,1,0,51,1,0
93145,530.973451327434,4,1,0,51,1,0
97398,705.882352941176,4,1,0,51,1,0
98816,352.941176470588,3,1,0,51,1,0
103051,352.941176470588,4,1,0,51,1,0
104462,352.941176470588,3,1,0,51,1,0
108697,352.941176470588,4,1,0,51,1,0
110108,352.941176470588,3,1,0,51,1,0
114343,352.941176470588,4,1,0,51,1,0
115754,352.941176470588,3,1,0,51,1,0
119989,352.941176470588,4,1,0,51,1,0
121400,352.941176470588,3,1,0,51,1,0
125635,352.941176470588,4,1,0,51,1,0
127046,352.941176470588,3,1,0,51,1,0
131281,352.941176470588,4,1,0,51,1,0
132692,352.941176470588,3,1,0,51,1,0
136927,352.941176470588,4,1,0,51,1,0
203984,375,4,1,0,51,1,0
204359,387.096774193548,4,1,0,51,1,0
204746,413.793103448276,4,1,0,51,1,0
205159,448.293103448277,4,1,0,51,1,0
205607,487.293103448277,4,1,0,51,1,0
206094,667.293103448277,4,1,0,51,1,0
206810,235.294117647059,3,1,0,51,1,0
218104,-133.333333333333,3,1,0,51,0,0
240692,-100,3,1,0,51,0,0
290810,470.588235294118,3,1,0,51,1,0
302104,-250,3,1,0,10,0,0

[HitObjects]
70,201,11264,5,0,0:0:0:0:
168,113,11969,2,0,L|220:202,1,75
344,271,12675,2,0,L|292:182,1,75
327,49,13381,2,0,L|379:138,1,75
409,229,14087,2,0,L|282:318,1,150
76,316,15146,1,0,0:0:0:0:
52,328,15499,5,0,0:0:0:0:
183,250,15734,1,0,0:0:0:0:
185,90,15969,1,0,0:0:0:0:
55,21,16205,1,0,0:0:0:0:
185,90,16440,1,0,0:0:0:0:
183,250,16675,1,0,0:0:0:0:
52,328,16910,5,0,0:0:0:0:
125,165,17146,1,0,0:0:0:0:
152,143,17264,1,0,0:0:0:0:
179,121,17381,1,0,0:0:0:0:
196,354,17617,1,0,0:0:0:0:
244,189,17852,1,0,0:0:0:0:
265,161,17969,1,0,0:0:0:0:
286,133,18087,1,0,0:0:0:0:
384,351,18322,1,0,0:0:0:0:
363,182,18558,1,0,0:0:0:0:
371,148,18675,1,0,0:0:0:0:
379,114,18793,1,0,0:0:0:0:
286,133,19028,5,0,0:0:0:0:
265,161,19087,1,0,0:0:0:0:
244,189,19146,1,0,0:0:0:0:
179,121,19264,1,0,0:0:0:0:
152,143,19322,1,0,0:0:0:0:
125,165,19381,1,0,0:0:0:0:
50,345,19733,5,0,0:0:0:0:
149,202,19969,1,0,0:0:0:0:
141,236,20086,1,0,0:0:0:0:
133,270,20204,1,0,0:0:0:0:
125,165,20440,1,0,0:0:0:0:
152,143,20499,1,0,0:0:0:0:
179,121,20558,1,0,0:0:0:0:
244,189,20675,1,0,0:0:0:0:
265,161,20734,1,0,0:0:0:0:
286,133,20793,1,0,0:0:0:0:
363,182,20911,1,0,0:0:0:0:
371,148,20969,1,0,0:0:0:0:
379,114,21028,1,0,0:0:0:0:
468,344,21146,5,0,0:0:0:0:
387,165,21381,1,0,0:0:0:0:
360,143,21440,1,0,0:0:0:0:
333,121,21499,1,0,0:0:0:0:
268,189,21616,1,0,0:0:0:0:
247,161,21675,1,0,0:0:0:0:
226,133,21734,1,0,0:0:0:0:
85,216,21852,6,0,B|81:208|81:208|85:216|85:216|84:206|84:206|85:216|85:216|86:210|86:210|90:226|90:226|97:204|67:183|67:183|125:152|124:116|124:116|154:137|211:107|211:107|212:143|234:150|234:150|223:137|223:137|229:139|229:139|221:134|221:134|229:139|229:139|225:132|225:132|229:139|229:139,2,400
476,292,22557,5,0,0:0:0:0:
373,88,22674,1,0,0:0:0:0:
305,250,22792,2,0,P|274:303|249:323,1,50
46,258,23027,2,0,P|103:232|112:230,1,50
404,331,23262,5,0,0:0:0:0:
405,49,23380,1,0,0:0:0:0:
279,262,23498,2,0,P|304:265|339:262,1,50
496,146,23733,2,0,P|438:132|408:139,1,50
270,338,23968,6,0,P|242:317|224:300,1,50
236,23,24204,2,0,P|245:54|247:90,1,50
87,303,24439,2,0,P|102:278|125:267,1,50
402,231,24674,1,0,0:0:0:0:
1,98,24792,5,0,0:0:0:0:
210,17,24909,1,0,0:0:0:0:
20,268,25027,2,0,P|82:260|94:256,1,50
204,119,25262,1,0,0:0:0:0:
20,6,25380,2,0,P|20:41|25:58,1,50
347,129,25615,6,0,P|305:112|284:111,1,50
162,319,25851,2,0,P|203:323|221:324,1,50
448,135,26086,2,0,P|401:111|378:106,1,50
353,316,26321,1,0,0:0:0:0:
300,53,26439,5,0,0:0:0:0:
232,322,26556,2,0,P|213:284|210:259,1,50
160,22,26792,1,0,0:0:0:0:
136,312,26909,1,0,0:0:0:0:
82,27,27027,2,0,P|78:64|76:81,1,50
370,323,27262,5,0,0:0:0:0:
270,52,27380,1,0,0:0:0:0:
41,258,27498,2,0,P|72:253|94:243,1,50
179,26,27733,2,0,P|160:86|160:105,1,50
109,334,27968,2,0,L|135:314,1,25
311,156,28086,2,0,L|289:178,1,25
5,306,28204,5,0,0:0:0:0:
253,317,28321,1,0,0:0:0:0:
10,132,28439,2,0,P|53:111|83:106,1,50
342,28,28674,2,0,P|318:79|300:96,1,50
69,282,28909,5,0,0:0:0:0:
346,318,29027,1,0,0:0:0:0:
303,32,29145,2,0,P|266:72|255:106,1,50
236,232,29380,1,0,0:0:0:0:
90,122,29498,1,0,0:0:0:0:
67,92,29556,1,0,0:0:0:0:
53,57,29615,5,0,0:0:0:0:
226,309,29733,1,0,0:0:0:0:
384,213,29851,1,0,0:0:0:0:
82,345,29968,1,0,0:0:0:0:
0,119,30086,1,0,0:0:0:0:
92,259,30204,1,0,0:0:0:0:
373,125,30321,1,0,0:0:0:0:
284,325,30439,1,0,0:0:0:0:
122,47,30556,6,0,P|160:41|186:45,1,50
301,303,30792,1,0,0:0:0:0:
128,218,30909,1,0,0:0:0:0:
298,65,31027,2,0,P|323:88|340:126,1,50
135,319,31262,2,0,P|149:288|173:259,1,50
388,259,31498,2,0,P|326:275|304:277,1,50
81,188,31733,2,0,P|116:194|145:209,1,50
192,331,31968,1,0,0:0:0:0:
283,113,32086,5,0,0:0:0:0:
338,301,32204,2,0,P|283:288|267:277,1,50
123,163,32439,1,0,0:0:0:0:
303,174,32556,1,0,0:0:0:0:
135,29,32674,2,0,P|110:56|102:74,1,50
61,208,32909,1,0,0:0:0:0:
149,328,33027,1,0,0:0:0:0:
176,311,33086,1,0,0:0:0:0:
201,290,33145,1,0,0:0:0:0:
374,138,33262,1,0,0:0:0:0:
427,332,33380,1,0,0:0:0:0:
155,125,33498,1,0,0:0:0:0:
200,331,33615,2,0,P|203:315|210:302,1,25
321,149,33733,2,0,P|321:158|314:175,1,25
36,292,33851,5,0,0:0:0:0:
139,88,33968,1,0,0:0:0:0:
207,250,34086,2,0,P|238:303|263:323,1,50
466,258,34321,2,0,P|409:232|400:230,1,50
108,331,34556,5,0,0:0:0:0:
107,49,34674,1,0,0:0:0:0:
233,262,34792,2,0,P|208:265|173:262,1,50
16,146,35027,2,0,P|74:132|104:139,1,50
242,338,35262,6,0,P|270:317|288:300,1,50
276,23,35498,2,0,P|267:54|265:90,1,50
425,303,35733,2,0,P|410:278|387:267,1,50
110,231,35968,1,0,0:0:0:0:
511,98,36086,5,0,0:0:0:0:
302,17,36203,1,0,0:0:0:0:
492,268,36321,2,0,P|430:260|418:256,1,50
308,119,36556,1,0,0:0:0:0:
492,6,36674,2,0,P|492:41|487:58,1,50
165,129,36909,6,0,P|207:112|228:111,1,50
350,319,37145,2,0,P|309:323|291:324,1,50
64,135,37380,2,0,P|111:111|134:106,1,50
159,316,37615,1,0,0:0:0:0:
212,53,37733,5,0,0:0:0:0:
280,322,37850,2,0,P|299:284|302:259,1,50
352,22,38086,1,0,0:0:0:0:
376,312,38203,1,0,0:0:0:0:
430,27,38321,2,0,P|434:64|436:81,1,50
142,323,38556,5,0,0:0:0:0:
242,52,38674,1,0,0:0:0:0:
471,258,38792,2,0,P|440:253|418:243,1,50
333,26,39027,2,0,P|352:86|352:105,1,50
403,334,39262,2,0,L|377:314,1,25
201,156,39380,2,0,L|223:178,1,25
507,306,39498,5,0,0:0:0:0:
259,317,39615,1,0,0:0:0:0:
502,132,39733,2,0,P|459:111|429:106,1,50
170,28,39968,2,0,P|194:79|212:96,1,50
443,282,40203,5,0,0:0:0:0:
166,318,40321,1,0,0:0:0:0:
209,32,40439,2,0,P|246:72|257:106,1,50
276,232,40674,1,0,0:0:0:0:
422,122,40792,1,0,0:0:0:0:
445,92,40850,1,0,0:0:0:0:
459,57,40909,5,0,0:0:0:0:
307,331,41027,1,0,0:0:0:0:
206,213,41145,1,0,0:0:0:0:
428,303,41262,1,0,0:0:0:0:
416,124,41380,1,0,0:0:0:0:
333,332,41498,1,0,0:0:0:0:
149,187,41615,1,0,0:0:0:0:
333,203,41733,1,0,0:0:0:0:
390,47,41850,6,0,P|352:41|326:45,1,50
143,285,42086,1,0,0:0:0:0:
313,217,42204,1,0,0:0:0:0:
298,65,42321,2,0,P|323:88|340:126,1,50
135,319,42556,2,0,P|149:288|173:259,1,50
388,259,42792,2,0,P|326:275|304:277,1,50
81,188,43027,2,0,P|116:194|145:209,1,50
192,331,43262,1,0,0:0:0:0:
283,113,43380,5,0,0:0:0:0:
338,301,43498,2,0,P|283:288|267:277,1,50
123,163,43733,1,0,0:0:0:0:
303,174,43850,1,0,0:0:0:0:
135,29,43968,2,0,P|110:56|102:74,1,50
61,208,44203,5,0,0:0:0:0:
75,237,44262,1,0,0:0:0:0:
96,261,44321,2,0,P|112:263|135:279,1,25
188,346,44439,5,0,0:0:0:0:
210,322,44498,1,0,0:0:0:0:
221,291,44556,1,0,0:0:0:0:
245,270,44615,1,0,0:0:0:0:
275,259,44674,2,0,P|296:255|303:251,1,25
442,131,44792,5,0,0:0:0:0:
391,164,44851,1,0,0:0:0:0:
333,178,44909,1,0,0:0:0:0:
274,165,44968,1,0,0:0:0:0:
225,129,45027,1,0,0:0:0:0:
195,76,45086,1,0,0:0:0:0:
195,17,45146,5,0,0:0:0:0:
150,43,45204,1,0,0:0:0:0:
104,70,45263,1,0,0:0:0:0:
165,245,45381,1,0,0:0:0:0:
189,198,45440,1,0,0:0:0:0:
209,150,45498,1,0,0:0:0:0:
342,45,45616,1,0,0:0:0:0:
351,96,45675,1,0,0:0:0:0:
361,147,45734,1,0,0:0:0:0:
299,327,45851,1,0,0:0:0:0:
40,314,45969,1,0,0:0:0:0:
102,82,46087,1,0,0:0:0:0:
310,64,46322,5,0,0:0:0:0:
325,114,46381,1,0,0:0:0:0:
342,163,46440,1,0,0:0:0:0:
205,317,46557,1,0,0:0:0:0:
190,266,46616,1,0,0:0:0:0:
172,216,46675,1,0,0:0:0:0:
402,326,47029,1,0,0:0:0:0:
372,330,47087,1,0,0:0:0:0:
341,329,47146,1,0,0:0:0:0:
134,256,47264,1,0,0:0:0:0:
260,135,47498,1,0,0:0:0:0:
289,127,47557,1,0,0:0:0:0:
318,120,47616,1,0,0:0:0:0:
347,114,47675,1,0,0:0:0:0:
369,108,47734,1,0,0:0:0:0:
492,36,47851,2,0,P|476:55|474:68,1,37.5
393,337,47969,1,0,0:0:0:0:
252,135,48204,1,0,0:0:0:0:
223,127,48263,1,0,0:0:0:0:
194,120,48322,1,0,0:0:0:0:
165,114,48381,1,0,0:0:0:0:
143,108,48440,1,0,0:0:0:0:
20,36,48557,2,0,P|36:55|38:68,1,37.5
119,337,48675,1,0,0:0:0:0:
260,135,48910,1,0,0:0:0:0:
289,127,48969,1,0,0:0:0:0:
318,120,49028,1,0,0:0:0:0:
347,114,49087,1,0,0:0:0:0:
369,108,49146,1,0,0:0:0:0:
492,36,49263,2,0,P|476:55|474:68,1,37.5
393,337,49381,6,0,P|349:277|67:251,1,375
17,349,50087,6,0,L|73:342,1,37.5
393,304,50204,2,0,L|371:269,1,37.5
252,87,50322,2,0,L|263:129,1,37.5
211,305,50440,2,0,L|249:280,1,37.5
452,163,50557,2,0,L|422:123,1,37.5
342,20,50675,2,0,L|341:75,1,37.5
351,228,50793,6,0,P|289:242|214:227,1,112.5
100,81,51087,2,0,P|153:96|189:156,1,112.5
239,286,51342,2,0,L|241:208,1,50
237,48,51498,6,0,P|261:99|309:129,1,112.5
472,63,51734,2,0,P|422:74|365:112,1,112.5
304,300,51969,1,0,0:0:0:0:
278,253,52028,1,0,0:0:0:0:
236,219,52087,1,0,0:0:0:0:
185,203,52146,1,0,0:0:0:0:
133,207,52204,5,0,0:0:0:0:
45,355,52322,1,0,0:0:0:0:
87,92,52440,1,0,0:0:0:0:
208,300,52675,1,0,0:0:0:0:
234,253,52734,1,0,0:0:0:0:
276,219,52793,1,0,0:0:0:0:
327,203,52852,1,0,0:0:0:0:
379,207,52910,5,0,0:0:0:0:
467,355,53028,1,0,0:0:0:0:
425,92,53146,1,0,0:0:0:0:
359,135,53440,1,0,0:0:0:0:
359,135,53498,1,0,0:0:0:0:
359,135,53557,1,0,0:0:0:0:
359,135,53616,5,0,0:0:0:0:
282,87,53675,1,0,0:0:0:0:
193,103,53734,1,0,0:0:0:0:
126,164,53793,1,0,0:0:0:0:
193,103,53851,1,0,0:0:0:0:
282,87,53910,1,0,0:0:0:0:
359,135,53969,2,0,L|384:196,2,37.5
420,359,54322,6,0,P|364:301|305:311,1,112.5
147,350,54557,1,0,0:0:0:0:
156,344,54616,1,0,0:0:0:0:
165,338,54675,1,0,0:0:0:0:
174,332,54734,1,0,0:0:0:0:
183,326,54793,1,0,0:0:0:0:
286,233,55028,5,0,0:0:0:0:
334,156,55087,1,0,0:0:0:0:
318,67,55146,1,0,0:0:0:0:
257,0,55205,1,0,0:0:0:0:
318,67,55263,1,0,0:0:0:0:
334,156,55322,1,0,0:0:0:0:
286,233,55381,2,0,L|222:258,2,37.5
7,297,55734,6,0,P|65:241|55:182,1,112.5
16,24,55969,1,0,0:0:0:0:
22,33,56028,1,0,0:0:0:0:
28,42,56087,1,0,0:0:0:0:
34,51,56146,1,0,0:0:0:0:
40,60,56205,1,0,0:0:0:0:
113,52,56263,1,0,0:0:0:0:
187,44,56322,1,0,0:0:0:0:
261,36,56381,1,0,0:0:0:0:
335,25,56440,5,0,0:0:0:0:
303,61,56498,1,0,0:0:0:0:
270,97,56557,1,0,0:0:0:0:
294,295,56675,1,0,0:0:0:0:
324,255,56734,1,0,0:0:0:0:
347,213,56792,1,0,0:0:0:0:
132,0,56910,1,0,0:0:0:0:
116,46,56969,1,0,0:0:0:0:
103,93,57028,1,0,0:0:0:0:
368,157,57145,1,0,0:0:0:0:
225,339,57263,1,0,0:0:0:0:
211,19,57381,1,0,0:0:0:0:
197,297,57616,5,0,0:0:0:0:
192,248,57675,1,0,0:0:0:0:
188,199,57734,1,0,0:0:0:0:
373,52,57851,1,0,0:0:0:0:
350,95,57910,1,0,0:0:0:0:
325,137,57969,1,0,0:0:0:0:
110,326,58323,1,0,0:0:0:0:
140,330,58381,1,0,0:0:0:0:
171,329,58440,1,0,0:0:0:0:
378,256,58558,1,0,0:0:0:0:
252,135,58792,1,0,0:0:0:0:
223,127,58851,1,0,0:0:0:0:
194,120,58910,1,0,0:0:0:0:
165,114,58969,1,0,0:0:0:0:
143,108,59028,1,0,0:0:0:0:
2,39,59145,2,0,P|18:58|41:68,1,37.5
369,108,59263,1,0,0:0:0:0:
260,135,59498,1,0,0:0:0:0:
289,127,59557,1,0,0:0:0:0:
318,120,59616,1,0,0:0:0:0:
347,114,59675,1,0,0:0:0:0:
369,108,59734,1,0,0:0:0:0:
510,39,59851,2,0,P|494:58|471:68,1,37.5
143,108,59969,1,0,0:0:0:0:
252,135,60204,1,0,0:0:0:0:
223,127,60263,1,0,0:0:0:0:
194,120,60322,1,0,0:0:0:0:
165,114,60381,1,0,0:0:0:0:
143,108,60440,1,0,0:0:0:0:
20,36,60557,2,0,P|36:55|38:68,1,37.5
172,370,60675,6,0,P|260:266|81:296,1,412.5
17,349,61381,6,0,L|61:298,1,37.5
178,134,61498,6,0,L|134:185,1,37.5
349,370,61616,6,0,L|316:311,1,37.5
202,145,61734,6,0,L|234:203,1,37.5
472,55,61851,6,0,L|405:65,1,37.5
210,116,61969,6,0,L|276:105,1,37.5
512,41,62087,6,0,P|450:55|375:40,1,112.5
119,37,62381,2,0,P|172:52|208:112,1,112.5
266,346,62636,2,0,L|268:268,1,50
367,70,62792,6,0,P|343:121|295:151,1,112.5
40,63,63028,2,0,P|90:74|147:112,1,112.5
208,300,63263,1,0,0:0:0:0:
234,253,63322,1,0,0:0:0:0:
276,219,63381,1,0,0:0:0:0:
327,203,63440,1,0,0:0:0:0:
379,207,63498,5,0,0:0:0:0:
467,355,63616,1,0,0:0:0:0:
425,92,63734,1,0,0:0:0:0:
304,300,63969,1,0,0:0:0:0:
278,253,64028,1,0,0:0:0:0:
236,219,64087,1,0,0:0:0:0:
185,203,64146,1,0,0:0:0:0:
133,207,64204,5,0,0:0:0:0:
45,355,64322,1,0,0:0:0:0:
87,92,64440,1,0,0:0:0:0:
153,135,64734,1,0,0:0:0:0:
153,135,64792,1,0,0:0:0:0:
153,135,64851,1,0,0:0:0:0:
153,135,64910,5,0,0:0:0:0:
230,87,64969,1,0,0:0:0:0:
319,103,65028,1,0,0:0:0:0:
386,164,65087,1,0,0:0:0:0:
319,103,65145,1,0,0:0:0:0:
230,87,65204,1,0,0:0:0:0:
153,135,65263,2,0,L|128:196,2,37.5
92,359,65616,6,0,P|148:301|207:311,1,112.5
365,350,65851,1,0,0:0:0:0:
356,344,65910,1,0,0:0:0:0:
347,338,65969,1,0,0:0:0:0:
338,332,66028,1,0,0:0:0:0:
329,326,66087,1,0,0:0:0:0:
226,233,66322,5,0,0:0:0:0:
178,156,66381,1,0,0:0:0:0:
194,67,66440,1,0,0:0:0:0:
255,0,66499,1,0,0:0:0:0:
194,67,66557,1,0,0:0:0:0:
178,156,66616,1,0,0:0:0:0:
226,233,66675,2,0,L|290:258,2,37.5
505,297,67028,6,0,P|447:241|457:182,1,112.5
496,24,67263,1,0,0:0:0:0:
490,33,67322,1,0,0:0:0:0:
484,42,67381,1,0,0:0:0:0:
478,51,67440,1,0,0:0:0:0:
472,60,67499,1,0,0:0:0:0:
399,52,67557,1,0,0:0:0:0:
325,44,67616,1,0,0:0:0:0:
251,36,67675,1,0,0:0:0:0:
177,28,67734,5,0,0:0:0:0:
35,203,70557,5,0,0:0:0:0:
72,288,70645,1,0,0:0:0:0:
159,323,70734,1,0,0:0:0:0:
246,290,70822,6,0,P|267:270|296:255,1,37.5
462,178,70998,2,0,P|436:177|413:169,1,37.5
243,79,71175,2,0,P|266:85|289:100,1,37.5
341,314,71351,1,0,0:0:0:0:
319,222,71439,6,0,P|307:195|299:184,1,37.5
4,45,71616,1,0,0:0:0:0:
16,137,71704,1,0,0:0:0:0:
92,191,71792,1,0,0:0:0:0:
180,158,71881,6,0,P|196:174|210:196,1,37.5
238,362,72057,1,0,0:0:0:0:
285,281,72145,6,0,P|307:271|330:267,1,37.5
485,322,72322,2,0,P|459:319|447:313,1,37.5
294,102,72498,1,0,0:0:0:0:
222,162,72586,6,0,P|217:180|213:198,1,37.5
190,366,72763,1,0,0:0:0:0:
42,198,72851,1,0,0:0:0:0:
23,106,72939,1,0,0:0:0:0:
62,20,73028,2,0,P|76:46|93:59,1,37.5
316,50,73204,1,0,0:0:0:0:
272,132,73292,6,0,P|234:149|211:148,1,37.5
59,249,73469,1,0,0:0:0:0:
140,296,73558,1,0,0:0:0:0:
223,257,73645,2,0,P|238:246|255:238,1,37.5
457,299,73822,1,0,0:0:0:0:
369,266,73910,1,0,0:0:0:0:
367,172,73998,2,0,P|388:162|406:143,1,37.5
238,27,74175,2,0,P|218:29|188:40,1,37.5
91,325,74351,2,0,P|111:313|126:297,1,37.5
121,103,74528,1,0,0:0:0:0:
111,195,74616,6,0,P|117:212|129:226,1,37.5
290,296,74792,1,0,0:0:0:0:
375,254,74881,1,0,0:0:0:0:
408,166,74969,1,0,0:0:0:0:
389,98,75057,6,0,P|377:82|364:69,1,37.5
96,242,75234,1,0,0:0:0:0:
175,195,75321,6,0,P|197:185|220:181,1,37.5
453,251,75498,2,0,P|427:248|415:242,1,37.5
214,358,75675,1,0,0:0:0:0:
121,347,75763,1,0,0:0:0:0:
60,274,75852,6,0,P|69:237|75:218,1,37.5
385,47,76028,1,0,0:0:0:0:
446,117,76116,1,0,0:0:0:0:
477,203,76204,5,0,0:0:0:0:
440,288,76292,1,0,0:0:0:0:
353,323,76381,1,0,0:0:0:0:
266,290,76469,6,0,P|245:270|216:255,1,37.5
50,178,76645,2,0,P|76:177|99:169,1,37.5
269,79,76822,2,0,P|246:85|223:100,1,37.5
171,314,76998,1,0,0:0:0:0:
193,222,77086,6,0,P|205:195|213:184,1,37.5
508,45,77263,1,0,0:0:0:0:
496,137,77351,1,0,0:0:0:0:
420,191,77439,1,0,0:0:0:0:
332,158,77528,6,0,P|316:174|302:196,1,37.5
274,362,77704,1,0,0:0:0:0:
227,281,77792,6,0,P|205:271|182:267,1,37.5
27,322,77969,2,0,P|53:319|65:313,1,37.5
218,102,78145,1,0,0:0:0:0:
290,162,78233,6,0,P|294:180|298:198,1,37.5
322,366,78410,1,0,0:0:0:0:
470,198,78498,1,0,0:0:0:0:
489,106,78586,1,0,0:0:0:0:
450,20,78675,2,0,P|436:46|418:59,1,37.5
196,50,78851,1,0,0:0:0:0:
240,132,78939,6,0,P|278:149|301:148,1,37.5
453,249,79116,1,0,0:0:0:0:
372,296,79205,1,0,0:0:0:0:
289,257,79292,2,0,P|273:246|256:238,1,37.5
55,299,79469,1,0,0:0:0:0:
143,266,79557,1,0,0:0:0:0:
145,172,79645,2,0,P|124:162|106:143,1,37.5
274,27,79822,2,0,P|294:29|324:40,1,37.5
421,325,79998,2,0,P|401:313|386:297,1,37.5
391,103,80175,1,0,0:0:0:0:
401,195,80263,6,0,P|394:212|382:226,1,37.5
222,296,80439,1,0,0:0:0:0:
137,254,80528,1,0,0:0:0:0:
104,166,80616,1,0,0:0:0:0:
123,98,80704,6,0,P|134:82|147:69,1,37.5
416,242,80881,1,0,0:0:0:0:
337,195,80968,6,0,P|315:185|292:181,1,37.5
298,358,81145,1,0,0:0:0:0:
391,347,81233,1,0,0:0:0:0:
452,274,81322,1,0,0:0:0:0:
137,302,81851,5,0,0:0:0:0:
100,177,81939,1,0,0:0:0:0:
60,329,82028,1,0,0:0:0:0:
168,175,82116,6,0,P|189:155|218:140,1,37.5
377,318,82292,2,0,P|351:317|328:309,1,37.5
280,65,82469,2,0,P|303:71|326:86,1,37.5
209,290,82645,1,0,0:0:0:0:
336,235,82733,6,0,P|324:208|316:197,1,37.5
4,45,82910,1,0,0:0:0:0:
108,241,82998,1,0,0:0:0:0:
77,96,83086,1,0,0:0:0:0:
2,219,83175,6,0,P|11:243|32:257,1,37.5
140,359,83351,1,0,0:0:0:0:
223,209,83439,6,0,P|245:199|268:195,1,37.5
459,341,83616,2,0,P|433:338|421:332,1,37.5
430,157,83792,1,0,0:0:0:0:
294,42,83880,6,0,P|289:60|285:78,1,37.5
190,366,84057,1,0,0:0:0:0:
88,161,84145,1,0,0:0:0:0:
50,313,84233,1,0,0:0:0:0:
188,126,84322,2,0,P|202:152|219:165,1,37.5
356,272,84498,1,0,0:0:0:0:
407,136,84586,6,0,P|369:153|346:152,1,37.5
112,223,84763,1,0,0:0:0:0:
48,157,84852,1,0,0:0:0:0:
14,341,84939,2,0,P|29:330|46:322,1,37.5
463,219,85116,1,0,0:0:0:0:
349,343,85204,1,0,0:0:0:0:
367,172,85292,2,0,P|388:162|406:143,1,37.5
238,27,85469,2,0,P|218:29|188:40,1,37.5
91,325,85645,2,0,P|111:313|126:297,1,37.5
243,208,85822,1,0,0:0:0:0:
140,124,85910,6,0,P|146:141|158:155,1,37.5
402,326,86086,1,0,0:0:0:0:
317,182,86175,1,0,0:0:0:0:
300,314,86263,1,0,0:0:0:0:
428,170,86351,6,0,P|416:154|403:141,1,37.5
213,332,86528,1,0,0:0:0:0:
175,195,86615,6,0,P|197:185|220:181,1,37.5
453,251,86792,2,0,P|427:248|415:242,1,37.5
79,384,86969,1,0,0:0:0:0:
178,220,87057,1,0,0:0:0:0:
0,267,87146,6,0,P|9:230|15:211,1,37.5
385,47,87322,1,0,0:0:0:0:
446,117,87410,1,0,0:0:0:0:
477,203,87498,5,0,0:0:0:0:
440,288,87586,1,0,0:0:0:0:
353,323,87675,1,0,0:0:0:0:
266,290,87763,6,0,P|245:270|216:255,1,37.5
50,178,87939,2,0,P|76:177|99:169,1,37.5
269,79,88116,2,0,P|246:85|223:100,1,37.5
224,331,88292,1,0,0:0:0:0:
193,222,88380,6,0,P|205:195|213:184,1,37.5
508,45,88557,1,0,0:0:0:0:
486,207,88645,1,0,0:0:0:0:
404,124,88733,1,0,0:0:0:0:
340,202,88822,6,0,P|324:218|310:240,1,37.5
274,362,88998,1,0,0:0:0:0:
194,230,89086,6,0,P|172:220|149:216,1,37.5
27,322,89263,2,0,P|53:319|65:313,1,37.5
167,106,89439,1,0,0:0:0:0:
290,162,89527,6,0,P|294:180|298:198,1,37.5
322,366,89704,1,0,0:0:0:0:
470,198,89792,1,0,0:0:0:0:
382,128,89880,1,0,0:0:0:0:
450,20,89969,2,0,P|436:46|418:59,1,37.5
191,23,90145,1,0,0:0:0:0:
240,132,90233,6,0,P|278:149|301:148,1,37.5
453,249,90410,1,0,0:0:0:0:
363,337,90499,1,0,0:0:0:0:
289,257,90586,2,0,P|273:246|256:238,1,37.5
55,299,90763,1,0,0:0:0:0:
173,275,90851,1,0,0:0:0:0:
145,172,90939,2,0,P|124:162|106:143,1,37.5
274,27,91116,2,0,P|294:29|324:40,1,37.5
421,325,91292,2,0,P|401:313|386:297,1,37.5
294,89,91469,1,0,0:0:0:0:
401,195,91557,6,0,P|394:212|382:226,1,37.5
213,303,91733,1,0,0:0:0:0:
202,185,91822,1,0,0:0:0:0:
83,208,91910,1,0,0:0:0:0:
123,98,91998,6,0,P|134:82|147:69,1,37.5
423,300,92175,1,0,0:0:0:0:
337,195,92262,6,0,P|315:185|292:181,1,37.5
59,251,92439,2,0,P|85:248|97:242,1,37.5
298,358,92616,1,0,0:0:0:0:
345,270,92704,5,0,0:0:0:0:
452,274,92793,6,0,P|443:237|437:218,1,37.5
304,59,92969,1,0,0:0:0:0:
260,220,93057,1,0,0:0:0:0:
124,78,93145,5,0,0:0:0:0:
124,78,93233,1,0,0:0:0:0:
124,78,93321,1,0,0:0:0:0:
164,200,93675,1,0,0:0:0:0:
271,157,93941,1,0,0:0:0:0:
328,133,94206,1,0,0:0:0:0:
328,133,94295,1,0,0:0:0:0:
328,133,94383,1,0,0:0:0:0:
405,209,94737,1,0,0:0:0:0:
244,270,95003,1,0,0:0:0:0:
208,196,95268,1,0,0:0:0:0:
208,196,95357,1,0,0:0:0:0:
208,196,95445,1,0,0:0:0:0:
205,191,95799,1,0,0:0:0:0:
211,189,96064,1,0,0:0:0:0:
294,168,96330,1,0,0:0:0:0:
294,168,96418,1,0,0:0:0:0:
294,168,96507,1,0,0:0:0:0:
194,75,96861,1,0,0:0:0:0:
133,96,97127,1,0,0:0:0:0:
434,170,97398,1,0,0:0:0:0:
434,170,97486,1,0,0:0:0:0:
434,170,97574,1,0,0:0:0:0:
237,310,97927,1,0,0:0:0:0:
221,157,98103,1,0,0:0:0:0:
221,157,98192,1,0,0:0:0:0:
221,157,98280,1,0,0:0:0:0:
336,117,98633,1,0,0:0:0:0:
25,278,98816,5,0,0:0:0:0:
25,278,98904,1,0,0:0:0:0:
25,278,98992,2,0,P|66:292|180:278,1,150
316,42,99521,1,0,0:0:0:0:
316,116,99609,1,0,0:0:0:0:
287,184,99697,1,0,0:0:0:0:
25,278,99874,5,0,0:0:0:0:
25,278,99962,1,0,0:0:0:0:
25,278,100051,2,0,P|66:292|180:278,1,150
316,42,100579,1,0,0:0:0:0:
316,116,100667,1,0,0:0:0:0:
287,184,100757,1,0,0:0:0:0:
25,278,100933,5,0,0:0:0:0:
25,278,101021,1,0,0:0:0:0:
25,278,101110,2,0,P|66:292|180:278,1,150
316,42,101638,1,0,0:0:0:0:
316,116,101726,1,0,0:0:0:0:
287,184,101816,1,0,0:0:0:0:
25,278,101992,5,0,0:0:0:0:
25,278,102080,1,0,0:0:0:0:
25,278,102168,2,0,P|66:292|180:278,1,150
316,42,102697,1,0,0:0:0:0:
316,116,102785,1,0,0:0:0:0:
287,184,102873,1,0,0:0:0:0:
25,278,103051,5,0,0:0:0:0:
25,278,103139,1,0,0:0:0:0:
25,278,103227,2,0,P|66:292|180:278,1,150
25,278,103757,5,0,0:0:0:0:
25,278,103845,1,0,0:0:0:0:
25,278,103933,2,0,P|66:292|180:278,1,150
482,278,104462,5,0,0:0:0:0:
482,278,104550,1,0,0:0:0:0:
482,278,104638,2,0,P|441:292|327:278,1,150
191,42,105167,1,0,0:0:0:0:
191,116,105255,1,0,0:0:0:0:
220,184,105343,1,0,0:0:0:0:
482,278,105520,5,0,0:0:0:0:
482,278,105608,1,0,0:0:0:0:
482,278,105697,2,0,P|441:292|327:278,1,150
191,42,106225,1,0,0:0:0:0:
191,116,106313,1,0,0:0:0:0:
220,184,106403,1,0,0:0:0:0:
482,278,106579,5,0,0:0:0:0:
482,278,106667,1,0,0:0:0:0:
482,278,106756,2,0,P|441:292|331:280,1,150
191,42,107284,1,0,0:0:0:0:
191,116,107372,1,0,0:0:0:0:
220,184,107462,1,0,0:0:0:0:
482,278,107638,5,0,0:0:0:0:
482,278,107726,1,0,0:0:0:0:
482,278,107814,2,0,P|441:292|327:278,1,150
191,42,108343,1,0,0:0:0:0:
191,116,108431,1,0,0:0:0:0:
220,184,108519,1,0,0:0:0:0:
482,278,108697,5,0,0:0:0:0:
482,278,108785,1,0,0:0:0:0:
482,278,108873,2,0,P|441:292|327:278,1,150
482,278,109403,5,0,0:0:0:0:
482,278,109491,1,0,0:0:0:0:
482,278,109579,2,0,P|441:292|327:278,1,150
25,106,110108,5,0,0:0:0:0:
25,106,110196,1,0,0:0:0:0:
25,106,110284,2,0,P|66:92|180:106,1,150
316,342,110813,1,0,0:0:0:0:
316,268,110901,1,0,0:0:0:0:
287,200,110989,1,0,0:0:0:0:
25,106,111166,5,0,0:0:0:0:
25,106,111254,1,0,0:0:0:0:
25,106,111342,2,0,P|66:92|180:106,1,150
316,342,111871,1,0,0:0:0:0:
316,268,111959,1,0,0:0:0:0:
287,200,112047,1,0,0:0:0:0:
25,106,112225,5,0,0:0:0:0:
25,106,112313,1,0,0:0:0:0:
25,106,112401,2,0,P|66:92|180:106,1,150
316,342,112930,1,0,0:0:0:0:
316,268,113018,1,0,0:0:0:0:
287,200,113106,1,0,0:0:0:0:
25,106,113284,5,0,0:0:0:0:
25,106,113372,1,0,0:0:0:0:
25,106,113460,2,0,P|66:92|180:106,1,150
316,342,113989,1,0,0:0:0:0:
316,268,114077,1,0,0:0:0:0:
287,200,114165,1,0,0:0:0:0:
25,106,114343,5,0,0:0:0:0:
25,106,114431,1,0,0:0:0:0:
25,106,114519,2,0,P|66:92|180:106,1,150
25,106,115049,5,0,0:0:0:0:
25,106,115137,1,0,0:0:0:0:
25,106,115225,2,0,P|66:92|180:106,1,150
487,106,115755,5,0,0:0:0:0:
487,106,115843,1,0,0:0:0:0:
487,106,115931,2,0,P|446:92|332:106,1,150
196,342,116460,1,0,0:0:0:0:
196,268,116548,1,0,0:0:0:0:
225,200,116636,1,0,0:0:0:0:
487,106,116813,5,0,0:0:0:0:
487,106,116901,1,0,0:0:0:0:
487,106,116989,2,0,P|446:92|332:106,1,150
196,342,117518,1,0,0:0:0:0:
196,268,117606,1,0,0:0:0:0:
225,200,117694,1,0,0:0:0:0:
487,106,117872,5,0,0:0:0:0:
487,106,117960,1,0,0:0:0:0:
487,106,118048,2,0,P|446:92|332:106,1,150
196,342,118577,1,0,0:0:0:0:
196,268,118665,1,0,0:0:0:0:
225,200,118753,1,0,0:0:0:0:
487,106,118931,5,0,0:0:0:0:
487,106,119019,1,0,0:0:0:0:
487,106,119107,2,0,P|446:92|332:106,1,150
196,342,119636,1,0,0:0:0:0:
196,268,119724,1,0,0:0:0:0:
225,200,119812,1,0,0:0:0:0:
487,106,119990,5,0,0:0:0:0:
487,106,120078,1,0,0:0:0:0:
487,106,120166,2,0,P|446:92|332:106,1,150
487,106,120696,5,0,0:0:0:0:
487,106,120784,1,0,0:0:0:0:
487,106,120872,2,0,P|446:92|332:106,1,150
25,278,121400,5,0,0:0:0:0:
25,278,121488,1,0,0:0:0:0:
25,278,121576,2,0,P|66:292|180:278,1,150
316,42,122105,1,0,0:0:0:0:
317,116,122193,1,0,0:0:0:0:
288,184,122281,1,0,0:0:0:0:
359,384,122458,5,0,0:0:0:0:
359,384,122546,1,0,0:0:0:0:
359,384,122634,2,0,P|373:343|359:229,1,150
123,93,123163,1,0,0:0:0:0:
197,92,123251,1,0,0:0:0:0:
265,121,123339,1,0,0:0:0:0:
487,106,123517,5,0,0:0:0:0:
487,106,123605,1,0,0:0:0:0:
487,106,123693,2,0,P|446:92|332:106,1,150
196,342,124222,1,0,0:0:0:0:
195,268,124310,1,0,0:0:0:0:
224,200,124398,1,0,0:0:0:0:
118,2,124576,5,0,0:0:0:0:
118,2,124664,1,0,0:0:0:0:
118,2,124752,2,0,P|104:43|118:157,1,150
354,293,125281,1,0,0:0:0:0:
280,294,125369,1,0,0:0:0:0:
212,265,125457,1,0,0:0:0:0:
25,278,125635,5,0,0:0:0:0:
25,278,125723,1,0,0:0:0:0:
25,278,125811,2,0,P|66:292|180:278,1,150
487,106,126341,5,0,0:0:0:0:
487,106,126429,1,0,0:0:0:0:
487,106,126517,2,0,P|446:92|332:106,1,150
487,278,127046,5,0,0:0:0:0:
487,278,127134,1,0,0:0:0:0:
487,278,127222,2,0,P|446:292|332:278,1,150
196,42,127751,1,0,0:0:0:0:
196,116,127839,1,0,0:0:0:0:
225,184,127927,1,0,0:0:0:0:
355,0,128104,5,0,0:0:0:0:
355,0,128192,1,0,0:0:0:0:
355,0,128280,2,0,P|369:41|355:155,1,150
119,291,128809,1,0,0:0:0:0:
193,291,128897,1,0,0:0:0:0:
261,262,128985,1,0,0:0:0:0:
25,106,129163,5,0,0:0:0:0:
25,106,129251,1,0,0:0:0:0:
25,106,129339,2,0,P|66:92|180:106,1,150
316,342,129868,1,0,0:0:0:0:
316,268,129956,1,0,0:0:0:0:
287,200,130044,1,0,0:0:0:0:
126,384,130222,5,0,0:0:0:0:
126,384,130310,1,0,0:0:0:0:
126,384,130398,2,0,P|112:343|126:229,1,150
362,93,130927,1,0,0:0:0:0:
288,93,131015,1,0,0:0:0:0:
220,122,131103,1,0,0:0:0:0:
487,278,131281,5,0,0:0:0:0:
487,278,131369,1,0,0:0:0:0:
487,278,131457,2,0,P|446:292|332:278,1,150
25,106,131987,5,0,0:0:0:0:
25,106,132075,1,0,0:0:0:0:
25,106,132163,2,0,P|66:92|180:106,1,150
25,278,132692,5,0,0:0:0:0:
25,278,132780,1,0,0:0:0:0:
25,278,132868,2,0,P|66:292|180:278,1,150
316,42,133397,1,0,0:0:0:0:
317,116,133485,1,0,0:0:0:0:
288,184,133573,1,0,0:0:0:0:
25,278,133750,5,0,0:0:0:0:
25,278,133838,1,0,0:0:0:0:
25,278,133926,2,0,P|66:292|180:278,1,150
316,42,134455,1,0,0:0:0:0:
317,116,134543,1,0,0:0:0:0:
288,184,134631,1,0,0:0:0:0:
25,278,134809,5,0,0:0:0:0:
25,278,134897,1,0,0:0:0:0:
25,278,134985,2,0,P|66:292|180:278,1,150
316,42,135514,1,0,0:0:0:0:
317,116,135602,1,0,0:0:0:0:
288,184,135690,1,0,0:0:0:0:
25,278,135868,5,0,0:0:0:0:
25,278,135956,1,0,0:0:0:0:
25,278,136044,2,0,P|66:292|180:278,1,150
316,42,136573,1,0,0:0:0:0:
317,116,136661,1,0,0:0:0:0:
288,184,136749,1,0,0:0:0:0:
25,278,136927,5,0,0:0:0:0:
303,256,137515,1,0,0:0:0:0:
286,101,137632,1,0,0:0:0:0:
178,271,137750,1,0,0:0:0:0:
388,145,137868,5,0,0:0:0:0:
139,133,137985,1,0,0:0:0:0:
386,308,138103,1,0,0:0:0:0:
255,53,138221,5,0,0:0:0:0:
152,321,138338,2,0,B|187:379|273:364|285:259|227:240|192:242|192:242|218:214|215:171|215:171|257:181|257:181|239:117|320:94|341:142,1,450
344,200,139515,2,0,P|408:250|300:285,1,250
152,180,140456,5,0,0:0:0:0:
210,114,140574,1,0,0:0:0:0:
239,221,140691,1,0,0:0:0:0:
359,84,140809,5,0,0:0:0:0:
229,275,140927,1,0,0:0:0:0:
216,74,141044,1,0,0:0:0:0:
96,272,141162,5,0,0:0:0:0:
168,45,141279,1,0,0:0:0:0:
226,268,141397,1,0,0:0:0:0:
68,91,141515,1,0,0:0:0:0:
281,197,141632,1,0,0:0:0:0:
67,208,141750,1,0,0:0:0:0:
178,120,141868,1,0,0:0:0:0:
166,317,141985,1,0,0:0:0:0:
96,139,142103,1,0,0:0:0:0:
374,325,142221,1,0,0:0:0:0:
169,274,142338,1,0,0:0:0:0:
395,143,142456,1,0,0:0:0:0:
267,300,142574,2,0,P|268:317|275:318,9,25
51,275,143279,1,0,0:0:0:0:
58,274,143338,1,0,0:0:0:0:
65,271,143397,1,0,0:0:0:0:
71,266,143456,1,0,0:0:0:0:
75,260,143515,1,0,0:0:0:0:
78,244,143574,2,0,P|87:209|90:200,1,25
150,158,143721,1,0,0:0:0:0:
173,251,143809,1,0,0:0:0:0:
239,186,143897,1,0,0:0:0:0:
262,97,143985,1,0,0:0:0:0:
241,0,144074,1,0,0:0:0:0:
287,24,144162,1,0,0:0:0:0:
309,71,144250,1,0,0:0:0:0:
343,216,144338,5,0,0:0:0:0:
291,201,144427,1,0,0:0:0:0:
255,162,144515,1,0,0:0:0:0:
244,110,144603,1,0,0:0:0:0:
252,58,144691,1,0,0:0:0:0:
333,78,144779,1,0,0:0:0:0:
381,145,144868,1,0,0:0:0:0:
248,102,144956,1,0,0:0:0:0:
147,23,145044,1,0,0:0:0:0:
171,69,145132,1,0,0:0:0:0:
170,121,145221,1,0,0:0:0:0:
94,119,145309,1,0,0:0:0:0:
30,44,145397,5,0,0:0:0:0:
2,128,145485,1,0,0:0:0:0:
12,230,145574,1,0,0:0:0:0:
75,313,145662,1,0,0:0:0:0:
158,332,145750,1,0,0:0:0:0:
235,294,145838,1,0,0:0:0:0:
295,231,145927,1,0,0:0:0:0:
322,149,146015,1,0,0:0:0:0:
363,224,146103,1,0,0:0:0:0:
404,148,146191,1,0,0:0:0:0:
382,64,146279,1,0,0:0:0:0:
307,19,146368,1,0,0:0:0:0:
221,10,146456,5,0,0:0:0:0:
267,82,146544,1,0,0:0:0:0:
282,166,146632,1,0,0:0:0:0:
264,251,146721,1,0,0:0:0:0:
224,326,146809,2,0,P|210:342|177:361,2,37.5
265,236,147074,2,0,P|296:177|375:321,1,337.5
265,236,148221,2,0,P|240:283|177:167,1,262.5
211,117,148927,2,0,P|227:66|112:86,1,225
120,329,149632,2,0,P|189:341|153:22,1,562.5
122,27,151044,6,0,P|109:75|145:175,1,150
138,167,151574,1,0,0:0:0:0:
300,279,151809,2,0,P|348:272|402:242,1,100
421,101,152221,1,0,0:0:0:0:
283,34,152456,6,0,P|243:31|129:71,1,150
229,318,153162,2,0,P|276:312|340:257,1,125
397,157,153632,1,0,0:0:0:0:
153,237,153868,5,0,0:0:0:0:
208,47,154103,2,0,P|241:72|268:145,1,100
180,289,154574,2,0,P|129:252|119:189,1,125
155,325,155279,1,0,0:0:0:0:
247,229,155397,1,0,0:0:0:0:
276,107,155515,1,0,0:0:0:0:
209,355,155632,5,0,0:0:0:0:
320,215,155750,1,0,0:0:0:0:
242,47,155868,1,0,0:0:0:0:
400,219,155985,5,0,0:0:0:0:
170,60,156103,1,0,0:0:0:0:
407,80,156221,5,0,0:0:0:0:
266,282,156338,1,0,0:0:0:0:
490,110,156456,1,0,0:0:0:0:
168,226,156574,1,0,0:0:0:0:
358,355,156691,5,0,0:0:0:0:
398,34,156809,1,0,0:0:0:0:
74,152,156927,1,0,0:0:0:0:
242,256,157044,1,0,0:0:0:0:
379,193,157162,5,0,0:0:0:0:
25,117,157279,1,0,0:0:0:0:
431,262,157397,1,0,0:0:0:0:
175,199,157515,5,0,0:0:0:0:
344,235,157632,1,0,0:0:0:0:
145,267,157750,1,0,0:0:0:0:
287,149,157868,1,0,0:0:0:0:
124,371,157985,1,0,0:0:0:0:
255,79,158103,1,0,0:0:0:0:
160,251,158221,5,0,0:0:0:0:
250,177,158338,1,0,0:0:0:0:
62,230,158456,1,0,0:0:0:0:
377,251,158574,1,0,0:0:0:0:
21,169,158691,1,0,0:0:0:0:
443,341,158809,1,0,0:0:0:0:
199,104,158927,1,0,0:0:0:0:
318,354,159044,1,0,0:0:0:0:
373,125,159162,1,0,0:0:0:0:
196,255,159279,1,0,0:0:0:0:
417,235,159397,1,0,0:0:0:0:
252,142,159515,5,0,0:0:0:0:
313,265,159632,1,0,0:0:0:0:
346,151,159750,1,0,0:0:0:0:
228,285,159868,1,0,0:0:0:0:
202,74,159985,1,0,0:0:0:0:
372,280,160103,1,0,0:0:0:0:
411,60,160221,5,0,0:0:0:0:
229,361,160338,1,0,0:0:0:0:
274,126,160456,1,0,0:0:0:0:
231,241,160574,1,0,0:0:0:0:
304,148,160691,1,0,0:0:0:0:
220,208,160809,1,0,0:0:0:0:
363,281,160927,6,0,B|356:305|379:346|379:346|304:336|304:336|289:294|289:294|187:268|187:268|187:395|51:380|86:294|114:233|114:233|147:139|147:139|184:192|275:176|275:83|275:83|297:35|354:30|397:68|396:130|364:172|300:149|300:149|273:218|273:218|381:252|435:164|435:164|466:85|419:24|419:24|364:-36|286:-14|286:-14|199:17|203:110,1,1800
69,248,165868,2,0,P|100:276|217:281,1,150
425,135,166574,6,0,P|382:95|285:296,1,412.5
315,319,167985,2,0,P|271:363|235:164,1,450
438,192,169397,6,0,P|420:247|202:310,1,300
136,168,170809,6,0,P|154:113|372:50,1,300
432,147,172221,5,0,0:0:0:0:
432,147,172574,1,0,0:0:0:0:
324,296,172926,5,0,0:0:0:0:
324,296,173279,1,0,0:0:0:0:
270,89,173632,5,0,0:0:0:0:
269,89,173985,1,0,0:0:0:0:
173,272,174338,5,0,0:0:0:0:
173,272,174691,1,0,0:0:0:0:
104,95,175044,5,0,0:0:0:0:
105,95,175397,1,0,0:0:0:0:
391,99,175750,5,0,0:0:0:0:
391,99,176103,1,0,0:0:0:0:
410,318,176456,5,0,0:0:0:0:
410,318,176809,1,0,0:0:0:0:
108,325,177162,5,0,0:0:0:0:
108,325,177515,1,0,0:0:0:0:
150,129,177868,5,0,0:0:0:0:
222,252,178044,1,0,0:0:0:0:
362,129,178221,5,0,0:0:0:0:
290,252,178397,1,0,0:0:0:0:
128,116,178574,5,0,0:0:0:0:
215,264,178750,1,0,0:0:0:0:
383,116,178927,5,0,0:0:0:0:
296,264,179103,1,0,0:0:0:0:
103,101,179279,5,0,0:0:0:0:
207,278,179455,1,0,0:0:0:0:
408,101,179632,5,0,0:0:0:0:
304,278,179808,1,0,0:0:0:0:
72,83,179985,5,0,0:0:0:0:
197,295,180161,1,0,0:0:0:0:
439,83,180338,5,0,0:0:0:0:
314,295,180514,1,0,0:0:0:0:
255,40,180691,5,0,0:0:0:0:
254,58,180779,1,0,0:0:0:0:
254,76,180868,1,0,0:0:0:0:
254,94,180956,1,0,0:0:0:0:
254,112,181044,1,0,0:0:0:0:
254,130,181132,1,0,0:0:0:0:
254,148,181221,1,0,0:0:0:0:
254,166,181309,1,0,0:0:0:0:
256,248,181397,5,0,0:0:0:0:
255,235,181456,1,0,0:0:0:0:
255,222,181515,1,0,0:0:0:0:
255,209,181574,1,0,0:0:0:0:
255,196,181632,1,0,0:0:0:0:
255,183,181691,1,0,0:0:0:0:
255,170,181750,1,0,0:0:0:0:
255,157,181809,1,0,0:0:0:0:
255,144,181868,1,0,0:0:0:0:
255,131,181926,1,0,0:0:0:0:
255,118,181985,1,0,0:0:0:0:
255,105,182044,1,0,0:0:0:0:
255,92,182103,1,0,0:0:0:0:
33,135,183515,5,0,0:0:0:0:
67,96,183603,1,0,0:0:0:0:
116,78,183691,1,0,0:0:0:0:
167,85,183779,1,0,0:0:0:0:
210,115,183868,5,0,0:0:0:0:
175,154,183956,1,0,0:0:0:0:
140,193,184044,1,0,0:0:0:0:
105,232,184132,1,0,0:0:0:0:
69,271,184221,5,0,0:0:0:0:
123,317,184309,1,0,0:0:0:0:
194,319,184397,1,0,0:0:0:0:
254,280,184485,1,0,0:0:0:0:
281,213,184574,1,0,0:0:0:0:
323,243,184662,1,0,0:0:0:0:
375,246,184750,1,0,0:0:0:0:
422,224,184838,1,0,0:0:0:0:
458,189,184926,5,0,0:0:0:0:
424,228,185014,1,0,0:0:0:0:
375,246,185102,1,0,0:0:0:0:
324,239,185190,1,0,0:0:0:0:
281,209,185279,5,0,0:0:0:0:
316,170,185367,1,0,0:0:0:0:
351,131,185455,1,0,0:0:0:0:
386,92,185543,1,0,0:0:0:0:
422,53,185632,5,0,0:0:0:0:
368,7,185720,1,0,0:0:0:0:
297,7,185808,1,0,0:0:0:0:
237,44,185896,1,0,0:0:0:0:
210,111,185985,1,0,0:0:0:0:
168,81,186073,1,0,0:0:0:0:
116,78,186161,1,0,0:0:0:0:
69,100,186249,1,0,0:0:0:0:
44,146,186338,5,0,0:0:0:0:
69,100,186426,1,0,0:0:0:0:
116,78,186514,1,0,0:0:0:0:
168,81,186602,1,0,0:0:0:0:
210,111,186690,5,0,0:0:0:0:
237,44,186779,1,0,0:0:0:0:
297,7,186867,1,0,0:0:0:0:
368,7,186955,1,0,0:0:0:0:
422,53,187043,5,0,0:0:0:0:
386,92,187132,1,0,0:0:0:0:
351,131,187220,1,0,0:0:0:0:
316,170,187308,1,0,0:0:0:0:
281,209,187396,1,0,0:0:0:0:
324,239,187485,1,0,0:0:0:0:
375,246,187573,1,0,0:0:0:0:
424,228,187661,1,0,0:0:0:0:
458,189,187749,5,0,0:0:0:0:
422,224,187837,1,0,0:0:0:0:
375,246,187925,1,0,0:0:0:0:
323,243,188013,1,0,0:0:0:0:
281,213,188101,5,0,0:0:0:0:
254,280,188190,1,0,0:0:0:0:
194,319,188278,1,0,0:0:0:0:
123,317,188366,1,0,0:0:0:0:
69,271,188454,5,0,0:0:0:0:
105,232,188543,1,0,0:0:0:0:
140,193,188631,1,0,0:0:0:0:
175,154,188719,1,0,0:0:0:0:
210,115,188807,1,0,0:0:0:0:
167,85,188896,1,0,0:0:0:0:
116,78,188984,1,0,0:0:0:0:
67,96,189072,1,0,0:0:0:0:
33,135,189162,5,0,0:0:0:0:
67,96,189250,1,0,0:0:0:0:
116,78,189338,1,0,0:0:0:0:
167,85,189426,1,0,0:0:0:0:
210,115,189515,5,0,0:0:0:0:
175,154,189603,1,0,0:0:0:0:
140,193,189691,1,0,0:0:0:0:
105,232,189779,1,0,0:0:0:0:
69,271,189868,5,0,0:0:0:0:
123,317,189956,1,0,0:0:0:0:
194,319,190044,1,0,0:0:0:0:
254,280,190132,1,0,0:0:0:0:
281,213,190221,1,0,0:0:0:0:
323,243,190309,1,0,0:0:0:0:
375,246,190397,1,0,0:0:0:0:
422,224,190485,1,0,0:0:0:0:
458,189,190573,5,0,0:0:0:0:
424,228,190661,1,0,0:0:0:0:
375,246,190749,1,0,0:0:0:0:
324,239,190837,1,0,0:0:0:0:
281,209,190926,5,0,0:0:0:0:
316,170,191014,1,0,0:0:0:0:
351,131,191102,1,0,0:0:0:0:
386,92,191190,1,0,0:0:0:0:
422,53,191279,5,0,0:0:0:0:
368,7,191367,1,0,0:0:0:0:
297,7,191455,1,0,0:0:0:0:
237,44,191543,1,0,0:0:0:0:
210,111,191632,1,0,0:0:0:0:
168,81,191720,1,0,0:0:0:0:
116,78,191808,1,0,0:0:0:0:
69,100,191896,1,0,0:0:0:0:
44,146,191985,5,0,0:0:0:0:
69,100,192073,1,0,0:0:0:0:
116,78,192161,1,0,0:0:0:0:
168,81,192249,1,0,0:0:0:0:
210,111,192337,5,0,0:0:0:0:
237,44,192426,1,0,0:0:0:0:
297,7,192514,1,0,0:0:0:0:
368,7,192602,1,0,0:0:0:0:
422,53,192690,5,0,0:0:0:0:
386,92,192779,1,0,0:0:0:0:
351,131,192867,1,0,0:0:0:0:
316,170,192955,1,0,0:0:0:0:
281,209,193043,1,0,0:0:0:0:
324,239,193132,1,0,0:0:0:0:
375,246,193220,1,0,0:0:0:0:
424,228,193308,1,0,0:0:0:0:
458,189,193396,5,0,0:0:0:0:
422,224,193484,1,0,0:0:0:0:
375,246,193572,1,0,0:0:0:0:
323,243,193660,1,0,0:0:0:0:
281,213,193748,5,0,0:0:0:0:
254,280,193837,1,0,0:0:0:0:
194,319,193925,1,0,0:0:0:0:
123,317,194013,1,0,0:0:0:0:
69,271,194101,5,0,0:0:0:0:
105,232,194190,1,0,0:0:0:0:
140,193,194278,1,0,0:0:0:0:
175,154,194366,1,0,0:0:0:0:
210,115,194454,1,0,0:0:0:0:
167,85,194543,1,0,0:0:0:0:
116,78,194631,1,0,0:0:0:0:
67,96,194719,1,0,0:0:0:0:
31,164,194809,5,0,0:0:0:0:
56,210,194897,1,0,0:0:0:0:
101,241,194985,1,0,0:0:0:0:
155,245,195073,1,0,0:0:0:0:
205,225,195162,5,0,0:0:0:0:
179,177,195250,1,0,0:0:0:0:
153,129,195338,1,0,0:0:0:0:
125,81,195426,1,0,0:0:0:0:
98,33,195515,5,0,0:0:0:0:
164,0,195603,1,0,0:0:0:0:
237,13,195691,1,0,0:0:0:0:
288,68,195779,1,0,0:0:0:0:
301,142,195868,1,0,0:0:0:0:
350,122,195956,1,0,0:0:0:0:
404,130,196044,1,0,0:0:0:0:
447,164,196132,1,0,0:0:0:0:
475,207,196220,5,0,0:0:0:0:
449,160,196308,1,0,0:0:0:0:
404,130,196396,1,0,0:0:0:0:
350,126,196484,1,0,0:0:0:0:
300,146,196573,5,0,0:0:0:0:
326,194,196661,1,0,0:0:0:0:
352,242,196749,1,0,0:0:0:0:
379,290,196837,1,0,0:0:0:0:
406,338,196926,5,0,0:0:0:0:
340,372,197014,1,0,0:0:0:0:
268,355,197102,1,0,0:0:0:0:
216,303,197190,1,0,0:0:0:0:
205,229,197279,1,0,0:0:0:0:
155,249,197367,1,0,0:0:0:0:
101,241,197455,1,0,0:0:0:0:
59,207,197543,1,0,0:0:0:0:
44,154,197632,5,0,0:0:0:0:
59,207,197720,1,0,0:0:0:0:
101,241,197808,1,0,0:0:0:0:
155,249,197896,1,0,0:0:0:0:
205,229,197984,5,0,0:0:0:0:
216,303,198073,1,0,0:0:0:0:
268,355,198161,1,0,0:0:0:0:
340,372,198249,1,0,0:0:0:0:
406,338,198337,5,0,0:0:0:0:
379,290,198426,1,0,0:0:0:0:
352,242,198514,1,0,0:0:0:0:
326,194,198602,1,0,0:0:0:0:
300,146,198690,1,0,0:0:0:0:
350,126,198779,1,0,0:0:0:0:
404,130,198867,1,0,0:0:0:0:
449,160,198955,1,0,0:0:0:0:
475,207,199043,5,0,0:0:0:0:
447,164,199131,1,0,0:0:0:0:
404,130,199219,1,0,0:0:0:0:
350,122,199307,1,0,0:0:0:0:
301,142,199395,5,0,0:0:0:0:
288,68,199484,1,0,0:0:0:0:
237,13,199572,1,0,0:0:0:0:
164,0,199660,1,0,0:0:0:0:
98,33,199748,5,0,0:0:0:0:
125,81,199837,1,0,0:0:0:0:
153,129,199925,1,0,0:0:0:0:
179,177,200013,1,0,0:0:0:0:
205,225,200101,1,0,0:0:0:0:
155,245,200190,1,0,0:0:0:0:
101,241,200278,1,0,0:0:0:0:
56,210,200366,1,0,0:0:0:0:
31,164,200456,5,0,0:0:0:0:
56,210,200544,1,0,0:0:0:0:
101,241,200632,1,0,0:0:0:0:
155,245,200720,1,0,0:0:0:0:
205,225,200809,5,0,0:0:0:0:
179,177,200897,1,0,0:0:0:0:
153,129,200985,1,0,0:0:0:0:
125,81,201073,1,0,0:0:0:0:
98,33,201162,5,0,0:0:0:0:
164,0,201250,1,0,0:0:0:0:
237,13,201338,1,0,0:0:0:0:
288,68,201426,1,0,0:0:0:0:
301,142,201515,1,0,0:0:0:0:
350,122,201603,1,0,0:0:0:0:
404,130,201691,1,0,0:0:0:0:
447,164,201779,1,0,0:0:0:0:
475,207,201867,5,0,0:0:0:0:
449,160,201955,1,0,0:0:0:0:
404,130,202043,1,0,0:0:0:0:
350,126,202131,1,0,0:0:0:0:
300,146,202220,5,0,0:0:0:0:
326,194,202308,1,0,0:0:0:0:
352,242,202396,1,0,0:0:0:0:
379,290,202484,1,0,0:0:0:0:
406,338,202573,5,0,0:0:0:0:
340,372,202661,1,0,0:0:0:0:
268,355,202749,1,0,0:0:0:0:
216,303,202837,1,0,0:0:0:0:
205,229,202926,1,0,0:0:0:0:
155,249,203014,1,0,0:0:0:0:
101,241,203102,1,0,0:0:0:0:
59,207,203190,1,0,0:0:0:0:
40,153,203279,5,0,0:0:0:0:
68,163,203368,1,0,0:0:0:0:
97,166,203456,1,0,0:0:0:0:
126,165,203544,1,0,0:0:0:0:
158,76,203632,1,0,0:0:0:0:
206,49,203721,1,0,0:0:0:0:
268,57,203809,1,0,0:0:0:0:
297,105,203887,2,0,P|296:133|290:151,1,37.5
207,279,204074,2,0,P|225:239|233:229,1,37.5
385,128,204265,1,0,0:0:0:0:
448,180,204359,2,0,P|457:224|455:244,1,37.5
299,245,204552,2,0,P|281:205|273:184,1,37.5
309,32,204746,2,0,P|338:49|352:64,1,37.5
467,179,204952,2,0,P|426:200|422:204,1,37.5
251,340,205159,2,0,P|276:342|295:338,1,37.5
285,104,205383,2,0,P|252:101|237:104,1,37.5
135,245,205607,2,0,L|126:177,2,50
207,75,206094,2,0,L|220:133,3,37.5
36,292,218104,5,0,0:0:0:0:
139,88,218221,1,0,0:0:0:0:
207,250,218339,2,0,P|238:303|251:316,1,56.2500021457673
466,258,218574,2,0,P|409:232|399:229,1,56.2500021457673
108,331,218809,5,0,0:0:0:0:
107,49,218927,1,0,0:0:0:0:
233,262,219045,2,0,P|208:265|171:260,1,56.2500021457673
16,146,219280,2,0,P|74:132|94:134,1,56.2500021457673
242,338,219515,6,0,P|270:317|288:297,1,56.2500021457673
276,23,219751,2,0,P|267:54|265:91,1,56.2500021457673
425,303,219986,2,0,P|410:278|391:260,1,56.2500021457673
110,231,220221,1,0,0:0:0:0:
511,98,220339,5,0,0:0:0:0:
302,17,220456,1,0,0:0:0:0:
492,268,220574,2,0,P|430:260|417:256,1,56.2500021457673
308,119,220809,1,0,0:0:0:0:
492,6,220927,2,0,P|492:41|485:60,1,56.2500021457673
165,129,221162,6,0,P|207:112|232:108,1,56.2500021457673
350,319,221398,2,0,P|309:323|288:320,1,56.2500021457673
64,135,221633,2,0,P|111:111|131:105,1,56.2500021457673
159,316,221868,1,0,0:0:0:0:
212,53,221986,5,0,0:0:0:0:
280,322,222103,2,0,P|299:284|302:259,1,56.2500021457673
352,22,222339,1,0,0:0:0:0:
376,312,222456,1,0,0:0:0:0:
430,27,222574,2,0,P|434:64|432:83,1,56.2500021457673
142,323,222809,5,0,0:0:0:0:
242,52,222927,1,0,0:0:0:0:
471,258,223045,2,0,P|440:253|417:242,1,56.2500021457673
333,26,223280,2,0,P|352:86|351:104,1,56.2500021457673
403,334,223515,2,0,L|379:315,1,28.1250010728836
201,156,223633,2,0,L|220:178,1,28.1250010728836
507,306,223751,5,0,0:0:0:0:
259,317,223868,1,0,0:0:0:0:
502,132,223986,2,0,P|459:111|431:106,1,56.2500021457673
170,28,224221,2,0,P|194:79|209:95,1,56.2500021457673
443,282,224456,5,0,0:0:0:0:
166,318,224574,1,0,0:0:0:0:
209,32,224692,2,0,P|246:72|254:95,1,56.2500021457673
276,232,224927,1,0,0:0:0:0:
422,122,225045,1,0,0:0:0:0:
445,92,225103,1,0,0:0:0:0:
459,57,225162,5,0,0:0:0:0:
286,309,225280,1,0,0:0:0:0:
128,213,225398,1,0,0:0:0:0:
430,345,225515,1,0,0:0:0:0:
512,119,225633,1,0,0:0:0:0:
420,259,225751,1,0,0:0:0:0:
139,125,225868,1,0,0:0:0:0:
228,325,225986,1,0,0:0:0:0:
390,47,226103,6,0,P|352:41|325:44,1,56.2500021457673
211,303,226339,1,0,0:0:0:0:
384,218,226456,1,0,0:0:0:0:
214,65,226574,2,0,P|189:88|173:122,1,56.2500021457673
377,319,226809,2,0,P|363:288|341:257,1,56.2500021457673
124,259,227045,2,0,P|186:275|205:276,1,56.2500021457673
431,188,227280,2,0,P|396:194|370:208,1,56.2500021457673
320,331,227515,1,0,0:0:0:0:
229,113,227633,5,0,0:0:0:0:
174,301,227751,2,0,P|229:288|242:280,1,56.2500021457673
389,163,227986,1,0,0:0:0:0:
209,174,228103,1,0,0:0:0:0:
377,29,228221,2,0,P|402:56|413:76,1,56.2500021457673
451,208,228456,1,0,0:0:0:0:
363,328,228574,1,0,0:0:0:0:
336,311,228633,1,0,0:0:0:0:
311,290,228692,1,0,0:0:0:0:
138,138,228809,1,0,0:0:0:0:
85,332,228927,1,0,0:0:0:0:
357,125,229045,1,0,0:0:0:0:
312,331,229162,2,0,P|309:315|303:302,1,28.1250010728836
191,149,229280,2,0,P|191:158|198:175,1,28.1250010728836
476,292,229398,5,0,0:0:0:0:
373,88,229515,1,0,0:0:0:0:
305,250,229633,2,0,P|274:303|263:312,1,56.2500021457673
46,258,229868,2,0,P|77:239|112:230,1,56.2500021457673
404,331,230103,5,0,0:0:0:0:
405,49,230221,1,0,0:0:0:0:
279,262,230339,2,0,P|305:267|339:262,1,56.2500021457673
499,144,230574,2,0,P|457:126|425:129,1,56.2500021457673
310,348,230809,6,0,P|284:332|264:310,1,56.2500021457673
236,23,231045,2,0,P|245:54|244:89,1,56.2500021457673
87,303,231280,2,0,P|101:282|132:269,1,56.2500021457673
402,231,231515,1,0,0:0:0:0:
1,98,231633,5,0,0:0:0:0:
210,17,231750,1,0,0:0:0:0:
20,268,231868,2,0,P|82:260|97:256,1,56.2500021457673
204,119,232103,1,0,0:0:0:0:
20,6,232221,2,0,P|20:41|25:62,1,56.2500021457673
347,129,232456,6,0,P|305:112|281:110,1,56.2500021457673
162,319,232692,2,0,P|203:323|225:323,1,56.2500021457673
448,135,232927,2,0,P|401:111|377:106,1,56.2500021457673
353,316,233162,1,0,0:0:0:0:
300,53,233280,5,0,0:0:0:0:
232,322,233397,2,0,P|213:284|210:260,1,56.2500021457673
160,22,233633,1,0,0:0:0:0:
136,312,233750,1,0,0:0:0:0:
82,27,233868,2,0,P|78:64|78:84,1,56.2500021457673
370,323,234103,5,0,0:0:0:0:
270,52,234221,1,0,0:0:0:0:
41,258,234339,2,0,P|72:253|97:242,1,56.2500021457673
179,26,234574,2,0,P|160:86|160:105,1,56.2500021457673
109,334,234809,2,0,L|136:314,1,28.1250010728836
311,156,234927,2,0,L|285:182,1,28.1250010728836
5,306,235045,5,0,0:0:0:0:
253,317,235162,1,0,0:0:0:0:
10,132,235280,2,0,P|53:111|80:106,1,56.2500021457673
342,28,235515,2,0,P|318:79|302:93,1,56.2500021457673
69,282,235750,5,0,0:0:0:0:
346,318,235868,1,0,0:0:0:0:
303,32,235986,2,0,P|266:72|258:94,1,56.2500021457673
236,232,236221,1,0,0:0:0:0:
90,122,236339,1,0,0:0:0:0:
67,92,236397,1,0,0:0:0:0:
53,57,236456,5,0,0:0:0:0:
205,331,236574,1,0,0:0:0:0:
306,213,236692,1,0,0:0:0:0:
84,303,236809,1,0,0:0:0:0:
96,124,236927,1,0,0:0:0:0:
179,332,237045,1,0,0:0:0:0:
363,187,237162,1,0,0:0:0:0:
179,203,237280,1,0,0:0:0:0:
122,47,237397,6,0,P|160:41|181:42,1,56.2500021457673
369,285,237633,1,0,0:0:0:0:
199,217,237751,1,0,0:0:0:0:
214,65,237868,2,0,P|189:88|173:118,1,56.2500021457673
377,319,238103,2,0,P|363:288|343:261,1,56.2500021457673
124,259,238339,2,0,P|186:275|203:276,1,56.2500021457673
431,188,238574,2,0,P|396:194|373:205,1,56.2500021457673
320,331,238809,1,0,0:0:0:0:
229,113,238927,5,0,0:0:0:0:
174,301,239045,2,0,P|229:288|243:279,1,56.2500021457673
389,163,239280,1,0,0:0:0:0:
209,174,239397,1,0,0:0:0:0:
377,29,239515,2,0,P|402:56|410:75,1,56.2500021457673
451,208,239750,5,0,0:0:0:0:
437,237,239809,1,0,0:0:0:0:
416,261,239868,2,0,P|400:263|375:279,1,28.1250010728836
324,346,239986,5,0,0:0:0:0:
302,322,240045,1,0,0:0:0:0:
291,291,240103,1,0,0:0:0:0:
267,270,240162,1,0,0:0:0:0:
237,259,240221,2,0,P|216:255|201:251,1,28.1250010728836
70,131,240339,5,0,0:0:0:0:
121,164,240398,1,0,0:0:0:0:
179,178,240456,1,0,0:0:0:0:
238,165,240515,1,0,0:0:0:0:
287,129,240574,1,0,0:0:0:0:
317,76,240633,1,0,0:0:0:0:
329,24,240692,5,0,0:0:0:0:
356,49,240751,1,0,0:0:0:0:
383,74,240810,1,0,0:0:0:0:
370,234,240927,1,0,0:0:0:0:
336,217,240986,1,0,0:0:0:0:
301,201,241045,1,0,0:0:0:0:
113,92,241162,1,0,0:0:0:0:
117,129,241221,1,0,0:0:0:0:
121,166,241280,1,0,0:0:0:0:
154,350,241398,5,0,0:0:0:0:
0,106,241515,1,0,0:0:0:0:
332,245,241633,1,0,0:0:0:0:
148,77,241868,1,0,0:0:0:0:
184,83,241927,1,0,0:0:0:0:
220,89,241986,1,0,0:0:0:0:
451,166,242104,5,0,0:0:0:0:
420,166,242163,1,0,0:0:0:0:
389,166,242222,1,0,0:0:0:0:
402,326,242576,1,0,0:0:0:0:
372,330,242634,1,0,0:0:0:0:
341,329,242693,1,0,0:0:0:0:
134,256,242811,1,0,0:0:0:0:
260,135,243045,1,0,0:0:0:0:
289,127,243104,1,0,0:0:0:0:
318,120,243163,1,0,0:0:0:0:
347,114,243222,1,0,0:0:0:0:
369,108,243281,1,0,0:0:0:0:
492,36,243398,2,0,P|476:55|474:68,1,37.5
393,337,243516,1,0,0:0:0:0:
252,135,243751,1,0,0:0:0:0:
223,127,243810,1,0,0:0:0:0:
194,120,243869,1,0,0:0:0:0:
165,114,243928,1,0,0:0:0:0:
143,108,243987,1,0,0:0:0:0:
20,36,244104,2,0,P|36:55|38:68,1,37.5
119,337,244222,1,0,0:0:0:0:
260,135,244457,1,0,0:0:0:0:
289,127,244516,1,0,0:0:0:0:
318,120,244575,1,0,0:0:0:0:
347,114,244634,1,0,0:0:0:0:
369,108,244693,1,0,0:0:0:0:
492,36,244810,2,0,P|476:55|474:68,1,37.5
393,337,244928,6,0,P|349:277|67:251,1,375
17,349,245634,6,0,L|61:298,1,37.5
144,329,245751,2,0,L|151:291,1,37.5
260,297,245869,2,0,L|249:255,1,37.5
369,237,245987,2,0,L|341:200,1,37.5
452,163,246104,2,0,L|401:142,1,37.5
486,55,246222,2,0,L|431:54,1,37.5
342,58,246340,6,0,P|280:72|205:57,1,112.5
52,148,246634,2,0,P|105:163|141:223,1,112.5
260,311,246889,2,0,L|262:233,1,50
237,48,247045,6,0,P|261:99|309:129,1,112.5
472,63,247281,2,0,P|422:74|365:112,1,112.5
304,300,247516,1,0,0:0:0:0:
278,253,247575,1,0,0:0:0:0:
236,219,247634,1,0,0:0:0:0:
185,203,247693,1,0,0:0:0:0:
133,207,247751,5,0,0:0:0:0:
45,355,247869,1,0,0:0:0:0:
87,92,247987,1,0,0:0:0:0:
208,300,248222,1,0,0:0:0:0:
234,253,248281,1,0,0:0:0:0:
276,219,248340,1,0,0:0:0:0:
327,203,248399,1,0,0:0:0:0:
379,207,248457,5,0,0:0:0:0:
467,355,248575,1,0,0:0:0:0:
425,92,248693,1,0,0:0:0:0:
359,135,248987,1,0,0:0:0:0:
359,135,249045,1,0,0:0:0:0:
359,135,249104,1,0,0:0:0:0:
359,135,249163,5,0,0:0:0:0:
282,87,249222,1,0,0:0:0:0:
193,103,249281,1,0,0:0:0:0:
126,164,249340,1,0,0:0:0:0:
193,103,249398,1,0,0:0:0:0:
282,87,249457,1,0,0:0:0:0:
359,135,249516,2,0,L|384:196,2,37.5
420,359,249869,6,0,P|364:301|305:311,1,112.5
147,350,250104,1,0,0:0:0:0:
156,344,250163,1,0,0:0:0:0:
165,338,250222,1,0,0:0:0:0:
174,332,250281,1,0,0:0:0:0:
183,326,250340,1,0,0:0:0:0:
286,233,250575,5,0,0:0:0:0:
334,156,250634,1,0,0:0:0:0:
318,67,250693,1,0,0:0:0:0:
257,0,250752,1,0,0:0:0:0:
318,67,250810,1,0,0:0:0:0:
334,156,250869,1,0,0:0:0:0:
286,233,250928,2,0,L|222:258,2,37.5
7,297,251281,6,0,P|65:241|55:182,1,112.5
16,24,251516,1,0,0:0:0:0:
22,33,251575,1,0,0:0:0:0:
28,42,251634,1,0,0:0:0:0:
34,51,251693,1,0,0:0:0:0:
40,60,251752,1,0,0:0:0:0:
113,52,251810,1,0,0:0:0:0:
187,44,251869,1,0,0:0:0:0:
261,36,251928,1,0,0:0:0:0:
326,40,251987,5,0,0:0:0:0:
356,40,252045,1,0,0:0:0:0:
387,40,252104,1,0,0:0:0:0:
297,152,252222,1,0,0:0:0:0:
267,151,252281,1,0,0:0:0:0:
238,151,252339,1,0,0:0:0:0:
68,243,252457,1,0,0:0:0:0:
99,241,252516,1,0,0:0:0:0:
130,242,252575,1,0,0:0:0:0:
244,238,252692,1,0,0:0:0:0:
472,314,252810,1,0,0:0:0:0:
410,82,252928,1,0,0:0:0:0:
306,56,253163,5,0,0:0:0:0:
276,55,253222,1,0,0:0:0:0:
246,55,253281,1,0,0:0:0:0:
61,166,253398,1,0,0:0:0:0:
92,166,253457,1,0,0:0:0:0:
123,166,253516,1,0,0:0:0:0:
110,326,253870,1,0,0:0:0:0:
140,330,253928,1,0,0:0:0:0:
171,329,253987,1,0,0:0:0:0:
378,256,254105,1,0,0:0:0:0:
252,135,254339,1,0,0:0:0:0:
223,127,254398,1,0,0:0:0:0:
194,120,254457,1,0,0:0:0:0:
165,114,254516,1,0,0:0:0:0:
143,108,254575,1,0,0:0:0:0:
20,36,254692,2,0,P|36:55|38:68,1,37.5
119,337,254810,1,0,0:0:0:0:
260,135,255045,1,0,0:0:0:0:
289,127,255104,1,0,0:0:0:0:
318,120,255163,1,0,0:0:0:0:
347,114,255222,1,0,0:0:0:0:
369,108,255281,1,0,0:0:0:0:
492,36,255398,2,0,P|476:55|474:68,1,37.5
393,337,255516,1,0,0:0:0:0:
252,135,255751,1,0,0:0:0:0:
223,127,255810,1,0,0:0:0:0:
194,120,255869,1,0,0:0:0:0:
165,114,255928,1,0,0:0:0:0:
143,108,255987,1,0,0:0:0:0:
20,36,256104,2,0,P|36:55|38:68,1,37.5
119,337,256222,6,0,P|163:277|445:251,1,375
495,349,256928,6,0,L|451:298,1,37.5
368,329,257045,2,0,L|361:291,1,37.5
252,297,257163,2,0,L|263:255,1,37.5
143,237,257281,2,0,L|171:200,1,37.5
60,163,257398,2,0,L|111:142,1,37.5
26,55,257516,2,0,L|81:54,1,37.5
170,58,257634,6,0,P|232:72|307:57,1,112.5
460,148,257928,2,0,P|407:163|371:223,1,112.5
252,311,258183,2,0,L|250:233,1,50
275,48,258339,6,0,P|251:99|203:129,1,112.5
40,63,258575,2,0,P|90:74|147:112,1,112.5
208,300,258810,1,0,0:0:0:0:
234,253,258869,1,0,0:0:0:0:
276,219,258928,1,0,0:0:0:0:
327,203,258987,1,0,0:0:0:0:
379,207,259045,5,0,0:0:0:0:
467,355,259163,1,0,0:0:0:0:
425,92,259281,1,0,0:0:0:0:
304,300,259516,1,0,0:0:0:0:
278,253,259575,1,0,0:0:0:0:
236,219,259634,1,0,0:0:0:0:
185,203,259693,1,0,0:0:0:0:
133,207,259751,5,0,0:0:0:0:
45,355,259869,1,0,0:0:0:0:
87,92,259987,1,0,0:0:0:0:
153,135,260281,1,0,0:0:0:0:
153,135,260339,1,0,0:0:0:0:
153,135,260398,1,0,0:0:0:0:
153,135,260457,5,0,0:0:0:0:
230,87,260516,1,0,0:0:0:0:
319,103,260575,1,0,0:0:0:0:
386,164,260634,1,0,0:0:0:0:
319,103,260692,1,0,0:0:0:0:
230,87,260751,1,0,0:0:0:0:
153,135,260810,2,0,L|128:196,2,37.5
92,359,261163,6,0,P|148:301|207:311,1,112.5
365,350,261398,1,0,0:0:0:0:
356,344,261457,1,0,0:0:0:0:
347,338,261516,1,0,0:0:0:0:
338,332,261575,1,0,0:0:0:0:
329,326,261634,1,0,0:0:0:0:
226,233,261869,5,0,0:0:0:0:
178,156,261928,1,0,0:0:0:0:
194,67,261987,1,0,0:0:0:0:
255,0,262046,1,0,0:0:0:0:
194,67,262104,1,0,0:0:0:0:
178,156,262163,1,0,0:0:0:0:
226,233,262222,2,0,L|290:258,2,37.5
505,297,262575,6,0,P|447:241|457:182,1,112.5
496,24,262810,1,0,0:0:0:0:
490,33,262869,1,0,0:0:0:0:
484,42,262928,1,0,0:0:0:0:
478,51,262987,1,0,0:0:0:0:
472,60,263046,1,0,0:0:0:0:
399,52,263104,1,0,0:0:0:0:
325,44,263163,1,0,0:0:0:0:
251,36,263222,1,0,0:0:0:0:
186,40,263280,5,0,0:0:0:0:
156,40,263338,1,0,0:0:0:0:
125,40,263397,1,0,0:0:0:0:
215,152,263515,1,0,0:0:0:0:
245,151,263574,1,0,0:0:0:0:
274,151,263632,1,0,0:0:0:0:
444,243,263750,1,0,0:0:0:0:
413,241,263809,1,0,0:0:0:0:
382,242,263868,1,0,0:0:0:0:
268,238,263985,1,0,0:0:0:0:
40,314,264103,1,0,0:0:0:0:
102,82,264221,1,0,0:0:0:0:
206,56,264456,5,0,0:0:0:0:
236,55,264515,1,0,0:0:0:0:
266,55,264574,1,0,0:0:0:0:
451,166,264691,1,0,0:0:0:0:
134,256,265398,1,0,0:0:0:0:
260,135,265632,1,0,0:0:0:0:
289,127,265691,1,0,0:0:0:0:
318,120,265750,1,0,0:0:0:0:
347,114,265809,1,0,0:0:0:0:
369,108,265868,1,0,0:0:0:0:
393,337,266103,1,0,0:0:0:0:
252,135,266338,1,0,0:0:0:0:
223,127,266397,1,0,0:0:0:0:
194,120,266456,1,0,0:0:0:0:
165,114,266515,1,0,0:0:0:0:
143,108,266574,1,0,0:0:0:0:
119,337,266809,1,0,0:0:0:0:
260,135,267044,1,0,0:0:0:0:
289,127,267103,1,0,0:0:0:0:
318,120,267162,1,0,0:0:0:0:
347,114,267221,1,0,0:0:0:0:
369,108,267280,1,0,0:0:0:0:
393,337,267515,6,0,P|349:277|7:301,1,450
326,40,268927,5,0,0:0:0:0:
356,40,268985,1,0,0:0:0:0:
387,40,269044,1,0,0:0:0:0:
297,152,269162,1,0,0:0:0:0:
267,151,269221,1,0,0:0:0:0:
238,151,269279,1,0,0:0:0:0:
68,243,269397,1,0,0:0:0:0:
99,241,269456,1,0,0:0:0:0:
130,242,269515,1,0,0:0:0:0:
244,238,269632,1,0,0:0:0:0:
472,314,269750,1,0,0:0:0:0:
410,82,269868,1,0,0:0:0:0:
306,56,270103,5,0,0:0:0:0:
276,55,270162,1,0,0:0:0:0:
246,55,270221,1,0,0:0:0:0:
61,166,270338,1,0,0:0:0:0:
378,256,271045,1,0,0:0:0:0:
252,135,271279,1,0,0:0:0:0:
223,127,271338,1,0,0:0:0:0:
194,120,271397,1,0,0:0:0:0:
165,114,271456,1,0,0:0:0:0:
143,108,271515,1,0,0:0:0:0:
119,337,271750,1,0,0:0:0:0:
260,135,271985,1,0,0:0:0:0:
289,127,272044,1,0,0:0:0:0:
318,120,272103,1,0,0:0:0:0:
347,114,272162,1,0,0:0:0:0:
369,108,272221,1,0,0:0:0:0:
393,337,272456,1,0,0:0:0:0:
252,135,272691,1,0,0:0:0:0:
223,127,272750,1,0,0:0:0:0:
194,120,272809,1,0,0:0:0:0:
165,114,272868,1,0,0:0:0:0:
143,108,272927,1,0,0:0:0:0:
119,337,273162,6,0,P|163:277|461:265,1,375
455,320,273868,6,0,P|399:309|387:302,1,37.5
140,200,273986,1,0,0:0:0:0:
381,136,274104,1,0,0:0:0:0:
392,385,274221,6,0,P|344:354|336:343,1,37.5
145,155,274339,1,0,0:0:0:0:
392,186,274457,1,0,0:0:0:0:
186,40,274574,5,0,0:0:0:0:
156,40,274632,1,0,0:0:0:0:
125,40,274691,1,0,0:0:0:0:
215,152,274809,1,0,0:0:0:0:
245,151,274868,1,0,0:0:0:0:
274,151,274926,1,0,0:0:0:0:
444,243,275044,1,0,0:0:0:0:
413,241,275103,1,0,0:0:0:0:
382,242,275162,1,0,0:0:0:0:
268,238,275279,1,0,0:0:0:0:
40,314,275397,1,0,0:0:0:0:
102,82,275515,1,0,0:0:0:0:
206,56,275750,5,0,0:0:0:0:
236,55,275809,1,0,0:0:0:0:
266,55,275868,1,0,0:0:0:0:
451,166,275985,1,0,0:0:0:0:
134,256,276692,1,0,0:0:0:0:
260,135,276926,1,0,0:0:0:0:
289,127,276985,1,0,0:0:0:0:
318,120,277044,1,0,0:0:0:0:
347,114,277103,1,0,0:0:0:0:
369,108,277162,1,0,0:0:0:0:
393,337,277397,1,0,0:0:0:0:
252,135,277632,1,0,0:0:0:0:
223,127,277691,1,0,0:0:0:0:
194,120,277750,1,0,0:0:0:0:
165,114,277809,1,0,0:0:0:0:
143,108,277868,1,0,0:0:0:0:
119,337,278103,1,0,0:0:0:0:
260,135,278338,1,0,0:0:0:0:
289,127,278397,1,0,0:0:0:0:
318,120,278456,1,0,0:0:0:0:
347,114,278515,1,0,0:0:0:0:
369,108,278574,1,0,0:0:0:0:
393,337,278809,6,0,P|349:277|7:301,1,450
326,40,280221,5,0,0:0:0:0:
356,40,280279,1,0,0:0:0:0:
387,40,280338,1,0,0:0:0:0:
297,152,280456,1,0,0:0:0:0:
267,151,280515,1,0,0:0:0:0:
238,151,280573,1,0,0:0:0:0:
68,243,280691,1,0,0:0:0:0:
99,241,280750,1,0,0:0:0:0:
130,242,280809,1,0,0:0:0:0:
244,238,280926,1,0,0:0:0:0:
472,314,281044,1,0,0:0:0:0:
410,82,281162,1,0,0:0:0:0:
306,56,281397,5,0,0:0:0:0:
276,55,281456,1,0,0:0:0:0:
246,55,281515,1,0,0:0:0:0:
61,166,281632,1,0,0:0:0:0:
378,256,282339,1,0,0:0:0:0:
252,135,282573,1,0,0:0:0:0:
223,127,282632,1,0,0:0:0:0:
194,120,282691,1,0,0:0:0:0:
165,114,282750,1,0,0:0:0:0:
143,108,282809,1,0,0:0:0:0:
119,337,283044,1,0,0:0:0:0:
260,135,283279,1,0,0:0:0:0:
289,127,283338,1,0,0:0:0:0:
318,120,283397,1,0,0:0:0:0:
347,114,283456,1,0,0:0:0:0:
369,108,283515,1,0,0:0:0:0:
393,337,283750,1,0,0:0:0:0:
187,50,283985,1,0,0:0:0:0:
153,117,284044,1,0,0:0:0:0:
129,188,284103,1,0,0:0:0:0:
119,262,284162,1,0,0:0:0:0:
119,337,284221,1,0,0:0:0:0:
119,337,284457,5,0,0:0:0:0:
82,188,302104,6,0,P|96:142|191:106,1,150
186,297,303515,2,0,P|220:290|255:189,1,150
82,188,304927,6,0,B|169:226|171:153|260:194,1,180
429,187,307751,6,0,P|415:141|320:105,1,150
326,296,309162,2,0,P|292:289|257:188,1,150
429,187,310574,6,0,B|342:225|340:152|251:193,1,180
