osu file format v14

[General]
AudioFilename: bonsaicutthisforme.mp3
AudioLeadIn: 0
PreviewTime: 193
Countdown: 1
SampleSet: Soft
StackLeniency: 0.7
Mode: 0
LetterboxInBreaks: 1
WidescreenStoryboard: 1

[Editor]
Bookmarks: 19967,179522,371172,387481,399757,355824
DistanceSpacing: 0.5
BeatDivisor: 4
GridSize: 4
TimelineZoom: 3.020004

[Metadata]
Title:Sonata No.14 in cis-Moll, Op. 27/2 - 3. Satz
TitleUnicode:Sonata No.14 in cis-Moll, Op. 27/2 - 3. Satz
Artist:Bernd Krueger
ArtistUnicode:Bernd Krueger
Creator:Fenza
Version:Presto Agitato
Source:
Tags:Mondscheinsonate Ludwig van Beethoven MoonlightSonata Classical Piano Synthesia Opus.27 No.2 Presto Agiato 1802
BeatmapID:1101611
BeatmapSetID:518426

[Difficulty]
HPDrainRate:6
CircleSize:5
OverallDifficulty:8
ApproachRate:9.4
SliderMultiplier:1.4
SliderTickRate:1

[Events]
//Background and Video events
0,0,"beethovenbg.jpg",0,0
0,0,"beethovenbg.jpg",0,0
//Break Periods
//Storyboard Layer 0 (Background)
//Storyboard Layer 1 (Fail)
//Storyboard Layer 2 (Pass)
//Storyboard Layer 3 (Foreground)
//Storyboard Sound Samples

[TimingPoints]
193,359.842,4,2,1,30,1,0
2712,375.047,4,2,1,30,1,0
3087,359.842,4,2,1,30,1,0
5606,376.294,4,2,1,30,1,0
5982,359.842,4,2,1,30,1,0
8501,373.855,4,2,1,30,1,0
8875,359.842,4,2,1,30,1,0
9954,367.534456355283,4,2,1,30,1,0
10321,359.842,4,2,1,30,1,0
11400,409.092768603494,4,2,1,30,1,0
11809,-100,4,2,1,40,0,1
12218,361.44578313253,4,2,1,30,1,1
13302,370.37037037037,4,2,1,30,1,1
17746,-100,4,2,1,40,0,1
19226,500,4,2,1,30,1,0
19724,721.926098831683,4,2,1,30,1,0
19724,-333.333333333333,4,2,1,30,0,0
21709,-333.333333333333,4,2,1,5,0,0
21889,359.842,4,2,1,30,1,0
24408,370.233,4,2,1,30,1,0
24778,359.842,4,2,1,30,1,0
27297,366.703,4,2,1,30,1,0
27664,359.62167799475,4,2,1,30,1,0
30181,398.671096345515,4,2,1,30,1,0
30579,400,4,2,1,30,1,0
30979,365.853658536585,4,2,1,30,1,0
30979,-200,4,2,1,30,0,0
32076,476.190476190476,4,2,1,30,1,0
32552,363.636363636364,4,2,1,30,1,0
32552,-149.253731343284,4,2,1,30,0,0
33097,394.736842105263,4,2,1,30,1,0
33294,419.58041958042,4,2,1,30,1,0
33713,371.517027863777,4,2,1,30,1,0
34084,-149.253731343284,4,2,1,30,0,0
34827,408.163265306122,4,2,1,30,1,0
35643,350.877192982456,4,2,1,30,1,0
35643,-149.253731343284,4,2,1,30,0,0
36169,428.571428571429,4,2,1,30,1,0
36383,402.684563758389,4,2,1,30,1,0
36685,431.654676258993,4,2,1,30,1,0
36792,366.600271284201,4,2,1,30,1,0
36792,-166.666666666667,4,2,1,30,0,0
37891,-142.857142857143,4,2,1,30,0,0
39358,-125,4,2,1,30,0,0
40824,-100,4,2,1,30,0,0
42657,363.636363636364,4,2,1,30,1,0
44475,-100,4,2,1,30,0,0
47384,-100,4,2,1,30,0,0
48475,356.083086053412,4,2,1,30,1,1
48475,-200,4,2,1,30,0,1
49276,-100,4,2,1,25,0,0
49899,361.44578313253,4,2,1,30,1,0
53513,-100,4,2,1,30,0,1
54236,430.10752688172,4,2,1,30,1,0
54666,359.281437125748,4,2,1,50,1,1
54666,-125,4,2,1,50,0,1
55115,-100,4,2,1,30,0,0
55743,359.281437125748,4,2,1,30,1,0
58617,-100,4,2,1,20,0,0
58976,-100,4,2,1,23,0,0
59335,-100,4,2,1,26,0,0
59695,-100,4,2,1,30,0,0
60053,362.756952841596,4,2,1,40,1,1
60053,-100,4,2,1,40,0,1
62229,-200,4,2,1,40,0,1
62864,-200,4,2,1,5,0,1
62955,366.97247706422,4,2,1,30,1,0
68826,363.086232980333,4,2,1,30,1,0
69011,-100,4,2,1,20,0,0
71730,365.853658536585,4,2,1,30,1,0
71730,-83.3333333333333,4,2,1,30,0,0
73193,-71.4285714285714,4,2,1,40,0,1
74656,-71.4285714285714,4,2,1,30,0,0
76120,-71.4285714285714,4,2,1,40,0,1
77583,364.741641337386,4,2,1,20,1,0
80500,370.37037037037,4,2,1,20,1,0
81055,400,4,2,1,20,1,0
82055,434.782608695652,4,2,1,20,1,0
82924,461.538461538462,4,2,1,20,1,0
83385,491.803278688525,4,2,1,20,1,0
83876,397.035,4,2,1,10,1,0
83876,-200,4,2,1,10,0,0
85067,405.433,4,2,1,10,1,0
85269,-100,4,2,1,5,0,0
85371,-100,4,2,1,10,0,0
85472,-200,4,2,1,10,0,0
85878,428.052,4,2,1,10,1,0
85878,-125,4,2,1,10,0,0
87055,575.76,4,2,1,10,1,0
87199,397.035,4,2,1,10,1,0
87199,-100,4,2,1,10,0,0
87596,-200,4,2,1,10,0,0
88390,404.013,4,2,1,10,1,0
88794,-200,4,2,1,10,0,0
89198,417.217,4,2,1,10,1,0
89198,-125,4,2,1,10,0,0
90032,-125,4,2,1,10,0,0
90345,545.454545454546,4,2,1,10,1,0
90480,391.645,4,2,1,10,1,0
90871,-200,4,2,1,10,0,0
91165,456.934,4,2,1,10,1,0
91279,391.645,4,2,1,10,1,0
91670,-200,4,2,1,10,0,0
91964,514.051,4,2,1,10,1,0
92093,391.645,4,2,1,10,1,0
92093,-100,4,2,1,10,0,0
92484,-200,4,2,1,10,0,0
92876,-100,4,2,1,10,0,0
93267,-200,4,2,1,10,0,0
93659,400,4,2,1,15,1,0
94459,389.61038961039,4,2,1,20,1,0
95238,382.165605095541,4,2,1,30,1,0
96002,371.97768133912,4,2,1,30,1,0
96745,360.36,4,2,1,30,1,0
99268,375.047,4,2,1,30,1,0
99643,359.842,4,2,1,30,1,0
102162,376.294,4,2,1,30,1,0
102538,359.842,4,2,1,30,1,0
105057,373.855,4,2,1,30,1,0
105431,359.842,4,2,1,30,1,0
106511,365.542,4,2,1,30,1,0
106877,359.842,4,2,1,30,1,0
107957,413.793103448276,4,2,1,30,1,0
108370,-100,4,2,1,30,0,1
108577,366.600271284201,4,2,1,30,1,1
109860,369.610615216869,4,2,1,30,1,1
114295,-100,4,2,1,40,0,1
115034,372.670807453416,4,2,1,40,1,1
115406,387.096774193548,4,2,1,30,1,0
115793,493.827160493827,4,2,1,30,1,0
116286,719.683,4,2,1,30,1,0
116286,-312.5,4,2,1,30,0,0
118265,-312.5,4,2,1,5,0,0
118445,359.842,4,2,1,30,1,0
120964,370.233,4,2,1,30,1,0
121334,359.842,4,2,1,30,1,0
123853,366.703,4,2,1,30,1,0
124220,359.842,4,2,1,30,1,0
126738,387.096774193548,4,2,1,30,1,0
127125,400,4,2,1,30,1,0
127525,365.853658536585,4,2,1,30,1,0
127525,-149.253731343284,4,2,1,30,0,0
128622,483.870967741935,4,2,1,30,1,0
129105,368.098159509202,4,2,1,30,1,0
129657,398.433,4,2,1,30,1,0
129856,414.193,4,2,1,30,1,0
130270,387.672,4,2,1,30,1,0
130658,359.842,4,2,1,30,1,0
131198,385.109,4,2,1,30,1,0
131391,411.212,4,2,1,30,1,0
131802,387.672,4,2,1,30,1,0
132190,362.078,4,2,1,30,1,0
132733,408.163265306122,4,2,1,30,1,0
133345,366.600271284201,4,2,1,30,1,0
133345,-166.666666666667,4,2,1,30,0,0
134444,-142.857142857143,4,2,1,30,0,0
135911,-125,4,2,1,30,0,0
137377,-111.111111111111,4,2,1,30,0,0
138844,380.952380952381,4,2,1,30,1,0
138844,-100,4,2,1,30,0,0
139224,359.842,4,2,1,30,1,0
140663,373.855,4,2,1,30,1,0
141037,359.842,4,2,1,30,1,0
141037,-100,4,2,1,30,0,0
142117,366.703,4,2,1,30,1,0
142850,364.387,4,2,1,30,1,0
143579,370.233,4,2,1,30,1,0
143949,359.842,4,2,1,30,1,0
145028,359.842,4,2,1,30,1,1
145028,-200,4,2,1,30,0,1
145837,-100,4,2,1,30,0,0
149346,-100,4,2,1,30,0,0
150066,364.387,4,2,1,30,1,0
150795,432.9,4,2,1,30,1,0
151228,359.842,4,2,1,30,1,1
151228,-133.333333333333,4,2,1,30,0,1
151677,-133.333333333333,4,2,1,30,0,0
152307,359.842,4,2,1,30,1,0
155185,-100,4,2,1,20,0,0
155545,-100,4,2,1,23,0,0
155905,-100,4,2,1,26,0,0
156265,-100,4,2,1,30,0,0
156625,-100,4,2,1,40,0,1
158785,363.086232980333,4,2,1,40,1,1
159511,366.600271284201,4,2,1,30,1,0
165376,363.086232980333,4,2,1,20,1,0
168280,365.853658536585,4,2,1,30,1,0
169743,-100,4,2,1,40,0,1
171206,-100,4,2,1,30,0,0
172670,-100,4,2,1,40,0,1
173950,387.096774193548,4,2,1,30,1,0
174143,363.636363636364,4,2,1,20,1,0
177052,370.37037037037,4,2,1,20,1,0
177607,400,4,2,1,20,1,0
178607,434.782608695652,4,2,1,20,1,0
179476,475.435816164818,4,2,1,20,1,0
180426,397.035,4,2,1,10,1,0
180426,-200,4,2,1,10,0,0
181617,405.433,4,2,1,10,1,0
182022,-125,4,2,1,10,0,0
182428,428.052,4,2,1,10,1,0
182428,-125,4,2,1,10,0,0
183605,575.76,4,2,1,10,1,0
183748,397.035,4,2,1,10,1,0
184145,-200,4,2,1,10,0,0
184940,404.013,4,2,1,10,1,0
185344,-125,4,2,1,10,0,0
185748,416.956219596942,4,2,1,10,1,0
185748,-125,4,2,1,10,0,0
186581,-125,4,2,1,10,0,0
186894,543.183,4,2,1,10,1,0
187030,391.645,4,2,1,10,1,0
187421,-200,4,2,1,10,0,0
187715,456.934,4,2,1,10,1,0
187829,391.645,4,2,1,10,1,0
188220,-200,4,2,1,10,0,0
188514,514.051,4,2,1,10,1,0
188643,392.927308447937,4,2,1,10,1,0
189035,-200,4,2,1,10,0,0
189428,-100,4,2,1,10,0,0
189821,-200,4,2,1,10,0,0
190214,400,4,2,1,20,1,0
191014,389.61038961039,4,2,1,20,1,0
191793,379.746835443038,4,2,1,30,1,0
192552,370.37037037037,4,2,1,30,1,0
193292,359.842,4,2,1,30,1,0
195811,376.294,4,2,1,30,1,0
196187,359.842,4,2,1,30,1,0
198706,376.294,4,2,1,30,1,0
199082,359.842,4,2,1,30,1,0
200162,377.525,4,2,1,30,1,0
200540,359.842,4,2,1,30,1,0
201620,423.34,4,2,1,30,1,0
202043,477.783,4,2,1,30,1,0
202521,359.842,4,2,1,30,1,0
202521,-166.666666666667,4,2,1,30,0,0
203511,816.771,4,2,1,30,1,0
203715,378.764,4,2,1,30,1,0
204094,359.842,4,2,1,30,1,0
204813,419.58041958042,4,2,1,30,1,0
205232,384.615384615385,4,2,1,30,1,0
205616,370.37037037037,4,2,1,30,1,0
206159,402.684563758389,4,2,1,30,1,0
206762,387.672,4,2,1,30,1,0
207150,359.842,4,2,1,30,1,0
207150,-100,4,2,1,30,0,0
207690,375.047,4,2,1,30,1,0
207878,389.004,4,2,1,30,1,0
208267,415.685,4,2,1,20,1,0
208683,375,4,2,1,20,1,0
209432,393.005,4,2,1,20,1,0
210218,362.078,4,2,1,20,1,0
210942,393.005,4,2,1,20,1,0
211335,404.013,4,2,1,20,1,0
211739,362.078,4,2,1,20,1,0
212282,414.193,4,2,1,20,1,0
212903,362.078,4,2,1,20,1,0
214352,439.496,4,2,1,20,1,0
214791,362.078,4,2,1,20,1,0
215515,402.604,4,2,1,20,1,0
216320,362.078,4,2,1,20,1,0
217044,381.267,4,2,1,20,1,0
217330,485.83,4,2,1,20,1,0
217451,381.267,4,2,1,20,1,0
217832,362.078,4,2,1,20,1,0
218556,436.142,4,2,1,20,1,0
218992,386.399,4,2,1,20,1,0
219378,362.078,4,2,1,20,1,0
220464,369.685767097967,4,2,1,20,1,0
221942,362.078,4,2,1,20,1,0
223390,366.600271284201,4,2,1,20,1,0
224856,375.784450039457,4,2,1,20,1,0
226359,394.736842105263,4,2,1,10,1,0
226753,372.648,4,2,1,10,1,0
226753,-200,4,2,1,10,0,0
227498,384.615384615385,4,2,1,10,1,0
227882,387.932706606494,4,2,1,10,1,0
227882,-200,4,2,1,10,0,0
228269,400,4,2,1,10,1,0
228669,397.350993377483,4,2,1,10,1,0
228669,-200,4,2,1,10,0,0
229066,393.005,4,2,1,10,1,0
229459,-200,4,2,1,10,0,0
229851,387.672,4,2,1,10,1,0
230047,393.005,4,2,1,10,1,0
230244,402.684563758389,4,2,1,10,1,0
230244,-200,4,2,1,10,0,0
230646,390.32,4,2,1,10,1,0
231036,390.32,4,2,1,10,1,0
231036,-200,4,2,1,10,0,0
231827,-200,4,2,1,10,0,0
232597,385.306900355113,4,2,1,10,1,0
232982,373.831775700935,4,2,1,10,1,0
233355,-100,4,2,1,5,0,0
233542,372.648,4,2,1,15,1,0
234100,371.448,4,2,1,15,1,0
234285,-100,4,2,1,20,0,0
234471,371.517027863777,4,2,1,20,1,0
235028,369.049,4,2,1,20,1,0
235581,369.913686806412,4,2,1,20,1,0
237060,377.525,4,2,1,10,1,0
237060,-200,4,2,1,10,0,0
237626,-200,4,2,1,5,0,0
237815,-200,4,2,1,10,0,0
238381,-200,4,2,1,5,0,0
238475,439.496,4,2,1,10,1,0
238584,376.569825459886,4,2,1,10,1,0
240843,383.803,4,2,1,10,1,0
241226,399.813,4,2,1,10,1,0
241540,521.014,4,2,1,10,1,0
241670,408.33,4,2,1,10,1,0
245549,423.34,4,2,1,10,1,0
245972,469.483568075117,4,2,1,10,1,0
246676,475.813,4,2,1,5,1,0
246676,-434.782608695652,4,2,1,5,0,0
248341,-434.782608695652,4,2,1,5,0,0
248579,-434.782608695652,4,2,1,10,0,0
250244,-434.782608695652,4,2,1,5,0,0
250479,359.842,4,2,1,30,1,0
252997,376.175548589342,4,2,1,30,1,0
253373,359.842,4,2,1,30,1,0
255891,377.358490566038,4,2,1,30,1,0
256268,359.842,4,2,1,30,1,0
258787,373.855,4,2,1,30,1,0
259161,359.842,4,2,1,30,1,0
260241,365.542,4,2,1,30,1,0
260607,359.842,4,2,1,30,1,0
261687,418.702,4,2,1,30,1,0
262105,-100,4,2,1,30,0,1
262315,364.387,4,2,1,30,1,1
263590,373.855,4,2,1,30,1,1
263964,369.79969183359,4,2,1,30,1,1
265073,367.34768846467,4,2,1,30,1,1
265807,364.741641337386,4,2,1,30,1,1
266536,376.175548589342,4,2,1,30,1,1
267288,368.098159509202,4,2,1,30,1,1
268024,366.300366300366,4,2,1,40,1,1
268390,372.670807453416,4,2,1,40,1,1
268762,376.569825459886,4,2,1,40,1,1
269138,381.356740162585,4,2,1,40,1,1
269519,492.086,4,2,1,40,1,0
270011,-312.5,4,2,1,30,0,0
271487,411.212,4,2,1,30,1,0
271905,365.853658536585,4,2,1,20,1,0
271905,-200,4,2,1,20,0,0
272636,412.371134020619,4,2,1,20,1,0
272945,570.071,4,2,1,20,1,0
273088,389.004,4,2,1,20,1,0
273477,362.078,4,2,1,20,1,0
273477,-149.253731343284,4,2,1,20,0,0
274020,398.433,4,2,1,20,1,0
274219,414.193,4,2,1,20,1,0
274219,-100,4,2,1,20,0,0
274633,387.672,4,2,1,20,1,0
275021,359.842,4,2,1,20,1,0
275561,385.109,4,2,1,20,1,0
275754,411.212,4,2,1,30,1,0
276165,387.672,4,2,1,30,1,0
276553,362.078,4,2,1,30,1,0
277096,411.212,4,2,1,30,1,0
277713,365.853658536585,4,2,1,30,1,0
277713,-166.666666666667,4,2,1,30,0,0
278810,-142.857142857143,4,2,1,30,0,0
280273,-125,4,2,1,30,0,0
280639,366.97247706422,4,2,1,30,1,0
280639,-125,4,2,1,30,0,0
281739,-111.111111111111,4,2,1,30,0,0
282106,370.37037037037,4,2,1,30,1,0
282106,-111.111111111111,4,2,1,30,0,0
283217,-100,4,2,1,30,0,0
283587,359.842,4,2,1,30,1,0
285026,373.855,4,2,1,30,1,0
285400,359.842,4,2,1,30,1,0
286480,366.703,4,2,1,30,1,0
287213,364.387,4,2,1,30,1,0
287942,370.233,4,2,1,30,1,0
288312,359.842,4,2,1,30,1,0
289391,359.842,4,2,1,30,1,1
289391,-200,4,2,1,30,0,1
290200,-100,4,2,1,30,0,0
293709,-100,4,2,1,30,0,0
294429,364.387,4,2,1,30,1,1
295158,432.9,4,2,1,30,1,0
295591,359.842,4,2,1,30,1,1
295591,-133.333333333333,4,2,1,30,0,1
296040,-133.333333333333,4,2,1,30,0,0
296670,359.842,4,2,1,30,1,0
299548,-100,4,2,1,30,0,1
301708,364.387,4,2,1,30,1,1
302437,362.01312545148,4,2,1,30,1,0
308229,-100,4,2,1,30,0,0
310039,364.210609133731,4,2,1,30,1,0
311131,360.36036036036,4,2,1,30,1,0
312573,362.537764350453,4,2,1,40,1,1
313298,369.230769230769,4,2,1,40,1,1
314036,363.636363636364,4,2,1,30,1,0
315490,362.537764350453,4,2,1,40,1,1
316577,368.098159509202,4,2,1,40,1,1
316945,362.903957467656,4,2,1,20,1,0
320392,375,4,2,1,20,1,0
320579,370.37037037037,4,2,1,20,1,0
321134,434.782608695652,4,2,1,20,1,0
321351,379.746835443038,4,2,1,20,1,0
321540,416.666666666667,4,2,1,20,1,0
321956,418.994413407821,4,2,1,20,1,0
322374,441.176470588235,4,2,1,30,1,0
322815,483.169863172821,4,2,1,20,1,0
323056,397.035,4,2,1,10,1,0
323056,-200,4,2,1,10,0,0
324247,405.433,4,2,1,10,1,0
324652,-149.253731343284,4,2,1,10,0,0
325058,428.052,4,2,1,10,1,0
325058,-125,4,2,1,10,0,0
326235,575.76,4,2,1,10,1,0
326379,397.035,4,2,1,10,1,0
326875,-200,4,2,1,10,0,0
327570,404.013,4,2,1,10,1,0
327974,-166.666666666667,4,2,1,10,0,0
328378,417.217,4,2,1,10,1,0
328378,-125,4,2,1,10,0,0
329525,543.183,4,2,1,10,1,0
329660,391.645,4,2,1,10,1,0
330051,-200,4,2,1,10,0,0
330345,456.934,4,2,1,10,1,0
330455,-100,4,2,1,10,0,0
330459,391.645,4,2,1,10,1,0
330850,-200,4,2,1,10,0,0
331144,514.051,4,2,1,10,1,0
331273,393.44262295082,4,2,1,10,1,0
331666,-200,4,2,1,10,0,0
332059,-100,4,2,1,10,0,0
332453,-200,4,2,1,10,0,0
332846,411.212,4,2,1,10,1,0
333257,397.350993377483,4,2,1,20,1,0
333654,394.348,4,2,1,20,1,0
334048,384.246218157468,4,2,1,20,1,0
334432,384.024431995204,4,2,1,20,1,0
334816,379.746835443038,4,2,1,20,1,0
335195,375,4,2,1,20,1,0
335570,349.426051415556,4,2,1,30,1,0
335919,359.842,4,2,1,30,1,0
338438,381.356740162585,4,2,1,30,1,0
338819,361.3369467028,4,2,1,30,1,0
341348,398.433,4,2,1,30,1,0
341547,576.923076923077,4,2,1,30,1,0
341835,472.441,4,2,1,30,1,0
343725,481.928,4,2,1,30,1,0
344206,647.249190938511,4,2,1,30,1,0
344206,-333.333333333333,4,2,1,30,0,0
345824,-333.333333333333,4,2,1,5,0,0
346147,472.441,4,2,1,30,1,0
348037,481.928,4,2,1,30,1,0
348518,644.468313641246,4,2,1,30,1,0
348518,-285.714285714286,4,2,1,30,0,0
350129,-285.714285714286,4,2,1,5,0,0
350451,416.666666666667,4,2,1,30,1,0
350867,374.711940195974,4,2,1,30,1,0
351616,393.005,4,2,1,30,1,0
352402,362.078,4,2,1,30,1,0
353126,393.005,4,2,1,30,1,0
353519,404.013,4,2,1,30,1,0
353923,362.078,4,2,1,30,1,0
354466,414.193,4,2,1,30,1,0
355087,404.013,4,2,1,30,1,0
355491,362.078,4,2,1,30,1,0
356034,414.193,4,2,1,30,1,0
356655,414.193,4,2,1,30,1,0
357069,359.842,4,2,1,30,1,0
357069,-200,4,2,1,30,0,0
357608,-200,4,2,1,5,0,0
357789,380.035,4,2,1,30,1,0
358549,360.967,4,2,1,30,1,0
359090,390.32,4,2,1,30,1,0
359285,408.33,4,2,1,30,1,0
359693,387.672,4,2,1,30,1,0
360081,360.967,4,2,1,30,1,0
360622,386.399,4,2,1,30,1,0
360815,409.78,4,2,1,30,1,0
361225,386.399,4,2,1,30,1,0
361611,359.842,4,2,1,30,1,0
362145,414.193,4,2,1,30,1,0
362780,359.842,4,2,1,30,1,0
363499,368.098159509202,4,2,1,30,1,0
364235,372.670807453416,4,2,1,30,1,0
364980,397.350993377483,4,2,1,30,1,0
365377,422.535211267606,4,2,1,30,1,0
365799,360.36,4,2,1,30,1,1
368322,363.635915849409,4,2,1,30,1,1
368685,360.36,4,2,1,30,1,1
371207,366.600271284201,4,2,1,30,1,1
371573,360.36,4,2,1,30,1,1
371573,-90.9090909090909,4,2,1,30,0,1
373735,367.820601631897,4,2,1,30,1,1
373735,-90.9090909090909,4,2,1,30,0,1
374470,360.36,4,2,1,30,1,1
374470,-90.9090909090909,4,2,1,30,0,1
377722,-90.9090909090909,4,2,1,35,0,1
378079,-90.9090909090909,4,2,1,40,0,1
378436,-90.9090909090909,4,2,1,45,0,1
378793,-90.9090909090909,4,2,1,50,0,1
379154,432.588320115357,4,2,1,55,1,1
379154,-55.5555555555556,4,2,1,55,0,1
379514,432.588320115357,4,2,1,60,1,1
379514,-55.5555555555556,4,2,1,60,0,1
379874,354.609929078014,4,2,1,65,1,1
380228,327.868852459016,4,2,1,30,1,1
380555,317.460317460317,4,2,1,30,1,1
380555,-90.9090909090909,4,2,1,30,0,1
380872,301.507537688442,4,2,1,30,1,1
380872,-82.6446280991736,4,2,1,30,0,1
381173,-75.1314800901578,4,2,1,30,0,1
381475,291.26213592233,4,2,1,30,1,1
381475,-68.3013455365071,4,2,1,30,0,1
381766,327.868852459016,4,2,1,30,1,1
381766,-62.0921323059155,4,2,1,30,0,1
382011,408.163265306122,4,2,1,30,1,1
382113,625,4,2,1,30,1,1
382425,638.297872340426,4,2,1,30,1,1
382744,652.173913043478,4,2,1,30,1,1
383070,600,4,2,1,30,1,1
383370,540.540540540541,4,2,1,30,1,1
383640,512.820512820513,4,2,1,30,1,1
383896,478.08764940239,4,2,1,30,1,1
384135,444.444444444444,4,2,1,30,1,1
384357,434.782608695652,4,2,1,30,1,1
384574,425.531914893617,4,2,1,30,1,1
384786,379.746835443038,4,2,1,30,1,1
384975,375,4,2,1,30,1,1
385162,365.853658536585,4,2,1,30,1,1
385344,352.941176470588,4,2,1,30,1,1
385520,346.820809248555,4,2,1,30,1,1
385693,329.67032967033,4,2,1,30,1,1
385857,319.148936170213,4,2,1,30,1,1
386016,309.278350515464,4,2,1,30,1,1
386170,291.26213592233,4,2,1,30,1,1
386315,283.018867924528,4,2,1,30,1,1
386456,279.06976744186,4,2,1,30,1,1
386595,271.493212669683,4,2,1,30,1,1
386730,265.486725663717,4,2,1,30,1,1
386862,248.96265560166,4,2,1,30,1,1
386986,240,4,2,1,30,1,1
387106,230.769230769231,4,2,1,30,1,1
387221,222.222222222222,4,2,1,30,1,1
387332,540.00054000054,4,2,1,30,1,0
387872,733.334962966584,4,2,1,30,1,0
388605,1176.47058823529,4,2,1,10,1,0
389487,-100,4,2,1,5,0,0
389781,575.76,4,2,1,10,1,0
389781,-400,4,2,1,10,0,0
391796,-400,4,2,1,5,0,0
392084,-400,4,2,1,10,0,0
394100,-100,4,2,1,5,0,0
394387,397.035,4,2,1,10,1,0
394387,-166.666666666667,4,2,1,10,0,0
395578,-125,4,2,1,10,0,0
395975,-100,4,2,1,10,0,0
396372,409.78,4,2,1,10,1,0
396372,-166.666666666667,4,2,1,10,0,0
396781,-166.666666666667,4,2,1,10,0,0
397499,578.592,4,2,1,10,1,0
397644,391.645,4,2,1,10,1,0
398035,-166.666666666667,4,2,1,10,0,0
398819,397.035,4,2,1,10,1,0
398819,-125,4,2,1,10,0,0
399213,-100,4,2,1,10,0,0
399613,404.013,4,2,1,10,1,0
399613,-125,4,2,1,10,0,0
400724,572.902,4,2,1,10,1,0
400867,397.035,4,2,1,10,1,0
401264,-166.666666666667,4,2,1,10,0,0
401562,535.571,4,2,1,10,1,0
401696,394.348,4,2,1,10,1,0
402090,-200,4,2,1,10,0,0
402386,523.378,4,2,1,10,1,0
402517,391.645,4,2,1,10,1,0
402908,-166.666666666667,4,2,1,10,0,0
403202,523.378,4,2,1,10,1,0
403333,389.004,4,2,1,10,1,0
403722,-166.666666666667,4,2,1,10,0,0
404013,480,4,2,1,30,1,0
404133,371.517027863777,4,2,1,30,1,1
405619,359.281437125748,4,2,1,30,1,1
407056,361.44578313253,4,2,1,30,1,1
407417,379.746835443038,4,2,1,30,1,1
407796,387.096774193548,4,2,1,30,1,1
408183,404.040404040404,4,2,1,30,1,1
408587,408.33,4,2,1,30,1,1
410220,-100,4,2,1,40,0,0

[Colours]
Combo1 : 255,0,0
Combo2 : 41,160,137
Combo3 : 46,226,73
Combo4 : 102,228,255
Combo5 : 188,170,67

[HitObjects]
196,114,193,5,2,0:0:0:0:
202,129,282,1,0,0:0:0:0:
204,147,372,1,2,0:0:0:0:
202,164,462,1,2,0:0:0:0:
200,179,552,5,2,0:0:0:0:
207,195,642,1,0,0:0:0:0:
210,212,732,1,2,0:0:0:0:
208,229,822,1,2,0:0:0:0:
199,245,912,5,2,0:0:0:0:
206,260,1002,1,0,0:0:0:0:
209,277,1092,1,2,0:0:0:0:
208,295,1182,1,2,0:0:0:0:
198,306,1272,5,2,0:0:0:0:
191,322,1362,1,0,0:0:0:0:
189,340,1452,1,2,0:0:0:0:
192,357,1542,1,2,0:0:0:0:
200,372,1632,37,2,0:0:0:0:
218,353,1722,1,0,0:0:0:0:
240,340,1812,1,2,0:0:0:0:
266,335,1902,1,2,0:0:0:0:
295,340,1992,5,2,0:0:0:0:
328,348,2082,1,0,0:0:0:0:
363,342,2172,1,2,0:0:0:0:
392,324,2262,1,2,0:0:0:0:
412,296,2352,5,2,0:0:0:0:
420,253,2442,1,0,0:0:0:0:
414,210,2531,1,2,0:0:0:0:
393,172,2621,1,2,0:0:0:0:
361,143,2712,21,8,2:0:0:0:
236,263,2899,1,8,2:0:0:0:
151,151,3087,37,2,0:0:0:0:
165,160,3176,1,0,0:0:0:0:
182,166,3266,1,2,0:0:0:0:
199,167,3356,1,2,0:0:0:0:
217,165,3446,21,2,0:0:0:0:
232,156,3536,1,0,0:0:0:0:
249,152,3626,1,2,0:0:0:0:
266,152,3716,1,2,0:0:0:0:
286,157,3806,5,2,0:0:0:0:
279,173,3896,1,0,0:0:0:0:
277,190,3986,1,2,0:0:0:0:
280,207,4076,1,2,0:0:0:0:
288,223,4166,5,2,0:0:0:0:
298,248,4256,1,0,0:0:0:0:
300,274,4346,1,2,0:0:0:0:
294,299,4436,1,2,0:0:0:0:
280,321,4526,37,2,0:0:0:0:
246,330,4616,1,0,0:0:0:0:
212,326,4706,1,2,0:0:0:0:
182,309,4796,1,2,0:0:0:0:
161,280,4886,5,2,0:0:0:0:
153,238,4976,1,0,0:0:0:0:
162,196,5066,1,2,0:0:0:0:
189,161,5156,1,2,0:0:0:0:
228,142,5246,5,2,0:0:0:0:
270,134,5336,1,2,0:0:0:0:
313,142,5425,1,2,0:0:0:0:
350,164,5515,1,2,0:0:0:0:
378,198,5606,5,8,0:0:0:0:
500,109,5794,1,8,0:0:0:0:
449,310,5982,37,2,0:0:0:0:
419,291,6071,1,0,0:0:0:0:
385,285,6161,1,2,0:0:0:0:
350,291,6251,1,2,0:0:0:0:
319,310,6341,5,2,0:0:0:0:
285,320,6431,1,0,0:0:0:0:
251,318,6521,1,2,0:0:0:0:
220,303,6611,1,2,0:0:0:0:
194,276,6701,5,2,0:0:0:0:
181,243,6791,1,0,0:0:0:0:
155,220,6881,1,2,0:0:0:0:
122,210,6971,1,2,0:0:0:0:
88,217,7061,21,2,0:0:0:0:
60,238,7151,1,0,0:0:0:0:
44,269,7241,1,2,0:0:0:0:
44,303,7331,1,2,0:0:0:0:
64,340,7421,37,2,0:0:0:0:
103,359,7511,1,2,0:0:0:0:
146,360,7601,1,2,0:0:0:0:
184,340,7691,1,2,0:0:0:0:
208,303,7781,21,2,0:0:0:0:
235,337,7871,1,0,0:0:0:0:
273,357,7961,1,2,0:0:0:0:
316,360,8051,1,2,0:0:0:0:
359,346,8141,5,2,0:0:0:0:
361,302,8231,1,0,0:0:0:0:
363,258,8320,1,2,0:0:0:0:
366,214,8410,1,2,0:0:0:0:
368,171,8501,5,8,0:0:0:0:
359,346,8687,1,8,0:0:0:0:
208,303,8874,37,2,0:0:0:0:
191,272,8964,1,0,0:0:0:0:
188,237,9054,1,2,0:0:0:0:
197,204,9144,1,2,0:0:0:0:
219,176,9234,5,2,0:0:0:0:
218,141,9324,1,0,0:0:0:0:
204,109,9414,1,2,0:0:0:0:
178,86,9504,1,2,0:0:0:0:
145,74,9594,5,2,0:0:0:0:
102,79,9684,1,2,0:0:0:0:
67,105,9774,1,2,0:0:0:0:
49,144,9864,1,2,0:0:0:0:
53,187,9954,5,8,0:0:0:0:
219,176,10137,1,8,0:0:0:0:
62,281,10321,37,2,0:0:0:0:
93,266,10410,1,0,0:0:0:0:
128,264,10500,1,2,0:0:0:0:
160,277,10590,1,2,0:0:0:0:
189,301,10680,5,2,0:0:0:0:
218,282,10770,1,0,0:0:0:0:
252,277,10860,1,2,0:0:0:0:
285,287,10950,1,2,0:0:0:0:
310,309,11040,5,2,0:0:0:0:
349,291,11130,1,2,0:0:0:0:
375,257,11220,1,2,0:0:0:0:
382,214,11310,1,2,0:0:0:0:
367,173,11400,21,10,0:0:0:0:
462,19,11604,1,10,0:0:0:0:
284,18,11809,37,10,0:0:0:0:
275,30,12013,2,0,L|211:35,1,35,2|0,0:0|0:0,0:0:0:0:
391,97,12218,22,0,L|455:102,1,35,8|0,0:0|0:0,0:0:0:0:
397,112,12398,2,0,L|461:117,1,35,2|0,0:0|0:0,0:0:0:0:
281,179,12579,6,0,L|217:184,1,35,8|0,0:0|0:0,0:0:0:0:
275,194,12760,2,0,L|211:199,1,35,2|0,0:0|0:0,0:0:0:0:
391,261,12940,6,0,L|455:266,1,35,8|0,0:0|0:0,0:0:0:0:
397,276,13121,2,0,L|461:281,1,35,2|0,0:0|0:0,0:0:0:0:
242,346,13302,38,0,L|247:282,1,35,8|0,0:0|0:0,0:0:0:0:
257,340,13487,2,0,L|262:276,1,35,2|0,0:0|0:0,0:0:0:0:
166,125,13672,6,0,L|161:189,1,35,8|0,0:0|0:0,0:0:0:0:
320,201,13857,2,0,L|317:166,1,35,8|0,0:0|0:0,0:0:0:0:
158,226,14042,6,0,L|153:290,1,35,8|0,0:0|0:0,0:0:0:0:
312,103,14227,2,0,L|309:68,1,35,8|0,0:0|0:0,0:0:0:0:
94,188,14413,6,0,L|79:234,1,35,8|0,0:0|0:0,0:0:0:0:
259,305,14598,2,0,L|258:348,1,35,8|0,0:0|0:0,0:0:0:0:
477,232,14783,38,0,L|520:220,1,35,8|0,0:0|0:0,0:0:0:0:
468,219,14968,2,0,L|502:202,1,35,2|0,0:0|0:0,0:0:0:0:
361,109,15153,6,0,L|372:65,1,35,8|0,0:0|0:0,0:0:0:0:
348,105,15339,2,0,L|356:70,1,35,2|0,0:0|0:0,0:0:0:0:
174,185,15524,6,0,L|166:219,1,35,8|0,0:0|0:0,0:0:0:0:
185,200,15709,2,0,L|176:233,1,35,2|0,0:0|0:0,0:0:0:0:
343,296,15894,22,0,L|352:263,1,35,8|0,0:0|0:0,0:0:0:0:
355,306,16079,2,0,L|364:273,1,35,2|0,0:0|0:0,0:0:0:0:
214,79,16264,38,0,L|218:133,1,35,8|0,0:0|0:0,0:0:0:0:
206,88,16450,2,0,L|210:142,1,35,2|0,0:0|0:0,0:0:0:0:
398,198,16635,22,0,L|394:144,1,35,8|0,0:0|0:0,0:0:0:0:
310,40,16820,2,0,L|307:74,1,35,8|0,0:0|0:0,0:0:0:0:
474,160,17005,6,0,L|456:108,1,35,8|0,0:0|0:0,0:0:0:0:
224,68,17190,2,0,L|230:102,1,35,8|0,0:0|0:0,0:0:0:0:
432,51,17376,6,0,L|435:17,1,35,8|0,0:0|0:0,0:0:0:0:
323,150,17561,2,0,L|320:184,1,35,8|0,0:0|0:0,0:0:0:0:
313,321,17746,38,0,L|315:284,1,35,10|0,0:0|0:0,0:0:0:0:
180,172,17931,2,0,L|217:174,1,35,8|0,0:0|0:0,0:0:0:0:
312,44,18116,6,0,L|314:81,1,35,10|0,0:0|0:0,0:0:0:0:
179,193,18301,2,0,L|216:191,1,35,8|0,0:0|0:0,0:0:0:0:
303,302,18487,6,0,L|308:265,1,35,10|0,0:0|0:0,0:0:0:0:
183,141,18672,2,0,L|219:146,1,35,8|0,0:0|0:0,0:0:0:0:
315,24,18857,6,0,L|317:61,1,35,10|0,0:0|0:0,0:0:0:0:
179,223,19042,2,0,L|216:221,1,35,8|0,0:0|0:0,0:0:0:0:
422,234,19226,37,10,0:0:0:0:
421,119,19724,6,0,L|422:234,1,115.49999647522,0|0,3:0|0:0,0:0:0:0:
313,189,21889,5,2,0:0:0:0:
318,205,21978,1,0,0:0:0:0:
319,223,22068,1,2,0:0:0:0:
315,240,22158,1,2,0:0:0:0:
306,253,22248,21,2,0:0:0:0:
297,267,22338,1,0,0:0:0:0:
292,284,22428,1,2,0:0:0:0:
291,302,22518,1,2,0:0:0:0:
295,319,22608,37,2,0:0:0:0:
280,308,22698,1,0,0:0:0:0:
264,304,22788,1,2,0:0:0:0:
246,305,22878,1,2,0:0:0:0:
229,314,22968,21,2,0:0:0:0:
203,317,23058,1,0,0:0:0:0:
177,311,23148,1,2,0:0:0:0:
155,297,23238,1,2,0:0:0:0:
139,277,23328,5,2,0:0:0:0:
129,243,23418,1,0,0:0:0:0:
132,209,23508,1,2,0:0:0:0:
148,178,23598,1,2,0:0:0:0:
174,155,23688,53,2,0:0:0:0:
214,139,23778,1,0,0:0:0:0:
257,142,23868,1,2,0:0:0:0:
295,164,23958,1,2,0:0:0:0:
319,199,24048,5,2,0:0:0:0:
361,228,24138,1,2,0:0:0:0:
413,233,24227,1,2,0:0:0:0:
460,210,24317,1,2,0:0:0:0:
489,168,24407,5,8,0:0:0:0:
510,331,24593,1,8,0:0:0:0:
347,350,24778,53,2,0:0:0:0:
341,333,24867,1,0,0:0:0:0:
339,315,24957,1,2,0:0:0:0:
340,298,25047,1,2,0:0:0:0:
344,277,25137,5,2,0:0:0:0:
374,259,25227,1,0,0:0:0:0:
396,233,25317,1,2,0:0:0:0:
408,200,25407,1,2,0:0:0:0:
408,165,25497,37,2,0:0:0:0:
405,132,25587,1,0,0:0:0:0:
394,100,25677,1,2,0:0:0:0:
364,81,25767,1,2,0:0:0:0:
335,62,25857,37,2,0:0:0:0:
299,86,25947,1,0,0:0:0:0:
256,92,26037,1,2,0:0:0:0:
215,77,26127,1,2,0:0:0:0:
186,43,26217,21,2,0:0:0:0:
147,23,26307,1,0,0:0:0:0:
104,25,26397,1,2,0:0:0:0:
67,48,26487,1,2,0:0:0:0:
47,86,26577,5,2,0:0:0:0:
89,90,26667,1,0,0:0:0:0:
121,119,26757,1,2,0:0:0:0:
131,161,26847,1,2,0:0:0:0:
112,200,26937,53,2,0:0:0:0:
71,211,27027,1,0,0:0:0:0:
52,249,27116,1,2,0:0:0:0:
67,288,27206,1,2,0:0:0:0:
107,303,27296,5,8,0:0:0:0:
189,134,27480,1,8,0:0:0:0:
289,213,27663,5,2,0:0:0:0:
313,222,27753,1,0,0:0:0:0:
339,223,27843,1,2,0:0:0:0:
364,216,27933,1,2,0:0:0:0:
386,198,28023,5,2,0:0:0:0:
399,165,28113,1,0,0:0:0:0:
400,131,28203,1,2,0:0:0:0:
387,98,28293,1,2,0:0:0:0:
365,76,28383,37,2,0:0:0:0:
323,88,28473,1,2,0:0:0:0:
280,83,28563,1,2,0:0:0:0:
241,62,28652,1,2,0:0:0:0:
212,28,28742,5,2,0:0:0:0:
170,16,28832,1,2,0:0:0:0:
127,22,28922,1,2,0:0:0:0:
89,44,29012,1,2,0:0:0:0:
64,79,29102,5,2,0:0:0:0:
65,122,29192,1,0,0:0:0:0:
66,166,29282,1,2,0:0:0:0:
67,210,29372,1,2,0:0:0:0:
68,253,29462,21,2,0:0:0:0:
85,224,29552,1,0,0:0:0:0:
117,213,29641,1,2,0:0:0:0:
163,220,29731,1,2,0:0:0:0:
195,255,29821,37,2,0:0:0:0:
230,280,29911,1,2,0:0:0:0:
272,288,30001,1,2,0:0:0:0:
315,277,30091,1,0,0:0:0:0:
348,250,30181,21,2,0:0:0:0:
363,205,30280,1,2,0:0:0:0:
353,161,30380,2,0,P|341:171|333:189,1,35,2|0,0:0|0:0,0:0:0:0:
275,28,30579,5,8,0:0:0:0:
275,28,30979,54,0,P|348:11|408:42,1,140,8|0,0:0|0:0,0:0:0:0:
460,140,32030,53,0,0:0:0:0:
460,157,32076,2,2,L|460:172,3,11.6666666666667
393,100,32552,22,0,P|369:159|414:230,1,140.699993344574,8|0,0:0|0:0,0:0:0:0:
454,326,33294,2,0,P|418:318|347:342,1,105,8|0,0:0|0:0,0:0:0:0:
346,345,33713,1,8,0:0:0:0:
188,344,34084,6,0,P|135:327|97:241,1,140.699993344574,8|0,0:0|0:0,0:0:0:0:
204,121,34827,2,0,L|200:239,1,105,8|0,0:0|0:0,0:0:0:0:
199,245,35235,1,8,0:0:0:0:
424,212,35643,6,0,P|370:165|285:163,1,140.699993344574,8|0,0:0|0:0,0:0:0:0:
167,79,36383,2,0,P|200:59|277:63,1,105,8|0,0:0|0:0,0:0:0:0:
279,66,36792,21,8,0:0:0:0:
258,222,36975,2,0,L|204:233,1,41.9999987182618,8|0,0:0|0:0,0:0:0:0:
270,289,37341,2,0,L|216:300,1,41.9999987182618,8|0,0:0|0:0,0:0:0:0:
282,356,37708,1,8,0:0:0:0:
103,254,37891,37,10,0:0:0:0:
138,353,38075,1,8,0:0:0:0:
172,175,38258,21,10,0:0:0:0:
207,274,38441,2,0,L|207:333,1,48.9999985046387,8|0,0:0|0:0,0:0:0:0:
310,295,38808,2,0,L|361:324,1,48.9999985046387,8|0,0:0|0:0,0:0:0:0:
379,216,39174,1,8,0:0:0:0:
412,315,39358,5,10,0:0:0:0:
363,167,39541,1,8,0:0:0:0:
310,295,39724,5,10,0:0:0:0:
413,177,39908,2,0,L|430:104,1,56,8|0,0:0|0:0,0:0:0:0:
294,108,40274,2,0,L|239:58,1,56,8|0,0:0|0:0,0:0:0:0:
174,176,40641,1,8,0:0:0:0:
172,313,40824,37,10,0:0:0:0:
234,142,41007,1,8,0:0:0:0:
112,347,41191,5,10,0:0:0:0:
293,246,41374,2,0,L|277:322,1,70,8|0,0:0|0:0,0:0:0:0:
381,299,41741,2,0,L|438:350,1,70,8|0,0:0|0:0,0:0:0:0:
470,249,42107,1,8,0:0:0:0:
309,104,42291,5,10,0:0:0:0:
336,359,42474,1,10,0:0:0:0:
247,162,42657,54,0,P|194:154|163:126,1,70,10|0,0:0|0:0,0:0:0:0:
163,58,42929,1,0,3:0:0:0:
163,58,43020,2,0,P|216:66|247:94,1,70,0|0,3:0|0:0,0:0:0:0:
85,7,43293,1,0,3:0:0:0:
85,7,43384,6,0,P|69:38|68:72,1,70,10|0,0:0|0:0,0:0:0:0:
47,140,43657,1,0,3:0:0:0:
47,141,43747,2,0,P|31:172|30:206,1,70,0|0,3:0|0:0,0:0:0:0:
119,192,44111,21,2,0:0:0:0:
134,184,44172,1,2,0:0:0:0:
151,182,44232,1,2,0:0:0:0:
168,186,44293,1,2,0:0:0:0:
183,195,44353,1,2,0:0:0:0:
194,208,44414,1,2,0:0:0:0:
201,228,44475,22,0,B|238:218|238:218|281:221,1,70,8|0,0:0|0:0,0:0:0:0:
280,133,44747,1,0,3:0:0:0:
280,133,44838,2,0,B|314:149|314:149|352:186,1,70,0|0,3:0|0:0,0:0:0:0:
390,110,45111,1,0,3:0:0:0:
390,110,45202,2,0,P|414:139|420:172,1,70,0|0,3:0|0:0,0:0:0:0:
376,241,45475,1,0,3:0:0:0:
376,241,45566,6,0,L|331:306,1,70,10|0,0:0|0:0,0:0:0:0:
277,354,45838,1,0,3:0:0:0:
277,354,45929,2,0,L|212:309,1,70,0|0,3:0|0:0,0:0:0:0:
137,333,46202,1,0,3:0:0:0:
137,333,46293,6,0,L|122:255,1,70,10|0,0:0|0:0,0:0:0:0:
79,184,46566,1,0,3:0:0:0:
79,184,46657,2,0,L|156:169,1,70,0|0,3:0|0:0,0:0:0:0:
249,226,47020,5,2,0:0:0:0:
231,222,47081,1,2,0:0:0:0:
214,223,47141,1,2,0:0:0:0:
198,230,47202,1,2,0:0:0:0:
184,241,47263,1,2,0:0:0:0:
174,255,47323,1,2,0:0:0:0:
165,275,47384,6,0,B|168:355,1,70,8|0,0:0|0:0,0:0:0:0:
93,305,47657,1,0,3:0:0:0:
93,305,47747,2,0,B|77:213,1,70,0|0,3:0|0:0,0:0:0:0:
147,170,48020,1,0,0:0:0:0:
147,170,48111,2,0,L|143:84,1,70,0|0,3:0|0:0,0:0:0:0:
61,146,48384,1,0,3:0:0:0:
61,146,48475,6,0,P|129:164|214:127,1,157.5,10|2,0:0|0:0,0:0:0:0:
241,124,49365,1,2,0:0:0:0:
275,131,49454,1,2,0:0:0:0:
302,153,49543,1,2,0:0:0:0:
332,136,49632,1,2,0:0:0:0:
367,130,49721,1,2,0:0:0:0:
401,134,49810,1,2,0:0:0:0:
433,148,49899,5,10,0:0:0:0:
447,107,49989,1,2,0:0:0:0:
425,71,50079,1,2,0:0:0:0:
383,67,50170,1,2,0:0:0:0:
354,98,50260,1,2,0:0:0:0:
341,133,50350,1,2,0:0:0:0:
342,168,50441,1,2,0:0:0:0:
355,200,50531,1,2,0:0:0:0:
380,224,50621,53,10,0:0:0:0:
344,248,50712,1,2,0:0:0:0:
332,289,50802,1,2,0:0:0:0:
348,329,50892,1,2,0:0:0:0:
382,346,50983,1,2,0:0:0:0:
400,317,51073,1,2,0:0:0:0:
399,282,51164,1,2,0:0:0:0:
377,256,51254,1,2,0:0:0:0:
344,248,51344,21,10,0:0:0:0:
301,252,51435,1,2,0:0:0:0:
263,273,51525,1,2,0:0:0:0:
238,309,51615,1,2,0:0:0:0:
230,351,51706,21,10,0:0:0:0:
200,319,51796,1,2,0:0:0:0:
158,311,51886,1,2,0:0:0:0:
120,330,51977,1,2,0:0:0:0:
102,367,52067,37,10,0:0:0:0:
142,353,52157,1,2,0:0:0:0:
163,316,52247,1,2,0:0:0:0:
152,275,52338,1,2,0:0:0:0:
116,252,52429,21,10,0:0:0:0:
81,227,52519,1,2,0:0:0:0:
55,191,52609,1,2,0:0:0:0:
44,150,52700,1,2,0:0:0:0:
48,106,52790,22,0,L|90:108,1,35,8|0,0:0|0:0,0:0:0:0:
136,166,52971,2,0,L|170:167,1,35
134,34,53152,2,0,L|168:35,1,35
222,94,53332,2,0,L|256:95,1,35
306,30,53513,21,2,0:0:0:0:
316,26,53573,1,2,0:0:0:0:
328,24,53633,1,2,0:0:0:0:
340,25,53694,1,2,0:0:0:0:
351,28,53754,1,2,0:0:0:0:
361,33,53814,1,2,0:0:0:0:
370,41,53874,1,2,0:0:0:0:
377,50,53935,1,2,0:0:0:0:
382,61,53995,1,2,0:0:0:0:
384,72,54055,1,2,0:0:0:0:
384,84,54115,1,2,0:0:0:0:
382,95,54176,1,2,0:0:0:0:
377,106,54236,1,8,0:0:0:0:
402,237,54666,6,0,P|408:267|323:278,1,140,10|2,0:0|0:0,0:0:0:0:
313,295,55204,1,2,0:0:0:0:
302,308,55294,1,2,0:0:0:0:
294,324,55384,5,2,0:0:0:0:
287,307,55474,1,2,0:0:0:0:
276,294,55564,1,2,0:0:0:0:
262,284,55653,1,2,0:0:0:0:
244,280,55742,1,2,0:0:0:0:
218,282,55832,1,2,0:0:0:0:
198,299,55922,1,2,0:0:0:0:
191,324,56012,1,2,0:0:0:0:
201,350,56102,5,10,0:0:0:0:
183,331,56191,1,2,0:0:0:0:
158,323,56281,1,2,0:0:0:0:
133,330,56371,1,2,0:0:0:0:
114,350,56461,1,2,0:0:0:0:
88,344,56550,1,2,0:0:0:0:
67,329,56640,1,2,0:0:0:0:
52,307,56730,1,2,0:0:0:0:
42,276,56820,53,10,0:0:0:0:
75,284,56909,1,2,0:0:0:0:
110,280,56999,1,2,0:0:0:0:
141,264,57089,1,2,0:0:0:0:
164,238,57179,1,2,0:0:0:0:
176,205,57269,1,2,0:0:0:0:
175,170,57359,5,10,0:0:0:0:
189,129,57448,1,2,0:0:0:0:
225,105,57538,1,2,0:0:0:0:
268,107,57628,1,2,0:0:0:0:
301,134,57719,5,10,0:0:0:0:
341,150,57808,1,2,0:0:0:0:
383,142,57898,1,2,0:0:0:0:
414,111,57988,1,2,0:0:0:0:
422,69,58078,21,10,0:0:0:0:
385,49,58167,1,2,0:0:0:0:
346,65,58257,1,2,0:0:0:0:
334,106,58347,1,2,0:0:0:0:
357,144,58437,37,10,0:0:0:0:
389,137,58526,1,2,0:0:0:0:
401,107,58617,21,10,0:0:0:0:
384,100,58707,1,2,0:0:0:0:
367,98,58796,1,2,0:0:0:0:
350,99,58886,1,2,0:0:0:0:
333,105,58976,1,2,0:0:0:0:
318,98,59066,1,2,0:0:0:0:
301,94,59156,1,2,0:0:0:0:
283,94,59245,1,2,0:0:0:0:
266,98,59335,1,2,0:0:0:0:
237,117,59425,1,2,0:0:0:0:
221,148,59515,1,2,0:0:0:0:
221,183,59605,1,2,0:0:0:0:
237,213,59695,1,2,0:0:0:0:
252,254,59784,1,2,0:0:0:0:
240,295,59874,1,2,0:0:0:0:
206,320,59964,1,2,0:0:0:0:
167,327,60054,6,0,L|120:333,7,35,10|0|0|0|0|0|0|0,0:0|0:0|0:0|0:0|0:0|0:0|0:0|0:0,0:0:0:0:
252,254,60778,6,0,L|286:257,7,35,8|0|0|0|0|0|0|0,0:0|0:0|0:0|0:0|0:0|0:0|0:0|0:0,0:0:0:0:
167,185,61504,38,0,L|131:188,7,35,8|0|0|0|0|0|0|0,0:0|0:0|0:0|0:0|0:0|0:0|0:0|0:0,0:0:0:0:
236,114,62229,22,0,P|284:136|357:118,1,122.5,10|0,0:0|0:0,0:0:0:0:
392,60,62955,6,0,L|474:64,1,70,8|0,0:0|0:0,0:0:0:0:
396,285,63321,1,0,0:0:0:0:
382,284,63505,1,0,0:0:0:0:
368,283,63688,1,0,0:0:0:0:
354,282,63872,1,0,0:0:0:0:
254,360,64055,1,8,0:0:0:0:
240,359,64239,1,8,0:0:0:0:
54,355,64422,38,0,L|35:280,1,70,10|0,0:0|0:0,0:0:0:0:
121,74,64789,1,0,0:0:0:0:
124,87,64973,1,0,0:0:0:0:
127,101,65156,1,0,0:0:0:0:
131,114,65340,1,0,0:0:0:0:
211,173,65523,1,8,0:0:0:0:
215,186,65707,1,8,0:0:0:0:
433,184,65890,6,0,L|359:189,1,70,10|0,0:0|0:0,0:0:0:0:
182,349,66257,1,0,0:0:0:0:
195,348,66441,1,0,0:0:0:0:
209,347,66624,1,0,0:0:0:0:
223,346,66808,1,0,0:0:0:0:
314,284,66991,1,8,0:0:0:0:
328,283,67175,1,8,0:0:0:0:
261,119,67358,38,0,L|244:42,1,70,10|0,0:0|0:0,0:0:0:0:
95,228,67725,1,0,0:0:0:0:
98,241,67909,1,0,0:0:0:0:
101,255,68092,1,0,0:0:0:0:
104,269,68276,1,0,0:0:0:0:
205,347,68459,1,8,0:0:0:0:
208,361,68643,1,8,0:0:0:0:
414,347,68826,38,0,L|430:271,1,70,10|0,0:0|0:0,0:0:0:0:
413,145,69189,1,0,0:0:0:0:
328,277,69370,2,0,P|292:262|187:271,1,140,8|0,0:0|0:0,0:0:0:0:
75,352,69915,1,0,0:0:0:0:
275,344,70096,2,0,P|288:293|273:193,1,140,8|0,0:0|0:0,0:0:0:0:
248,58,70641,1,0,0:0:0:0:
193,268,70822,2,0,B|125:246|115:308|36:271,1,140,8|0,0:0|0:0,0:0:0:0:
96,175,71367,1,8,0:0:0:0:
158,349,71549,1,8,0:0:0:0:
278,207,71730,22,0,L|362:209,1,83.9999974365235,10|0,0:0|0:0,0:0:0:0:
490,23,72095,1,8,0:0:0:0:
271,88,72278,1,8,0:0:0:0:
459,102,72461,1,8,0:0:0:0:
253,13,72644,1,8,0:0:0:0:
361,208,72827,1,8,0:0:0:0:
490,23,73010,1,8,0:0:0:0:
197,67,73193,6,0,L|95:84,1,97.9999970092774,10|0,0:0|0:0,0:0:0:0:
39,334,73559,1,10,0:0:0:0:
254,138,73742,1,8,0:0:0:0:
25,46,73925,53,10,0:0:0:0:
139,315,74108,1,8,0:0:0:0:
315,82,74290,5,10,0:0:0:0:
16,151,74473,1,8,0:0:0:0:
329,160,74656,6,0,L|440:162,1,97.9999970092774,10|0,0:0|0:0,0:0:0:0:
485,71,75022,1,8,0:0:0:0:
493,238,75205,1,8,0:0:0:0:
410,91,75388,1,8,0:0:0:0:
410,264,75571,1,8,0:0:0:0:
310,64,75754,1,8,0:0:0:0:
307,312,75937,1,8,0:0:0:0:
140,174,76120,5,10,0:0:0:0:
410,111,76303,1,8,0:0:0:0:
209,264,76486,37,10,0:0:0:0:
482,190,76669,1,8,0:0:0:0:
135,330,76851,5,10,0:0:0:0:
405,267,77034,1,8,0:0:0:0:
209,82,77217,5,10,0:0:0:0:
228,362,77400,1,8,0:0:0:0:
405,267,77583,22,0,P|410:297|406:339,2,70,8|0|0,0:0|0:0|0:0,0:0:0:0:
464,164,78130,2,0,P|411:144|323:179,1,140,8|0,0:0|0:0,0:0:0:0:
276,277,78677,1,0,0:0:0:0:
208,97,78859,2,0,B|188:155|241:169|210:248,1,140,8|0,0:0|0:0,0:0:0:0:
276,120,79406,1,0,0:0:0:0:
134,31,79589,2,0,P|92:29|35:111,1,140,8|0,0:0|0:0,0:0:0:0:
237,29,80136,1,0,0:0:0:0:
109,109,80318,2,0,L|193:95,1,70,8|0,0:0|0:0,0:0:0:0:
104,213,80685,37,10,0:0:0:0:
71,309,80870,1,8,0:0:0:0:
170,289,81055,2,0,L|181:364,1,70,10|0,0:0|0:0,0:0:0:0:
267,311,81455,21,10,0:0:0:0:
347,311,81655,1,8,0:0:0:0:
393,248,81855,2,0,P|417:273|424:314,1,70,10|0,0:0|0:0,0:0:0:0:
380,148,82272,5,10,0:0:0:0:
333,203,82489,1,8,0:0:0:0:
310,135,82707,2,0,P|321:102|354:80,1,70,10|0,0:0|0:0,0:0:0:0:
262,214,83154,21,10,0:0:0:0:
317,269,83385,1,8,0:0:0:0:
251,287,83630,1,10,0:0:0:0:
328,336,83876,22,0,L|331:271,1,52.5,10|0,0:0|0:0,0:0:0:0:
410,276,84273,2,0,L|380:218,1,52.5,0|0,3:0|0:0,0:0:0:0:
451,183,84670,2,0,L|406:154,1,52.5,0|0,3:0|0:0,0:0:0:0:
374,27,85067,38,0,L|308:71,1,70,8|0,0:0|0:0,0:0:0:0:
248,84,85371,53,8,0:0:0:0:
247,96,85472,2,0,P|241:66|246:42,1,52.5,10|0,0:0|0:0,0:0:0:0:
310,133,85878,38,0,P|316:163|304:218,1,84,8|0,0:0|0:0,0:0:0:0:
371,261,86306,2,0,P|348:281|292:299,1,84,8|0,0:0|0:0,0:0:0:0:
291,381,86734,2,0,P|256:367|226:329,1,84,8|2,0:0|0:0,0:0:0:0:
239,257,87126,53,2,0:0:0:0:
239,257,87199,2,0,L|237:138,1,105,10|0,0:0|0:0,0:0:0:0:
231,66,87596,22,0,P|205:70|175:97,1,52.5,0|0,3:0|0:0,0:0:0:0:
123,56,87993,2,0,P|113:80|123:119,1,52.5,0|0,3:0|0:0,0:0:0:0:
163,220,88390,6,0,P|173:167|161:129,1,70,8|0,0:0|0:0,0:0:0:0:
94,184,88693,37,8,0:0:0:0:
99,178,88794,2,0,P|87:214|91:233,1,52.5,10|0,0:0|0:0,0:0:0:0:
120,371,89198,38,0,L|129:278,1,84,10|0,0:0|0:0,0:0:0:0:
202,290,89615,2,0,L|256:213,1,84,8|0,0:0|0:0,0:0:0:0:
313,260,90032,2,0,L|401:220,1,84,8|2,0:0|0:0,0:0:0:0:
439,162,90413,5,2,0:0:0:0:
439,162,90480,2,0,L|441:44,1,105,10|0,0:0|0:0,0:0:0:0:
362,9,90871,6,0,P|350:33|351:60,1,52.5,8|0,0:0|0:0,0:0:0:0:
324,129,91222,53,2,0:0:0:0:
324,129,91279,2,0,P|268:147|222:133,1,105,10|0,0:0|0:0,0:0:0:0:
179,72,91670,6,0,P|159:66|126:72,1,52.5,8|0,0:0|0:0,0:0:0:0:
67,115,92028,53,2,0:0:0:0:
67,115,92093,2,0,P|53:146|72:220,1,105,10|0,0:0|0:0,0:0:0:0:
142,239,92484,6,0,P|165:233|198:241,1,52.5,8|0,0:0|0:0,0:0:0:0:
251,300,92827,53,2,0:0:0:0:
251,300,92876,2,0,P|292:314|364:293,1,105,8|0,0:0|0:0,0:0:0:0:
428,266,93267,6,0,P|453:246|459:223,1,52.5,8|0,0:0|0:0,0:0:0:0:
353,217,93659,6,0,L|315:214,1,35,8|0,0:0|0:0,0:0:0:0:
409,130,93859,2,0,L|447:133,1,35,8|0,0:0|0:0,0:0:0:0:
355,208,94059,6,0,L|317:205,1,35,8|0,0:0|0:0,0:0:0:0:
411,121,94259,2,0,L|449:124,1,35,8|0,0:0|0:0,0:0:0:0:
357,199,94459,6,0,L|319:196,1,35,8|0,0:0|0:0,0:0:0:0:
413,112,94653,2,0,L|451:115,1,35,8|0,0:0|0:0,0:0:0:0:
359,190,94848,38,0,L|321:187,1,35,8|0,0:0|0:0,0:0:0:0:
415,103,95043,2,0,L|453:106,1,35,8|0,0:0|0:0,0:0:0:0:
201,153,95238,6,0,L|204:115,1,35,8|0,0:0|0:0,0:0:0:0:
288,209,95429,2,0,L|285:247,1,35,8|0,0:0|0:0,0:0:0:0:
210,155,95620,6,0,L|213:117,1,35,8|0,0:0|0:0,0:0:0:0:
297,211,95811,2,0,L|294:249,1,35,8|0,0:0|0:0,0:0:0:0:
219,157,96002,22,0,L|222:119,1,35,8|0,0:0|0:0,0:0:0:0:
306,213,96187,2,0,L|302:251,1,35,8|0,0:0|0:0,0:0:0:0:
228,159,96373,38,0,L|231:121,1,35,8|0,0:0|0:0,0:0:0:0:
315,215,96559,2,0,L|312:253,1,35,8|0,0:0|0:0,0:0:0:0:
127,304,96745,22,0,L|81:313,3,35,8|0|2|2,0:0|0:0|0:0|0:0,0:0:0:0:
29,343,97105,5,2,0:0:0:0:
24,327,97195,1,0,0:0:0:0:
23,310,97285,1,2,0:0:0:0:
28,293,97375,1,2,0:0:0:0:
38,275,97465,5,2,0:0:0:0:
47,250,97555,1,0,0:0:0:0:
48,224,97645,1,2,0:0:0:0:
41,199,97735,1,2,0:0:0:0:
27,178,97826,37,2,0:0:0:0:
18,144,97916,1,0,0:0:0:0:
22,109,98006,1,2,0:0:0:0:
38,78,98096,1,2,0:0:0:0:
64,54,98186,5,2,0:0:0:0:
97,83,98276,1,0,0:0:0:0:
139,91,98366,1,2,0:0:0:0:
180,77,98456,1,2,0:0:0:0:
208,42,98546,5,2,0:0:0:0:
245,21,98636,1,0,0:0:0:0:
289,23,98726,1,2,0:0:0:0:
325,46,98817,1,2,0:0:0:0:
344,85,98907,53,2,0:0:0:0:
321,122,98997,1,2,0:0:0:0:
317,165,99087,1,2,0:0:0:0:
332,206,99177,1,2,0:0:0:0:
364,236,99268,5,8,0:0:0:0:
262,97,99455,1,8,0:0:0:0:
423,153,99643,5,2,0:0:0:0:
421,135,99732,1,0,0:0:0:0:
413,120,99822,1,2,0:0:0:0:
400,108,99912,1,2,0:0:0:0:
381,97,100002,21,2,0:0:0:0:
387,81,100092,1,0,0:0:0:0:
385,63,100182,1,2,0:0:0:0:
375,50,100272,1,2,0:0:0:0:
358,44,100362,37,2,0:0:0:0:
324,39,100452,1,0,0:0:0:0:
295,57,100542,1,2,0:0:0:0:
284,89,100632,1,2,0:0:0:0:
295,122,100722,37,2,0:0:0:0:
320,145,100812,1,0,0:0:0:0:
352,158,100902,1,2,0:0:0:0:
387,159,100992,1,2,0:0:0:0:
419,147,101082,5,2,0:0:0:0:
450,134,101172,1,0,0:0:0:0:
480,149,101262,1,2,0:0:0:0:
490,182,101352,1,2,0:0:0:0:
471,210,101442,5,2,0:0:0:0:
441,228,101532,1,0,0:0:0:0:
406,231,101622,1,2,0:0:0:0:
374,218,101712,1,2,0:0:0:0:
349,189,101802,37,2,0:0:0:0:
321,168,101892,1,0,0:0:0:0:
287,158,101981,1,2,0:0:0:0:
252,162,102071,1,2,0:0:0:0:
221,177,102162,5,8,0:0:0:0:
58,268,102350,1,8,0:0:0:0:
233,329,102538,5,2,0:0:0:0:
248,321,102627,1,0,0:0:0:0:
265,318,102717,1,2,0:0:0:0:
283,319,102807,1,2,0:0:0:0:
298,327,102897,37,2,0:0:0:0:
321,337,102987,1,0,0:0:0:0:
347,340,103077,1,2,0:0:0:0:
373,335,103167,1,2,0:0:0:0:
396,321,103257,53,2,0:0:0:0:
415,292,103347,1,0,0:0:0:0:
423,258,103437,1,2,0:0:0:0:
418,224,103527,1,2,0:0:0:0:
400,194,103617,5,2,0:0:0:0:
361,212,103707,1,0,0:0:0:0:
319,205,103797,1,2,0:0:0:0:
289,174,103887,1,2,0:0:0:0:
284,132,103977,5,2,0:0:0:0:
300,93,104067,1,2,0:0:0:0:
282,55,104157,1,2,0:0:0:0:
240,45,104247,1,2,0:0:0:0:
205,75,104337,5,2,0:0:0:0:
208,118,104427,1,0,0:0:0:0:
190,157,104517,1,2,0:0:0:0:
156,184,104607,1,2,0:0:0:0:
113,191,104697,37,2,0:0:0:0:
72,178,104787,1,0,0:0:0:0:
31,191,104876,1,2,0:0:0:0:
4,225,104966,1,2,0:0:0:0:
1,267,105057,5,8,0:0:0:0:
33,74,105243,1,8,0:0:0:0:
70,250,105430,5,2,0:0:0:0:
87,251,105520,1,0,0:0:0:0:
104,256,105610,1,2,0:0:0:0:
118,265,105700,1,2,0:0:0:0:
131,278,105790,21,2,0:0:0:0:
171,293,105880,1,0,0:0:0:0:
215,294,105970,1,2,0:0:0:0:
256,280,106060,1,2,0:0:0:0:
289,252,106150,37,2,0:0:0:0:
317,219,106240,1,2,0:0:0:0:
357,203,106330,1,2,0:0:0:0:
400,209,106420,1,2,0:0:0:0:
434,236,106511,21,8,0:0:0:0:
313,367,106693,1,8,0:0:0:0:
342,134,106876,5,2,0:0:0:0:
324,130,106966,1,0,0:0:0:0:
307,131,107056,1,2,0:0:0:0:
290,135,107146,1,2,0:0:0:0:
274,145,107236,5,2,0:0:0:0:
251,109,107326,1,0,0:0:0:0:
209,99,107416,1,2,0:0:0:0:
173,122,107506,1,2,0:0:0:0:
165,162,107596,37,2,0:0:0:0:
126,145,107686,1,2,0:0:0:0:
87,163,107776,1,2,0:0:0:0:
76,204,107866,1,2,0:0:0:0:
100,239,107957,5,8,0:0:0:0:
228,79,108163,1,8,0:0:0:0:
283,247,108370,5,10,0:0:0:0:
288,258,108577,2,0,L|326:262,1,35,2|0,0:0|0:0,0:0:0:0:
159,336,108760,6,0,L|122:339,1,35,8|0,0:0|0:0,0:0:0:0:
156,346,108943,2,0,L|117:350,1,35,2|0,0:0|0:0,0:0:0:0:
208,134,109126,38,0,L|168:137,1,35,8|0,0:0|0:0,0:0:0:0:
211,148,109310,2,0,L|173:150,1,35,2|0,0:0|0:0,0:0:0:0:
252,331,109493,6,0,L|286:328,1,35,8|0,0:0|0:0,0:0:0:0:
254,342,109676,2,0,L|289:339,1,35,2|0,0:0|0:0,0:0:0:0:
438,239,109860,6,0,L|451:204,1,35,8|0,0:0|0:0,0:0:0:0:
426,231,110044,2,0,L|439:191,1,35,2|0,0:0|0:0,0:0:0:0:
295,73,110229,22,0,L|300:121,1,35,8|0,0:0|0:0,0:0:0:0:
150,190,110414,2,0,L|153:155,1,35,8|0,0:0|0:0,0:0:0:0:
305,190,110599,38,0,L|308:224,1,35,8|0,0:0|0:0,0:0:0:0:
168,76,110784,2,0,L|171:41,1,35,8|0,0:0|0:0,0:0:0:0:
374,146,110968,22,0,L|413:147,1,35,8|0,0:0|0:0,0:0:0:0:
215,287,111153,2,0,L|176:288,1,35,8|0,0:0|0:0,0:0:0:0:
253,84,111338,6,0,L|261:44,1,35,8|0,0:0|0:0,0:0:0:0:
244,79,111523,2,0,L|252:39,1,35,2|0,0:0|0:0,0:0:0:0:
380,150,111708,6,0,L|373:115,1,35,8|0,0:0|0:0,0:0:0:0:
389,145,111892,2,0,L|382:110,1,35,2|0,0:0|0:0,0:0:0:0:
159,189,112077,38,0,L|193:182,1,35,8|0,0:0|0:0,0:0:0:0:
168,201,112262,2,0,L|202:194,1,35,2|0,0:0|0:0,0:0:0:0:
318,337,112447,6,0,L|284:330,1,35,8|0,0:0|0:0,0:0:0:0:
308,350,112632,2,0,L|274:343,1,35,2|0,0:0|0:0,0:0:0:0:
389,145,112816,6,0,L|383:180,1,35,8|0,0:0|0:0,0:0:0:0:
397,152,113001,2,0,L|392:187,1,35,2|0,0:0|0:0,0:0:0:0:
175,96,113186,6,0,L|180:61,1,35,8|0,0:0|0:0,0:0:0:0:
336,31,113371,2,0,L|341:65,1,35,8|0,0:0|0:0,0:0:0:0:
215,189,113556,38,0,L|220:154,1,35,8|0,0:0|0:0,0:0:0:0:
408,74,113740,2,0,L|413:108,1,35,8|0,0:0|0:0,0:0:0:0:
260,281,113925,6,0,L|264:246,1,35,8|0,0:0|0:0,0:0:0:0:
258,49,114110,2,0,L|253:83,1,35,8|0,0:0|0:0,0:0:0:0:
335,343,114295,6,0,L|329:297,1,35,10|0,0:0|0:0,0:0:0:0:
504,185,114480,2,0,L|463:185,1,35,8|0,0:0|0:0,0:0:0:0:
341,65,114664,22,0,L|335:111,1,35,10|0,0:0|0:0,0:0:0:0:
504,204,114849,2,0,L|463:204,1,35,8|0,0:0|0:0,0:0:0:0:
342,325,115034,38,0,L|336:279,1,35,10|0,0:0|0:0,0:0:0:0:
504,158,115220,2,0,L|463:158,1,35,8|0,0:0|0:0,0:0:0:0:
336,47,115406,22,0,L|330:93,1,35,10|0,0:0|0:0,0:0:0:0:
504,223,115599,2,0,L|463:223,1,35,8|0,0:0|0:0,0:0:0:0:
210,223,115793,5,10,0:0:0:0:
213,207,116286,6,0,P|283:179|334:196,1,123.2,0|0,3:0|0:0,0:0:0:0:
401,224,118445,37,2,0:0:0:0:
401,241,118534,1,0,0:0:0:0:
401,259,118624,1,2,0:0:0:0:
401,276,118714,1,2,0:0:0:0:
399,294,118804,5,2,0:0:0:0:
384,284,118894,1,0,0:0:0:0:
367,279,118984,1,2,0:0:0:0:
350,280,119074,1,2,0:0:0:0:
332,288,119164,5,2,0:0:0:0:
306,293,119254,1,0,0:0:0:0:
280,288,119344,1,2,0:0:0:0:
259,273,119434,1,2,0:0:0:0:
243,250,119524,5,2,0:0:0:0:
216,227,119614,1,0,0:0:0:0:
183,216,119704,1,2,0:0:0:0:
148,219,119794,1,2,0:0:0:0:
118,235,119884,37,2,0:0:0:0:
84,242,119974,1,0,0:0:0:0:
51,230,120064,1,2,0:0:0:0:
29,204,120154,1,2,0:0:0:0:
25,168,120244,5,2,0:0:0:0:
40,127,120334,1,0,0:0:0:0:
73,99,120424,1,2,0:0:0:0:
116,92,120514,1,2,0:0:0:0:
157,107,120604,5,2,0:0:0:0:
192,132,120694,1,2,0:0:0:0:
234,140,120783,1,2,0:0:0:0:
276,130,120873,1,2,0:0:0:0:
310,102,120963,21,8,0:0:0:0:
152,14,121149,1,8,0:0:0:0:
146,173,121334,37,2,0:0:0:0:
161,180,121423,1,0,0:0:0:0:
178,183,121513,1,2,0:0:0:0:
196,182,121603,1,2,0:0:0:0:
213,177,121693,21,2,0:0:0:0:
226,162,121783,1,0,0:0:0:0:
233,146,121873,1,2,0:0:0:0:
235,129,121963,1,2,0:0:0:0:
234,112,122053,5,2,0:0:0:0:
202,90,122143,1,0,0:0:0:0:
168,94,122233,1,2,0:0:0:0:
137,111,122323,1,2,0:0:0:0:
116,138,122413,5,2,0:0:0:0:
98,178,122503,1,0,0:0:0:0:
99,221,122593,1,2,0:0:0:0:
118,260,122683,1,2,0:0:0:0:
154,285,122773,37,2,0:0:0:0:
190,262,122863,1,0,0:0:0:0:
233,261,122953,1,2,0:0:0:0:
270,284,123043,1,2,0:0:0:0:
288,323,123133,5,2,0:0:0:0:
323,349,123223,1,0,0:0:0:0:
366,356,123313,1,2,0:0:0:0:
407,342,123403,1,2,0:0:0:0:
435,309,123493,5,2,0:0:0:0:
403,279,123583,1,0,0:0:0:0:
390,238,123672,1,2,0:0:0:0:
399,196,123762,1,2,0:0:0:0:
429,165,123853,5,8,0:0:0:0:
351,8,124036,1,8,0:0:0:0:
227,131,124219,37,2,0:0:0:0:
210,126,124309,1,0,0:0:0:0:
192,126,124399,1,2,0:0:0:0:
176,132,124489,1,2,0:0:0:0:
161,142,124579,5,2,0:0:0:0:
136,151,124669,1,0,0:0:0:0:
110,150,124759,1,2,0:0:0:0:
86,139,124849,1,2,0:0:0:0:
68,118,124939,5,2,0:0:0:0:
63,84,125029,1,0,0:0:0:0:
87,59,125119,1,2,0:0:0:0:
120,62,125209,1,2,0:0:0:0:
139,92,125299,21,2,0:0:0:0:
149,124,125389,1,0,0:0:0:0:
143,158,125479,1,2,0:0:0:0:
120,185,125569,1,2,0:0:0:0:
88,196,125659,37,2,0:0:0:0:
65,222,125749,1,2,0:0:0:0:
54,255,125839,1,2,0:0:0:0:
56,289,125929,1,2,0:0:0:0:
73,325,126019,21,10,0:0:0:0:
101,357,126109,1,0,0:0:0:0:
142,370,126199,1,2,0:0:0:0:
185,362,126289,1,8,0:0:0:0:
216,333,126379,5,10,0:0:0:0:
250,358,126469,1,2,0:0:0:0:
293,363,126558,1,2,0:0:0:0:
332,344,126648,1,0,0:0:0:0:
357,311,126738,53,10,0:0:0:0:
356,258,126834,1,2,0:0:0:0:
356,204,126931,2,0,L|354:165,1,35,2|0,0:0|0:0,0:0:0:0:
247,18,127125,5,10,0:0:0:0:
259,38,127525,6,0,P|206:37|152:146,1,187.599991126099,8|0,0:0|0:0,0:0:0:0:
257,266,128576,21,2,0:0:0:0:
257,245,128622,2,2,L|257:230,3,11.6666666666667
226,109,129105,22,0,P|169:68|63:144,1,210,8|0,0:0|0:0,0:0:0:0:
51,247,129856,2,0,P|102:242|137:204,1,105,8|0,0:0|0:0,0:0:0:0:
142,192,130270,1,8,0:0:0:0:
248,33,130658,6,0,P|272:57|430:18,1,210,8|0,0:0|0:0,0:0:0:0:
438,191,131391,2,0,L|429:298,1,105,8|0,0:0|0:0,0:0:0:0:
429,309,131802,1,8,0:0:0:0:
202,344,132190,6,0,P|235:315|386:361,1,210,8|0,0:0|0:0,0:0:0:0:
316,123,132937,2,0,L|343:230,1,105,8|0,0:0|0:0,0:0:0:0:
346,241,133345,53,8,0:0:0:0:
219,114,133528,2,0,L|170:113,1,41.9999987182618,8|0,0:0|0:0,0:0:0:0:
184,177,133894,2,0,L|135:176,1,41.9999987182618,8|0,0:0|0:0,0:0:0:0:
105,116,134261,1,8,0:0:0:0:
106,243,134444,5,10,0:0:0:0:
177,113,134628,1,8,0:0:0:0:
146,325,134811,21,10,0:0:0:0:
142,176,134994,2,0,L|181:224,1,48.9999985046387,8|0,0:0|0:0,0:0:0:0:
250,282,135361,2,0,L|311:272,1,48.9999985046387,8|0,0:0|0:0,0:0:0:0:
395,241,135727,1,8,0:0:0:0:
321,356,135911,5,10,0:0:0:0:
279,201,136094,1,8,0:0:0:0:
460,357,136277,53,10,0:0:0:0:
502,202,136461,2,0,L|469:154,1,56,8|0,0:0|0:0,0:0:0:0:
385,87,136827,2,0,L|326:91,1,56,8|0,0:0|0:0,0:0:0:0:
226,130,137194,1,8,0:0:0:0:
394,162,137377,5,10,0:0:0:0:
253,51,137560,1,8,0:0:0:0:
304,269,137744,5,10,0:0:0:0:
329,91,137927,2,0,L|337:20,1,62.9999980773926,8|0,0:0|0:0,0:0:0:0:
189,74,138294,2,0,L|131:31,1,62.9999980773926,8|0,0:0|0:0,0:0:0:0:
104,186,138660,1,8,0:0:0:0:
213,362,138844,5,10,0:0:0:0:
126,116,139034,1,8,0:0:0:0:
273,293,139224,38,0,P|285:325|275:373,1,70,10|0,0:0|0:0,0:0:0:0:
165,317,139493,1,0,3:0:0:0:
165,317,139583,2,0,P|153:285|163:237,1,70,0|0,3:0|0:0,0:0:0:0:
181,157,139853,1,0,3:0:0:0:
181,157,139943,6,0,P|212:171|258:168,1,70,10|0,0:0|0:0,0:0:0:0:
322,246,140213,1,0,3:0:0:0:
322,246,140303,2,0,P|291:232|245:235,1,70,0|0,3:0|0:0,0:0:0:0:
157,215,140663,21,2,0:0:0:0:
150,224,140725,1,2,0:0:0:0:
144,234,140787,1,2,0:0:0:0:
140,245,140849,1,2,0:0:0:0:
137,257,140912,1,2,0:0:0:0:
137,268,140974,1,2,0:0:0:0:
140,283,141037,6,0,B|56:314,1,70,10|0,0:0|0:0,0:0:0:0:
16,214,141306,1,0,3:0:0:0:
16,214,141396,2,0,B|31:125,1,70,0|0,3:0|0:0,0:0:0:0:
120,95,141666,1,0,3:0:0:0:
120,95,141756,2,0,B|188:152,1,70,0|0,3:0|0:0,0:0:0:0:
253,217,142026,1,0,3:0:0:0:
253,217,142117,6,0,P|288:223|336:210,1,70,10|0,0:0|0:0,0:0:0:0:
364,135,142392,1,0,3:0:0:0:
364,135,142483,2,0,P|329:129|281:142,1,70,0|0,3:0|0:0,0:0:0:0:
179,238,142758,1,0,3:0:0:0:
179,238,142850,6,0,L|178:313,1,70,10|0,0:0|0:0,0:0:0:0:
298,320,143123,1,0,3:0:0:0:
298,320,143214,2,0,L|294:250,1,70,0|0,3:0|0:0,0:0:0:0:
294,163,143579,21,2,0:0:0:0:
294,154,143640,1,2,0:0:0:0:
294,145,143702,1,2,0:0:0:0:
294,136,143764,1,2,0:0:0:0:
294,128,143825,1,2,0:0:0:0:
294,119,143887,1,2,0:0:0:0:
296,109,143949,6,0,B|245:53,1,70,10|0,0:0|0:0,0:0:0:0:
203,168,144218,1,0,3:0:0:0:
203,168,144308,2,0,B|111:172,1,70,0|0,3:0|0:0,0:0:0:0:
223,265,144578,1,0,3:0:0:0:
223,265,144668,2,0,L|304:265,1,70,0|0,3:0|0:0,0:0:0:0:
124,240,144938,1,0,3:0:0:0:
124,240,145028,6,0,P|65:201|121:147,1,157.5,10|2,0:0|0:0,0:0:0:0:
145,144,145927,1,2,0:0:0:0:
178,132,146017,1,2,0:0:0:0:
204,111,146107,1,2,0:0:0:0:
236,123,146197,1,2,0:0:0:0:
271,125,146287,1,2,0:0:0:0:
305,118,146377,1,2,0:0:0:0:
337,101,146467,5,10,0:0:0:0:
338,75,146557,1,2,0:0:0:0:
359,62,146647,1,2,0:0:0:0:
383,71,146737,1,2,0:0:0:0:
390,95,146827,1,2,0:0:0:0:
393,130,146917,1,2,0:0:0:0:
395,165,147007,1,2,0:0:0:0:
398,200,147097,1,2,0:0:0:0:
403,233,147187,5,10,0:0:0:0:
388,211,147277,1,2,0:0:0:0:
363,209,147366,1,2,0:0:0:0:
346,228,147456,1,2,0:0:0:0:
349,253,147546,1,2,0:0:0:0:
314,254,147636,1,2,0:0:0:0:
279,255,147726,1,2,0:0:0:0:
244,257,147816,1,2,0:0:0:0:
209,257,147906,21,10,0:0:0:0:
190,274,147996,1,2,0:0:0:0:
190,299,148086,1,2,0:0:0:0:
209,317,148176,1,2,0:0:0:0:
236,313,148266,5,10,0:0:0:0:
262,291,148356,1,2,0:0:0:0:
273,258,148446,1,2,0:0:0:0:
265,224,148536,1,2,0:0:0:0:
242,200,148626,21,10,0:0:0:0:
202,181,148716,1,2,0:0:0:0:
159,185,148806,1,2,0:0:0:0:
124,210,148896,1,2,0:0:0:0:
112,251,148986,21,10,0:0:0:0:
69,258,149076,1,0,0:0:0:0:
31,239,149166,1,0,0:0:0:0:
12,200,149256,1,0,0:0:0:0:
20,160,149346,38,0,L|27:125,1,35,8|0,0:0|0:0,0:0:0:0:
91,154,149526,2,0,L|99:118,1,35
191,253,149705,2,0,L|198:288,1,35
268,258,149885,2,0,L|276:294,1,35
316,135,150066,5,2,0:0:0:0:
327,133,150126,1,2,0:0:0:0:
339,134,150187,1,2,0:0:0:0:
350,138,150248,1,2,0:0:0:0:
360,144,150308,1,2,0:0:0:0:
369,151,150369,1,2,0:0:0:0:
376,161,150430,1,2,0:0:0:0:
380,171,150491,1,2,0:0:0:0:
383,183,150551,1,2,0:0:0:0:
383,194,150612,1,2,0:0:0:0:
381,206,150673,1,2,0:0:0:0:
376,216,150734,1,2,0:0:0:0:
370,226,150795,1,8,0:0:0:0:
461,356,151228,6,0,P|414:340|327:348,1,131.25000500679,10|2,0:0|0:0,0:0:0:0:
294,348,151767,1,2,0:0:0:0:
266,328,151857,1,2,0:0:0:0:
250,294,151947,1,2,0:0:0:0:
232,264,152037,1,2,0:0:0:0:
200,252,152127,1,2,0:0:0:0:
167,262,152217,1,2,0:0:0:0:
148,290,152307,1,2,0:0:0:0:
124,315,152396,1,2,0:0:0:0:
90,320,152486,1,2,0:0:0:0:
60,303,152576,1,2,0:0:0:0:
46,272,152666,5,10,0:0:0:0:
77,243,152756,1,2,0:0:0:0:
93,198,152846,1,2,0:0:0:0:
86,156,152936,1,2,0:0:0:0:
55,123,153026,1,2,0:0:0:0:
29,88,153116,1,2,0:0:0:0:
31,45,153206,1,2,0:0:0:0:
60,13,153296,1,2,0:0:0:0:
102,7,153386,5,10,0:0:0:0:
135,31,153476,1,2,0:0:0:0:
175,45,153566,1,2,0:0:0:0:
216,47,153656,1,2,0:0:0:0:
257,36,153746,1,2,0:0:0:0:
292,13,153836,1,2,0:0:0:0:
339,8,153926,53,10,0:0:0:0:
371,36,154016,1,2,0:0:0:0:
387,76,154106,1,2,0:0:0:0:
382,119,154196,1,2,0:0:0:0:
352,153,154286,5,10,0:0:0:0:
312,136,154376,1,2,0:0:0:0:
269,145,154466,1,2,0:0:0:0:
239,175,154556,1,2,0:0:0:0:
230,217,154645,5,10,0:0:0:0:
231,259,154735,1,2,0:0:0:0:
205,294,154825,1,2,0:0:0:0:
163,304,154915,1,2,0:0:0:0:
124,286,155005,53,10,0:0:0:0:
106,321,155095,1,2,0:0:0:0:
88,355,155185,5,10,0:0:0:0:
101,350,155275,1,2,0:0:0:0:
115,349,155365,1,2,0:0:0:0:
128,351,155455,1,2,0:0:0:0:
144,357,155545,21,2,0:0:0:0:
159,363,155635,1,2,0:0:0:0:
177,364,155725,1,2,0:0:0:0:
193,359,155815,1,2,0:0:0:0:
208,346,155905,5,2,0:0:0:0:
225,316,155995,1,2,0:0:0:0:
257,302,156085,1,2,0:0:0:0:
291,308,156175,1,2,0:0:0:0:
315,332,156265,5,2,0:0:0:0:
355,350,156355,1,2,0:0:0:0:
398,349,156445,1,2,0:0:0:0:
437,331,156535,1,2,0:0:0:0:
461,303,156625,6,0,L|457:264,7,35,10|0|0|0|0|0|0|0,0:0|0:0|0:0|0:0|0:0|0:0|0:0|0:0,0:0:0:0:
364,252,157344,22,0,L|367:213,7,35,8|0|0|0|0|0|0|0,0:0|0:0|0:0|0:0|0:0|0:0|0:0|0:0,0:0:0:0:
472,185,158064,6,0,L|469:146,7,35,8|0|0|0|0|0|0|0,0:0|0:0|0:0|0:0|0:0|0:0|0:0|0:0,0:0:0:0:
334,136,158785,6,0,L|337:89,7,35,8|0|0|0|0|0|0|0,0:0|0:0|0:0|0:0|0:0|0:0|0:0|0:0,0:0:0:0:
459,12,159511,6,0,L|466:91,1,70,8|0,0:0|0:0,0:0:0:0:
303,358,159877,1,0,0:0:0:0:
301,344,160060,1,0,0:0:0:0:
300,330,160244,1,0,0:0:0:0:
299,316,160427,1,0,0:0:0:0:
228,237,160610,1,8,0:0:0:0:
226,223,160794,1,8,0:0:0:0:
34,188,160977,22,0,L|45:115,1,70,8|0,0:0|0:0,0:0:0:0:
330,35,161344,1,0,0:0:0:0:
327,48,161527,1,0,0:0:0:0:
325,62,161710,1,0,0:0:0:0:
323,76,161893,1,0,0:0:0:0:
254,156,162077,1,8,0:0:0:0:
252,170,162260,1,8,0:0:0:0:
155,307,162443,6,0,L|79:301,1,70,8|0,0:0|0:0,0:0:0:0:
353,191,162810,1,0,0:0:0:0:
366,191,162993,1,0,0:0:0:0:
380,192,163177,1,0,0:0:0:0:
394,194,163360,1,0,0:0:0:0:
450,285,163543,1,8,0:0:0:0:
464,286,163726,1,8,0:0:0:0:
281,352,163910,6,0,L|276:280,1,70,8|0,0:0|0:0,0:0:0:0:
151,36,164276,1,0,0:0:0:0:
151,49,164460,1,0,0:0:0:0:
152,63,164643,1,0,0:0:0:0:
153,77,164826,1,0,0:0:0:0:
240,164,165010,1,8,0:0:0:0:
241,178,165193,1,8,0:0:0:0:
317,71,165376,6,0,P|345:59|390:55,1,70,10|0,0:0|0:0,0:0:0:0:
441,155,165739,1,0,0:0:0:0:
244,59,165920,2,0,B|271:127|220:128|247:210,1,140,8|0,0:0|0:0,0:0:0:0:
325,286,166465,1,0,0:0:0:0:
306,149,166646,2,0,P|245:120|174:159,1,140,8|0,0:0|0:0,0:0:0:0:
99,77,167191,1,0,0:0:0:0:
34,164,167372,2,0,L|55:314,1,140,8|0,0:0|0:0,0:0:0:0:
121,229,167917,1,8,0:0:0:0:
148,325,168099,1,8,0:0:0:0:
181,161,168280,22,0,P|151:142|115:138,1,70,8|0,0:0|0:0,0:0:0:0:
223,297,168645,1,8,0:0:0:0:
147,61,168828,1,8,0:0:0:0:
79,294,169011,1,8,0:0:0:0:
220,95,169194,1,8,0:0:0:0:
148,325,169377,1,8,0:0:0:0:
75,93,169560,1,8,0:0:0:0:
321,22,169743,6,0,P|356:20|391:26,1,70,10|0,0:0|0:0,0:0:0:0:
147,138,170109,1,10,0:0:0:0:
432,154,170292,1,8,0:0:0:0:
231,70,170475,5,10,0:0:0:0:
254,317,170658,1,8,0:0:0:0:
321,22,170840,5,10,0:0:0:0:
253,332,171023,1,8,0:0:0:0:
482,58,171206,22,0,L|483:139,1,70,10|0,0:0|0:0,0:0:0:0:
356,349,171572,1,8,0:0:0:0:
414,130,171755,1,8,0:0:0:0:
458,317,171938,1,8,0:0:0:0:
318,122,172121,1,8,0:0:0:0:
252,347,172304,1,8,0:0:0:0:
485,194,172487,1,8,0:0:0:0:
188,40,172670,5,10,0:0:0:0:
266,349,172853,1,8,0:0:0:0:
252,40,173036,5,10,0:0:0:0:
280,352,173219,1,8,0:0:0:0:
315,48,173401,5,10,0:0:0:0:
295,356,173584,1,8,0:0:0:0:
495,81,173767,21,10,0:0:0:0:
212,228,173950,1,8,0:0:0:0:
425,89,174143,6,0,L|425:168,2,70,10|0|0,0:0|0:0|0:0,0:0:0:0:
482,208,174688,2,0,P|459:178|337:177,1,140,8|0,0:0|0:0,0:0:0:0:
399,238,175233,1,0,0:0:0:0:
296,93,175415,2,0,L|304:234,1,140,8|0,0:0|0:0,0:0:0:0:
359,353,175961,1,0,0:0:0:0:
363,161,176143,2,0,P|287:144|228:188,1,140,8|0,0:0|0:0,0:0:0:0:
228,266,176688,1,0,0:0:0:0:
145,158,176870,2,0,L|145:81,1,70,8|0,0:0|0:0,0:0:0:0:
147,262,177237,5,10,0:0:0:0:
242,349,177422,1,8,0:0:0:0:
303,232,177607,2,0,L|277:151,1,70,10|0,0:0|0:0,0:0:0:0:
344,328,178007,5,10,0:0:0:0:
399,237,178207,1,8,0:0:0:0:
231,279,178407,2,0,L|243:361,1,70,10|0,0:0|0:0,0:0:0:0:
242,170,178824,21,10,0:0:0:0:
304,233,179041,1,8,0:0:0:0:
283,88,179259,2,0,L|273:11,1,70,10|0,0:0|0:0,0:0:0:0:
187,101,179713,5,10,0:0:0:0:
96,154,179951,1,8,0:0:0:0:
187,206,180189,1,10,0:0:0:0:
96,258,180426,6,0,L|90:320,1,52.5,8|0,0:0|0:0,0:0:0:0:
166,291,180823,2,0,L|216:327,1,52.5,0|0,3:0|0:0,0:0:0:0:
229,246,181220,2,0,L|285:220,1,52.5,0|0,3:0|0:0,0:0:0:0:
293,116,181617,6,0,L|219:77,1,70,8|0,0:0|0:0,0:0:0:0:
154,32,181921,21,8,0:0:0:0:
154,32,182022,2,0,P|135:65|147:115,1,84,10|0,0:0|0:0,0:0:0:0:
75,136,182428,2,0,P|94:168|145:184,1,84,8|0,0:0|0:0,0:0:0:0:
125,256,182856,2,0,P|163:255|199:219,1,84,8|0,0:0|0:0,0:0:0:0:
253,272,183284,2,0,P|272:237|264:193,1,84,8|2,0:0|0:0,0:0:0:0:
210,152,183676,53,2,0:0:0:0:
210,152,183749,2,0,L|208:44,1,105,10|0,0:0|0:0,0:0:0:0:
271,12,184145,22,0,P|293:21|313:44,1,52.5,0|0,3:0|0:0,0:0:0:0:
393,18,184543,2,0,P|396:41|386:70,1,52.5,0|0,3:0|0:0,0:0:0:0:
339,178,184940,6,0,P|328:139|336:93,1,70,10|0,0:0|0:0,0:0:0:0:
401,134,185243,5,8,0:0:0:0:
401,134,185344,2,0,P|413:167|402:222,1,84,10|0,0:0|0:0,0:0:0:0:
415,288,185748,2,0,P|380:281|338:244,1,84,8|0,0:0|0:0,0:0:0:0:
274,223,186164,2,0,P|296:196|349:178,1,84,8|0,0:0|0:0,0:0:0:0:
401,134,186581,2,0,P|409:85|390:37,1,84,8|2,0:0|0:0,0:0:0:0:
343,13,186961,5,2,0:0:0:0:
343,13,187030,2,0,L|214:17,1,105,10|0,0:0|0:0,0:0:0:0:
192,68,187421,6,0,P|161:72|133:62,1,52.5,8|2,0:0|0:0,0:0:0:0:
81,14,187772,53,2,0:0:0:0:
81,14,187829,2,0,P|60:61|76:110,1,105,10|0,0:0|0:0,0:0:0:0:
141,139,188220,6,0,P|150:161|139:203,1,52.5,8|2,0:0|0:0,0:0:0:0:
100,242,188578,53,2,0:0:0:0:
100,242,188643,2,0,L|103:350,1,105,10|0,0:0|0:0,0:0:0:0:
165,377,189035,6,0,P|175:342|170:315,1,52.5,8|2,0:0|0:0,0:0:0:0:
176,258,189379,53,2,0:0:0:0:
176,258,189428,2,0,P|208:266|243:335,1,105,10|0,0:0|0:0,0:0:0:0:
309,360,189821,6,0,P|336:368|370:358,1,52.5,8|0,0:0|0:0,0:0:0:0:
314,285,190214,6,0,L|310:244,1,35,8|0,0:0|0:0,0:0:0:0:
341,127,190414,2,0,L|345:168,1,35,8|0,0:0|0:0,0:0:0:0:
308,275,190614,6,0,L|304:234,1,35,8|0,0:0|0:0,0:0:0:0:
335,117,190814,2,0,L|339:158,1,35,8|0,0:0|0:0,0:0:0:0:
302,265,191014,6,0,L|298:224,1,35,8|0,0:0|0:0,0:0:0:0:
329,107,191208,2,0,L|333:148,1,35,8|0,0:0|0:0,0:0:0:0:
296,255,191403,38,0,L|292:214,1,35,8|0,0:0|0:0,0:0:0:0:
323,97,191598,2,0,L|327:138,1,35,8|0,0:0|0:0,0:0:0:0:
104,211,191793,6,0,L|145:207,1,35,8|0,0:0|0:0,0:0:0:0:
262,238,191982,2,0,L|220:242,1,35,8|0,0:0|0:0,0:0:0:0:
114,205,192172,6,0,L|155:201,1,35,8|0,0:0|0:0,0:0:0:0:
272,232,192362,2,0,L|230:236,1,35,8|0,0:0|0:0,0:0:0:0:
124,199,192552,22,0,L|165:195,1,35,8|0,0:0|0:0,0:0:0:0:
282,226,192737,2,0,L|240:230,1,35,8|0,0:0|0:0,0:0:0:0:
134,193,192922,38,0,L|175:189,1,35,8|0,0:0|0:0,0:0:0:0:
292,220,193107,2,0,L|250:224,1,35,8|0,0:0|0:0,0:0:0:0:
241,57,193292,22,0,L|236:22,3,35,10|0|2|2,0:0|0:0|0:0|0:0,0:0:0:0:
258,148,193651,21,2,0:0:0:0:
273,169,193741,1,0,0:0:0:0:
279,194,193831,1,2,0:0:0:0:
275,220,193921,1,2,0:0:0:0:
261,241,194011,37,2,0:0:0:0:
249,274,194101,1,0,0:0:0:0:
250,308,194191,1,2,0:0:0:0:
262,341,194281,1,2,0:0:0:0:
285,368,194371,5,2,0:0:0:0:
310,344,194461,1,0,0:0:0:0:
343,333,194551,1,2,0:0:0:0:
377,336,194641,1,2,0:0:0:0:
407,354,194731,5,2,0:0:0:0:
446,335,194821,1,0,0:0:0:0:
461,295,194911,1,2,0:0:0:0:
446,255,195001,1,2,0:0:0:0:
407,236,195091,53,2,0:0:0:0:
371,212,195181,1,0,0:0:0:0:
359,171,195271,1,2,0:0:0:0:
377,133,195361,1,2,0:0:0:0:
416,115,195451,5,2,0:0:0:0:
452,92,195541,1,0,0:0:0:0:
456,50,195630,1,2,0:0:0:0:
426,20,195720,1,2,0:0:0:0:
384,24,195810,5,8,0:0:0:0:
407,236,195999,1,8,0:0:0:0:
326,81,196187,21,2,0:0:0:0:
310,73,196276,1,0,0:0:0:0:
293,70,196366,1,2,0:0:0:0:
275,73,196456,1,2,0:0:0:0:
258,80,196546,37,2,0:0:0:0:
242,87,196636,1,0,0:0:0:0:
225,90,196726,1,2,0:0:0:0:
207,89,196816,1,2,0:0:0:0:
186,81,196906,21,2,0:0:0:0:
168,79,196996,1,0,0:0:0:0:
151,81,197086,1,2,0:0:0:0:
134,86,197176,1,2,0:0:0:0:
117,95,197266,5,2,0:0:0:0:
95,109,197356,1,0,0:0:0:0:
84,132,197446,1,2,0:0:0:0:
86,158,197536,1,2,0:0:0:0:
100,178,197626,5,2,0:0:0:0:
117,207,197716,1,0,0:0:0:0:
123,242,197806,1,2,0:0:0:0:
117,276,197896,1,2,0:0:0:0:
95,308,197986,37,2,0:0:0:0:
53,294,198076,1,0,0:0:0:0:
24,262,198166,1,2,0:0:0:0:
13,220,198256,1,2,0:0:0:0:
23,178,198346,5,2,0:0:0:0:
45,141,198436,1,0,0:0:0:0:
81,116,198525,1,2,0:0:0:0:
123,110,198615,1,2,0:0:0:0:
165,122,198706,5,8,0:0:0:0:
24,52,198894,1,8,0:0:0:0:
114,204,199082,5,2,0:0:0:0:
128,213,199171,1,0,0:0:0:0:
144,220,199261,1,2,0:0:0:0:
161,223,199351,1,2,0:0:0:0:
179,222,199441,21,2,0:0:0:0:
213,205,199531,1,0,0:0:0:0:
248,202,199621,1,2,0:0:0:0:
282,211,199711,1,2,0:0:0:0:
309,231,199801,5,2,0:0:0:0:
348,251,199891,1,2,0:0:0:0:
392,253,199981,1,2,0:0:0:0:
432,238,200071,1,2,0:0:0:0:
463,207,200162,5,8,0:0:0:0:
396,34,200350,1,8,0:0:0:0:
271,177,200539,5,2,0:0:0:0:
254,170,200629,1,0,0:0:0:0:
237,169,200719,1,2,0:0:0:0:
220,172,200809,1,2,0:0:0:0:
203,179,200899,21,2,0:0:0:0:
180,166,200989,1,0,0:0:0:0:
154,161,201079,1,2,0:0:0:0:
128,164,201169,1,2,0:0:0:0:
105,177,201259,5,2,0:0:0:0:
105,220,201349,1,2,0:0:0:0:
106,264,201439,1,2,0:0:0:0:
107,308,201529,1,2,0:0:0:0:
107,351,201619,5,10,0:0:0:0:
459,348,201831,1,10,0:0:0:0:
281,46,202043,37,10,0:0:0:0:
452,114,202521,6,0,P|413:109|353:207,1,167.999994873047,8|0,0:0|0:0,0:0:0:0:
340,50,203511,38,2,L|340:37,4,8.75
478,320,204094,6,0,P|443:286|345:330,1,140,8|0,0:0|0:0,0:0:0:0:
291,365,204633,1,2,0:0:0:0:
139,258,204813,2,0,P|158:211|205:190,1,105,8|0,0:0|0:0,0:0:0:0:
221,190,205232,1,8,0:0:0:0:
107,65,205616,6,0,L|39:193,1,140,8|0,0:0|0:0,0:0:0:0:
30,30,206159,1,2,0:0:0:0:
192,104,206360,2,0,P|243:111|314:104,1,105,8|0,0:0|0:0,0:0:0:0:
314,104,206762,1,8,0:0:0:0:
418,26,207150,22,0,L|432:173,1,140,8|0,0:0|0:0,0:0:0:0:
332,99,207689,1,2,0:0:0:0:
343,328,207878,2,0,L|338:245,1,70,8|0,0:0|0:0,0:0:0:0:
327,177,208169,21,8,0:0:0:0:
336,189,208267,2,0,L|330:117,1,70,8|0,0:0|0:0,0:0:0:0:
198,92,208682,1,10,0:0:0:0:
278,25,208870,1,0,0:0:0:0:
245,247,209058,2,0,L|249:163,1,70,8|0,0:0|0:0,0:0:0:0:
423,150,209433,2,0,L|419:66,1,70,8|0,0:0|0:0,0:0:0:0:
341,182,209726,1,8,0:0:0:0:
341,182,209825,6,0,L|337:98,1,70,8|0,0:0|0:0,0:0:0:0:
205,30,210218,2,0,P|181:59|174:99,1,70,8|0,0:0|0:0,0:0:0:0:
251,258,210580,1,8,0:0:0:0:
259,97,210761,1,8,0:0:0:0:
251,258,210942,2,0,L|247:340,1,70,10|0,0:0|0:0,0:0:0:0:
341,182,211335,5,8,0:0:0:0:
367,366,211537,1,0,0:0:0:0:
472,282,211739,2,0,L|481:210,1,70,8|0,0:0|0:0,0:0:0:0:
341,182,212101,1,8,0:0:0:0:
313,322,212282,1,8,0:0:0:0:
173,294,212489,2,0,L|168:220,1,70,8|0,0:0|0:0,0:0:0:0:
165,142,212799,5,8,0:0:0:0:
164,126,212903,1,8,0:0:0:0:
286,133,213084,2,0,L|288:64,2,70
285,210,213536,1,8,0:0:0:0:
285,210,213627,1,8,0:0:0:0:
216,96,213808,1,8,0:0:0:0:
420,107,213989,2,0,B|385:101|385:101|345:105,1,70,8|0,0:0|0:0,0:0:0:0:
381,227,214260,21,2,0:0:0:0:
386,241,214352,2,0,L|383:159,1,70,10|0,0:0|0:0,0:0:0:0:
306,310,214791,2,0,P|253:295|160:330,1,140,8|0,0:0|0:0,0:0:0:0:
61,359,215334,1,0,0:0:0:0:
39,245,215515,2,0,L|54:168,1,70,8|0,0:0|0:0,0:0:0:0:
70,81,215816,5,0,0:0:0:0:
73,69,215917,2,0,B|108:62|108:62|145:68,1,70,8|0,0:0|0:0,0:0:0:0:
214,146,216320,2,0,B|247:151|247:151|282:144,1,70,8|0,0:0|0:0,0:0:0:0:
360,23,216682,2,0,L|358:96,1,70,8|8,0:0|0:0,0:0:0:0:
447,251,217044,2,0,L|444:180,1,70,8|8,0:0|0:0,0:0:0:0:
246,291,217451,6,0,B|241:323|241:323|243:361,1,70,8|0,0:0|0:0,0:0:0:0:
95,186,217832,2,0,L|80:263,1,70,8|0,0:0|0:0,0:0:0:0:
213,145,218194,1,8,0:0:0:0:
118,63,218375,2,0,L|75:64,1,35,10|0,0:0|0:0,0:0:0:0:
191,226,218556,2,0,L|280:211,1,70,10|0,0:0|0:0,0:0:0:0:
397,315,218992,38,0,L|308:300,1,70,10|0,0:0|0:0,0:0:0:0:
213,145,219378,2,0,L|302:130,1,70,8|0,0:0|0:0,0:0:0:0:
433,204,219740,1,8,0:0:0:0:
303,42,219921,1,8,0:0:0:0:
265,229,220102,1,10,0:0:0:0:
401,43,220283,1,8,0:0:0:0:
211,41,220464,6,0,B|173:48|173:48|130:79,1,70,8|0,0:0|0:0,0:0:0:0:
113,246,220833,2,0,B|125:209|125:209|120:156,1,70,8|0,0:0|0:0,0:0:0:0:
28,37,221203,1,2,0:0:0:0:
54,202,221388,1,0,0:0:0:0:
203,143,221573,2,0,B|239:136|239:136|276:147,1,70,8|0,0:0|0:0,0:0:0:0:
398,320,221942,6,0,L|406:246,1,70,8|0,0:0|0:0,0:0:0:0:
366,71,222304,1,2,0:0:0:0:
347,186,222485,1,0,0:0:0:0:
366,60,222666,1,2,0:0:0:0:
345,197,222847,1,0,0:0:0:0:
197,68,223028,2,0,B|166:77|166:77|130:104,1,70,8|0,0:0|0:0,0:0:0:0:
35,273,223390,38,0,L|40:343,1,70,10|0,0:0|0:0,0:0:0:0:
190,167,223756,2,0,L|186:240,1,70,8|0,0:0|0:0,0:0:0:0:
25,72,224123,2,0,L|30:145,1,70,8|0,0:0|0:0,0:0:0:0:
201,0,224489,2,0,L|196:73,1,70,8|0,0:0|0:0,0:0:0:0:
94,205,224856,5,10,0:0:0:0:
109,71,225043,1,8,0:0:0:0:
93,213,225231,1,8,0:0:0:0:
110,62,225419,1,8,0:0:0:0:
171,186,225607,5,10,0:0:0:0:
35,75,225795,1,8,0:0:0:0:
181,193,225983,1,8,0:0:0:0:
28,68,226171,1,8,0:0:0:0:
152,275,226359,5,10,0:0:0:0:
166,269,226753,2,0,P|213:255|308:288,1,140,8|0,0:0|0:0,0:0:0:0:
364,344,227690,1,2,0:0:0:0:
364,344,227882,22,0,L|450:340,1,70,8|0,0:0|0:0,0:0:0:0:
368,214,228469,1,2,0:0:0:0:
368,214,228669,6,0,L|368:131,1,70,8|0,0:0|0:0,0:0:0:0:
266,32,229262,1,2,0:0:0:0:
266,32,229459,22,0,L|266:102,1,70,8|0,0:0|0:0,0:0:0:0:
176,178,230047,1,2,0:0:0:0:
176,178,230244,22,0,P|128:182|102:173,1,70,8|0,0:0|0:0,0:0:0:0:
263,224,230841,1,2,0:0:0:0:
263,224,231036,6,0,P|316:237|362:210,1,105,8|0,0:0|0:0,0:0:0:0:
300,149,231816,6,0,L|301:40,1,93.3333333333333,8|0,0:0|0:0,0:0:0:0:
363,17,232499,21,2,0:0:0:0:
363,17,232548,1,2,0:0:0:0:
363,17,232597,1,10,0:0:0:0:
430,137,232982,6,0,P|452:194|419:278,1,140,10|0,0:0|0:0,0:0:0:0:
360,204,233542,5,2,0:0:0:0:
266,271,233728,1,2,0:0:0:0:
360,204,233914,1,2,0:0:0:0:
372,319,234100,1,2,0:0:0:0:
254,163,234285,5,8,0:0:0:0:
282,384,234471,1,10,0:0:0:0:
360,204,234656,1,10,0:0:0:0:
173,339,234842,37,10,0:0:0:0:
150,120,235028,1,10,0:0:0:0:
364,207,235212,5,10,0:0:0:0:
173,339,235397,1,10,0:0:0:0:
150,120,235581,5,10,0:0:0:0:
266,271,235765,1,8,0:0:0:0:
254,163,235950,5,10,0:0:0:0:
173,339,236135,1,10,0:0:0:0:
360,204,236320,21,10,0:0:0:0:
161,225,236505,1,10,0:0:0:0:
284,383,236690,21,10,0:0:0:0:
254,163,236875,1,10,0:0:0:0:
56,201,237060,6,0,P|53:253|79:299,1,105,10|0,0:0|0:0,0:0:0:0:
126,233,237815,2,0,P|128:181|79:120,1,105,10|0,0:0|0:0,0:0:0:0:
31,123,238475,5,2,0:0:0:0:
31,123,238529,1,2,0:0:0:0:
31,123,238584,1,10,0:0:0:0:
86,66,239713,5,10,0:0:0:0:
183,133,240090,1,8,0:0:0:0:
193,16,240466,1,8,0:0:0:0:
102,136,240843,5,10,0:0:0:0:
251,154,241226,1,8,0:0:0:0:
366,75,241540,37,2,0:0:0:0:
366,75,241605,1,2,0:0:0:0:
366,75,241670,1,10,0:0:0:0:
383,221,242894,22,0,B|417:211|417:211|473:222,1,70,8|0,0:0|0:0,0:0:0:0:
177,343,243303,2,0,L|94:322,1,70,8|8,0:0|0:0,0:0:0:0:
356,151,243711,2,0,L|428:126,1,70,8|8,0:0|0:0,0:0:0:0:
117,83,244119,5,10,0:0:0:0:
167,273,244324,1,8,0:0:0:0:
263,100,244528,1,10,0:0:0:0:
164,280,244732,1,8,0:0:0:0:
354,215,244936,5,10,0:0:0:0:
77,187,245140,1,8,0:0:0:0:
234,35,245344,1,10,0:0:0:0:
349,289,245549,1,8,0:0:0:0:
72,262,245760,22,0,P|39:251|12:225,1,70,10|8,0:0|0:0,0:0:0:0:
202,176,246206,2,0,P|235:165|260:141,1,70,10|8,0:0|0:0,0:0:0:0:
211,376,246676,22,0,L|206:262,1,112.699996216736,8|0,0:0|0:0,0:0:0:0:
95,204,248579,38,0,L|100:318,1,112.699996216736,8|0,0:0|0:0,0:0:0:0:
163,362,250479,37,2,0:0:0:0:
170,346,250568,1,0,0:0:0:0:
173,329,250658,1,2,0:0:0:0:
173,311,250748,1,2,0:0:0:0:
168,291,250838,21,2,0:0:0:0:
150,288,250928,1,0,0:0:0:0:
135,280,251018,1,2,0:0:0:0:
122,268,251108,1,2,0:0:0:0:
114,250,251198,5,2,0:0:0:0:
124,235,251288,1,0,0:0:0:0:
130,219,251378,1,2,0:0:0:0:
133,202,251468,1,2,0:0:0:0:
132,180,251558,21,2,0:0:0:0:
132,162,251648,1,0,0:0:0:0:
136,145,251738,1,2,0:0:0:0:
145,130,251828,1,2,0:0:0:0:
157,118,251918,37,2,0:0:0:0:
193,133,252008,1,0,0:0:0:0:
227,136,252098,1,2,0:0:0:0:
261,126,252188,1,2,0:0:0:0:
288,105,252278,21,2,0:0:0:0:
324,81,252368,1,0,0:0:0:0:
367,76,252458,1,2,0:0:0:0:
408,90,252548,1,2,0:0:0:0:
439,121,252638,21,2,0:0:0:0:
455,161,252728,1,0,0:0:0:0:
452,204,252817,1,2,0:0:0:0:
428,241,252907,1,2,0:0:0:0:
390,262,252997,5,8,0:0:0:0:
201,202,253185,1,8,0:0:0:0:
310,308,253373,53,2,0:0:0:0:
302,292,253462,1,0,0:0:0:0:
298,275,253552,1,2,0:0:0:0:
299,257,253642,1,2,0:0:0:0:
306,240,253732,5,2,0:0:0:0:
312,223,253822,1,0,0:0:0:0:
315,206,253912,1,2,0:0:0:0:
313,189,254002,1,2,0:0:0:0:
308,171,254092,5,2,0:0:0:0:
300,155,254182,1,0,0:0:0:0:
297,138,254272,1,2,0:0:0:0:
297,120,254362,1,2,0:0:0:0:
302,103,254452,5,2,0:0:0:0:
313,88,254542,1,0,0:0:0:0:
317,71,254632,1,2,0:0:0:0:
314,54,254722,1,2,0:0:0:0:
305,40,254812,21,2,0:0:0:0:
340,38,254902,1,0,0:0:0:0:
373,51,254992,1,2,0:0:0:0:
398,75,255082,1,2,0:0:0:0:
412,106,255172,5,2,0:0:0:0:
419,148,255262,1,0,0:0:0:0:
408,190,255352,1,2,0:0:0:0:
382,225,255442,1,2,0:0:0:0:
344,246,255532,5,2,0:0:0:0:
311,218,255622,1,0,0:0:0:0:
268,213,255711,1,2,0:0:0:0:
229,231,255801,1,2,0:0:0:0:
206,268,255891,5,8,0:0:0:0:
378,327,256079,1,8,0:0:0:0:
344,149,256268,21,2,0:0:0:0:
333,125,256357,1,0,0:0:0:0:
333,99,256447,1,2,0:0:0:0:
343,75,256537,1,2,0:0:0:0:
362,60,256627,5,2,0:0:0:0:
330,75,256717,1,0,0:0:0:0:
296,78,256807,1,2,0:0:0:0:
262,70,256897,1,2,0:0:0:0:
232,51,256987,5,2,0:0:0:0:
194,31,257077,1,0,0:0:0:0:
151,29,257167,1,2,0:0:0:0:
110,43,257257,1,2,0:0:0:0:
78,73,257347,5,2,0:0:0:0:
105,108,257437,1,0,0:0:0:0:
114,150,257527,1,2,0:0:0:0:
104,192,257617,1,2,0:0:0:0:
78,224,257707,21,2,0:0:0:0:
65,265,257797,1,0,0:0:0:0:
72,308,257887,1,2,0:0:0:0:
96,343,257977,1,2,0:0:0:0:
134,364,258067,5,2,0:0:0:0:
140,322,258157,1,0,0:0:0:0:
174,296,258247,1,2,0:0:0:0:
216,300,258337,1,2,0:0:0:0:
245,334,258427,5,2,0:0:0:0:
278,360,258517,1,0,0:0:0:0:
321,357,258606,1,2,0:0:0:0:
351,327,258696,1,2,0:0:0:0:
353,284,258787,5,8,0:0:0:0:
257,83,258973,1,8,0:0:0:0:
140,191,259160,21,2,0:0:0:0:
159,207,259250,1,0,0:0:0:0:
185,211,259340,1,2,0:0:0:0:
209,201,259430,1,2,0:0:0:0:
224,180,259520,5,2,0:0:0:0:
259,183,259610,1,0,0:0:0:0:
294,185,259700,1,2,0:0:0:0:
329,187,259790,1,2,0:0:0:0:
377,186,259880,5,2,0:0:0:0:
401,150,259970,1,2,0:0:0:0:
413,108,260060,1,2,0:0:0:0:
411,64,260150,1,2,0:0:0:0:
394,24,260240,5,8,0:0:0:0:
447,206,260423,1,8,0:0:0:0:
310,96,260606,21,2,0:0:0:0:
277,82,260696,1,0,0:0:0:0:
242,80,260786,1,2,0:0:0:0:
209,89,260876,1,2,0:0:0:0:
178,109,260966,5,2,0:0:0:0:
137,94,261056,1,0,0:0:0:0:
94,100,261146,1,2,0:0:0:0:
58,125,261236,1,2,0:0:0:0:
38,163,261326,5,2,0:0:0:0:
38,216,261416,1,2,0:0:0:0:
39,268,261506,1,2,0:0:0:0:
40,321,261596,1,2,0:0:0:0:
40,373,261686,5,8,0:0:0:0:
128,175,261896,1,8,0:0:0:0:
234,291,262105,21,10,0:0:0:0:
241,303,262315,2,0,L|283:303,1,35,2|0,0:0|0:0,0:0:0:0:
412,217,262497,6,0,L|370:217,1,35,8|0,0:0|0:0,0:0:0:0:
406,228,262679,2,0,L|364:228,1,35,2|0,0:0|0:0,0:0:0:0:
274,75,262861,6,0,L|277:118,1,35,8|0,0:0|0:0,0:0:0:0:
262,75,263043,2,0,L|268:117,1,35,2|0,0:0|0:0,0:0:0:0:
99,126,263225,6,0,L|91:92,1,35,8|0,0:0|0:0,0:0:0:0:
90,132,263408,2,0,L|79:99,1,35,2|0,0:0|0:0,0:0:0:0:
91,318,263590,22,0,L|102:284,1,35,8|0,0:0|0:0,0:0:0:0:
98,327,263776,2,0,L|109:293,1,35,2|0,0:0|0:0,0:0:0:0:
248,220,263964,6,0,L|290:222,1,35,8|0,0:0|0:0,0:0:0:0:
402,339,264148,2,0,L|360:341,1,35,8|0,0:0|0:0,0:0:0:0:
203,289,264333,6,0,L|245:291,1,35,8|0,0:0|0:0,0:0:0:0:
446,264,264518,2,0,L|404:266,1,35,8|0,0:0|0:0,0:0:0:0:
229,366,264703,6,0,L|183:362,1,35,8|0,0:0|0:0,0:0:0:0:
230,145,264888,2,0,L|277:147,1,35,8|0,0:0|0:0,0:0:0:0:
128,54,265073,22,0,L|81:58,1,35,8|0,0:0|0:0,0:0:0:0:
126,68,265256,2,0,L|79:72,1,35,2|0,0:0|0:0,0:0:0:0:
226,163,265440,6,0,L|273:167,1,35,8|0,0:0|0:0,0:0:0:0:
228,177,265624,2,0,L|274:182,1,35,2|0,0:0|0:0,0:0:0:0:
126,278,265807,6,0,L|119:321,1,35,8|0,0:0|0:0,0:0:0:0:
140,284,265989,2,0,L|133:327,1,35,2|0,0:0|0:0,0:0:0:0:
306,340,266171,6,0,L|312:306,1,35,8|0,0:0|0:0,0:0:0:0:
321,344,266354,2,0,L|327:310,1,35,2|0,0:0|0:0,0:0:0:0:
408,169,266536,22,0,L|417:215,1,35,8|0,0:0|0:0,0:0:0:0:
417,172,266724,2,0,L|426:218,1,35,2|0,0:0|0:0,0:0:0:0:
327,48,266912,6,0,L|318:94,1,35,8|0,0:0|0:0,0:0:0:0:
455,54,267100,2,0,L|491:55,1,35,8|0,0:0|0:0,0:0:0:0:
307,148,267288,6,0,L|301:186,1,35,8|0,0:0|0:0,0:0:0:0:
478,161,267472,2,0,L|515:162,1,35,8|0,0:0|0:0,0:0:0:0:
391,54,267656,6,0,L|391:-4,1,35,8|0,0:0|0:0,0:0:0:0:
356,242,267840,2,0,L|356:300,1,35,8|0,0:0|0:0,0:0:0:0:
83,157,268024,22,0,L|83:202,1,35,10|0,0:0|0:0,0:0:0:0:
251,25,268207,2,0,L|296:25,1,35,8|0,0:0|0:0,0:0:0:0:
69,143,268390,6,0,L|69:188,1,35,10|0,0:0|0:0,0:0:0:0:
305,85,268576,2,0,L|350:85,1,35,8|0,0:0|0:0,0:0:0:0:
58,118,268762,6,0,L|58:163,1,35,10|0,0:0|0:0,0:0:0:0:
359,145,268950,2,0,L|404:145,1,35,8|0,0:0|0:0,0:0:0:0:
43,101,269138,6,0,L|43:146,1,35,10|0,0:0|0:0,0:0:0:0:
413,205,269328,2,0,L|458:205,1,35,8|0,0:0|0:0,0:0:0:0:
47,329,269519,21,10,0:0:0:0:
57,316,270011,6,0,P|106:289|189:302,1,134.4,0|0,3:0|0:0,0:0:0:0:
305,352,271905,6,0,L|447:334,1,140,8|0,0:0|0:0,0:0:0:0:
480,242,272945,22,2,L|479:228,4,8.75
429,158,273477,6,0,P|397:192|391:238,1,93.7999955630495,8|0,0:0|0:0,0:0:0:0:
490,114,274020,1,2,0:0:0:0:
269,104,274219,2,0,P|201:102|160:129,1,105,8|0,0:0|0:0,0:0:0:0:
159,131,274633,1,8,0:0:0:0:
197,304,275021,6,0,P|238:243|226:169,1,140,8|0,0:0|0:0,0:0:0:0:
120,55,275561,1,2,0:0:0:0:
316,29,275754,2,0,P|321:75|367:117,1,105,8|0,0:0|0:0,0:0:0:0:
375,119,276165,1,8,0:0:0:0:
460,200,276553,6,0,L|450:344,1,140,8|0,0:0|0:0,0:0:0:0:
316,325,277096,1,2,0:0:0:0:
266,204,277301,2,0,P|217:189|153:207,1,105,8|0,0:0|0:0,0:0:0:0:
157,207,277713,5,8,0:0:0:0:
239,320,277895,2,0,L|229:364,1,41.9999987182618,8|0,0:0|0:0,0:0:0:0:
171,312,278261,2,0,L|161:356,1,41.9999987182618,8|0,0:0|0:0,0:0:0:0:
103,304,278627,1,8,0:0:0:0:
106,149,278810,21,10,0:0:0:0:
41,251,278993,1,8,0:0:0:0:
171,79,279176,5,10,0:0:0:0:
165,199,279359,2,0,L|162:258,1,48.9999985046387,8|0,0:0|0:0,0:0:0:0:
266,204,279725,2,0,L|315:236,1,48.9999985046387,8|0,0:0|0:0,0:0:0:0:
320,119,280091,1,8,0:0:0:0:
368,265,280273,5,10,0:0:0:0:
384,151,280456,1,8,0:0:0:0:
291,344,280639,5,10,0:0:0:0:
307,230,280822,2,0,L|250:239,1,56,8|0,0:0|0:0,0:0:0:0:
194,322,281189,2,0,L|157:277,1,56,8|0,0:0|0:0,0:0:0:0:
57,270,281556,1,8,0:0:0:0:
147,380,281739,21,10,0:0:0:0:
177,216,281923,1,8,0:0:0:0:
139,41,282106,5,10,0:0:0:0:
109,205,282291,2,0,L|33:195,1,62.9999980773926,8|0,0:0|0:0,0:0:0:0:
215,166,282661,2,0,L|168:226,1,62.9999980773926,8|0,0:0|0:0,0:0:0:0:
234,54,283031,1,8,0:0:0:0:
247,237,283217,5,10,0:0:0:0:
139,41,283402,1,8,0:0:0:0:
316,250,283587,6,0,L|395:251,1,70,10|0,0:0|0:0,0:0:0:0:
439,320,283856,1,0,3:0:0:0:
439,320,283946,2,0,P|465:289|471:251,1,70,0|0,3:0|0:0,0:0:0:0:
316,180,284216,1,0,3:0:0:0:
316,180,284306,22,0,L|316:257,1,70,10|0,0:0|0:0,0:0:0:0:
396,355,284576,1,0,3:0:0:0:
396,355,284666,2,0,P|409:316|402:279,1,70,0|0,3:0|0:0,0:0:0:0:
401,150,285026,53,2,0:0:0:0:
384,156,285088,1,2,0:0:0:0:
367,159,285150,1,2,0:0:0:0:
350,160,285212,1,2,0:0:0:0:
332,157,285275,1,2,0:0:0:0:
316,152,285337,1,2,0:0:0:0:
298,143,285400,6,0,B|223:140,1,70,10|0,0:0|0:0,0:0:0:0:
209,48,285669,1,0,3:0:0:0:
209,48,285759,2,0,B|148:84,1,70,0|0,3:0|0:0,0:0:0:0:
84,10,286029,1,0,3:0:0:0:
84,10,286119,2,0,B|49:71,1,70,0|0,3:0|0:0,0:0:0:0:
86,163,286389,1,0,3:0:0:0:
86,163,286480,6,0,L|85:239,1,70,10|0,0:0|0:0,0:0:0:0:
19,348,286755,1,0,3:0:0:0:
19,348,286846,2,0,L|18:278,1,70,0|0,3:0|0:0,0:0:0:0:
149,349,287121,1,0,3:0:0:0:
149,349,287213,6,0,P|191:344|220:352,1,70,10|0,0:0|0:0,0:0:0:0:
208,217,287486,1,0,3:0:0:0:
208,217,287577,2,0,L|259:159,1,70,0|0,3:0|0:0,0:0:0:0:
337,278,287941,21,2,0:0:0:0:
351,280,288003,1,2,0:0:0:0:
365,280,288065,1,2,0:0:0:0:
380,277,288127,1,2,0:0:0:0:
393,272,288188,1,2,0:0:0:0:
406,265,288250,1,2,0:0:0:0:
417,253,288312,6,0,B|423:159,1,70,10|0,0:0|0:0,0:0:0:0:
488,124,288581,1,0,3:0:0:0:
488,124,288671,2,0,B|403:95,1,70,0|0,3:0|0:0,0:0:0:0:
455,17,288941,1,0,3:0:0:0:
455,17,289031,2,0,L|386:28,1,70,0|0,3:0|0:0,0:0:0:0:
324,82,289301,1,0,3:0:0:0:
324,82,289391,6,0,P|277:64|192:135,1,157.5,10|0,0:0|0:0,0:0:0:0:
162,123,290290,1,2,0:0:0:0:
128,116,290380,1,2,0:0:0:0:
93,118,290470,1,2,0:0:0:0:
60,129,290560,1,2,0:0:0:0:
73,160,290650,1,2,0:0:0:0:
72,195,290740,1,2,0:0:0:0:
54,224,290830,53,10,0:0:0:0:
42,256,290920,1,2,0:0:0:0:
41,291,291010,1,2,0:0:0:0:
51,324,291100,1,2,0:0:0:0:
71,353,291190,1,2,0:0:0:0:
74,319,291280,1,2,0:0:0:0:
103,302,291370,1,2,0:0:0:0:
131,318,291460,1,2,0:0:0:0:
138,347,291550,5,10,0:0:0:0:
171,319,291640,1,2,0:0:0:0:
213,310,291729,1,2,0:0:0:0:
255,322,291819,1,2,0:0:0:0:
286,348,291909,1,2,0:0:0:0:
289,314,291999,1,2,0:0:0:0:
319,298,292089,1,2,0:0:0:0:
348,314,292179,1,2,0:0:0:0:
351,348,292269,21,10,0:0:0:0:
394,353,292359,1,2,0:0:0:0:
433,335,292449,1,2,0:0:0:0:
458,300,292539,1,2,0:0:0:0:
459,256,292629,21,10,0:0:0:0:
427,228,292719,1,2,0:0:0:0:
411,188,292809,1,2,0:0:0:0:
416,145,292899,1,2,0:0:0:0:
440,109,292989,5,10,0:0:0:0:
432,66,293079,1,2,0:0:0:0:
399,38,293169,1,2,0:0:0:0:
356,35,293259,1,2,0:0:0:0:
321,59,293349,5,10,0:0:0:0:
287,87,293439,1,2,0:0:0:0:
245,97,293529,1,2,0:0:0:0:
203,87,293619,1,2,0:0:0:0:
168,61,293709,38,0,L|139:27,1,35,8|0,0:0|0:0,0:0:0:0:
117,116,293889,2,0,L|83:104,1,35
43,179,294068,2,0,L|21:206,1,35
105,249,294248,2,0,L|72:261,1,35
172,313,294429,53,2,0:0:0:0:
180,300,294489,1,2,0:0:0:0:
190,290,294550,1,2,0:0:0:0:
202,281,294611,1,2,0:0:0:0:
215,275,294671,1,2,0:0:0:0:
229,272,294732,1,2,0:0:0:0:
243,271,294793,1,2,0:0:0:0:
258,273,294854,1,2,0:0:0:0:
272,277,294914,1,2,0:0:0:0:
285,284,294975,1,2,0:0:0:0:
296,293,295036,1,2,0:0:0:0:
305,304,295097,1,2,0:0:0:0:
313,317,295158,1,8,0:0:0:0:
432,339,295591,6,0,L|438:217,1,105.000004005432,10|0,0:0|0:0,0:0:0:0:
440,203,296040,1,2,0:0:0:0:
442,168,296130,1,2,0:0:0:0:
432,134,296220,1,2,0:0:0:0:
411,107,296310,1,2,0:0:0:0:
382,88,296400,1,2,0:0:0:0:
347,82,296490,1,2,0:0:0:0:
312,84,296580,1,2,0:0:0:0:
282,102,296670,1,2,0:0:0:0:
264,131,296759,1,2,0:0:0:0:
260,165,296849,1,2,0:0:0:0:
233,186,296939,1,2,0:0:0:0:
198,186,297029,5,10,0:0:0:0:
176,160,297119,1,2,0:0:0:0:
143,148,297209,1,2,0:0:0:0:
109,155,297299,1,2,0:0:0:0:
81,177,297389,1,2,0:0:0:0:
64,207,297479,1,2,0:0:0:0:
63,241,297569,1,2,0:0:0:0:
77,273,297659,1,2,0:0:0:0:
105,293,297749,5,10,0:0:0:0:
131,270,297839,1,2,0:0:0:0:
163,257,297929,1,2,0:0:0:0:
198,258,298019,1,2,0:0:0:0:
230,271,298109,1,2,0:0:0:0:
255,295,298199,1,2,0:0:0:0:
268,331,298289,37,10,0:0:0:0:
306,351,298379,1,2,0:0:0:0:
349,354,298469,1,2,0:0:0:0:
390,338,298559,1,2,0:0:0:0:
420,308,298649,5,10,0:0:0:0:
396,272,298739,1,2,0:0:0:0:
386,230,298829,1,2,0:0:0:0:
393,187,298919,1,2,0:0:0:0:
416,150,299008,5,10,0:0:0:0:
432,101,299098,1,2,0:0:0:0:
415,52,299188,1,2,0:0:0:0:
372,25,299278,1,2,0:0:0:0:
321,30,299368,5,10,0:0:0:0:
277,51,299458,1,2,0:0:0:0:
227,37,299548,22,0,L|166:38,7,35,10|0|0|0|0|0|0|0,0:0|0:0|0:0|0:0|0:0|0:0|0:0|0:0,0:0:0:0:
206,110,300268,6,0,L|148:111,7,35,8|0|0|0|0|0|0|0,0:0|0:0|0:0|0:0|0:0|0:0|0:0|0:0,0:0:0:0:
56,34,300988,6,0,L|21:33,7,35,8|0|0|0|0|0|0|0,0:0|0:0|0:0|0:0|0:0|0:0|0:0|0:0,0:0:0:0:
91,104,301708,6,0,L|45:102,7,35,10|0|0|0|0|0|0|0,0:0|0:0|0:0|0:0|0:0|0:0|0:0|0:0,0:0:0:0:
155,236,302437,22,0,L|166:319,1,70,10|0,0:0|0:0,0:0:0:0:
384,151,302799,1,0,0:0:0:0:
382,137,302980,1,0,0:0:0:0:
380,123,303161,1,0,0:0:0:0:
378,109,303342,1,0,0:0:0:0:
432,32,303523,1,8,0:0:0:0:
430,19,303704,1,8,0:0:0:0:
192,28,303885,6,0,L|113:37,1,70,10|0,0:0|0:0,0:0:0:0:
315,258,304247,1,0,0:0:0:0:
328,256,304428,1,0,0:0:0:0:
342,254,304609,1,0,0:0:0:0:
356,253,304790,1,0,0:0:0:0:
404,324,304971,1,8,0:0:0:0:
418,323,305152,1,8,0:0:0:0:
180,325,305333,22,0,L|100:318,1,70,10|0,0:0|0:0,0:0:0:0:
247,123,305695,1,0,0:0:0:0:
260,124,305876,1,0,0:0:0:0:
274,125,306057,1,0,0:0:0:0:
288,126,306238,1,0,0:0:0:0:
350,56,306419,1,8,0:0:0:0:
364,58,306600,1,8,0:0:0:0:
127,43,306781,22,0,L|116:125,1,70,10|0,0:0|0:0,0:0:0:0:
333,324,307143,1,0,0:0:0:0:
334,310,307324,1,0,0:0:0:0:
336,296,307505,1,0,0:0:0:0:
338,282,307686,1,0,0:0:0:0:
382,186,307867,1,8,0:0:0:0:
384,172,308048,1,8,0:0:0:0:
186,109,308229,6,0,P|149:105|107:117,2,70,10|0|0,0:0|0:0|0:0,0:0:0:0:
294,153,308772,2,0,P|337:158|413:97,1,140,8|0,0:0|0:0,0:0:0:0:
300,33,309315,1,0,0:0:0:0:
294,153,309496,2,0,L|296:299,1,140,8|0,0:0|0:0,0:0:0:0:
381,261,310039,1,0,0:0:0:0:
217,331,310221,2,0,B|157:353|138:303|63:329,1,140,8|0,0:0|0:0,0:0:0:0:
21,211,310767,1,8,0:0:0:0:
179,270,310949,1,8,0:0:0:0:
337,211,311131,6,0,P|344:171|333:129,1,70,10|0,0:0|0:0,0:0:0:0:
153,115,311491,1,8,0:0:0:0:
179,270,311671,1,8,0:0:0:0:
153,104,311851,1,8,0:0:0:0:
180,281,312031,1,8,0:0:0:0:
220,68,312212,1,8,0:0:0:0:
114,308,312392,1,8,0:0:0:0:
75,62,312572,37,10,0:0:0:0:
255,257,312754,1,10,0:0:0:0:
283,23,312935,5,10,0:0:0:0:
63,164,313116,1,8,0:0:0:0:
315,136,313298,5,10,0:0:0:0:
63,48,313482,1,8,0:0:0:0:
133,257,313667,5,10,0:0:0:0:
397,52,313851,1,10,0:0:0:0:
414,311,314036,22,0,P|417:353|415:383,1,70,10|0,0:0|0:0,0:0:0:0:
259,345,314399,1,8,0:0:0:0:
317,260,314581,1,8,0:0:0:0:
191,295,314763,1,8,0:0:0:0:
330,258,314945,1,8,0:0:0:0:
179,205,315126,1,8,0:0:0:0:
344,255,315308,1,8,0:0:0:0:
305,33,315490,5,10,0:0:0:0:
305,33,315671,1,8,0:0:0:0:
113,224,315852,5,10,0:0:0:0:
365,122,316033,1,8,0:0:0:0:
193,36,316215,5,10,0:0:0:0:
432,157,316396,1,8,0:0:0:0:
157,125,316577,21,10,0:0:0:0:
432,88,316761,1,10,0:0:0:0:
298,291,316945,6,0,L|295:371,1,70,10|0,0:0|0:0,0:0:0:0:
373,198,317307,1,0,0:0:0:0:
227,243,317489,2,0,P|155:262|89:239,1,140,8|0,0:0|0:0,0:0:0:0:
41,320,318033,1,0,0:0:0:0:
140,157,318215,2,0,P|212:138|278:161,1,140,8|0,0:0|0:0,0:0:0:0:
356,94,318759,1,0,0:0:0:0:
468,226,318940,2,0,L|477:81,1,140,8|0,0:0|0:0,0:0:0:0:
347,14,319485,1,0,0:0:0:0:
240,113,319666,2,0,B|310:101,1,70,8|0,0:0|0:0,0:0:0:0:
128,118,320029,21,10,0:0:0:0:
211,48,320211,1,8,0:0:0:0:
105,33,320392,2,0,L|45:71,1,70,10|0,0:0|0:0,0:0:0:0:
64,257,320764,21,10,0:0:0:0:
56,162,320949,1,8,0:0:0:0:
189,244,321134,2,0,P|197:277|190:311,1,70,10|0,0:0|0:0,0:0:0:0:
304,236,321540,5,10,0:0:0:0:
399,233,321748,1,8,0:0:0:0:
244,143,321956,2,0,L|163:137,1,70,10|0,0:0|0:0,0:0:0:0:
365,83,322374,5,10,0:0:0:0:
399,233,322594,1,8,0:0:0:0:
287,75,322815,1,10,0:0:0:0:
196,227,323056,38,0,L|131:226,1,52.5,10|0,0:0|0:0,0:0:0:0:
99,298,323453,2,0,L|164:297,1,52.5,0|0,3:0|0:0,0:0:0:0:
194,358,323850,2,0,L|259:357,1,52.5,0|0,3:0|0:0,0:0:0:0:
340,319,324247,6,0,L|344:244,1,70,10|0,0:0|0:0,0:0:0:0:
294,186,324551,5,8,0:0:0:0:
294,186,324652,2,0,L|293:102,1,70.3499966722871,10|0,0:0|0:0,0:0:0:0:
245,40,325058,6,0,P|220:62|212:117,1,84,8|0,0:0|0:0,0:0:0:0:
134,116,325486,2,0,P|140:148|184:183,1,84,8|0,0:0|0:0,0:0:0:0:
144,250,325914,2,0,P|175:260|239:226,1,84,8|2,0:0|0:0,0:0:0:0:
257,160,326306,5,2,0:0:0:0:
257,160,326379,2,0,L|400:158,1,140,10|0,0:0|0:0,0:0:0:0:
461,205,326875,6,0,P|471:184|474:151,1,52.5,0|0,3:0|3:0,3:0:0:0:
428,79,327272,1,0,3:0:0:0:
322,186,327570,6,0,L|336:116,1,70,8|0,0:0|0:0,0:0:0:0:
284,68,327873,5,8,0:0:0:0:
284,68,327974,2,0,L|207:60,1,62.9999980773926,10|0,0:0|0:0,0:0:0:0:
175,11,328378,6,0,P|153:52|158:93,1,84,10|0,0:0|0:0,0:0:0:0:
80,111,328795,2,0,P|104:150|142:166,1,84,10|0,0:0|0:0,0:0:0:0:
119,243,329212,2,0,P|164:241|198:217,1,84,10|0,0:0|0:0,0:0:0:0:
208,129,329592,5,2,0:0:0:0:
208,129,329660,2,0,L|321:131,1,105,10|0,0:0|0:0,0:0:0:0:
383,87,330051,6,0,P|392:107|394:147,1,52.5,8|2,0:0|0:0,0:0:0:0:
348,202,330402,53,2,0:0:0:0:
348,202,330459,2,0,L|342:318,1,105,10|0,0:0|0:0,0:0:0:0:
280,352,330850,6,0,P|263:342|226:346,1,52.5,8|2,0:0|0:0,0:0:0:0:
172,297,331208,53,2,0:0:0:0:
172,297,331273,2,0,L|57:298,1,105,10|0,0:0|0:0,0:0:0:0:
34,223,331666,6,0,P|29:201|34:168,1,52.5,8|2,0:0|0:0,0:0:0:0:
95,122,332010,53,2,0:0:0:0:
95,122,332059,2,0,L|206:122,1,105,10|0,0:0|0:0,0:0:0:0:
262,61,332453,6,0,P|266:35|261:8,1,52.5,8|0,0:0|0:0,0:0:0:0:
350,74,332846,6,0,L|351:122,1,35,8|0,0:0|0:0,0:0:0:0:
284,181,333051,2,0,L|283:146,1,35,8|0,0:0|0:0,0:0:0:0:
356,79,333257,6,0,L|357:120,1,35,8|0,0:0|0:0,0:0:0:0:
290,186,333455,2,0,L|290:152,1,35,8|0,0:0|0:0,0:0:0:0:
362,84,333654,6,0,L|363:125,1,35,8|0,0:0|0:0,0:0:0:0:
296,191,333851,2,0,L|296:157,1,35,8|0,0:0|0:0,0:0:0:0:
370,90,334048,22,0,L|371:131,1,35,8|0,0:0|0:0,0:0:0:0:
304,197,334240,2,0,L|304:163,1,35,8|0,0:0|0:0,0:0:0:0:
493,270,334432,6,0,L|445:271,1,35,8|0,0:0|0:0,0:0:0:0:
386,204,334624,2,0,L|421:203,1,35,8|0,0:0|0:0,0:0:0:0:
488,276,334816,6,0,L|447:277,1,35,8|0,0:0|0:0,0:0:0:0:
381,210,335005,2,0,L|415:210,1,35,8|0,0:0|0:0,0:0:0:0:
483,282,335195,6,0,L|442:283,1,35,8|0,0:0|0:0,0:0:0:0:
376,216,335382,2,0,L|410:216,1,35,8|0,0:0|0:0,0:0:0:0:
477,290,335570,22,0,L|436:291,1,35,8|0,0:0|0:0,0:0:0:0:
370,224,335744,2,0,L|404:224,1,35,8|0,0:0|0:0,0:0:0:0:
234,147,335919,6,0,L|185:147,3,35,10|0|2|2,0:0|0:0|0:0|0:0,0:0:0:0:
135,128,336278,5,2,0:0:0:0:
133,146,336368,1,0,0:0:0:0:
135,163,336458,1,2,0:0:0:0:
141,180,336548,1,2,0:0:0:0:
151,194,336638,37,2,0:0:0:0:
186,196,336728,1,0,0:0:0:0:
219,185,336818,1,2,0:0:0:0:
246,163,336908,1,2,0:0:0:0:
263,132,336998,5,2,0:0:0:0:
288,108,337088,1,0,0:0:0:0:
321,98,337178,1,2,0:0:0:0:
356,104,337268,1,2,0:0:0:0:
384,124,337358,21,2,0:0:0:0:
406,161,337448,1,0,0:0:0:0:
406,204,337538,1,2,0:0:0:0:
384,242,337628,1,2,0:0:0:0:
346,262,337718,21,2,0:0:0:0:
306,245,337808,1,0,0:0:0:0:
263,250,337898,1,2,0:0:0:0:
227,275,337988,1,2,0:0:0:0:
209,314,338078,21,2,0:0:0:0:
174,340,338168,1,0,0:0:0:0:
131,345,338257,1,2,0:0:0:0:
92,326,338347,1,2,0:0:0:0:
68,290,338438,53,8,0:0:0:0:
125,114,338628,1,8,0:0:0:0:
305,141,338819,5,2,0:0:0:0:
337,152,338909,1,0,0:0:0:0:
372,154,338999,1,2,0:0:0:0:
406,145,339090,1,2,0:0:0:0:
436,127,339180,5,2,0:0:0:0:
441,93,339270,1,0,0:0:0:0:
420,66,339361,1,2,0:0:0:0:
387,64,339451,1,2,0:0:0:0:
362,86,339541,37,2,0:0:0:0:
348,127,339632,1,0,0:0:0:0:
357,169,339722,1,2,0:0:0:0:
388,200,339812,1,2,0:0:0:0:
431,210,339903,5,2,0:0:0:0:
465,236,339993,1,0,0:0:0:0:
482,275,340083,1,2,0:0:0:0:
477,318,340174,1,2,0:0:0:0:
451,353,340264,5,2,0:0:0:0:
424,320,340354,1,0,0:0:0:0:
383,305,340445,1,2,0:0:0:0:
341,313,340535,1,2,0:0:0:0:
308,342,340625,21,2,0:0:0:0:
268,360,340716,1,2,0:0:0:0:
225,357,340806,1,2,0:0:0:0:
189,333,340896,1,2,0:0:0:0:
169,295,340987,21,2,0:0:0:0:
201,266,341077,1,0,0:0:0:0:
216,225,341167,1,2,0:0:0:0:
209,182,341258,1,2,0:0:0:0:
182,148,341348,53,8,0:0:0:0:
87,325,341547,1,8,0:0:0:0:
50,65,341835,38,0,L|50:162,1,70
64,124,342130,1,0,0:0:0:0:
80,119,342189,1,0,0:0:0:0:
98,119,342248,1,0,0:0:0:0:
117,123,342307,2,0,L|122:80,1,35,8|0,0:0|0:0,0:0:0:0:
179,40,342543,1,0,0:0:0:0:
197,43,342602,1,0,0:0:0:0:
215,43,342661,1,0,0:0:0:0:
231,38,342720,1,0,0:0:0:0:
246,28,342779,2,0,L|251:73,1,35,8|0,0:0|0:0,0:0:0:0:
341,141,343016,1,2,0:0:0:0:
364,153,343075,1,2,0:0:0:0:
389,156,343134,1,2,0:0:0:0:
415,151,343193,1,2,0:0:0:0:
437,136,343252,1,2,0:0:0:0:
326,303,343488,5,2,0:0:0:0:
352,221,343606,1,2,0:0:0:0:
269,241,343725,2,0,P|257:255|249:275,1,35,10|0,0:0|0:0,0:0:0:0:
415,289,343965,53,2,0:0:0:0:
430,273,344025,1,2,0:0:0:0:
439,254,344085,1,2,0:0:0:0:
441,232,344145,1,2,0:0:0:0:
432,208,344206,2,0,P|394:154|357:144,1,104.999996795654,10|0,0:0|0:0,0:0:0:0:
204,217,346147,5,8,0:0:0:0:
348,255,346383,53,0,0:0:0:0:
351,247,346442,1,0,0:0:0:0:
354,238,346501,1,0,0:0:0:0:
355,230,346560,1,0,0:0:0:0:
355,221,346619,1,8,0:0:0:0:
173,138,346855,5,2,0:0:0:0:
256,150,346973,1,2,0:0:0:0:
204,217,347091,2,0,P|174:223|152:219,1,35,10|0,0:0|0:0,0:0:0:0:
90,179,347328,53,2,0:0:0:0:
82,163,347387,1,2,0:0:0:0:
79,146,347446,1,2,0:0:0:0:
80,128,347505,1,2,0:0:0:0:
87,113,347564,1,10,0:0:0:0:
224,72,347800,5,8,0:0:0:0:
256,150,347918,1,8,0:0:0:0:
173,138,348036,1,10,0:0:0:0:
160,62,348157,1,10,0:0:0:0:
94,23,348277,1,10,0:0:0:0:
22,48,348398,1,10,0:0:0:0:
0,119,348518,6,0,P|0:162|33:237,1,122.499996261597,10|0,0:0|0:0,0:0:0:0:
71,363,350451,53,8,0:0:0:0:
72,346,350555,1,0,0:0:0:0:
74,328,350659,1,0,0:0:0:0:
76,311,350763,1,0,0:0:0:0:
78,293,350867,6,0,B|112:281|112:281|148:289,1,70,8|0,0:0|0:0,0:0:0:0:
233,352,351241,2,0,B|266:359|266:359|308:348,1,70,8|0,0:0|0:0,0:0:0:0:
401,288,351616,2,0,L|409:206,1,70,8|0,0:0|0:0,0:0:0:0:
417,149,351910,1,8,0:0:0:0:
419,130,352009,2,0,B|386:107|386:107|339:104,1,70,10|0,0:0|0:0,0:0:0:0:
236,216,352402,5,8,0:0:0:0:
282,80,352583,1,2,0:0:0:0:
312,269,352764,1,8,0:0:0:0:
158,172,352945,1,2,0:0:0:0:
317,176,353126,2,0,B|354:184|354:184|386:211,1,70,8|0,0:0|0:0,0:0:0:0:
397,284,353420,1,2,0:0:0:0:
431,274,353519,5,8,0:0:0:0:
438,257,353620,1,0,0:0:0:0:
445,241,353721,1,0,0:0:0:0:
452,225,353822,1,0,0:0:0:0:
458,208,353923,22,0,B|453:171|453:171|434:142,1,70,8|0,0:0|0:0,0:0:0:0:
320,45,354285,2,0,L|300:127,1,70,8|0,0:0|0:0,0:0:0:0:
490,82,354673,2,0,L|474:12,1,70,8|0,0:0|0:0,0:0:0:0:
370,136,355087,1,8,0:0:0:0:
233,48,355289,1,0,0:0:0:0:
317,17,355491,6,0,B|321:49|321:49|311:105,1,70,8|0,0:0|0:0,0:0:0:0:
186,112,355853,2,0,L|144:116,1,35,8|0,0:0|0:0,0:0:0:0:
233,48,356034,1,8,0:0:0:0:
64,64,356241,1,8,0:0:0:0:
61,81,356344,1,0,0:0:0:0:
59,98,356448,1,0,0:0:0:0:
57,116,356551,1,0,0:0:0:0:
55,133,356655,1,8,0:0:0:0:
131,313,357069,22,0,P|143:268|128:212,1,105,10|0,0:0|0:0,0:0:0:0:
26,314,357789,2,0,L|136:312,1,105,8|0,0:0|0:0,0:0:0:0:
150,312,358169,1,8,0:0:0:0:
259,355,358549,22,0,L|406:329,1,140,8|0,0:0|0:0,0:0:0:0:
338,136,359090,1,0,0:0:0:0:
236,272,359285,2,0,P|192:237|117:238,1,105,8|0,0:0|0:0,0:0:0:0:
131,231,359693,1,8,0:0:0:0:
338,136,360081,6,0,L|326:275,1,140,8|0,0:0|0:0,0:0:0:0:
209,124,360622,1,0,0:0:0:0:
409,80,360815,2,0,P|424:128|410:194,1,105,8|0,0:0|0:0,0:0:0:0:
412,195,361225,1,8,0:0:0:0:
290,39,361611,6,0,L|136:28,1,140,8|0,0:0|0:0,0:0:0:0:
29,108,362145,1,0,0:0:0:0:
209,124,362352,2,0,L|286:131,1,70,8|0,0:0|0:0,0:0:0:0:
359,131,362662,37,10,0:0:0:0:
369,117,362780,2,0,B|404:128|404:128|430:157,1,70,10|0,0:0|0:0,0:0:0:0:
309,323,363139,1,10,0:0:0:0:
119,228,363319,1,2,0:0:0:0:
172,349,363499,5,10,0:0:0:0:
230,162,363683,1,2,0:0:0:0:
5,163,363867,5,10,0:0:0:0:
63,350,364051,1,2,0:0:0:0:
122,108,364235,6,0,B|123:71|123:71|111:30,1,70,10|0,0:0|0:0,0:0:0:0:
119,228,364607,1,2,0:0:0:0:
48,84,364794,1,2,0:0:0:0:
390,108,364980,22,0,B|389:71|389:71|401:30,1,70,10|0,0:0|0:0,0:0:0:0:
393,228,365377,1,2,0:0:0:0:
464,84,365588,1,2,0:0:0:0:
253,19,365799,6,0,L|253:71,2,46.6666666666667,10|0|0,0:0|0:0|0:0,0:0:0:0:
185,56,366159,5,2,0:0:0:0:
184,79,366279,1,2,0:0:0:0:
191,101,366399,1,2,0:0:0:0:
236,125,366519,5,2,0:0:0:0:
242,147,366639,1,2,0:0:0:0:
242,170,366759,1,2,0:0:0:0:
206,204,366880,21,2,0:0:0:0:
205,227,367000,1,2,0:0:0:0:
212,251,367120,1,2,0:0:0:0:
206,284,367240,6,0,L|205:323,3,35,10|0|0|0,0:0|0:0|0:0|0:0,0:0:0:0:
254,266,367600,5,2,0:0:0:0:
275,275,367690,1,0,0:0:0:0:
298,278,367780,1,0,0:0:0:0:
321,275,367871,1,0,0:0:0:0:
342,266,367961,5,2,0:0:0:0:
362,249,368051,1,2,0:0:0:0:
375,226,368141,1,2,0:0:0:0:
379,201,368231,1,2,0:0:0:0:
373,172,368322,21,2,0:0:0:0:
347,136,368412,1,2,0:0:0:0:
307,120,368503,1,2,0:0:0:0:
265,126,368594,1,2,0:0:0:0:
231,153,368685,6,0,P|223:179|223:200,2,46.6666666666667,10|0|0,0:0|0:0|0:0,0:0:0:0:
215,14,369045,5,2,0:0:0:0:
216,60,369165,1,2,0:0:0:0:
217,107,369285,1,2,0:0:0:0:
185,143,369405,5,2,0:0:0:0:
142,124,369525,1,2,0:0:0:0:
97,132,369645,1,2,0:0:0:0:
55,165,369766,21,2,0:0:0:0:
48,209,369886,1,2,0:0:0:0:
67,251,370006,1,2,0:0:0:0:
112,229,370126,6,0,L|106:186,3,35,10|0|0|0,0:0|0:0|0:0|0:0,0:0:0:0:
156,235,370486,5,2,0:0:0:0:
171,242,370576,1,0,0:0:0:0:
188,245,370666,1,0,0:0:0:0:
206,244,370757,1,0,0:0:0:0:
223,240,370847,5,2,0:0:0:0:
247,225,370937,1,2,0:0:0:0:
272,221,371027,1,2,0:0:0:0:
298,223,371117,1,2,0:0:0:0:
322,234,371207,21,2,0:0:0:0:
344,270,371298,1,2,0:0:0:0:
385,285,371390,1,2,0:0:0:0:
426,273,371481,1,2,0:0:0:0:
452,236,371573,6,0,P|448:204|426:171,2,51.3333348999024,10|2|2,0:0|0:0|0:0,0:0:0:0:
403,329,371933,5,2,0:0:0:0:
354,314,372053,1,2,0:0:0:0:
305,327,372173,1,2,0:0:0:0:
265,361,372293,5,2,0:0:0:0:
214,367,372413,1,2,0:0:0:0:
168,346,372533,1,2,0:0:0:0:
124,356,372654,22,0,L|81:359,3,38.5000011749268,10|0|0|0,0:0|0:0|0:0|0:0,0:0:0:0:
100,310,373014,5,2,0:0:0:0:
100,299,373104,1,0,0:0:0:0:
100,288,373194,1,0,0:0:0:0:
101,278,373284,1,0,0:0:0:0:
73,259,373374,5,2,0:0:0:0:
73,247,373464,1,0,0:0:0:0:
73,235,373554,1,0,0:0:0:0:
74,224,373645,1,0,0:0:0:0:
41,189,373735,22,2,L|41:153,6,19.2500005874634,10|2|2|2|2|2|2,0:0|0:0|0:0|0:0|0:0|0:0|0:0,0:0:0:0:
107,113,374102,6,2,L|108:151,3,38.5000011749268,10|2|2|2,0:0|0:0|0:0|0:0,0:0:0:0:
54,52,374470,6,0,L|99:6,2,51.3333348999024,10|2|2,0:0|0:0|0:0,0:0:0:0:
177,24,374830,5,2,0:0:0:0:
230,43,374950,1,2,0:0:0:0:
285,28,375070,1,2,0:0:0:0:
332,58,375190,5,2,0:0:0:0:
386,46,375310,1,2,0:0:0:0:
432,78,375430,1,2,0:0:0:0:
483,60,375551,22,0,L|495:13,3,38.5000011749268,10|0|0|0,0:0|0:0|0:0|0:0,0:0:0:0:
467,109,375911,5,10,0:0:0:0:
464,116,376001,1,0,0:0:0:0:
463,123,376091,1,0,0:0:0:0:
463,131,376181,1,0,0:0:0:0:
480,157,376271,5,10,0:0:0:0:
480,163,376361,1,0,0:0:0:0:
481,169,376451,1,0,0:0:0:0:
480,176,376542,1,0,0:0:0:0:
461,192,376632,5,10,0:0:0:0:
459,197,376722,1,0,0:0:0:0:
457,202,376812,1,0,0:0:0:0:
457,207,376902,1,0,0:0:0:0:
470,225,376992,21,10,0:0:0:0:
470,229,377082,1,0,0:0:0:0:
470,234,377172,1,0,0:0:0:0:
470,239,377262,1,0,0:0:0:0:
453,261,377352,5,10,0:0:0:0:
430,247,377442,1,8,0:0:0:0:
405,243,377533,1,8,0:0:0:0:
379,248,377623,1,8,0:0:0:0:
358,263,377713,5,10,0:0:0:0:
334,289,377803,1,8,0:0:0:0:
302,303,377893,1,8,0:0:0:0:
268,304,377983,1,8,0:0:0:0:
235,291,378073,5,10,0:0:0:0:
203,262,378163,1,8,0:0:0:0:
189,221,378253,1,8,0:0:0:0:
197,179,378343,1,8,0:0:0:0:
225,146,378433,21,10,0:0:0:0:
274,130,378524,1,8,0:0:0:0:
323,147,378614,1,8,0:0:0:0:
352,189,378704,1,8,0:0:0:0:
353,240,378794,5,10,0:0:0:0:
309,292,378884,1,8,0:0:0:0:
241,295,378974,1,8,0:0:0:0:
193,246,379064,1,8,0:0:0:0:
197,179,379154,6,0,P|210:153|240:135,3,41.9999987182618,10|8|8|8,0:0|0:0|0:0|0:0,0:0:0:0:
292,181,379442,5,8,0:0:0:0:
292,181,379514,2,0,P|279:207|249:225,3,41.9999987182618,10|8|8|8,0:0|0:0|0:0|0:0,0:0:0:0:
290,99,379802,5,2,0:0:0:0:
290,99,379874,2,0,L|294:70,6,17.5,2|2|2|2|2|2|2,0:0|0:0|0:0|0:0|0:0|0:0|0:0,0:0:0:0:
206,64,380228,6,0,L|171:68,3,35,10|2|2|2,0:0|0:0|0:0|0:0,0:0:0:0:
44,116,380555,6,0,L|82:120,3,38.5000011749268,10|2|2|2,0:0|0:0|0:0|0:0,0:0:0:0:
206,168,380872,6,0,L|157:172,3,42.3499988045121,10|2|2|2,0:0|0:0|0:0|0:0,0:0:0:0:
44,220,381173,6,0,L|116:229,3,46.5850016953313,10|2|2|2,0:0|0:0|0:0|0:0,0:0:0:0:
174,318,381475,22,0,L|172:246,3,51.2434997834099,10|2|2|2,0:0|0:0|0:0|0:0,0:0:0:0:
206,168,381766,6,0,L|199:87,3,56.3678497617509,10|2|2|2,0:0|0:0|0:0|0:0,0:0:0:0:
133,104,382113,21,2,0:0:0:0:
257,76,382425,21,2,0:0:0:0:
340,166,382744,5,2,0:0:0:0:
304,276,383070,5,2,0:0:0:0:
196,299,383370,37,2,0:0:0:0:
125,219,383640,21,2,0:0:0:0:
156,121,383896,5,2,0:0:0:0:
251,99,384135,21,2,0:0:0:0:
314,167,384357,5,2,0:0:0:0:
288,252,384574,5,2,0:0:0:0:
204,270,384786,5,2,0:0:0:0:
149,210,384975,21,2,0:0:0:0:
171,135,385162,5,2,0:0:0:0:
244,118,385344,21,2,0:0:0:0:
292,170,385520,21,2,0:0:0:0:
271,234,385693,5,2,0:0:0:0:
207,246,385857,5,2,0:0:0:0:
165,198,386016,5,2,0:0:0:0:
184,140,386170,21,2,0:0:0:0:
242,129,386315,5,2,0:0:0:0:
278,171,386456,5,2,0:0:0:0:
260,220,386595,37,2,0:0:0:0:
210,226,386730,5,2,0:0:0:0:
180,187,386862,5,2,0:0:0:0:
198,141,386986,5,2,0:0:0:0:
244,133,387106,21,2,0:0:0:0:
272,167,387221,5,2,0:0:0:0:
257,206,387332,5,2,0:0:0:0:
240,274,387872,37,10,0:0:0:0:
282,327,388605,6,0,P|328:358|386:352,1,105,8|0,0:0|0:0,0:0:0:0:
362,252,389781,6,0,P|313:216|249:217,1,122.5,8|0,0:0|0:0,0:0:0:0:
162,301,392084,6,0,P|125:246|135:184,1,122.5,8|0,0:0|0:0,0:0:0:0:
181,134,394387,22,0,L|183:66,1,62.9999980773926,10|0,0:0|0:0,0:0:0:0:
249,81,394784,2,0,L|308:48,1,62.9999980773926,0|0,3:0|0:0,0:0:0:0:
328,113,395181,2,0,L|385:148,1,62.9999980773926,0|0,3:0|0:0,0:0:0:0:
319,242,395578,6,0,P|311:211|313:175,1,56,8|0,0:0|0:0,0:0:0:0:
399,227,395875,5,8,0:0:0:0:
399,227,395975,2,0,P|396:268|341:318,1,105,10|0,0:0|0:0,0:0:0:0:
270,306,396372,6,0,L|203:317,1,62.9999980773926,10|0,0:0|0:0,0:0:0:0:
172,374,396781,2,0,L|128:323,1,62.9999980773926,10|0,0:0|0:0,0:0:0:0:
64,323,397191,2,0,L|83:275,1,41.9999987182618,10|0,0:0|0:0,0:0:0:0:
145,258,397499,5,2,0:0:0:0:
145,258,397571,1,2,0:0:0:0:
145,258,397644,2,0,P|160:203|150:151,1,105,10|0,0:0|0:0,0:0:0:0:
93,116,398035,6,0,L|94:53,1,62.9999980773926,0|0,3:0|0:0,0:0:0:0:
169,72,398427,2,0,L|224:41,1,62.9999980773926,0|0,3:0|0:0,0:0:0:0:
243,117,398819,2,0,L|289:150,1,56,8|0,0:0|0:0,0:0:0:0:
302,65,399116,5,8,0:0:0:0:
302,65,399216,2,0,P|340:75|376:129,1,105,10|0,0:0|0:0,0:0:0:0:
284,233,399613,6,0,L|289:141,1,84,10|0,0:0|0:0,0:0:0:0:
192,128,400017,2,0,L|187:220,1,84,10|0,0:0|0:0,0:0:0:0:
102,170,400421,2,0,L|105:111,1,56,10|0,0:0|0:0,0:0:0:0:
161,42,400724,21,2,0:0:0:0:
161,42,400795,1,2,0:0:0:0:
161,42,400867,2,0,L|277:42,1,105,10|0,0:0|0:0,0:0:0:0:
348,13,401264,6,0,P|354:39|350:66,1,41.9999987182618,8|0,0:0|0:0,0:0:0:0:
297,125,401561,53,2,0:0:0:0:
297,125,401628,1,2,0:0:0:0:
297,125,401696,2,0,L|302:233,1,105,10|0,0:0|0:0,0:0:0:0:
382,247,402090,6,0,P|372:271|363:283,1,35,8|0,0:0|0:0,0:0:0:0:
297,312,402386,53,2,0:0:0:0:
297,312,402451,1,2,0:0:0:0:
297,312,402517,2,0,L|186:312,1,105,10|0,0:0|0:0,0:0:0:0:
123,349,402908,6,0,P|114:319|116:306,1,41.9999987182618,8|0,0:0|0:0,0:0:0:0:
155,246,403202,53,2,0:0:0:0:
155,246,403267,1,2,0:0:0:0:
155,246,403333,2,0,L|158:135,1,105,10|0,0:0|0:0,0:0:0:0:
121,41,403722,6,0,P|116:64|118:89,1,41.9999987182618,2|0,0:0|0:0,0:0:0:0:
194,75,404013,53,2,0:0:0:0:
205,86,404073,1,2,0:0:0:0:
229,101,404133,6,0,L|276:100,3,35,10|0|0|0,0:0|0:0|0:0|0:0,0:0:0:0:
316,48,404504,5,10,0:0:0:0:
349,38,404597,1,2,0:0:0:0:
384,38,404690,1,2,0:0:0:0:
417,48,404783,1,2,0:0:0:0:
447,67,404876,5,10,0:0:0:0:
428,96,404968,1,2,0:0:0:0:
420,130,405061,1,2,0:0:0:0:
425,165,405154,1,2,0:0:0:0:
441,196,405247,5,10,0:0:0:0:
451,229,405340,1,2,0:0:0:0:
453,264,405433,1,2,0:0:0:0:
447,298,405526,1,2,0:0:0:0:
432,330,405619,22,0,L|432:375,3,35,10|2|2|2,0:0|0:0|0:0|0:0,0:0:0:0:
374,280,405978,5,10,0:0:0:0:
340,272,406068,1,2,0:0:0:0:
305,277,406157,1,2,0:0:0:0:
276,296,406247,1,2,0:0:0:0:
255,324,406337,5,10,0:0:0:0:
227,345,406427,1,2,0:0:0:0:
194,354,406517,1,2,0:0:0:0:
159,351,406607,1,2,0:0:0:0:
128,335,406696,5,10,0:0:0:0:
142,303,406786,1,2,0:0:0:0:
144,268,406876,1,2,0:0:0:0:
133,235,406966,1,2,0:0:0:0:
111,208,407056,22,0,L|63:211,3,35,10|2|2|2,0:0|0:0|0:0|0:0,0:0:0:0:
151,132,407417,5,10,0:0:0:0:
174,107,407511,1,2,0:0:0:0:
208,98,407606,1,2,0:0:0:0:
241,108,407701,1,2,0:0:0:0:
266,135,407796,5,10,0:0:0:0:
287,149,407892,1,2,0:0:0:0:
312,155,407989,1,2,0:0:0:0:
338,150,408086,1,2,0:0:0:0:
360,136,408183,5,10,0:0:0:0:
357,153,408284,1,2,0:0:0:0:
355,170,408385,1,2,0:0:0:0:
353,188,408486,1,2,0:0:0:0:
350,216,408587,21,10,0:0:0:0:
74,10,409403,5,10,0:0:0:0:
34,352,410220,5,10,0:0:0:0:
