osu file format v14

[General]
AudioFilename: aoyama.mp3
AudioLeadIn: 2000
PreviewTime: 60668
Countdown: 0
SampleSet: None
StackLeniency: 0.7
Mode: 0
LetterboxInBreaks: 0
WidescreenStoryboard: 1

[Editor]
Bookmarks: 22818,22976
DistanceSpacing: 0.5
BeatDivisor: 4
GridSize: 8
TimelineZoom: 1

[Metadata]
Title:White
TitleUnicode:White
Artist:Bentham
ArtistUnicode:Bentham
Creator:A r M i N
Version:Ultra
Source:潔癖男子!青山くん
Tags:armin A_r_M_i_N Tvsize Feb Chalwa Battle Akitoshi NeoSL Neoskylove Football Soccer Pony Canyon Cleanliness Boy Keppeki Danshi Aoyama kun OP Opening 鈴木敬 Takashi Suzuki 小関竜矢 Tatsuya Ozeki 須田原生 Motoki Suda 辻怜次 Reiji Tsuji TV SIZE
BeatmapID:1456771
BeatmapSetID:646741

[Difficulty]
HPDrainRate:6
CircleSize:4
OverallDifficulty:9
ApproachRate:9.5
SliderMultiplier:1.8
SliderTickRate:1

[Events]
//Background and Video events
0,0,"BG.png",0,0
Video,0,"aoyama opening.avi"
//Break Periods
//Storyboard Layer 0 (Background)
//Storyboard Layer 1 (Fail)
//Storyboard Layer 2 (Pass)
//Storyboard Layer 3 (Foreground)
//Storyboard Sound Samples

[TimingPoints]
116,315.789473684211,4,3,20,70,1,0
2326,-76.9230769230769,4,3,20,70,0,0
2563,-76.9230769230769,4,3,20,5,0,0
2642,-100,4,3,20,70,0,0
22852,-100,4,3,20,40,0,0
32484,-100,4,3,20,70,0,0
55063,-100,4,3,30,70,0,0
58221,-100,4,3,20,70,0,0
60747,-86.9565217391304,4,3,20,70,0,1
68326,-100,4,3,20,70,0,0
69589,-100,4,3,20,5,0,0
69668,-100,4,3,20,70,0,0
70852,-86.9565217391304,4,3,20,70,0,1
83484,-100,4,3,20,70,0,0

[Colours]
Combo1 : 255,255,113
Combo2 : 0,179,120
Combo3 : 72,170,217
Combo4 : 186,170,148

[HitObjects]
85,303,116,5,8,0:1:0:0:
130,225,273,1,0,0:0:0:0:
175,303,431,1,0,0:0:0:0:
39,224,589,5,8,0:1:0:0:
220,224,747,1,0,0:0:0:0:
129,381,905,1,0,0:0:0:0:
176,147,1063,5,8,0:1:0:0:
264,303,1221,1,0,0:0:0:0:
314,81,1379,5,8,0:1:0:0:
220,224,1537,1,0,0:0:0:0:
132,70,1694,5,8,0:0:0:0:
292,169,1852,1,0,0:0:0:0:
130,225,2010,1,0,0:0:0:0:
151,213,2088,1,0,0:0:0:0:
175,209,2167,1,0,0:0:0:0:
199,213,2246,1,0,0:0:0:0:
220,224,2326,6,0,P|290:260|369:215,1,175.499991966248,4|0,0:0|0:0,0:0:0:0:
292,169,2642,5,8,0:1:0:0:
175,303,2800,1,2,0:0:0:0:
117,110,2958,1,8,0:1:0:0:
0,244,3116,2,0,P|40:261|84:257,1,90,0|8,0:0|0:1,0:0:0:0:
172,38,3431,2,0,P|131:20|87:24,1,90,0|8,0:0|0:1,0:0:0:0:
150,195,3747,6,0,L|239:186,1,90,0|8,0:0|0:1,0:0:0:0:
332,41,4063,2,0,B|315:83|315:83|332:217,1,180,0|0,0:0|0:0,0:0:0:0:
494,101,4537,2,0,L|405:92,1,90,8|0,0:1|0:0,0:0:0:0:
300,301,4852,2,0,P|344:305|384:287,1,90,8|0,0:1|0:0,0:0:0:0:
494,101,5168,5,8,0:1:0:0:
331,216,5326,1,2,0:0:0:0:
512,292,5484,1,8,0:1:0:0:
385,144,5642,2,0,P|344:126|300:130,1,90,0|8,0:0|0:1,0:0:0:0:
484,190,5958,2,0,L|493:101,1,90,0|8,0:0|0:1,0:0:0:0:
331,216,6273,6,0,L|340:305,1,90,0|8,0:0|0:1,0:0:0:0:
385,144,6589,2,0,B|308:105|286:167|209:128,1,180,0|0,0:0|0:0,0:0:0:0:
19,40,7063,2,0,P|59:22|103:26,1,90,8|0,0:1|0:0,0:0:0:0:
132,250,7379,2,0,P|96:223|77:183,1,90,8|0,0:1|0:0,0:0:0:0:
262,50,7694,5,4,0:0:0:0:
214,173,8010,6,0,L|209:128,3,45,8|8|8|8,0:1|0:0|0:0|0:0,0:0:0:0:
350,84,8326,2,0,L|354:128,1,45,8|8,0:1|0:0,0:0:0:0:
301,249,8484,2,0,L|296:204,1,45,8|8,0:1|0:0,0:0:0:0:
437,160,8642,2,0,L|441:204,3,45,8|8|8|8,0:0|0:0|0:1|0:0,0:0:0:0:
345,327,8958,5,8,0:0:0:0:
304,345,9036,1,8,0:0:0:0:
259,343,9115,1,8,0:1:0:0:
220,321,9194,1,8,0:0:0:0:
195,284,9273,1,8,0:0:0:0:
169,247,9352,1,8,0:0:0:0:
130,225,9431,1,8,0:1:0:0:
86,223,9510,1,8,0:0:0:0:
45,241,9589,6,0,L|41:285,3,45,8|8|8|8,0:1|0:0|0:0|0:0,0:0:0:0:
113,137,9905,2,0,L|109:93,3,45,8|8|8|8,0:1|0:0|0:0|0:0,0:0:0:0:
169,247,10221,5,8,0:1:0:0:
212,259,10299,1,0,0:0:0:0:
256,253,10378,1,2,0:0:0:0:
295,231,10457,1,8,0:3:0:0:
323,196,10536,1,8,0:1:0:0:
335,153,10615,1,8,0:0:0:0:
329,109,10694,5,8,0:1:0:0:
324,153,10773,1,8,0:0:0:0:
336,196,10852,1,8,0:0:0:0:
364,231,10931,1,8,0:0:0:0:
403,253,11010,1,8,0:1:0:0:
447,259,11089,1,8,0:0:0:0:
490,247,11168,2,0,P|504:203|504:194,1,45,8|8,0:0|0:0,0:0:0:0:
492,85,11326,1,6,0:1:0:0:
254,295,12273,5,8,0:0:0:0:
346,89,12431,1,8,0:0:0:0:
346,89,12747,6,0,B|282:97|282:97|234:81|234:81|170:89,1,180,4|8,0:0|0:1,0:0:0:0:
91,200,13221,1,0,0:0:0:0:
19,9,13379,1,8,0:1:0:0:
170,89,13537,1,0,0:0:0:0:
0,239,13694,1,8,0:1:0:0:
47,43,13852,1,0,0:0:0:0:
178,179,14010,6,0,B|220:196|220:196|354:179,1,180,8|8,0:1|0:1,0:0:0:0:
408,54,14484,1,8,0:0:0:0:
495,225,14642,2,0,P|436:161|352:179,1,180,8|8,0:1|0:1,0:0:0:0:
324,310,15116,1,0,0:0:0:0:
178,179,15273,6,0,L|159:358,1,180,8|8,0:1|0:1,0:0:0:0:
69,256,15747,1,0,0:0:0:0:
279,175,15905,1,8,0:1:0:0:
165,67,16063,2,0,L|156:156,1,90,0|8,0:0|0:1,0:0:0:0:
312,260,16379,6,0,P|363:208|340:108,1,180,0|0,0:0|0:0,0:0:0:0:
165,67,16852,2,0,P|205:49|249:53,1,90,8|8,0:1|0:0,0:0:0:0:
312,260,17168,1,8,0:1:0:0:
221,138,17326,1,0,0:0:0:0:
432,119,17484,2,0,L|343:110,1,90,8|0,0:1|0:0,0:0:0:0:
227,291,17800,6,0,P|290:348|381:318,1,180,12|8,0:1|0:1,0:0:0:0:
358,190,18273,1,0,0:0:0:0:
203,329,18431,1,8,0:1:0:0:
392,282,18589,1,0,0:0:0:0:
221,138,18747,1,8,0:1:0:0:
298,306,18905,1,0,0:0:0:0:
481,150,19063,6,0,L|301:131,1,180,8|8,0:1|0:1,0:0:0:0:
196,217,19537,1,8,0:0:0:0:
95,24,19694,2,0,B|78:66|78:66|95:200,1,180,8|8,0:1|0:1,0:0:0:0:
83,335,20168,1,0,0:0:0:0:
283,235,20326,6,0,P|258:152|176:129,1,180,12|8,0:1|0:1,0:0:0:0:
196,217,20800,1,8,0:1:0:0:
321,24,20958,1,8,0:1:0:0:
377,283,21116,1,0,0:0:0:0:
328,49,21273,1,0,0:0:0:0:
223,306,21431,1,4,0:0:0:0:
256,192,21510,12,0,22852,0:0:0:0:
280,128,25379,5,0,0:0:0:0:
232,256,25537,1,0,0:0:0:0:
232,72,27905,5,0,0:0:0:0:
280,312,28063,1,0,0:0:0:0:
256,192,30431,5,0,0:0:0:0:
62,198,32484,5,0,0:0:0:0:
290,243,32642,1,8,0:0:0:0:
80,18,32958,6,0,L|61:197,1,180,12|8,0:0|0:1,0:0:0:0:
157,292,33431,1,0,0:0:0:0:
237,112,33589,2,0,P|194:131|151:128,1,90,8|0,0:1|0:0,0:0:0:0:
325,30,33905,2,0,B|357:118|293:118|325:206,1,180,8|8,0:1|0:1,0:0:0:0:
394,337,34379,5,0,0:0:0:0:
502,170,34537,2,0,L|413:161,1,90,8|0,0:1|0:0,0:0:0:0:
237,75,34852,1,8,0:1:0:0:
273,288,35010,1,0,0:0:0:0:
350,68,35168,1,8,0:1:0:0:
134,121,35326,1,0,0:0:0:0:
365,257,35484,6,0,P|319:201|218:207,1,180,12|8,0:1|0:1,0:0:0:0:
144,340,35958,1,0,0:0:0:0:
38,162,36116,2,0,L|128:172,1,90,8|0,0:1|0:0,0:0:0:0:
306,106,36431,2,0,B|260:47|176:86|176:86|203:110,1,180,8|8,0:1|0:1,0:0:0:0:
362,23,36905,5,0,0:0:0:0:
335,200,37063,2,0,P|375:176|400:135,1,90,8|0,0:1|0:0,0:0:0:0:
203,110,37379,1,8,0:1:0:0:
223,318,37537,1,0,0:0:0:0:
306,106,37694,1,8,0:1:0:0:
89,180,37852,1,0,0:0:0:0:
339,302,38010,6,0,B|398:255|358:172|358:172|335:198,1,180,12|8,0:1|0:1,0:0:0:0:
223,318,38484,1,0,0:0:0:0:
89,180,38642,2,0,P|86:135|105:94,1,90,8|0,0:1|0:0,0:0:0:0:
265,237,38958,2,0,B|200:236|200:236|154:258|154:258|90:258,1,180,8|8,0:1|0:1,0:0:0:0:
0,180,39431,5,0,0:0:0:0:
194,85,39589,2,0,L|104:94,1,90,8|0,0:1|0:0,0:0:0:0:
265,237,39905,1,8,0:1:0:0:
263,16,40063,1,0,0:0:0:0:
89,180,40221,1,8,0:1:0:0:
345,69,40379,1,0,0:0:0:0:
308,332,40537,6,0,L|287:153,1,180,12|8,0:1|0:0,0:0:0:0:
258,124,40932,1,8,0:0:0:0:
220,108,41010,1,8,0:0:0:0:
180,110,41089,1,8,0:0:0:0:
145,129,41168,1,8,0:0:0:0:
121,161,41247,1,8,0:0:0:0:
97,193,41326,1,8,0:0:0:0:
62,212,41405,1,8,0:0:0:0:
22,214,41485,5,8,0:0:0:0:
37,187,41563,1,8,0:0:0:0:
61,169,41642,1,8,0:0:0:0:
90,159,41721,1,8,0:0:0:0:
121,161,41800,5,2,0:0:0:0:
409,34,42589,5,0,0:0:0:0:
284,210,42747,2,0,L|294:299,1,90,8|0,0:0|0:0,0:0:0:0:
419,123,43063,6,0,L|409:34,1,90,12|0,0:0|0:0,0:0:0:0:
214,150,43379,1,8,0:1:0:0:
389,226,43537,1,0,0:0:0:0:
248,60,43694,2,0,P|198:54|148:79,1,90,8|0,0:1|0:0,0:0:0:0:
85,277,44010,1,8,0:1:0:0:
214,150,44168,1,0,0:0:0:0:
30,28,44326,6,0,L|40:117,1,90,8|0,0:1|0:0,0:0:0:0:
85,277,44642,1,8,0:1:0:0:
161,67,44800,1,0,0:0:0:0:
8,198,44958,1,8,0:1:0:0:
224,281,45116,1,0,0:0:0:0:
137,53,45273,2,0,L|48:63,1,90,8|0,0:1|0:0,0:0:0:0:
299,236,45589,6,0,L|388:226,1,90,8|0,0:1|0:0,0:0:0:0:
248,81,45905,2,0,P|231:143|241:183,1,90,8|0,0:1|0:0,0:0:0:0:
431,93,46221,2,0,P|445:50|443:6,1,90,8|0,0:1|0:0,0:0:0:0:
317,202,46537,1,8,0:1:0:0:
497,142,46694,1,0,0:0:0:0:
287,25,46852,6,0,L|198:35,1,90,8|0,0:1|0:0,0:0:0:0:
88,221,47168,1,8,0:1:0:0:
231,160,47326,1,8,0:0:0:0:
47,59,47484,1,8,0:1:0:0:
108,238,47642,1,0,0:0:0:0:
197,35,47800,2,0,L|286:45,1,90,8|0,0:1|0:0,0:0:0:0:
373,214,48116,6,0,P|288:225|231:160,1,180,12|8,0:1|0:1,0:0:0:0:
355,96,48590,1,0,0:0:0:0:
425,290,48747,2,0,P|427:334|412:376,1,90,8|0,0:1|0:0,0:0:0:0:
218,245,49063,2,0,P|215:200|230:158,1,90,8|0,0:1|0:0,0:0:0:0:
276,341,49379,6,0,P|233:355|189:353,1,90,8|0,0:1|0:0,0:0:0:0:
319,139,49694,2,0,P|363:136|405:151,1,90,8|0,0:1|0:0,0:0:0:0:
218,245,50010,1,8,0:1:0:0:
273,60,50168,1,0,0:0:0:0:
351,231,50326,1,8,0:1:0:0:
261,35,50484,1,0,0:0:0:0:
143,223,50642,6,0,P|58:234|1:169,1,180,4|8,0:0|0:1,0:0:0:0:
163,44,51116,2,0,L|142:223,1,180,4|8,0:0|0:1,0:0:0:0:
313,367,51589,2,0,L|292:188,1,180,4|0,0:0|0:0,0:0:0:0:
273,60,52063,5,2,0:0:0:0:
142,222,52221,1,2,0:0:0:0:
386,232,52379,1,8,0:1:0:0:
265,34,52537,1,8,0:1:0:0:
209,297,52694,1,8,0:1:0:0:
391,157,52852,1,8,0:1:0:0:
159,83,53010,1,10,0:1:0:0:
316,308,53168,5,4,0:1:0:0:
304,269,53800,5,4,0:0:0:0:
292,230,54431,5,4,0:0:0:0:
280,191,55063,6,0,L|101:212,1,180,4|0,0:0|0:0,0:0:0:0:
23,165,55537,1,0,0:0:0:0:
121,319,55694,5,2,0:0:0:0:
263,168,55852,2,0,P|274:83|209:26,1,180,0|0,0:0|0:0,0:0:0:0:
188,116,56326,1,8,0:1:0:0:
321,234,56484,2,0,L|500:213,1,180,0|0,0:0|0:0,0:0:0:0:
422,76,56958,5,0,0:0:0:0:
307,257,57116,2,0,P|304:301|319:343,1,90,8|0,0:1|0:0,0:0:0:0:
424,222,57431,1,0,0:0:0:0:
254,97,57589,2,0,L|75:118,1,180,8|0,0:1|0:0,0:0:0:0:
7,177,58063,1,0,0:0:0:0:
211,326,58221,6,0,P|235:308|254:284,1,60,8|0,0:1|0:0,0:0:0:0:
473,206,58431,2,0,P|446:196|416:191,1,60,8|0,0:1|0:0,0:0:0:0:
238,39,58642,2,0,P|243:69|254:97,1,60,8|0,0:1|0:0,0:0:0:0:
377,342,58852,6,0,P|373:313|362:285,1,60,8|0,0:0|0:0,0:0:0:0:
403,54,59063,2,0,P|380:73|361:97,1,60,8|0,0:0|0:0,0:0:0:0:
142,175,59273,2,0,P|170:186|200:191,1,60,8|0,0:0|0:0,0:0:0:0:
308,191,59484,5,6,2:0:0:0:
28,271,60747,5,4,0:0:0:0:
122,73,60905,1,8,0:1:0:0:
240,281,61063,2,0,L|228:383,1,103.500001974106,0|8,0:0|0:1,0:0:0:0:
70,170,61379,1,0,0:0:0:0:
300,89,61537,1,8,0:1:0:0:
216,301,61694,1,8,0:0:0:0:
310,64,61852,1,8,0:1:0:0:
408,257,62010,6,0,L|510:245,1,103.500001974106,0|8,0:0|0:1,0:0:0:0:
413,53,62326,2,0,L|310:64,1,103.500001974106,0|8,0:0|0:1,0:0:0:0:
183,231,62642,1,0,0:0:0:0:
384,237,62800,1,8,0:1:0:0:
203,136,62958,2,0,P|141:144|105:173,1,103.500001974106,8|8,0:0|0:1,0:0:0:0:
273,331,63273,6,0,L|284:228,1,103.500001974106,0|8,0:0|0:1,0:0:0:0:
146,53,63589,1,0,0:0:0:0:
75,234,63747,1,8,0:1:0:0:
267,128,63905,2,0,P|329:136|365:165,1,103.500001974106,0|8,0:0|0:1,0:0:0:0:
198,313,64221,1,8,0:0:0:0:
198,313,64300,1,8,0:0:0:0:
198,313,64379,1,8,0:1:0:0:
134,155,64537,6,0,L|145:52,1,103.500001974106,0|8,0:0|0:1,0:0:0:0:
259,232,64852,1,0,0:0:0:0:
75,234,65010,1,8,0:1:0:0:
266,65,65168,1,0,0:0:0:0:
328,263,65326,1,8,0:1:0:0:
134,155,65484,1,8,0:0:0:0:
134,155,65563,1,8,0:0:0:0:
134,155,65642,1,8,0:1:0:0:
381,66,65800,5,0,0:0:0:0:
301,279,65958,1,8,0:1:0:0:
208,120,66116,2,0,L|311:131,1,103.500001974106,0|8,0:0|0:1,0:0:0:0:
203,318,66431,2,0,L|100:329,1,103.500001974106,0|8,0:0|0:1,0:0:0:0:
197,195,66747,1,8,0:0:0:0:
295,382,66905,6,0,L|509:356,1,207.000003948212,8|8,0:1|0:1,0:0:0:0:
365,201,67379,2,0,P|343:247|348:298,1,103.500001974106,0|8,0:0|0:1,0:0:0:0:
512,186,67694,2,0,P|516:135|495:88,1,103.500001974106,0|8,0:0|0:1,0:0:0:0:
397,58,68010,1,8,0:0:0:0:
439,267,68168,1,8,0:1:0:0:
286,184,68326,6,0,L|196:194,1,90,0|0,0:0|0:0,0:0:0:0:
114,303,68642,1,8,0:1:0:0:
48,240,68800,1,0,0:0:0:0:
83,157,68958,2,0,P|86:113|72:67,1,90,8|8,0:0|0:0,0:0:0:0:
196,194,69273,2,0,B|324:258|324:130|452:194,1,270,12|0,0:1|0:0,0:0:0:0:
377,363,69905,6,0,L|387:273,1,90,8|0,0:1|0:0,0:0:0:0:
196,194,70221,2,0,L|206:283,1,90,8|0,0:1|0:0,0:0:0:0:
111,121,70538,1,0,0:0:0:0:
145,93,70616,1,8,0:1:0:0:
189,81,70695,1,8,0:1:0:0:
233,87,70774,1,8,0:1:0:0:
271,111,70852,6,0,P|325:119|372:91,1,103.500001974106,6|0,0:0|0:0,0:0:0:0:
196,194,71168,1,8,0:1:0:0:
309,34,71326,1,0,0:0:0:0:
388,260,71484,2,0,L|376:362,1,103.500001974106,0|0,0:0|0:0,0:0:0:0:
270,186,71800,1,8,0:1:0:0:
394,83,71958,2,0,L|496:94,1,103.500001974106,0|0,0:0|0:0,0:0:0:0:
388,260,72273,5,0,0:0:0:0:
233,87,72431,2,0,L|130:98,1,103.500001974106,8|0,0:1|0:0,0:0:0:0:
54,304,72747,1,0,0:0:0:0:
207,209,72905,1,0,0:0:0:0:
11,128,73063,2,0,P|3:74|31:27,1,103.500001974106,8|0,0:1|0:0,0:0:0:0:
107,218,73379,5,0,0:0:0:0:
233,87,73537,1,0,0:0:0:0:
316,292,73694,2,0,L|418:280,1,103.500001974106,8|0,0:1|0:0,0:0:0:0:
336,76,74010,2,0,L|233:87,1,103.500001974106,0|0,0:0|0:0,0:0:0:0:
429,180,74326,1,8,0:1:0:0:
313,322,74484,1,0,0:0:0:0:
172,156,74642,6,0,L|274:167,1,103.500001974106,0|0,0:0|0:0,0:0:0:0:
110,318,74958,2,0,P|98:262|117:197,1,103.500001974106,8|0,0:1|0:0,0:0:0:0:
232,86,75273,1,0,0:0:0:0:
327,229,75431,1,0,0:0:0:0:
129,141,75589,2,0,L|26:152,1,103.500001974106,8|0,0:1|0:0,0:0:0:0:
194,266,75905,5,6,0:0:0:0:
232,86,76063,1,0,0:0:0:0:
429,240,76221,2,0,L|326:228,1,103.500001974106,8|0,0:1|0:0,0:0:0:0:
410,37,76537,2,0,L|512:25,1,103.500001974106,0|0,0:0|0:0,0:0:0:0:
369,155,76852,1,8,0:1:0:0:
209,36,77010,6,0,P|137:38|94:156,1,207.000003948212,0|0,0:0|0:0,0:0:0:0:
199,323,77484,2,0,P|211:267|192:202,1,103.500001974106,8|0,0:1|0:0,0:0:0:0:
91,150,77800,1,0,0:0:0:0:
287,83,77958,1,0,0:0:0:0:
301,334,78116,2,0,L|198:322,1,103.500001974106,8|0,0:1|0:0,0:0:0:0:
379,204,78431,5,6,0:0:0:0:
177,80,78589,1,0,0:0:0:0:
198,322,78747,1,8,0:1:0:0:
324,150,78905,1,0,0:0:0:0:
70,202,79063,1,0,0:0:0:0:
301,334,79221,1,0,0:0:0:0:
232,122,79379,6,0,P|294:58|401:92,1,207.000003948212,12|0,0:1|0:0,0:0:0:0:
324,150,79852,1,0,0:0:0:0:
155,21,80010,1,8,0:1:0:0:
115,208,80168,1,0,0:0:0:0:
306,55,80326,1,8,0:1:0:0:
309,246,80484,1,0,0:0:0:0:
133,114,80642,1,8,0:1:0:0:
133,114,80721,1,8,0:0:0:0:
133,114,80800,1,8,0:0:0:0:
451,18,80958,6,0,L|475:223,1,207.000003948212,6|8,0:0|0:1,0:0:0:0:
446,337,81431,1,0,0:0:0:0:
331,70,81589,5,8,0:1:0:0:
298,356,81747,1,0,0:0:0:0:
183,51,81905,5,8,0:1:0:0:
216,337,82063,1,0,0:0:0:0:
101,70,82221,5,8,0:1:0:0:
72,313,82379,1,0,0:0:0:0:
232,154,82537,5,8,0:1:0:0:
25,227,82694,1,0,0:0:0:0:
318,201,82852,5,8,0:1:0:0:
136,162,83009,1,0,0:0:0:0:
216,337,83168,6,0,L|227:234,1,103.500001974106,8|0,0:1|0:0,0:0:0:0:
134,21,83484,5,4,0:0:0:0:
396,245,84116,5,4,0:0:0:0:
71,359,84747,5,4,0:0:0:0:
222,226,85379,5,0,2:0:0:0:
107,84,86010,5,8,0:1:0:0:
222,226,86168,1,2,0:0:0:0:
304,22,86326,1,8,0:1:0:0:
419,164,86484,2,0,L|328:154,1,90,0|8,0:0|0:1,0:0:0:0:
421,343,86800,2,0,L|510:333,1,90,0|8,0:0|0:1,0:0:0:0:
342,286,87116,6,0,P|324:338|333:382,1,90,0|8,0:0|0:1,0:0:0:0:
505,260,87431,2,0,P|508:215|492:174,1,90,0|8,0:0|0:1,0:0:0:0:
403,90,87747,1,0,0:0:0:0:
292,224,87905,2,0,L|202:214,1,90,8|0,0:1|0:0,0:0:0:0:
278,15,88221,2,0,L|367:24,1,90,8|0,0:1|0:0,0:0:0:0:
213,134,88537,5,8,0:1:0:0:
422,265,88694,1,2,0:0:0:0:
403,90,88852,5,8,0:1:0:0:
311,295,89010,1,8,0:1:0:0:
216,58,89168,5,8,0:1:0:0:
422,265,89326,1,8,0:1:0:0:
488,70,89484,5,8,0:1:0:0:
253,219,89642,1,8,0:1:0:0:
361,32,89800,5,8,0:1:0:0:
388,66,89878,1,8,0:0:0:0:
399,110,89957,1,8,0:0:0:0:
389,153,90036,1,8,0:0:0:0:
361,188,90115,1,8,0:1:0:0:
335,222,90194,1,8,0:0:0:0:
325,266,90273,1,8,0:0:0:0:
335,309,90352,1,8,0:0:0:0:
363,344,90430,5,8,0:1:0:0:
302,110,90589,1,8,0:1:0:0:
139,345,90747,5,8,0:1:0:0:
422,265,90905,1,8,0:1:0:0:
