osu file format v14

[General]
AudioFilename: aoyama.mp3
AudioLeadIn: 2000
PreviewTime: 60668
Countdown: 0
SampleSet: None
StackLeniency: 0.2
Mode: 0
LetterboxInBreaks: 0
WidescreenStoryboard: 1

[Editor]
Bookmarks: 584,2634,2792,3107,3423,3739,4055,4371,4528,4844,5949,6265,6581,7686,8318,8792,9107,9423,9581,9897,10686,11002,12739,12897,13055,13213,13371,13844,14002,14318,14476,14634,15107,15265,15739,15897,16213,16371,23159,24107,24580,25054,25370,25528,25686,25765,25844,26317,26633,27107,27580,27896,28054,28212,29159,29238,29317,29475,29633,30107,30186,30265,30344,30422,33896,34527,34843,35159,35475,36422,37054,38001,43054,48106,50633,55685,61370,61685,61764,61843,62949,63027,63106,64212,64291,64370,65475,65554,65633,65791,65949,66738,66817,66896,68001,68080,68159,86001
DistanceSpacing: 0.2
BeatDivisor: 4
GridSize: 32
TimelineZoom: 2.2

[Metadata]
Title:White
TitleUnicode:White
Artist:Bentham
ArtistUnicode:Bentham
Creator:A r M i N
Version:Feb's Extra
Source:潔癖男子!青山くん
Tags:armin A_r_M_i_N Tvsize Feb Chalwa Battle Akitoshi NeoSL Neoskylove Football Soccer Pony Canyon Cleanliness Boy Keppeki Danshi Aoyama kun OP Opening 鈴木敬 Takashi Suzuki 小関竜矢 Tatsuya Ozeki 須田原生 Motoki Suda 辻怜次 Reiji Tsuji TV SIZE
BeatmapID:1377156
BeatmapSetID:646741

[Difficulty]
HPDrainRate:6
CircleSize:5
OverallDifficulty:8
ApproachRate:9.2
SliderMultiplier:2.2
SliderTickRate:1

[Events]
//Background and Video events
0,0,"BG.png",0,0
Video,0,"aoyama opening.avi"
//Break Periods
2,23052,24809
2,25736,27335
2,28262,29546
2,30631,31914
//Storyboard Layer 0 (Background)
//Storyboard Layer 1 (Fail)
//Storyboard Layer 2 (Pass)
//Storyboard Layer 3 (Foreground)
//Storyboard Sound Samples

[TimingPoints]
116,315.789473684211,4,3,20,70,1,0
116,-133.333333333333,4,3,20,70,0,0
589,-131.578947368421,4,3,20,70,0,0
1063,-100,4,3,20,70,0,0
1379,-62.5,4,3,20,70,0,0
1694,-200,4,3,20,70,0,0
2010,-66.6666666666667,4,3,20,70,0,0
2168,-50,4,3,20,70,0,0
2326,-57.1428571428571,4,3,20,70,0,0
2563,-57.1428571428571,4,2,20,5,0,0
2642,-166.666666666667,4,3,20,65,0,0
2721,-166.666666666667,4,2,20,5,0,0
2800,-333.333333333333,4,3,20,70,0,0
3116,-166.666666666667,4,3,20,70,0,0
3747,-133.333333333333,4,3,20,70,0,0
4773,-133.333333333333,4,2,20,5,0,0
4852,-333.333333333333,4,3,20,70,0,0
5089,-333.333333333333,4,2,20,5,0,0
5168,-142.857142857143,4,3,20,70,0,0
5247,-142.857142857143,4,2,20,5,0,0
5326,-250,4,3,20,70,0,0
5642,-100,4,3,20,70,0,0
6273,-90.9090909090909,4,3,20,70,0,0
7063,-125,4,3,20,70,0,0
7379,-83.3333333333333,4,3,20,70,0,0
7615,-83.3333333333333,4,2,20,5,0,0
7694,-500,4,3,20,70,0,0
7931,-500,4,2,20,5,0,0
8010,-200,4,3,20,70,0,0
9115,-133.333333333333,4,3,20,70,0,0
10221,-133.333333333333,4,3,20,70,0,0
10694,-133.333333333333,4,3,20,70,0,0
11010,-200,4,3,20,70,0,0
11326,-500,4,3,20,70,0,0
11800,-200,4,3,20,70,0,0
12431,-303.030303030303,4,3,20,70,0,0
12668,-303.030303030303,4,2,20,5,0,0
12747,-100,4,3,20,70,0,0
14010,-142.857142857143,4,3,20,70,0,0
14642,-100,4,3,20,70,0,0
19063,-142.857142857143,4,3,20,70,0,0
20326,-90.9090909090909,4,3,20,70,0,0
21431,-1000,4,3,20,70,0,0
21747,-1000,4,2,21,55,0,0
22063,-1000,4,2,22,40,0,0
22379,-1000,4,2,23,25,0,0
22694,-1000,4,2,24,10,0,0
25379,-2000,4,3,20,35,0,0
32484,-2000,4,3,20,60,0,0
35484,-500,4,3,20,70,0,0
35958,-133.333333333333,4,3,20,70,0,0
38010,-500,4,3,20,70,0,0
40852,-133.333333333333,4,3,20,70,0,0
42747,-83.3333333333333,4,3,20,70,0,0
44800,-71.4285714285714,4,3,20,70,0,0
45905,-83.3333333333333,4,3,20,70,0,0
46852,-71.4285714285714,4,3,20,70,0,0
48115,-83.3333333333333,4,3,20,70,0,0
50168,-125,4,3,20,70,0,0
50642,-66.6666666666667,4,3,20,70,0,0
51115,-66.6666666666667,4,3,20,70,0,0
51589,-125,4,3,20,70,0,0
52379,-83.3333333333333,4,3,20,70,0,0
53010,-166.666666666667,4,3,20,65,0,0
55694,-200,4,3,30,45,0,0
56326,-166.666666666667,4,3,30,45,0,0
57115,-142.857142857143,4,3,30,45,0,0
57589,-100,4,3,30,45,0,0
58221,-84.7457627118644,4,3,20,70,0,0
58431,-178.571428571429,4,3,20,70,0,0
58642,-133.333333333333,4,3,20,70,0,0
58852,-84.7457627118644,4,3,20,70,0,0
59063,-178.571428571429,4,3,20,70,0,0
59273,-133.333333333333,4,3,20,70,0,0
59484,-200,4,2,20,55,0,0
60747,-83.3333333333333,4,3,20,75,0,1
68642,-500,4,3,20,70,0,1
69273,-100,4,3,20,65,0,0
69589,-100,4,2,21,35,0,0
69905,-200,4,3,20,65,0,0
70537,-100,4,3,20,65,0,0
70852,-125,4,3,20,75,0,1
75273,-100,4,3,20,75,0,1
75905,-125,4,3,20,75,0,1
79379,-100,4,3,20,65,0,0
79694,-100,4,2,22,35,0,0
80010,-166.666666666667,4,3,20,65,0,0
80958,-71.4285714285714,4,3,20,65,0,0
83484,-500,4,3,20,70,0,0
83721,-500,4,2,25,35,0,0
84116,-500,4,3,20,70,0,0
84431,-500,4,2,26,35,0,0
84747,-666.666666666667,4,3,20,70,0,0
84984,-666.666666666667,4,2,27,35,0,0
86010,-166.666666666667,4,3,20,65,0,0
86089,-666.666666666667,4,2,27,5,0,0
86168,-333.333333333333,4,3,20,70,0,0
86484,-166.666666666667,4,3,20,65,0,0
87114,-133.333333333333,4,3,20,65,0,0
88142,-133.333333333333,4,2,20,5,0,0
88221,-333.333333333333,4,3,20,70,0,0
88458,-333.333333333333,4,2,20,5,0,0
88535,-142.857142857143,4,3,20,65,0,0
88616,-142.857142857143,4,2,20,5,0,0
88694,-250,4,3,20,70,0,0
89010,-100,4,3,20,70,0,0
89642,-90.9090909090909,4,3,20,70,0,0
89800,-100,4,3,20,65,0,0
90431,-76.9230769230769,4,3,20,65,0,0
90905,-307.692307692308,4,3,20,70,0,0
91221,-307.692307692308,4,3,20,35,0,0

[Colours]
Combo1 : 255,255,113
Combo2 : 0,179,120
Combo3 : 72,170,217
Combo4 : 186,170,148

[HitObjects]
27,338,116,6,0,P|62:363|129:371,2,82.5000031471254,8|0|0,0:1|0:0|0:0,0:0:0:0:
255,329,589,2,0,P|220:357|152:370,2,83.5999989794922,8|0|0,0:1|0:0|0:0,0:0:0:0:
95,286,1063,6,0,P|65:240|50:177,1,110,8|0,0:1|0:0,0:0:0:0:
95,286,1379,6,0,P|65:240|73:85,1,176,8|0,0:1|0:0,0:0:0:0:
433,190,1694,6,0,P|437:169|420:181,1,55,8|0,0:0|0:0,0:0:0:0:
439,196,2010,6,8,P|448:170|414:186,1,82.5000031471254
445,199,2168,6,8,P|439:154|407:186,1,110
381,247,2326,6,0,L|94:285,1,288.750002753735,4|0,0:0|0:0,0:0:0:0:
164,195,2642,6,0,P|146:181|137:163,1,32.99999899292,8|0,0:1|0:0,0:0:0:0:
67,145,2800,6,0,P|63:122|68:103,1,32.99999899292,2|8,0:0|0:1,0:0:0:0:
64,113,3116,6,0,L|153:101,1,65.9999979858399,0|8,0:0|0:1,0:0:0:0:
5,47,3431,2,0,L|94:35,1,65.9999979858399,0|8,0:0|0:1,0:0:0:0:
64,113,3747,6,0,L|171:100,1,82.5000031471254,0|8,0:0|0:1,0:0:0:0:
5,47,4063,2,0,L|115:33,1,82.5000031471254,0|8,0:0|0:1,0:0:0:0:
163,28,4379,5,0,0:0:0:0:
295,37,4537,2,0,L|149:18,1,123.750004720688,8|0,0:1|0:0,0:0:0:0:
353,102,4852,2,0,L|299:109,1,49.4999984893799,8|0,0:1|0:0,0:0:0:0:
218,95,5168,6,0,P|196:106|181:127,1,38.4999988250733,8|0,0:1|0:0,0:0:0:0:
91,184,5326,6,0,P|76:204|73:225,1,44,2|8,0:0|0:1,0:0:0:0:
73,222,5642,6,0,L|62:95,1,110,0|8,0:0|0:1,0:0:0:0:
232,283,5958,2,0,L|243:156,1,110,0|8,0:0|0:1,0:0:0:0:
73,222,6273,6,0,L|60:84,1,121.000003692627,0|8,0:0|0:1,0:0:0:0:
232,283,6589,2,0,L|244:144,1,121.000003692627,0|8,0:0|0:1,0:0:0:0:
203,0,6905,5,0,0:0:0:0:
112,28,7063,2,0,L|197:7,1,88,8|0,0:1|0:0,0:0:0:0:
0,63,7379,2,0,L|204:80,1,197.99999395752,8|0,0:1|0:0,0:0:0:0:
341,104,7694,6,0,L|378:97,1,33,4|0,0:0|0:0,0:0:0:0:
378,96,8010,6,8,P|392:104|408:123,3,27.5,8|8|8|8,0:1|0:0|0:0|0:0,0:0:0:0:
422,209,8326,2,8,P|417:224|399:244,1,27.5,8|8,0:1|0:0,0:0:0:0:
325,257,8484,2,8,P|305:248|286:226,3,27.5,8|8|8|8,0:1|0:0|0:0|0:0,0:0:0:0:
254,161,8800,2,8,P|257:144|273:134,3,27.5,8|8|8|8,0:1|0:0|0:0|0:0,0:0:0:0:
379,96,9116,6,8,P|393:108|402:129,3,41.2500015735627,8|8|8|8,0:1|0:0|0:0|0:0,0:0:0:0:
325,257,9431,2,8,P|311:268|277:273,1,41.2500015735627,8|8,0:1|0:0,0:0:0:0:
145,213,9589,2,8,P|134:200|128:173,3,41.2500015735627,8|8|8|8,0:1|0:0|0:0|0:0,0:0:0:0:
232,22,9905,2,8,P|248:18|273:23,3,41.2500015735627,8|8|8|8,0:1|0:0|0:0|0:0,0:0:0:0:
250,172,10221,5,8,0:1:0:0:
216,187,10300,1,8,0:3:0:0:
178,187,10379,1,8,0:3:0:0:
144,172,10458,1,8,0:3:0:0:
124,140,10537,1,8,0:1:0:0:
126,102,10616,1,8,0:0:0:0:
146,71,10694,5,8,0:1:0:0:
185,47,10773,1,8,0:0:0:0:
229,40,10852,1,8,0:0:0:0:
272,52,10931,1,8,0:0:0:0:
303,78,11010,5,8,0:1:0:0:
339,107,11089,1,8,0:0:0:0:
381,125,11168,1,8,0:0:0:0:
427,122,11247,1,8,0:0:0:0:
484,67,11326,6,2,L|496:21,1,44,6|0,0:1|2:0,2:0:0:0:
495,24,11800,6,2,L|502:154,1,110,2|2,2:0|2:0,2:0:0:0:
500,133,12273,5,8,0:0:0:0:
401,363,12431,2,0,L|405:308,1,54.4499998338318,8|0,0:0|0:0,0:0:0:0:
405,300,12747,6,0,P|362:279|288:278,2,110,4|0|8,0:0|0:0|0:1,0:0:0:0:
475,356,13221,1,0,0:0:0:0:
335,198,13379,6,0,P|287:199|221:233,2,110,8|0|8,0:1|0:0|0:1,0:0:0:0:
423,214,13852,1,0,0:0:0:0:
174,165,14010,2,0,L|165:74,1,76.9999976501466,8|0,0:1|0:0,0:0:0:0:
155,16,14326,1,8,0:1:0:0:
166,88,14484,1,8,0:0:0:0:
173,90,14563,1,8,0:0:0:0:
181,93,14642,5,8,0:1:0:0:
155,16,14800,1,0,0:0:0:0:
174,165,14958,5,8,0:1:0:0:
155,16,15116,1,0,0:0:0:0:
174,165,15273,6,0,L|150:395,1,220,8|8,0:1|0:1,0:0:0:0:
151,383,15747,1,0,0:0:0:0:
89,212,15905,2,0,L|123:328,1,110,8|0,0:1|0:0,0:0:0:0:
89,212,16221,1,8,0:1:0:0:
236,127,16379,6,0,L|199:257,2,110,0|8|0,0:0|0:1|0:0,0:0:0:0:
268,295,16852,1,8,0:1:0:0:
205,232,17010,1,8,0:0:0:0:
195,225,17089,1,8,0:0:0:0:
186,218,17168,5,8,0:1:0:0:
268,295,17326,1,0,0:0:0:0:
191,300,17484,5,8,0:1:0:0:
331,255,17642,1,0,0:0:0:0:
235,357,17800,6,0,P|282:374|354:371,2,110,12|0|8,0:1|0:0|0:1,0:0:0:0:
191,300,18273,1,0,0:0:0:0:
403,266,18431,6,0,P|448:245|498:193,2,110,8|0|8,0:1|0:0|0:1,0:0:0:0:
331,255,18905,1,0,0:0:0:0:
170,57,19063,2,0,L|161:148,1,76.9999976501466,8|0,0:1|0:0,0:0:0:0:
151,206,19379,1,8,0:1:0:0:
162,134,19537,1,8,0:0:0:0:
154,130,19616,1,8,0:0:0:0:
146,127,19694,5,8,0:1:0:0:
151,206,19852,1,0,0:0:0:0:
170,57,20010,5,8,0:1:0:0:
151,206,20168,1,0,0:0:0:0:
170,57,20326,6,0,L|205:325,1,242.000007385254,12|8,0:1|0:1,0:0:0:0:
201,296,20800,5,8,0:1:0:0:
190,217,20958,1,8,0:1:0:0:
179,137,21116,1,0,0:0:0:0:
170,57,21273,1,0,0:0:0:0:
201,296,21431,6,0,L|300:305,1,99,4|8,0:0|0:3,0:0:0:0:
112,330,25379,6,0,L|110:340,1,11
400,330,27905,6,0,L|402:340,1,11
256,36,30116,6,0,L|256:31,4,5.5
256,383,32484,5,0,0:0:0:0:
79,244,32642,1,8,0:0:0:0:
79,244,32958,5,12,0:0:0:0:
62,305,33116,1,0,0:1:0:0:
144,249,33273,5,8,0:1:0:0:
127,310,33431,1,0,0:0:0:0:
210,253,33589,5,8,0:1:0:0:
193,314,33747,1,0,0:0:0:0:
428,243,33905,5,8,0:1:0:0:
445,304,34063,1,0,0:0:0:0:
363,248,34221,5,8,0:1:0:0:
380,309,34379,1,0,0:0:0:0:
297,252,34537,5,8,0:1:0:0:
314,313,34694,1,0,0:0:0:0:
428,243,34852,5,8,0:1:0:0:
297,252,35010,1,0,0:0:0:0:
79,244,35168,5,8,0:1:0:0:
210,253,35326,1,0,0:0:0:0:
260,98,35484,6,0,L|262:68,1,22,12|0,0:1|0:0,0:0:0:0:
265,9,35800,1,8,0:1:0:0:
252,191,35958,5,0,0:0:0:0:
260,98,36116,1,8,0:1:0:0:
265,9,36273,1,0,0:0:0:0:
200,141,36431,5,8,0:1:0:0:
163,80,36589,1,0,0:0:0:0:
312,147,36747,5,8,0:1:0:0:
372,109,36905,1,0,0:0:0:0:
312,147,37063,5,8,0:1:0:0:
200,141,37221,1,0,0:0:0:0:
252,191,37379,5,8,0:1:0:0:
364,197,37537,1,0,0:0:0:0:
305,240,37694,5,8,0:1:0:0:
193,234,37852,1,0,0:0:0:0:
246,304,38010,6,0,L|248:278,1,22,12|0,0:1|0:0,0:0:0:0:
193,364,38326,5,8,0:1:0:0:
246,304,38484,1,0,0:0:0:0:
305,240,38642,5,8,0:1:0:0:
246,304,38800,1,0,0:0:0:0:
193,364,38958,5,8,0:1:0:0:
246,304,39116,1,0,0:0:0:0:
305,240,39273,5,8,0:1:0:0:
193,364,39431,1,0,0:0:0:0:
380,247,39589,5,8,0:1:0:0:
268,371,39747,1,0,0:0:0:0:
156,247,39905,5,8,0:1:0:0:
268,371,40063,1,0,0:0:0:0:
81,240,40221,5,8,0:1:0:0:
193,364,40379,1,0,0:0:0:0:
217,144,40537,5,12,0:1:0:0:
217,144,40852,2,8,P|232:157|241:175,1,41.2500015735627
110,110,41010,2,8,P|130:104|150:109,1,41.2500015735627
15,180,41168,2,8,P|26:162|42:150,1,41.2500015735627
14,295,41326,2,8,P|7:275|7:254,1,41.2500015735627
113,369,41484,2,8,P|94:361|78:348,1,41.2500015735627
225,340,41642,2,8,P|211:354|192:363,1,41.2500015735627
256,256,41800,5,2,0:0:0:0:
256,256,42589,1,0,0:0:0:0:
195,26,42747,1,8,0:0:0:0:
195,26,43063,6,0,P|254:29|355:76,2,131.99999597168,12|0|8,0:0|0:0|0:1,0:0:0:0:
65,64,43537,1,0,0:0:0:0:
273,146,43694,6,0,P|327:179|372:250,2,131.99999597168,8|0|8,0:1|0:0|0:1,0:0:0:0:
118,188,44168,1,0,0:0:0:0:
195,26,44326,6,0,B|296:23|296:23|293:25|479:14,1,263.99999194336,8|8,0:1|0:1,0:0:0:0:
457,15,44800,2,0,P|398:62|379:135,1,153.999995300293,0|8,0:0|0:1,0:0:0:0:
415,209,45116,1,0,0:0:0:0:
195,26,45273,2,0,P|248:65|273:157,1,153.999995300293,8|0,0:1|0:0,0:0:0:0:
204,242,45589,5,8,0:1:0:0:
273,146,45747,1,0,0:0:0:0:
204,242,45905,6,0,B|149:240|149:240|127:235|127:235|66:234,1,131.99999597168,8|0,0:1|0:0,0:0:0:0:
322,318,46221,2,0,B|377:316|377:316|399:311|399:311|460:310,1,131.99999597168,8|0,0:1|0:0,0:0:0:0:
204,242,46537,5,8,0:1:0:0:
322,318,46694,1,0,0:0:0:0:
204,242,46852,6,0,P|168:183|162:78,1,153.999995300293,8|0,0:1|0:0,0:0:0:0:
212,33,47168,1,8,0:1:0:0:
158,121,47326,1,8,0:0:0:0:
150,159,47405,1,8,0:0:0:0:
132,194,47484,1,8,0:1:0:0:
78,136,47642,5,0,0:0:0:0:
158,121,47800,1,8,0:1:0:0:
132,194,47958,1,0,0:0:0:0:
212,33,48116,6,0,B|270:27|270:27|280:28|280:28|351:21,1,131.99999597168,12|0,0:1|0:0,0:0:0:0:
136,50,48431,2,0,B|78:44|78:44|68:45|68:45|-3:38,1,131.99999597168,8|0,0:1|0:0,0:0:0:0:
212,33,48747,5,8,0:1:0:0:
136,50,48905,1,0,0:0:0:0:
212,33,49063,5,8,0:1:0:0:
199,175,49221,1,0,0:0:0:0:
343,21,49379,6,0,P|292:67|266:147,1,131.99999597168,8|0,0:1|0:0,0:0:0:0:
476,60,49694,2,0,P|408:73|345:128,1,131.99999597168,8|0,0:1|0:0,0:0:0:0:
362,276,50010,5,8,0:1:0:0:
358,110,50168,1,0,0:0:0:0:
362,276,50326,2,0,L|357:160,1,88,8|0,0:1|0:0,0:0:0:0:
343,21,50642,6,0,L|308:373,1,330.000012588501,4|8,0:0|0:1,0:0:0:0:
88,355,51116,2,0,L|53:3,1,330.000012588501,4|8,0:0|0:1,0:0:0:0:
203,0,51589,6,0,L|196:200,1,176,4|0,0:0|0:0,0:0:0:0:
196,175,52063,1,2,0:0:0:0:
196,175,52221,1,2,0:0:0:0:
196,175,52379,6,0,L|289:185,1,65.9999979858399,8|0,0:1|0:0,0:0:0:0:
319,69,52537,2,0,L|401:75,1,65.9999979858399,8|0,0:1|0:0,0:0:0:0:
185,186,52694,6,0,L|278:196,1,65.9999979858399,8|0,0:1|0:0,0:0:0:0:
95,282,52852,2,0,L|179:289,1,65.9999979858399,8|0,0:1|0:0,0:0:0:0:
0,372,53010,6,0,L|94:380,1,65.9999979858399,10|4,0:1|0:1,0:0:0:0:
76,375,53800,5,4,0:0:0:0:
76,375,54431,5,4,0:0:0:0:
76,375,55063,5,4,0:0:0:0:
76,375,55694,5,2,0:0:0:0:
76,375,55852,2,0,P|106:361|146:358,1,55
76,375,56168,5,0,0:0:0:0:
76,375,56326,1,8,0:1:0:0:
164,293,56484,2,0,P|187:286|241:291,1,65.9999979858399
164,293,56800,5,0,0:0:0:0:
164,293,56958,1,0,0:0:0:0:
278,364,57116,2,0,P|317:370|363:362,1,76.9999976501466,8|0,0:1|0:0,0:0:0:0:
278,364,57431,5,0,0:0:0:0:
415,321,57589,2,0,L|431:94,1,220,8|0,0:1|0:0,0:0:0:0:
430,101,58221,6,0,P|398:84|335:82,1,86.5333302964275,8|0,0:0|0:0,0:0:0:0:
289,124,58431,2,0,P|262:136|243:136,1,41.2500015735627,8|0,0:0|0:0,0:0:0:0:
188,96,58642,2,0,P|151:81|98:86,1,55.0000020980836,8|0,0:0|0:0,0:0:0:0:
430,95,58852,6,0,P|398:78|335:76,1,86.5333302964275,8|0,0:0|0:0,0:0:0:0:
289,118,59063,2,0,P|262:130|243:130,1,41.2500015735627,8|0,0:0|0:0,0:0:0:0:
188,90,59273,2,0,P|151:75|98:80,1,55.0000020980836,8|0,0:0|0:0,0:0:0:0:
49,99,59484,6,0,L|42:4,1,82.5,6|0,2:0|2:0,2:0:0:0:
45,108,59958,1,0,0:0:0:0:
128,347,60116,6,0,L|135:252,1,82.5,2|0,2:0|2:0,2:0:0:0:
132,356,60589,1,0,0:0:0:0:
80,188,60747,5,4,0:0:0:0:
249,372,60905,1,8,0:1:0:0:
300,306,61063,2,0,B|355:303|355:303|368:299|368:299|445:298,1,131.99999597168,0|8,0:0|0:1,0:0:0:0:
230,297,61379,2,0,B|285:294|285:294|298:290|298:290|375:289,1,131.99999597168,0|8,0:0|0:1,0:0:0:0:
168,278,61694,2,0,L|236:265,2,65.9999979858399,8|8|8,0:0|0:0|0:1,0:0:0:0:
85,297,62010,5,0,0:0:0:0:
293,212,62168,1,8,0:1:0:0:
373,231,62326,2,0,P|407:182|417:71,1,131.99999597168,0|8,0:0|0:1,0:0:0:0:
293,212,62642,2,0,P|233:217|132:170,1,131.99999597168,0|8,0:0|0:1,0:0:0:0:
171,99,62958,1,8,0:0:0:0:
158,67,63037,1,8,0:0:0:0:
131,46,63116,1,8,0:1:0:0:
56,68,63273,5,0,0:0:0:0:
165,195,63431,1,8,0:1:0:0:
239,149,63589,2,0,L|255:4,1,131.99999597168,0|8,0:0|0:1,0:0:0:0:
293,212,63905,2,0,L|270:55,1,131.99999597168,0|8,0:0|0:1,0:0:0:0:
314,275,64221,1,8,0:0:0:0:
319,235,64300,1,8,0:0:0:0:
328,195,64379,6,0,P|382:171|486:180,2,131.99999597168,8|0|8,0:1|0:0|0:1,0:0:0:0:
309,352,64852,1,0,0:0:0:0:
328,195,65010,1,8,0:1:0:0:
232,26,65168,6,0,P|178:2|74:11,2,131.99999597168,0|8|8,0:0|0:1|0:0,0:0:0:0:
249,61,65563,1,8,0:0:0:0:
242,100,65642,1,8,0:1:0:0:
164,195,65800,6,0,B|174:249|174:249|179:262|179:262|191:338,1,131.99999597168,0|8,0:0|0:1,0:0:0:0:
450,199,66116,2,0,B|464:145|464:145|470:133|470:133|487:58,1,131.99999597168,0|8,0:0|0:1,0:0:0:0:
445,269,66431,2,0,B|459:215|459:215|465:203|465:203|482:128,1,131.99999597168,0|8,0:0|0:1,0:0:0:0:
450,333,66747,2,8,L|476:269,2,65.9999979858399,8|8|8,0:0|0:0|0:1,0:0:0:0:
393,383,67063,5,0,0:0:0:0:
252,185,67221,1,8,0:1:0:0:
164,195,67379,2,0,P|128:242|120:355,1,131.99999597168,0|8,0:0|0:1,0:0:0:0:
252,185,67694,2,0,P|298:153|377:137,1,131.99999597168,0|8,0:0|0:1,0:0:0:0:
164,195,68010,1,8,0:0:0:0:
135,168,68089,1,8,0:0:0:0:
125,129,68168,1,8,0:1:0:0:
175,69,68326,5,0,0:0:0:0:
125,129,68484,1,0,0:0:0:0:
20,116,68642,2,0,P|17:107|14:92,1,22,8|0,0:1|0:0,0:0:0:0:
14,97,68958,5,8,0:0:0:0:
14,97,69116,1,8,0:0:0:0:
175,69,69273,2,0,L|515:16,1,330,12|0,0:1|0:0,0:0:0:0:
501,18,69905,6,0,P|487:39|480:91,1,55,8|0,0:1|0:0,0:0:0:0:
479,67,70221,2,0,P|493:89|500:116,1,55,8|0,0:1|0:0,0:0:0:0:
500,116,70537,5,8,0:1:0:0:
466,145,70616,1,8,0:1:0:0:
446,184,70694,1,8,0:1:0:0:
438,227,70773,1,8,0:1:0:0:
472,294,70852,6,0,P|497:327|513:380,1,88,6|0,0:0|0:0,0:0:0:0:
361,249,71168,2,0,P|336:282|320:335,1,88,8|0,0:1|0:0,0:0:0:0:
446,184,71484,1,0,0:0:0:0:
446,184,71642,1,0,0:0:0:0:
361,249,71800,1,8,0:1:0:0:
111,193,71958,6,0,B|92:154|92:154|88:93,1,88
83,263,72273,1,0,0:0:0:0:
188,189,72431,2,0,B|227:184|227:184|231:185|231:185|316:172,1,88,8|0,0:1|0:0,0:0:0:0:
89,109,72747,2,0,B|50:104|50:104|46:105|46:105|-39:92,1,88
265,50,73063,2,0,B|304:45|304:45|308:46|308:46|393:33,1,88,8|0,0:1|0:0,0:0:0:0:
437,29,73379,5,0,0:0:0:0:
484,88,73537,1,0,0:0:0:0:
346,228,73694,2,0,P|320:185|325:132,1,88,8|0,0:1|0:0,0:0:0:0:
393,166,74010,1,0,0:0:0:0:
393,166,74168,1,0,0:0:0:0:
315,331,74326,1,8,0:1:0:0:
204,229,74484,6,0,P|253:245|288:289,2,88
136,273,74958,1,8,0:1:0:0:
136,273,75116,1,0,0:0:0:0:
315,331,75273,6,0,B|360:325|360:325|366:326|366:326|443:314,1,110
136,273,75589,2,0,B|91:267|91:267|85:268|85:268|8:256,1,110,8|0,0:1|0:0,0:0:0:0:
243,145,75905,6,0,B|325:136|319:135|319:135|435:121,1,176,6|8,0:0|0:1,0:0:0:0:
416,123,76379,1,0,0:0:0:0:
193,92,76537,2,0,L|82:78,1,88
250,31,76852,1,8,0:1:0:0:
136,273,77010,6,0,P|107:227|101:184,1,88
101,346,77326,1,0,0:0:0:0:
211,298,77484,2,0,B|252:292|252:292|255:293|255:293|331:283,1,88,8|0,0:1|0:0,0:0:0:0:
101,346,77800,2,0,B|60:340|60:340|57:341|57:341|-19:331,1,88
177,371,78116,1,8,0:1:0:0:
177,371,78273,1,0,0:0:0:0:
303,276,78431,6,0,B|373:266|373:266|385:266|385:266|493:253,1,176,6|8,0:0|0:1,0:0:0:0:
506,89,78905,1,0,0:0:0:0:
477,254,79063,1,0,0:0:0:0:
506,89,79221,1,0,0:0:0:0:
477,254,79379,6,0,L|99:228,1,330,12|0,0:1|0:0,0:0:0:0:
147,231,80010,6,0,P|130:205|131:149,1,65.9999979858399,8|0,0:1|0:0,0:0:0:0:
159,91,80326,1,0,0:0:0:0:
74,105,80484,1,0,0:0:0:0:
159,91,80642,2,8,L|201:88,3,32.99999899292,8|8|8|8,0:1|0:0|0:0|0:0,0:0:0:0:
322,91,80958,6,0,B|249:86|249:86|244:87|244:87|160:83,1,153.999995300293,6|0,0:0|0:0,0:0:0:0:
414,175,81273,2,0,B|341:180|341:180|336:179|336:179|252:183,1,153.999995300293,8|0,0:1|0:0,0:0:0:0:
353,66,81589,6,0,B|280:61|280:61|275:62|275:62|191:58,1,153.999995300293,8|0,0:1|0:0,0:0:0:0:
442,206,81905,2,0,B|369:211|369:211|364:210|364:210|280:214,1,153.999995300293,8|0,0:1|0:0,0:0:0:0:
382,47,82221,6,0,B|309:42|309:42|304:43|304:43|220:39,1,153.999995300293,8|0,0:1|0:0,0:0:0:0:
464,230,82537,2,0,B|391:235|391:235|386:234|386:234|302:238,1,153.999995300293,8|0,0:1|0:0,0:0:0:0:
407,34,82852,6,0,B|334:29|334:29|329:30|329:30|245:26,1,153.999995300293,8|0,0:1|0:0,0:0:0:0:
481,254,83168,2,0,B|408:259|408:259|403:258|403:258|319:262,1,153.999995300293,8|0,0:1|0:0,0:0:0:0:
101,190,83484,6,0,P|77:225|71:252,1,66,4|0,0:0|2:0,0:0:0:0:
105,99,84116,2,0,P|65:115|46:134,1,66,4|0,0:0|2:0,0:0:0:0:
149,20,84747,6,0,P|106:19|80:29,1,66,4|0,0:0|2:0,0:0:0:0:
84,26,86010,6,0,P|104:16|124:17,1,32.99999899292,8|0,0:1|0:0,0:0:0:0:
254,21,86168,6,0,P|273:33|285:49,1,32.99999899292,2|8,0:0|0:1,0:0:0:0:
279,40,86484,6,0,L|368:28,1,65.9999979858399,0|8,0:0|0:1,0:0:0:0:
369,113,86800,2,0,L|458:101,1,65.9999979858399,0|8,0:0|0:1,0:0:0:0:
279,40,87116,6,0,L|386:27,1,82.5000031471254,0|8,0:0|0:1,0:0:0:0:
369,113,87431,2,0,L|479:99,1,82.5000031471254,0|8,0:0|0:1,0:0:0:0:
290,197,87747,5,0,0:0:0:0:
422,206,87905,2,0,L|276:187,1,123.750004720688,8|0,0:1|0:0,0:0:0:0:
480,271,88221,2,0,L|426:278,1,49.4999984893799,8|0,0:1|0:0,0:0:0:0:
375,339,88537,6,0,P|353:328|339:305,1,38.4999988250733,8|0,0:1|0:0,0:0:0:0:
222,235,88694,6,0,P|211:212|212:191,1,44,2|8,0:0|0:1,0:0:0:0:
254,131,89010,5,8,0:1:0:0:
155,303,89168,1,8,0:1:0:0:
174,53,89326,1,8,0:1:0:0:
94,205,89484,1,8,0:1:0:0:
316,85,89642,1,8,0:1:0:0:
28,200,89800,5,8,0:1:0:0:
44,158,89879,1,8,0:0:0:0:
83,138,89958,1,8,0:0:0:0:
125,147,90037,1,8,0:0:0:0:
153,173,90116,5,8,0:1:0:0:
151,222,90194,1,8,0:0:0:0:
147,271,90273,1,8,0:0:0:0:
142,320,90352,1,8,0:0:0:0:
99,381,90431,6,0,L|22:385,1,71.4999967269899,8|0,0:1|0:0,0:0:0:0:
214,122,90589,2,0,L|308:128,1,71.4999967269899,8|0,0:1|0:0,0:0:0:0:
71,366,90747,6,0,L|-15:373,1,71.4999967269899,8|0,0:1|0:0,0:0:0:0:
227,109,90905,1,12,0:1:0:0:
