osu file format v14

[General]
AudioFilename: aoyama.mp3
AudioLeadIn: 2000
PreviewTime: 60668
Countdown: 0
SampleSet: None
StackLeniency: 0.7
Mode: 0
LetterboxInBreaks: 0
WidescreenStoryboard: 1

[Editor]
Bookmarks: 22852
DistanceSpacing: 1
BeatDivisor: 2
GridSize: 32
TimelineZoom: 1

[Metadata]
Title:White
TitleUnicode:White
Artist:Bentham
ArtistUnicode:Bentham
Creator:A r M i N
Version:Easy
Source:潔癖男子!青山くん
Tags:armin A_r_M_i_N Tvsize Feb Chalwa Battle Akitoshi NeoSL Neoskylove Football Soccer Pony Canyon Cleanliness Boy Keppeki Danshi Aoyama kun OP Opening 鈴木敬 Takashi Suzuki 小関竜矢 Tatsuya Ozeki 須田原生 Motoki Suda 辻怜次 Reiji Tsuji TV SIZE
BeatmapID:1370306
BeatmapSetID:646741

[Difficulty]
HPDrainRate:2
CircleSize:2
OverallDifficulty:2
ApproachRate:3
SliderMultiplier:0.899999999999999
SliderTickRate:1

[Events]
//Background and Video events
0,0,"BG.png",0,0
Video,0,"aoyama opening.avi"
//Break Periods
//Storyboard Layer 0 (Background)
//Storyboard Layer 1 (Fail)
//Storyboard Layer 2 (Pass)
//Storyboard Layer 3 (Foreground)
//Storyboard Sound Samples

[TimingPoints]
116,315.789473684211,4,3,20,70,1,0
2563,-100,4,3,20,5,0,0
2642,-100,4,3,20,70,0,0
22852,-100,4,3,20,40,0,0
32484,-100,4,3,20,70,0,0
55063,-100,4,3,30,70,0,0
58221,-100,4,3,20,70,0,0
60747,-100,4,3,20,70,0,1
68326,-100,4,3,20,70,0,0
69589,-100,4,3,20,5,0,0
69668,-100,4,3,20,70,0,0
70852,-100,4,3,20,70,0,1
83484,-100,4,3,20,70,0,0

[Colours]
Combo1 : 255,255,113
Combo2 : 0,179,120
Combo3 : 72,170,217
Combo4 : 186,170,148

[HitObjects]
79,157,116,6,0,P|80:89|85:22,2,135,8|8|8,0:1|0:1|0:1,0:0:0:0:
160,195,1379,2,0,P|206:193|251:190,2,89.9999999999999,8|8|8,0:1|0:0|0:0,0:0:0:0:
79,157,2326,1,4,0:0:0:0:
19,224,2642,6,0,P|36:287|145:301,1,180,8|8,0:1|0:1,0:0:0:0:
199,239,3589,1,8,0:1:0:0:
254,310,3905,2,0,P|298:308|343:305,1,89.9999999999999,8|8,0:1|0:1,0:0:0:0:
415,249,4537,2,0,P|419:201|399:159,1,89.9999999999999,8|8,0:1|0:1,0:0:0:0:
326,114,5168,6,0,P|236:117|146:123,1,180,8|8,0:1|0:1,0:0:0:0:
74,68,6116,1,8,0:1:0:0:
11,131,6431,2,0,P|7:179|27:221,1,89.9999999999999,8|8,0:1|0:1,0:0:0:0:
97,268,7063,2,0,P|141:266|186:263,1,89.9999999999999,8|8,0:1|0:1,0:0:0:0:
252,201,7694,5,4,0:0:0:0:
310,269,8010,2,0,P|354:272|399:273,1,89.9999999999999,8|8,0:1|0:1,0:0:0:0:
483,239,8642,1,8,0:1:0:0:
440,159,8958,2,0,P|436:114|435:69,1,89.9999999999999,8|8,0:1|0:1,0:0:0:0:
360,17,9589,2,0,P|312:13|270:33,1,89.9999999999999,8|8,0:1|0:1,0:0:0:0:
219,100,10221,5,8,0:1:0:0:
137,61,10537,2,0,P|52:98|80:215,1,225,8|6,0:1|0:1,0:0:0:0:
454,348,12747,6,0,P|364:354|274:357,1,180,4|8,0:0|0:1,0:0:0:0:
214,289,13694,1,8,0:1:0:0:
159,361,14010,2,0,P|74:374|26:303,1,180,8|8,0:1|0:1,0:0:0:0:
80,231,14958,1,8,0:1:0:0:
26,159,15273,6,0,P|22:111|42:69,1,89.9999999999999,8|8,0:1|0:1,0:0:0:0:
112,21,15905,2,0,P|156:22|201:25,1,89.9999999999999,8|8,0:1|0:1,0:0:0:0:
286,57,16537,2,0,P|299:141|228:189,1,180,8|8,0:1|0:1,0:0:0:0:
145,154,17484,1,8,0:1:0:0:
84,220,17800,6,0,P|70:304|141:352,1,180,12|8,0:1|0:1,0:0:0:0:
215,302,18747,1,8,0:1:0:0:
282,361,19063,2,0,P|371:357|461:351,1,180,8|8,0:1|0:1,0:0:0:0:
504,271,20010,1,8,0:1:0:0:
440,206,20326,6,0,P|395:207|350:210,1,89.9999999999999,12|8,0:1|0:1,0:0:0:0:
294,280,20958,2,0,B|253:291|253:291|158:279,1,135,8|4,0:1|0:0,0:0:0:0:
256,192,21589,12,0,22852,0:0:0:0:
186,232,25379,5,2,0:0:0:0:
256,111,27905,5,2,0:0:0:0:
325,232,30431,5,6,0:0:0:0:
338,85,32958,6,0,P|248:81|158:75,1,180,12|8,0:0|0:1,0:0:0:0:
85,22,33905,1,8,0:1:0:0:
19,83,34221,2,0,P|15:131|35:173,1,89.9999999999999,8|8,0:1|0:1,0:0:0:0:
101,224,34852,2,0,P|104:268|105:313,1,89.9999999999999,8|8,0:1|0:1,0:0:0:0:
181,361,35484,6,0,P|266:368|309:294,1,180,12|8,0:1|0:1,0:0:0:0:
246,228,36431,1,8,0:1:0:0:
308,161,36747,2,0,P|306:116|303:71,1,89.9999999999999,8|8,0:1|0:1,0:0:0:0:
230,16,37379,2,0,P|182:12|140:32,1,89.9999999999999,8|8,0:1|0:1,0:0:0:0:
92,101,38010,6,0,P|85:190|82:280,1,180,12|8,0:1|0:1,0:0:0:0:
139,350,38958,1,8,0:1:0:0:
214,301,39273,2,0,P|258:296|299:313,1,89.9999999999999,8|8,0:1|0:1,0:0:0:0:
372,366,39905,2,0,P|416:370|457:353,1,89.9999999999999,8|8,0:1|0:1,0:0:0:0:
496,271,40537,6,0,P|492:181|486:91,1,180,12|8,0:1|0:0,0:0:0:0:
411,40,41484,2,0,P|366:35|325:52,1,89.9999999999999,8|2,0:0|0:0,0:0:0:0:
103,354,43063,6,0,P|192:360|282:363,1,180,12|8,0:0|0:1,0:0:0:0:
354,308,44010,1,8,0:1:0:0:
429,356,44326,2,0,P|502:312|495:227,1,180,8|8,0:1|0:1,0:0:0:0:
416,182,45273,1,8,0:1:0:0:
472,112,45589,6,0,P|476:67|459:26,1,89.9999999999999,8|8,0:1|0:1,0:0:0:0:
369,13,46221,2,0,P|324:14|279:17,1,89.9999999999999,8|8,0:1|0:1,0:0:0:0:
211,76,46852,2,0,P|166:74|121:71,1,89.9999999999999,8|8,0:1|0:1,0:0:0:0:
42,116,47484,2,0,P|24:157|29:201,1,89.9999999999999,8|8,0:1|0:1,0:0:0:0:
86,270,48116,5,12,0:1:0:0:
166,229,48431,2,0,P|210:230|255:233,1,89.9999999999999,8|8,0:1|0:1,0:0:0:0:
327,288,49063,1,8,0:1:0:0:
396,230,49379,2,0,P|400:185|383:144,1,89.9999999999999,8|8,0:1|0:1,0:0:0:0:
312,88,50010,2,0,P|267:89|222:92,1,89.9999999999999,8|8,0:1|0:1,0:0:0:0:
145,139,50642,6,0,P|77:136|10:132,2,135,4|4|4,0:0|0:0|0:0,0:0:0:0:
223,182,51905,2,0,P|240:223|235:267,1,89.9999999999999,0|2,0:0|0:0,0:0:0:0:
166,326,52537,2,0,P|121:324|76:321,1,89.9999999999999,8|8,0:1|0:1,0:0:0:0:
28,244,53168,5,4,0:1:0:0:
99,78,53800,1,4,0:0:0:0:
265,149,54431,1,4,0:0:0:0:
194,315,55063,1,2,0:0:0:0:
28,244,55694,6,0,P|31:154|37:64,1,180,0|8,0:0|0:1,0:0:0:0:
111,12,56642,1,0,0:0:0:0:
146,94,56958,2,0,P|218:139|290:92,1,180,0|8,0:0|0:1,0:0:0:0:
337,16,57905,1,0,0:0:0:0:
381,94,58221,6,0,P|378:161|371:289,2,180,8|8|6,0:1|0:0|2:0,0:0:0:0:
71,258,60747,6,0,P|74:168|80:78,1,180,4|0,0:0|0:0,0:0:0:0:
143,14,61694,1,8,0:1:0:0:
196,86,62010,2,0,P|259:103|303:98,1,89.9999999999999,0|8,0:0|0:1,0:0:0:0:
354,46,62642,2,0,P|398:41|439:58,1,89.9999999999999,0|8,0:0|0:1,0:0:0:0:
490,132,63273,6,0,P|486:221|480:311,1,180
412,371,64221,1,8,0:1:0:0:
340,316,64537,2,0,P|295:311|254:328,1,89.9999999999999,0|8,0:0|0:1,0:0:0:0:
181,380,65168,2,0,P|136:378|91:375,1,89.9999999999999,0|8,0:0|0:1,0:0:0:0:
26,311,65800,6,0,P|69:237|154:244,1,180,0|0,0:0|0:0,0:0:0:0:
226,297,66747,1,8,0:1:0:0:
287,231,67063,2,0,P|291:186|274:145,1,89.9999999999999,0|8,0:0|0:1,0:0:0:0:
199,95,67694,2,0,P|154:96|109:99,1,89.9999999999999,0|8,0:0|0:1,0:0:0:0:
29,141,68326,5,0,0:0:0:0:
51,228,68642,2,0,P|81:259|128:274,1,89.9999999999999,8|8,0:1|0:0,0:0:0:0:
208,238,69273,2,0,P|297:241|387:247,1,180,12|8,0:1|0:1,0:0:0:0:
457,189,70221,2,0,P|461:144|444:103,1,89.9999999999999,8|8,0:1|0:1,0:0:0:0:
369,53,70852,6,0,P|279:56|189:62,1,180,6|0,0:0|0:0,0:0:0:0:
109,20,71800,1,8,0:1:0:0:
43,81,72116,2,0,P|38:125|55:166,1,89.9999999999999,0|8,0:0|0:1,0:0:0:0:
126,221,72747,2,0,P|125:266|122:311,1,89.9999999999999,0|8,0:0|0:1,0:0:0:0:
195,363,73379,6,0,P|280:370|323:296,1,180,0|0,0:0|0:0,0:0:0:0:
259,232,74326,1,8,0:1:0:0:
318,164,74642,2,0,P|323:120|306:79,1,89.9999999999999,0|8,0:0|0:1,0:0:0:0:
229,29,75273,2,0,P|184:30|139:33,1,89.9999999999999,0|8,0:0|0:1,0:0:0:0:
73,94,75905,6,0,P|66:179|140:222,1,180,6|0,0:0|0:0,0:0:0:0:
209,164,76852,1,8,0:1:0:0:
275,224,77168,2,0,P|319:229|360:212,1,89.9999999999999,0|8,0:0|0:1,0:0:0:0:
407,134,77800,2,0,P|406:89|403:44,1,89.9999999999999,0|8,0:0|0:1,0:0:0:0:
318,12,78431,5,6,0:0:0:0:
265,85,78747,2,0,P|224:101|180:97,1,89.9999999999999,8|0,0:1|0:0,0:0:0:0:
100,55,79379,2,0,P|26:97|33:183,1,180,12|8,0:1|0:1,0:0:0:0:
107,234,80326,2,0,P|109:278|110:323,1,89.9999999999999,8|8,0:1|0:1,0:0:0:0:
186,372,80958,6,0,P|258:372|326:287,1,180,6|8,0:0|0:1,0:0:0:0:
253,240,81905,1,8,0:1:0:0:
301,164,82221,2,0,P|390:158|480:155,1,180,8|8,0:1|0:1,0:0:0:0:
503,67,83168,1,8,0:1:0:0:
425,20,83484,5,4,0:0:0:0:
397,198,84116,1,4,0:0:0:0:
219,170,84747,1,4,0:0:0:0:
191,348,85379,1,0,2:0:0:0:
369,376,86010,6,0,P|375:286|378:196,1,180,8|8,0:1|0:1,0:0:0:0:
324,123,86958,1,8,0:1:0:0:
258,184,87273,2,0,P|213:188|172:171,1,89.9999999999999,8|8,0:1|0:1,0:0:0:0:
115,101,87905,2,0,P|70:96|29:113,1,89.9999999999999,8|8,0:1|0:1,0:0:0:0:
3,199,88537,6,0,P|5:288|12:378,1,180,8|8,0:1|0:1,0:0:0:0:
97,349,89484,1,8,0:1:0:0:
152,278,89800,2,0,P|156:233|139:192,1,89.9999999999999,8|8,0:1|0:1,0:0:0:0:
94,114,90431,2,0,B|135:103|135:103|231:116,1,135,8|8,0:1|0:1,0:0:0:0:
