osu file format v14

[General]
AudioFilename: audio.mp3
AudioLeadIn: 0
PreviewTime: 51969
Countdown: 1
SampleSet: Normal
StackLeniency: 0.7
Mode: 0
LetterboxInBreaks: 0
WidescreenStoryboard: 0

[Editor]
DistanceSpacing: 1.5
BeatDivisor: 4
GridSize: 8
TimelineZoom: 2.3

[Metadata]
Title:TONIGHT
TitleUnicode:TONIGHT
Artist:Bentham
ArtistUnicode:Bentham
Creator:Zprait
Version:Tonight
Source:
Tags:
BeatmapID:1437545
BeatmapSetID:679801

[Difficulty]
HPDrainRate:6
CircleSize:4.1
OverallDifficulty:9
ApproachRate:9.3
SliderMultiplier:1.4
SliderTickRate:1

[Events]
//Background and Video events
0,0,"bg.jpg",0,0
//Break Periods
2,84465,93507
2,153036,171874
//Storyboard Layer 0 (Background)
//Storyboard Layer 1 (Fail)
//Storyboard Layer 2 (Pass)
//Storyboard Layer 3 (Foreground)
//Storyboard Sound Samples

[TimingPoints]
1000,306.122448979592,4,1,0,100,1,0
1000,-100,4,1,0,40,0,0
5897,-100,4,1,0,70,0,0
25489,-100,4,1,0,50,0,0
34979,-100,4,1,0,70,0,0
54877,-100,4,1,0,85,0,1
64673,-100,4,1,0,100,0,1
69571,-100,4,1,0,85,0,1
74469,-100,4,1,0,70,0,0
113653,-100,4,1,0,85,0,1
123448,-100,4,1,0,100,0,1
128346,-100,4,1,0,85,0,1
131714,-133.333333333333,4,1,0,100,0,1
132709,-100,4,1,0,85,0,1
140591,-100,4,1,0,100,0,1
140897,-100,4,1,0,85,0,1
141051,-100,4,1,0,100,0,1
141357,-100,4,1,0,85,0,1
141510,-100,4,1,0,100,0,1
141816,-100,4,1,0,85,0,1
141969,-100,4,1,0,100,0,1
142275,-100,4,1,0,85,0,1
150387,-100,4,1,0,80,0,1
151000,-100,4,1,0,75,0,1
151612,-100,4,1,0,70,0,1
152224,-100,4,1,0,65,0,1
152836,-100,4,1,0,60,0,0
172428,-100,4,1,0,70,0,0
182224,-100,4,1,0,85,0,1
206714,-100,4,1,0,100,0,1
207938,-100,4,1,0,85,0,0
220795,-100,4,1,0,90,0,0
222632,-100,4,1,0,95,0,0
224469,-100,4,1,0,100,0,0

[HitObjects]
20,76,1000,6,0,L|116:67,1,70
90,69,1229,1,0,0:0:0:0:
90,69,1306,1,0,0:0:0:0:
165,71,1459,1,0,0:0:0:0:
75,151,1612,6,0,L|171:143,1,70
145,145,1841,1,0,0:0:0:0:
145,145,1918,1,0,0:0:0:0:
219,146,2071,1,0,0:0:0:0:
122,227,2225,6,0,L|218:219,1,70
192,221,2454,1,0,0:0:0:0:
192,221,2531,1,0,0:0:0:0:
266,223,2684,1,0,0:0:0:0:
169,303,2836,6,0,L|265:295,1,70
239,297,3065,1,0,0:0:0:0:
239,297,3142,1,0,0:0:0:0:
313,299,3295,1,0,0:0:0:0:
467,36,3448,6,0,L|371:45,1,70
397,43,3677,1,0,0:0:0:0:
397,43,3754,1,0,0:0:0:0:
324,57,3907,1,0,0:0:0:0:
426,120,4060,6,0,L|330:129,1,70
356,126,4289,1,0,0:0:0:0:
356,126,4366,1,0,0:0:0:0:
283,141,4519,1,0,0:0:0:0:
393,204,4673,6,0,L|297:212,1,70
323,210,4902,1,0,0:0:0:0:
323,210,4979,1,0,0:0:0:0:
250,224,5132,1,0,0:0:0:0:
360,287,5284,6,0,L|265:295,1,70
290,293,5513,1,0,0:0:0:0:
290,293,5590,1,0,0:0:0:0:
217,307,5743,1,0,0:0:0:0:
88,118,5897,6,0,P|136:114|179:142,1,70
142,194,6204,2,0,P|191:196|230:166,1,70
412,57,6510,1,0,0:0:0:0:
239,97,6663,1,0,0:0:0:0:
358,174,6816,1,0,0:0:0:0:
303,0,6969,1,0,0:0:0:0:
77,79,7122,6,0,P|64:112|76:159,1,70
147,138,7428,2,0,P|154:185|138:219,1,70
62,361,7734,1,0,0:0:0:0:
234,225,7887,1,0,0:0:0:0:
66,224,8040,1,0,0:0:0:0:
221,347,8193,1,0,0:0:0:0:
161,119,8346,6,0,P|190:181|208:196,1,70
258,141,8653,2,0,P|285:179|288:211,1,70
230,354,8959,1,0,0:0:0:0:
353,207,9112,1,0,0:0:0:0:
192,214,9265,1,0,0:0:0:0:
372,334,9418,1,0,0:0:0:0:
336,56,9571,6,0,P|320:96|320:128,1,70
396,125,9877,2,0,P|396:173|388:197,1,70
186,291,10183,1,0,0:0:0:0:
394,214,10336,1,0,0:0:0:0:
240,160,10489,1,0,0:0:0:0:
337,323,10642,1,0,0:0:0:0:
180,197,10795,5,0,0:0:0:0:
133,61,10948,1,0,0:0:0:0:
80,180,11102,1,0,0:0:0:0:
230,85,11255,1,0,0:0:0:0:
149,266,11408,5,0,0:0:0:0:
293,154,11561,1,0,0:0:0:0:
150,147,11715,1,0,0:0:0:0:
273,280,11868,1,0,0:0:0:0:
183,118,12020,5,0,0:0:0:0:
388,186,12173,1,0,0:0:0:0:
270,47,12327,1,0,0:0:0:0:
276,220,12480,1,0,0:0:0:0:
170,71,12632,5,0,0:0:0:0:
90,178,12785,1,0,0:0:0:0:
265,253,12939,1,0,0:0:0:0:
273,107,13092,1,0,0:0:0:0:
101,245,13244,5,0,0:0:0:0:
83,143,13397,1,0,0:0:0:0:
182,245,13551,1,0,0:0:0:0:
167,105,13704,1,0,0:0:0:0:
266,262,13857,5,0,0:0:0:0:
247,80,14010,1,0,0:0:0:0:
346,281,14163,1,0,0:0:0:0:
329,58,14316,1,0,0:0:0:0:
204,136,14469,6,0,P|261:129|286:135,1,70
272,131,14698,1,0,0:0:0:0:
272,131,14775,1,0,0:0:0:0:
272,131,14852,1,0,0:0:0:0:
272,131,14928,1,0,0:0:0:0:
272,131,15005,1,0,0:0:0:0:
272,131,15081,1,0,0:0:0:0:
99,175,15693,5,0,0:0:0:0:
151,262,15846,1,0,0:0:0:0:
151,262,15923,1,0,0:0:0:0:
151,262,16000,2,0,P|200:277|231:279,1,70
313,243,16306,1,0,0:0:0:0:
395,302,16459,6,0,P|414:251|409:206,1,70
490,164,16765,2,0,P|431:146|397:151,1,70
337,159,17071,1,0,0:0:0:0:
317,57,17224,1,0,0:0:0:0:
231,132,17377,2,0,P|228:167|240:202,1,70
415,296,17683,1,0,0:0:0:0:
256,232,17836,1,0,0:0:0:0:
288,356,17989,1,0,0:0:0:0:
120,320,18142,5,0,0:0:0:0:
158,201,18295,1,0,0:0:0:0:
158,201,18372,1,0,0:0:0:0:
158,201,18448,2,0,P|165:154|190:131,1,70
285,149,18755,1,0,0:0:0:0:
170,233,18908,6,0,P|221:248|248:235,1,70
309,283,19214,2,0,P|321:243|313:208,1,70
287,35,19520,1,0,0:0:0:0:
360,182,19673,1,0,0:0:0:0:
405,28,19826,1,0,0:0:0:0:
360,182,19979,1,0,0:0:0:0:
281,36,20132,2,0,P|242:41|210:70,1,70
147,144,20438,1,0,0:0:0:0:
246,327,20591,5,0,0:0:0:0:
356,231,20744,1,0,0:0:0:0:
356,231,20821,1,0,0:0:0:0:
356,231,20897,2,0,P|309:212|275:209,1,70
198,247,21204,1,0,0:0:0:0:
128,332,21357,6,0,P|95:296|88:269,1,70
124,179,21663,2,0,P|144:142|141:103,1,70
216,61,21969,1,0,0:0:0:0:
240,171,22122,1,0,0:0:0:0:
317,95,22275,2,0,P|367:72|412:77,1,70
478,272,22581,1,0,0:0:0:0:
456,87,22734,1,0,0:0:0:0:
362,233,22887,1,0,0:0:0:0:
302,64,23040,5,0,0:0:0:0:
157,110,23193,1,0,0:0:0:0:
157,110,23270,1,0,0:0:0:0:
157,110,23346,2,0,P|164:153|155:181,1,70
67,144,23653,1,0,0:0:0:0:
74,236,23806,6,0,P|86:276|119:303,1,70
191,262,24112,2,0,P|236:270|266:289,1,70
335,272,24418,1,0,0:0:0:0:
485,245,24571,1,0,0:0:0:0:
343,277,24724,1,0,0:0:0:0:
494,250,24877,1,0,0:0:0:0:
305,190,25030,2,0,P|261:217|250:242,1,70
208,339,25336,1,0,0:0:0:0:
99,264,25489,6,0,L|123:188,1,70
161,63,25795,1,0,0:0:0:0:
161,63,26408,1,0,0:0:0:0:
272,63,26714,6,0,L|290:133,1,70
327,274,27020,1,0,0:0:0:0:
327,274,27632,1,0,0:0:0:0:
198,316,27938,6,0,P|171:272|169:242,1,70
197,118,28244,1,0,0:0:0:0:
197,118,28857,1,0,0:0:0:0:
317,154,29163,6,0,P|298:193|276:212,1,70
134,294,29469,1,0,0:0:0:0:
255,232,29775,1,0,0:0:0:0:
134,294,30081,1,0,0:0:0:0:
123,127,30387,6,0,L|214:149,1,70
355,180,30693,1,0,0:0:0:0:
355,180,31306,1,0,0:0:0:0:
386,298,31612,6,0,L|313:301,1,70
172,304,31918,1,0,0:0:0:0:
172,304,32530,1,0,0:0:0:0:
48,293,32836,6,0,P|52:245|83:212,1,70
161,133,33142,1,0,0:0:0:0:
161,133,33755,1,0,0:0:0:0:
223,40,34061,6,0,P|272:77|285:103,1,70
356,238,34367,1,0,0:0:0:0:
200,304,34673,2,0,L|104:288,1,70
75,161,34979,5,0,0:0:0:0:
119,167,35055,1,0,0:0:0:0:
163,174,35132,1,0,0:0:0:0:
206,182,35208,1,0,0:0:0:0:
256,208,35285,6,0,P|304:200|328:176,1,70
265,126,35591,2,0,P|314:94|355:97,1,70
401,162,35897,5,0,0:0:0:0:
488,203,36051,1,0,0:0:0:0:
410,252,36204,2,0,P|435:287|477:297,1,70
327,317,36510,5,0,0:0:0:0:
228,288,36663,1,0,0:0:0:0:
300,220,36816,2,0,P|331:175|372:158,1,70
423,107,37122,5,0,0:0:0:0:
312,84,37275,1,0,0:0:0:0:
356,186,37428,2,0,P|312:197|261:186,1,70
197,119,37734,5,0,0:0:0:0:
200,255,37887,1,0,0:0:0:0:
108,77,38040,2,0,P|130:47|166:34,1,70
64,182,38346,5,0,0:0:0:0:
168,218,38500,1,0,0:0:0:0:
86,306,38653,2,0,P|125:336|170:337,1,70
254,307,38959,5,0,0:0:0:0:
282,185,39112,1,0,0:0:0:0:
366,331,39265,2,0,P|401:295|445:282,1,70
413,172,39571,5,0,0:0:0:0:
326,72,39724,1,0,0:0:0:0:
282,185,39877,2,0,P|305:240|331:263,1,70
180,242,40183,5,0,0:0:0:0:
192,111,40336,1,0,0:0:0:0:
80,262,40489,2,0,P|98:306|136:336,1,70
254,324,40795,5,0,0:0:0:0:
293,198,40948,1,0,0:0:0:0:
385,289,41102,2,0,P|416:252|423:204,1,70
383,92,41408,5,0,0:0:0:0:
258,65,41561,1,0,0:0:0:0:
293,198,41714,2,0,P|326:233|367:240,1,70
208,287,42020,5,0,0:0:0:0:
77,301,42173,1,0,0:0:0:0:
141,175,42326,2,0,P|192:151|231:163,1,70
315,236,42632,5,0,0:0:0:0:
431,266,42785,1,0,0:0:0:0:
405,146,42938,2,0,P|397:102|413:77,1,70
265,107,43244,5,0,0:0:0:0:
150,159,43397,1,0,0:0:0:0:
359,108,43551,2,0,P|353:151|333:176,1,70
111,267,43857,6,0,P|138:316|174:330,1,70
254,277,44163,2,0,P|286:290|313:312,1,70
388,217,44469,1,0,0:0:0:0:
355,191,44545,1,0,0:0:0:0:
318,175,44622,1,0,0:0:0:0:
276,175,44698,1,0,0:0:0:0:
236,185,44775,1,0,0:0:0:0:
196,194,44851,1,0,0:0:0:0:
155,193,44928,1,0,0:0:0:0:
117,177,45004,1,0,0:0:0:0:
88,140,45081,6,0,P|124:90|159:91,1,70
232,90,45387,1,0,0:0:0:0:
328,51,45540,2,0,P|343:99|331:137,1,70
318,211,45846,1,0,0:0:0:0:
414,179,46000,1,0,0:0:0:0:
426,324,46153,5,0,0:0:0:0:
426,324,46459,1,0,0:0:0:0:
426,324,46765,1,0,0:0:0:0:
426,324,47071,1,0,0:0:0:0:
298,320,47377,6,0,P|248:323|215:302,1,70
142,256,47683,1,0,0:0:0:0:
42,209,47836,2,0,P|65:168|112:150,1,70
183,157,48142,2,0,P|232:181|247:207,1,70
335,256,48448,1,0,0:0:0:0:
441,247,48602,2,0,P|483:227|497:202,1,70
381,157,48908,6,0,L|377:80,6,70
346,304,49979,6,0,P|282:323|256:313,1,70
236,227,50285,2,0,P|183:214|146:222,1,70
51,56,50591,1,0,0:0:0:0:
127,186,50744,1,0,0:0:0:0:
126,29,50897,1,0,0:0:0:0:
229,109,51051,2,0,P|297:95|280:143,1,140
209,203,51510,1,0,0:0:0:0:
97,191,51663,2,0,L|20:175,2,70
221,225,52122,1,0,0:0:0:0:
330,253,52275,2,0,L|403:280,1,70
254,284,52581,6,0,P|216:309|183:311,1,70
96,264,52887,1,0,0:0:0:0:
176,192,53040,1,0,0:0:0:0:
285,192,53193,2,0,P|345:215|369:212,1,70
445,227,53500,2,0,P|439:182|403:139,1,70
349,111,53806,1,0,0:0:0:0:
349,111,53959,1,0,0:0:0:0:
349,111,54112,1,0,0:0:0:0:
349,111,54265,5,0,0:0:0:0:
203,71,54571,1,0,0:0:0:0:
107,177,54877,6,0,P|126:230|153:246,1,70
398,218,55183,1,0,0:0:0:0:
202,299,55336,1,0,0:0:0:0:
244,100,55489,1,0,0:0:0:0:
333,314,55642,1,0,0:0:0:0:
162,190,55795,1,0,0:0:0:0:
354,117,55948,1,0,0:0:0:0:
138,85,56102,6,0,P|90:103|68:125,1,70
189,330,56408,1,0,0:0:0:0:
78,195,56561,1,0,0:0:0:0:
242,281,56714,1,0,0:0:0:0:
81,180,56867,1,0,0:0:0:0:
277,220,57020,1,0,0:0:0:0:
84,167,57173,1,0,0:0:0:0:
316,152,57326,6,0,P|364:130|380:95,1,70
160,72,57632,1,0,0:0:0:0:
213,262,57785,1,0,0:0:0:0:
366,107,57938,1,0,0:0:0:0:
106,181,58091,1,0,0:0:0:0:
261,43,58244,1,0,0:0:0:0:
322,228,58397,1,0,0:0:0:0:
113,77,58551,6,0,P|135:112|149:149,1,70
236,344,58857,1,0,0:0:0:0:
186,187,59010,1,0,0:0:0:0:
307,321,59163,1,0,0:0:0:0:
202,174,59316,1,0,0:0:0:0:
391,235,59469,1,0,0:0:0:0:
224,156,59622,1,0,0:0:0:0:
464,123,59775,6,0,P|426:109|385:115,1,70
294,92,60081,2,0,P|297:139|324:183,1,70
396,211,60387,2,0,P|359:256|321:267,1,70
279,329,60693,2,0,P|253:293|253:254,1,70
113,75,61000,1,0,0:0:0:0:
345,180,61153,1,0,0:0:0:0:
89,116,61306,1,0,0:0:0:0:
365,133,61459,1,0,0:0:0:0:
86,163,61612,1,0,0:0:0:0:
357,82,61765,1,0,0:0:0:0:
143,231,61918,6,0,P|174:253|210:265,1,70
290,202,62224,2,0,P|309:257|305:287,1,70
246,354,62530,2,0,P|283:371|326:369,1,70
418,337,62836,5,0,0:0:0:0:
401,229,62989,1,0,0:0:0:0:
478,159,63142,2,0,P|452:138|413:128,1,70
118,100,63448,1,0,0:0:0:0:
339,128,63602,1,0,0:0:0:0:
123,171,63755,1,0,0:0:0:0:
339,128,63908,1,0,0:0:0:0:
150,240,64061,1,0,0:0:0:0:
339,128,64214,1,0,0:0:0:0:
406,324,64367,5,0,0:0:0:0:
406,324,64443,1,0,0:0:0:0:
406,324,64520,1,0,0:0:0:0:
406,324,64596,1,0,0:0:0:0:
406,324,64673,5,0,0:0:0:0:
415,144,64826,1,0,0:0:0:0:
301,318,64979,5,0,0:0:0:0:
319,96,65132,1,0,0:0:0:0:
198,311,65285,5,0,0:0:0:0:
216,48,65438,1,0,0:0:0:0:
89,298,65591,5,0,0:0:0:0:
115,13,65744,1,0,0:0:0:0:
357,47,65897,5,0,0:0:0:0:
114,81,66051,1,0,0:0:0:0:
387,121,66204,5,0,0:0:0:0:
118,172,66357,1,0,0:0:0:0:
426,194,66510,5,0,0:0:0:0:
120,260,66663,1,0,0:0:0:0:
464,266,66816,5,0,0:0:0:0:
127,347,66969,1,0,0:0:0:0:
380,140,67122,5,0,0:0:0:0:
80,254,67275,1,0,0:0:0:0:
404,249,67428,5,0,0:0:0:0:
76,112,67581,1,0,0:0:0:0:
395,148,67734,5,0,0:0:0:0:
65,252,67887,1,0,0:0:0:0:
427,237,68040,5,0,0:0:0:0:
59,131,68193,1,0,0:0:0:0:
299,330,68346,5,0,0:0:0:0:
172,52,68500,1,0,0:0:0:0:
177,331,68653,5,0,0:0:0:0:
300,45,68806,1,0,0:0:0:0:
315,341,68959,5,0,0:0:0:0:
157,36,69112,1,0,0:0:0:0:
163,346,69265,5,0,0:0:0:0:
314,25,69418,1,0,0:0:0:0:
134,156,69571,6,0,P|134:193|152:227,1,70
91,292,69877,2,0,P|148:315|183:311,1,70
242,266,70183,2,0,P|251:230|241:193,1,70
315,142,70489,2,0,P|277:113|252:105,1,70
42,132,70795,1,0,0:0:0:0:
254,63,70948,1,0,0:0:0:0:
131,235,71102,1,0,0:0:0:0:
119,25,71255,1,0,0:0:0:0:
253,185,71408,1,0,0:0:0:0:
35,125,71561,1,0,0:0:0:0:
261,61,71714,6,0,P|322:63|344:73,1,70
309,155,72020,2,0,P|355:163|396:155,1,70
463,226,72326,2,0,P|450:263|420:290,1,70
342,347,72632,1,0,0:0:0:0:
279,258,72785,1,0,0:0:0:0:
213,346,72938,2,0,P|183:317|166:272,1,70
98,223,73244,5,0,0:0:0:0:
98,223,73321,1,0,0:0:0:0:
98,223,73397,1,0,0:0:0:0:
98,223,73474,1,0,0:0:0:0:
98,223,73551,5,0,0:0:0:0:
128,205,73627,1,0,0:0:0:0:
161,195,73704,1,0,0:0:0:0:
196,190,73780,1,0,0:0:0:0:
231,191,73857,1,0,0:0:0:0:
266,193,73933,1,0,0:0:0:0:
301,193,74010,1,0,0:0:0:0:
335,187,74086,1,0,0:0:0:0:
367,172,74163,1,0,0:0:0:0:
395,151,74239,1,0,0:0:0:0:
420,127,74316,1,0,0:0:0:0:
437,96,74392,1,0,0:0:0:0:
446,66,74469,5,0,0:0:0:0:
331,68,74622,1,0,0:0:0:0:
331,68,74698,1,0,0:0:0:0:
331,68,74775,2,0,P|284:99|244:102,1,70
195,139,75081,1,0,0:0:0:0:
109,105,75234,6,0,P|100:155|117:190,1,70
180,233,75540,2,0,P|177:280|165:313,1,70
96,357,75846,1,0,0:0:0:0:
237,352,76000,1,0,0:0:0:0:
271,258,76153,2,0,P|276:211|295:177,1,70
379,35,76459,1,0,0:0:0:0:
310,158,76612,1,0,0:0:0:0:
462,85,76765,1,0,0:0:0:0:
264,34,76918,5,0,0:0:0:0:
171,142,77071,1,0,0:0:0:0:
171,142,77147,1,0,0:0:0:0:
171,142,77224,2,0,P|208:168|248:174,1,70
322,133,77530,1,0,0:0:0:0:
394,72,77683,6,0,P|416:125|413:165,1,70
490,206,77989,2,0,P|435:234|400:233,1,70
230,322,78295,1,0,0:0:0:0:
356,219,78448,1,0,0:0:0:0:
232,310,78602,1,0,0:0:0:0:
359,207,78755,1,0,0:0:0:0:
149,252,78908,2,0,P|187:218|223:208,1,70
224,128,79214,1,0,0:0:0:0:
367,299,79367,5,0,0:0:0:0:
244,336,79520,1,0,0:0:0:0:
244,336,79596,1,0,0:0:0:0:
244,336,79673,2,0,P|206:305|192:280,1,70
188,196,79979,1,0,0:0:0:0:
87,173,80132,6,0,P|122:114|147:99,1,70
215,101,80438,2,0,P|272:128|284:144,1,70
188,196,80744,1,0,0:0:0:0:
297,211,80897,1,0,0:0:0:0:
121,263,81051,2,0,P|171:288|209:287,1,70
413,301,81357,1,0,0:0:0:0:
233,299,81510,1,0,0:0:0:0:
378,181,81663,1,0,0:0:0:0:
259,341,81816,5,0,0:0:0:0:
165,220,81969,1,0,0:0:0:0:
165,220,82045,1,0,0:0:0:0:
165,220,82122,2,0,P|130:170|128:143,1,70
226,160,82428,1,0,0:0:0:0:
296,99,82581,6,0,P|321:136|327:165,1,70
271,253,82887,2,0,P|326:266|362:259,1,70
499,126,83193,1,0,0:0:0:0:
385,285,83346,1,0,0:0:0:0:
412,89,83500,1,0,0:0:0:0:
394,284,83653,1,0,0:0:0:0:
320,82,83806,2,0,P|277:84|248:94,1,70
148,153,84112,1,0,0:0:0:0:
148,153,84265,5,0,0:0:0:0:
267,264,94061,5,0,0:0:0:0:
152,240,94214,1,0,0:0:0:0:
152,240,94290,1,0,0:0:0:0:
152,240,94367,2,0,P|128:184|136:152,1,70
181,68,94673,5,0,0:0:0:0:
296,112,94826,1,0,0:0:0:0:
296,112,94903,1,0,0:0:0:0:
296,112,94979,2,0,P|328:144|336:176,1,70
403,275,95285,5,0,0:0:0:0:
282,318,95438,1,0,0:0:0:0:
282,318,95515,1,0,0:0:0:0:
282,318,95591,2,0,P|233:328|191:322,1,70
98,219,95897,5,0,0:0:0:0:
235,204,96051,1,0,0:0:0:0:
235,204,96127,1,0,0:0:0:0:
235,204,96204,2,0,P|286:205|321:195,1,70
358,55,96510,5,0,0:0:0:0:
384,158,96663,1,0,0:0:0:0:
384,158,96739,1,0,0:0:0:0:
384,158,96816,2,0,P|394:204|390:244,1,70
269,303,97122,5,0,0:0:0:0:
243,200,97275,1,0,0:0:0:0:
243,200,97351,1,0,0:0:0:0:
243,200,97428,2,0,P|233:154|237:114,1,70
93,70,97734,5,0,0:0:0:0:
235,82,97887,1,0,0:0:0:0:
235,82,97964,1,0,0:0:0:0:
235,82,98040,2,0,P|226:132|208:160,1,70
94,213,98346,5,0,0:0:0:0:
44,335,98500,1,0,0:0:0:0:
44,335,98576,1,0,0:0:0:0:
44,335,98653,2,0,P|91:346|132:336,1,70
228,258,98959,5,0,0:0:0:0:
344,322,99112,2,0,L|361:357,2,35
339,205,99418,1,0,0:0:0:0:
228,129,99571,5,0,0:0:0:0:
344,93,99724,2,0,L|381:86,2,35
259,16,100030,1,0,0:0:0:0:
228,129,100183,5,0,0:0:0:0:
220,265,100336,2,0,L|186:276,2,35
341,331,100642,1,0,0:0:0:0:
345,206,100795,5,0,0:0:0:0:
256,102,100948,2,0,L|275:70,2,35
118,115,101255,1,0,0:0:0:0:
161,275,101408,5,0,0:0:0:0:
307,269,101561,2,0,L|352:283,2,35
204,158,101867,1,0,0:0:0:0:
353,161,102020,5,0,0:0:0:0:
408,57,102173,2,0,L|448:33,2,35
273,67,102479,1,0,0:0:0:0:
71,67,102632,5,0,0:0:0:0:
103,218,102785,2,0,L|96:266,2,35
188,81,103091,1,0,0:0:0:0:
223,224,103244,5,0,0:0:0:0:
223,224,103321,1,0,0:0:0:0:
223,224,103397,1,0,0:0:0:0:
223,224,103474,1,0,0:0:0:0:
223,224,103551,1,0,0:0:0:0:
223,224,103627,1,0,0:0:0:0:
223,224,103704,1,0,0:0:0:0:
223,224,103780,1,0,0:0:0:0:
223,224,103857,6,0,P|274:240|290:245,1,70
423,283,104163,1,0,0:0:0:0:
375,170,104316,2,0,P|368:113|352:94,1,70
266,165,104622,1,0,0:0:0:0:
254,50,104775,1,0,0:0:0:0:
137,124,104928,5,0,0:0:0:0:
125,127,105234,1,0,0:0:0:0:
108,134,105540,1,0,0:0:0:0:
93,138,105846,1,0,0:0:0:0:
92,241,106153,6,0,P|112:273|139:293,1,70
170,189,106459,1,0,0:0:0:0:
139,97,106612,2,0,P|201:97|234:110,1,70
277,182,106918,2,0,P|308:212|345:221,1,70
441,256,107224,1,0,0:0:0:0:
333,314,107377,2,0,L|258:305,1,70
76,247,107683,6,0,L|148:231,1,70
232,227,107989,6,0,L|160:211,1,70
19,165,108295,6,0,L|91:149,1,70
255,104,108602,5,0,0:0:0:0:
376,54,108755,6,0,P|392:89|393:130,1,70
328,205,109061,2,0,P|321:261|336:296,1,70
472,342,109367,1,0,0:0:0:0:
304,330,109520,1,0,0:0:0:0:
452,227,109673,1,0,0:0:0:0:
266,277,109826,2,0,P|195:273|137:231,1,140
83,147,110285,1,0,0:0:0:0:
200,92,110438,2,0,L|269:65,2,70
79,155,110897,1,0,0:0:0:0:
158,264,111051,2,0,P|210:288|232:291,1,70
307,246,111357,6,0,P|353:214|393:208,1,70
473,196,111663,1,0,0:0:0:0:
430,77,111816,1,0,0:0:0:0:
373,175,111969,2,0,P|340:207|304:216,1,70
225,177,112275,2,0,P|174:174|132:194,1,70
73,214,112581,1,0,0:0:0:0:
153,156,112734,1,0,0:0:0:0:
64,125,112887,1,0,0:0:0:0:
64,125,112964,1,0,0:0:0:0:
64,125,113040,5,0,0:0:0:0:
223,81,113346,1,0,0:0:0:0:
359,127,113653,6,0,P|359:190|347:221,1,70
213,344,113959,1,0,0:0:0:0:
161,165,114112,1,0,0:0:0:0:
311,311,114265,1,0,0:0:0:0:
100,261,114418,5,0,0:0:0:0:
306,173,114571,1,0,0:0:0:0:
87,150,114724,1,0,0:0:0:0:
234,66,114877,6,0,P|289:69|306:80,1,70
441,275,115183,1,0,0:0:0:0:
344,128,115336,1,0,0:0:0:0:
350,303,115489,1,0,0:0:0:0:
344,128,115642,1,0,0:0:0:0:
445,280,115795,1,0,0:0:0:0:
344,128,115948,1,0,0:0:0:0:
346,312,116102,6,0,P|294:328|256:326,1,70
126,136,116408,1,0,0:0:0:0:
110,319,116561,1,0,0:0:0:0:
273,196,116714,1,0,0:0:0:0:
35,218,116867,5,0,0:0:0:0:
236,94,117020,1,0,0:0:0:0:
247,326,117173,1,0,0:0:0:0:
118,148,117326,6,0,P|120:107|135:79,1,70
383,94,117632,1,0,0:0:0:0:
201,73,117785,1,0,0:0:0:0:
370,153,117938,1,0,0:0:0:0:
201,73,118091,1,0,0:0:0:0:
351,209,118244,1,0,0:0:0:0:
201,73,118397,1,0,0:0:0:0:
284,245,118551,6,0,P|241:268|202:272,1,70
107,256,118857,2,0,P|67:242|41:224,1,70
197,183,119163,2,0,P|157:173|125:152,1,70
47,92,119469,2,0,P|27:58|20:29,1,70
251,136,119775,1,0,0:0:0:0:
60,199,119928,1,0,0:0:0:0:
188,83,120081,1,0,0:0:0:0:
115,265,120234,1,0,0:0:0:0:
114,43,120387,1,0,0:0:0:0:
198,290,120540,1,0,0:0:0:0:
211,66,120693,6,0,P|253:70|276:85,1,70
240,165,121000,2,0,P|270:193|306:198,1,70
376,138,121306,2,0,P|417:148|450:185,1,70
399,259,121612,5,0,0:0:0:0:
291,333,121765,1,0,0:0:0:0:
143,320,121918,2,0,P|142:274|157:243,1,70
268,45,122224,1,0,0:0:0:0:
213,223,122377,1,0,0:0:0:0:
122,58,122530,1,0,0:0:0:0:
306,221,122683,5,0,0:0:0:0:
227,48,122836,1,0,0:0:0:0:
152,222,122989,1,0,0:0:0:0:
370,73,123142,5,0,0:0:0:0:
370,73,123219,1,0,0:0:0:0:
370,73,123295,1,0,0:0:0:0:
370,73,123372,1,0,0:0:0:0:
370,73,123448,5,0,0:0:0:0:
361,287,123602,1,0,0:0:0:0:
262,65,123755,5,0,0:0:0:0:
267,306,123908,1,0,0:0:0:0:
162,53,124061,5,0,0:0:0:0:
162,307,124214,1,0,0:0:0:0:
68,98,124367,5,0,0:0:0:0:
241,255,124520,1,0,0:0:0:0:
13,188,124673,5,0,0:0:0:0:
273,154,124826,1,0,0:0:0:0:
57,295,124979,5,0,0:0:0:0:
185,61,125132,1,0,0:0:0:0:
180,310,125285,5,0,0:0:0:0:
289,64,125438,1,0,0:0:0:0:
289,332,125591,5,0,0:0:0:0:
399,59,125744,1,0,0:0:0:0:
105,160,125897,5,0,0:0:0:0:
379,196,126051,1,0,0:0:0:0:
95,166,126204,5,0,0:0:0:0:
382,246,126357,1,0,0:0:0:0:
84,173,126510,5,0,0:0:0:0:
376,295,126663,1,0,0:0:0:0:
73,183,126816,5,0,0:0:0:0:
350,333,126969,1,0,0:0:0:0:
112,292,127122,5,0,0:0:0:0:
281,88,127275,1,0,0:0:0:0:
116,303,127428,5,0,0:0:0:0:
324,111,127581,1,0,0:0:0:0:
119,314,127734,5,0,0:0:0:0:
357,143,127887,1,0,0:0:0:0:
123,326,128040,5,0,0:0:0:0:
378,185,128193,1,0,0:0:0:0:
130,187,128346,6,0,P|83:158|78:134,1,70
171,109,128653,2,0,P|200:62|224:57,1,70
254,140,128959,2,0,P|301:169|306:193,1,70
220,228,129265,2,0,P|191:275|167:280,1,70
192,55,129571,1,0,0:0:0:0:
164,259,129724,1,0,0:0:0:0:
85,58,129877,1,0,0:0:0:0:
305,134,130030,1,0,0:0:0:0:
88,186,130183,1,0,0:0:0:0:
205,65,130336,1,0,0:0:0:0:
398,200,130489,6,0,P|397:255|379:271,1,70
285,300,130795,2,0,P|332:329|337:353,1,70
179,308,131102,2,0,P|200:257|223:248,1,70
80,324,131408,1,0,0:0:0:0:
56,223,131561,1,0,0:0:0:0:
98,136,131714,1,0,0:0:0:0:
153,219,131867,2,0,P|173:101|97:136,1,262.500010013581
98,136,132709,1,0,0:0:0:0:
123,131,132785,1,0,0:0:0:0:
149,127,132862,1,0,0:0:0:0:
175,123,132938,1,0,0:0:0:0:
201,119,133015,1,0,0:0:0:0:
227,115,133091,1,0,0:0:0:0:
253,111,133168,1,0,0:0:0:0:
305,111,133244,5,0,0:0:0:0:
352,134,133321,1,0,0:0:0:0:
382,176,133397,1,0,0:0:0:0:
391,228,133474,1,0,0:0:0:0:
369,276,133551,1,0,0:0:0:0:
326,306,133627,1,0,0:0:0:0:
273,313,133704,1,0,0:0:0:0:
222,301,133780,1,0,0:0:0:0:
169,291,133857,1,0,0:0:0:0:
117,298,133933,1,0,0:0:0:0:
70,323,134010,1,0,0:0:0:0:
34,361,134086,1,0,0:0:0:0:
56,313,134163,5,0,0:0:0:0:
62,259,134239,1,0,0:0:0:0:
60,206,134316,1,0,0:0:0:0:
49,155,134392,1,0,0:0:0:0:
32,104,134469,1,0,0:0:0:0:
52,56,134545,1,0,0:0:0:0:
101,37,134622,1,0,0:0:0:0:
151,48,134698,1,0,0:0:0:0:
187,86,134775,1,0,0:0:0:0:
225,122,134852,1,0,0:0:0:0:
274,139,134928,1,0,0:0:0:0:
326,130,135005,1,0,0:0:0:0:
372,109,135081,6,0,P|456:178|341:198,1,280
63,211,135846,1,0,0:0:0:0:
332,165,136000,1,0,0:0:0:0:
50,167,136153,1,0,0:0:0:0:
348,201,136306,1,0,0:0:0:0:
25,259,136459,1,0,0:0:0:0:
362,144,136612,1,0,0:0:0:0:
24,139,136765,1,0,0:0:0:0:
301,329,136918,5,0,0:0:0:0:
186,67,137071,1,0,0:0:0:0:
111,307,137224,1,0,0:0:0:0:
403,223,137377,1,0,0:0:0:0:
93,154,137530,1,0,0:0:0:0:
284,320,137683,1,0,0:0:0:0:
256,89,137836,5,0,0:0:0:0:
256,89,137913,1,0,0:0:0:0:
256,89,137989,1,0,0:0:0:0:
256,89,138066,1,0,0:0:0:0:
256,89,138142,2,0,P|278:135|278:155,1,70
110,319,138448,1,0,0:0:0:0:
357,254,138602,1,0,0:0:0:0:
153,176,138755,2,0,P|119:152|75:144,1,70
215,74,139061,5,0,0:0:0:0:
82,228,139214,1,0,0:0:0:0:
244,298,139367,2,0,L|319:326,2,70
66,213,139826,1,0,0:0:0:0:
303,234,139979,1,0,0:0:0:0:
199,63,140132,1,0,0:0:0:0:
160,327,140285,1,0,0:0:0:0:
246,88,140438,5,0,0:0:0:0:
279,231,140591,2,0,L|292:302,1,70
223,75,140897,5,0,0:0:0:0:
186,232,141050,2,0,L|171:310,1,70
258,64,141357,5,0,0:0:0:0:
297,235,141510,2,0,L|312:320,1,70
227,49,141816,5,0,0:0:0:0:
178,252,141969,2,0,L|159:353,1,70
256,39,142275,5,0,0:0:0:0:
293,319,142428,1,0,0:0:0:0:
129,161,142581,5,0,0:0:0:0:
129,161,142658,1,0,0:0:0:0:
129,161,142734,1,0,0:0:0:0:
129,161,142811,1,0,0:0:0:0:
129,161,142887,1,0,0:0:0:0:
129,161,142964,1,0,0:0:0:0:
168,195,143040,5,0,0:0:0:0:
214,220,143117,1,0,0:0:0:0:
264,234,143193,1,0,0:0:0:0:
316,232,143270,1,0,0:0:0:0:
364,212,143346,1,0,0:0:0:0:
398,172,143423,1,0,0:0:0:0:
408,120,143500,1,0,0:0:0:0:
388,71,143576,1,0,0:0:0:0:
343,42,143653,1,0,0:0:0:0:
291,35,143729,1,0,0:0:0:0:
246,63,143806,1,0,0:0:0:0:
228,112,143882,1,0,0:0:0:0:
237,163,143959,1,0,0:0:0:0:
272,201,144035,1,0,0:0:0:0:
316,232,144112,1,0,0:0:0:0:
331,281,144188,1,0,0:0:0:0:
306,327,144265,2,0,L|278:367,6,35
256,309,144801,5,0,0:0:0:0:
219,267,144877,1,0,0:0:0:0:
208,215,144954,1,0,0:0:0:0:
178,171,145030,1,0,0:0:0:0:
126,158,145107,1,0,0:0:0:0:
74,151,145183,1,0,0:0:0:0:
38,112,145260,1,0,0:0:0:0:
44,60,145336,1,0,0:0:0:0:
81,22,145413,1,0,0:0:0:0:
92,72,145489,5,0,0:0:0:0:
78,123,145566,1,0,0:0:0:0:
87,174,145642,1,0,0:0:0:0:
122,213,145719,1,0,0:0:0:0:
172,223,145795,1,0,0:0:0:0:
224,221,145872,1,0,0:0:0:0:
266,191,145948,1,0,0:0:0:0:
288,143,146025,1,0,0:0:0:0:
327,108,146102,1,0,0:0:0:0:
377,94,146178,1,0,0:0:0:0:
427,102,146255,1,0,0:0:0:0:
463,139,146331,1,0,0:0:0:0:
484,187,146408,1,0,0:0:0:0:
486,239,146484,1,0,0:0:0:0:
453,280,146561,1,0,0:0:0:0:
416,317,146637,1,0,0:0:0:0:
392,269,146714,5,0,0:0:0:0:
359,227,146790,1,0,0:0:0:0:
312,202,146867,1,0,0:0:0:0:
260,193,146943,1,0,0:0:0:0:
208,206,147020,1,0,0:0:0:0:
160,227,147096,1,0,0:0:0:0:
110,246,147173,1,0,0:0:0:0:
58,234,147250,1,0,0:0:0:0:
38,185,147326,1,0,0:0:0:0:
56,135,147403,1,0,0:0:0:0:
98,104,147479,2,0,L|152:115,5,35
160,68,147938,5,0,0:0:0:0:
194,45,148015,1,0,0:0:0:0:
236,41,148091,1,0,0:0:0:0:
277,52,148168,1,0,0:0:0:0:
308,81,148244,1,0,0:0:0:0:
338,112,148321,1,0,0:0:0:0:
376,130,148397,1,0,0:0:0:0:
417,141,148474,1,0,0:0:0:0:
448,169,148551,1,0,0:0:0:0:
454,212,148627,1,0,0:0:0:0:
428,245,148704,2,0,L|384:281,5,35
364,246,149163,5,0,0:0:0:0:
347,217,149239,1,0,0:0:0:0:
320,195,149316,1,0,0:0:0:0:
288,184,149392,1,0,0:0:0:0:
253,182,149469,1,0,0:0:0:0:
220,190,149545,1,0,0:0:0:0:
191,209,149622,1,0,0:0:0:0:
167,234,149698,1,0,0:0:0:0:
153,266,149775,1,0,0:0:0:0:
150,301,149852,1,0,0:0:0:0:
162,333,149928,2,0,L|183:377,5,35
93,255,150387,6,0,L|51:246,7,35
176,199,151000,2,0,L|218:190,7,35
283,265,151612,6,0,L|289:318,5,46.6666666666667
381,177,152224,2,0,L|375:230,5,46.6666666666667
324,93,152836,5,0,0:0:0:0:
230,174,172428,5,0,0:0:0:0:
336,113,172734,1,0,0:0:0:0:
238,182,173040,5,0,0:0:0:0:
329,104,173193,1,0,0:0:0:0:
252,192,173346,1,0,0:0:0:0:
314,96,173500,1,0,0:0:0:0:
138,106,173653,5,0,0:0:0:0:
179,223,173959,1,0,0:0:0:0:
152,103,174265,5,0,0:0:0:0:
165,226,174418,1,0,0:0:0:0:
168,103,174571,1,0,0:0:0:0:
149,224,174724,1,0,0:0:0:0:
271,308,174877,5,0,0:0:0:0:
400,237,175183,1,0,0:0:0:0:
281,316,175489,5,0,0:0:0:0:
386,227,175642,1,0,0:0:0:0:
293,328,175795,1,0,0:0:0:0:
370,216,175948,1,0,0:0:0:0:
300,66,176102,5,0,0:0:0:0:
150,33,176408,1,0,0:0:0:0:
302,53,176714,5,0,0:0:0:0:
151,46,176867,1,0,0:0:0:0:
304,38,177020,1,0,0:0:0:0:
153,63,177173,1,0,0:0:0:0:
279,129,177326,6,0,P|327:138|351:157,1,70
400,244,177632,2,0,P|410:286|406:312,1,70
247,243,177938,2,0,P|256:281|280:314,1,70
331,132,178244,2,0,P|330:174|315:218,1,70
140,127,178551,1,0,0:0:0:0:
235,142,178704,1,0,0:0:0:0:
103,211,178857,1,0,0:0:0:0:
196,223,179010,1,0,0:0:0:0:
196,74,179163,5,0,0:0:0:0:
267,185,179316,1,0,0:0:0:0:
103,211,179469,2,0,P|78:237|66:276,1,70
160,296,179775,2,0,P|167:340|153:374,1,70
256,261,180081,2,0,P|280:294|288:321,1,70
407,344,180387,1,0,0:0:0:0:
384,212,180540,1,0,0:0:0:0:
239,235,180693,2,0,P|196:257|158:258,1,70
101,191,181000,5,0,0:0:0:0:
101,191,181076,1,0,0:0:0:0:
101,191,181153,1,0,0:0:0:0:
101,191,181229,1,0,0:0:0:0:
101,191,181306,1,0,0:0:0:0:
101,191,181382,1,0,0:0:0:0:
101,191,181459,1,0,0:0:0:0:
101,191,181535,1,0,0:0:0:0:
101,191,181612,5,0,0:0:0:0:
182,92,181918,1,0,0:0:0:0:
342,156,182224,6,0,P|356:189|356:241,1,70
170,328,182530,1,0,0:0:0:0:
424,306,182683,1,0,0:0:0:0:
185,257,182836,1,0,0:0:0:0:
334,96,182989,1,0,0:0:0:0:
360,334,183142,1,0,0:0:0:0:
179,163,183295,1,0,0:0:0:0:
345,72,183448,6,0,P|409:80|432:96,1,70
384,323,183755,1,0,0:0:0:0:
369,137,183908,1,0,0:0:0:0:
391,328,184061,1,0,0:0:0:0:
315,144,184214,1,0,0:0:0:0:
398,334,184367,1,0,0:0:0:0:
275,187,184520,1,0,0:0:0:0:
177,253,184673,6,0,P|134:242|103:220,1,70
93,33,184979,1,0,0:0:0:0:
91,261,185132,1,0,0:0:0:0:
285,147,185285,1,0,0:0:0:0:
44,91,185438,1,0,0:0:0:0:
169,277,185591,1,0,0:0:0:0:
270,70,185744,1,0,0:0:0:0:
101,210,185897,6,0,P|81:239|71:277,1,70
320,288,186204,1,0,0:0:0:0:
114,325,186357,1,0,0:0:0:0:
307,242,186510,1,0,0:0:0:0:
103,290,186663,1,0,0:0:0:0:
292,203,186816,1,0,0:0:0:0:
91,255,186969,1,0,0:0:0:0:
250,89,187122,5,0,0:0:0:0:
144,249,187275,1,0,0:0:0:0:
343,272,187428,1,0,0:0:0:0:
162,71,187581,1,0,0:0:0:0:
211,310,187734,1,0,0:0:0:0:
401,192,187887,1,0,0:0:0:0:
128,157,188040,1,0,0:0:0:0:
348,84,188193,1,0,0:0:0:0:
349,296,188346,5,0,0:0:0:0:
151,198,188500,1,0,0:0:0:0:
351,118,188653,1,0,0:0:0:0:
267,317,188806,1,0,0:0:0:0:
216,88,188959,1,0,0:0:0:0:
155,330,189112,1,0,0:0:0:0:
368,252,189265,1,0,0:0:0:0:
111,166,189418,1,0,0:0:0:0:
305,337,189571,5,0,0:0:0:0:
93,250,189724,1,0,0:0:0:0:
305,337,189877,1,0,0:0:0:0:
140,186,190030,1,0,0:0:0:0:
305,337,190183,1,0,0:0:0:0:
201,138,190336,1,0,0:0:0:0:
305,337,190489,1,0,0:0:0:0:
269,118,190642,1,0,0:0:0:0:
399,170,190795,5,0,0:0:0:0:
399,170,190872,1,0,0:0:0:0:
399,170,190948,1,0,0:0:0:0:
399,170,191025,1,0,0:0:0:0:
399,170,191102,1,0,0:0:0:0:
399,170,191178,1,0,0:0:0:0:
399,170,191255,1,0,0:0:0:0:
399,170,191331,1,0,0:0:0:0:
393,222,191408,5,0,0:0:0:0:
359,261,191484,1,0,0:0:0:0:
311,283,191561,1,0,0:0:0:0:
261,266,191637,1,0,0:0:0:0:
220,231,191714,1,0,0:0:0:0:
207,180,191790,1,0,0:0:0:0:
196,128,191867,1,0,0:0:0:0:
157,96,191943,1,0,0:0:0:0:
109,88,192020,6,0,P|52:108|33:134,1,70
87,293,192326,1,0,0:0:0:0:
209,149,192479,1,0,0:0:0:0:
262,319,192632,6,0,P|325:321|343:307,1,70
182,183,192938,1,0,0:0:0:0:
389,232,193091,1,0,0:0:0:0:
296,61,193244,6,0,P|305:109|295:136,1,70
224,313,193551,1,0,0:0:0:0:
225,98,193704,1,0,0:0:0:0:
67,205,193857,6,0,P|71:243|87:273,1,70
295,210,194163,1,0,0:0:0:0:
88,272,194316,1,0,0:0:0:0:
300,327,194469,6,0,P|346:328|372:317,1,70
448,188,194775,1,0,0:0:0:0:
224,205,194928,1,0,0:0:0:0:
294,43,195081,6,0,P|234:38|220:43,1,70
118,216,195387,1,0,0:0:0:0:
256,110,195540,1,0,0:0:0:0:
280,316,195693,6,0,P|329:334|369:328,1,70
409,156,196000,1,0,0:0:0:0:
280,315,196153,1,0,0:0:0:0:
237,119,196306,6,0,P|184:113|155:122,1,70
113,312,196612,1,0,0:0:0:0:
71,99,196765,1,0,0:0:0:0:
325,142,196918,5,0,0:0:0:0:
175,228,197071,1,0,0:0:0:0:
334,156,197224,1,0,0:0:0:0:
168,214,197377,1,0,0:0:0:0:
348,254,197530,5,0,0:0:0:0:
142,124,197683,1,0,0:0:0:0:
357,242,197836,1,0,0:0:0:0:
132,134,197989,1,0,0:0:0:0:
206,297,198142,5,0,0:0:0:0:
319,87,198295,1,0,0:0:0:0:
189,288,198448,1,0,0:0:0:0:
332,99,198602,1,0,0:0:0:0:
296,315,198755,5,0,0:0:0:0:
199,83,198908,1,0,0:0:0:0:
310,309,199061,1,0,0:0:0:0:
184,90,199214,1,0,0:0:0:0:
139,260,199367,5,0,0:0:0:0:
361,214,199520,1,0,0:0:0:0:
147,275,199673,1,0,0:0:0:0:
352,200,199826,1,0,0:0:0:0:
277,335,199979,5,0,0:0:0:0:
152,142,200132,1,0,0:0:0:0:
264,338,200285,1,0,0:0:0:0:
166,131,200438,1,0,0:0:0:0:
172,322,200591,5,0,0:0:0:0:
292,83,200744,1,0,0:0:0:0:
293,323,200897,1,0,0:0:0:0:
171,77,201051,1,0,0:0:0:0:
333,237,201204,5,0,0:0:0:0:
333,237,201280,1,0,0:0:0:0:
333,237,201357,1,0,0:0:0:0:
333,237,201433,1,0,0:0:0:0:
333,237,201510,1,0,0:0:0:0:
333,237,201586,1,0,0:0:0:0:
333,237,201663,1,0,0:0:0:0:
333,237,201739,1,0,0:0:0:0:
333,237,201816,6,0,P|367:225|392:190,1,70
264,38,202122,1,0,0:0:0:0:
458,162,202275,1,0,0:0:0:0:
267,238,202428,6,0,P|217:256|198:272,1,70
394,313,202734,1,0,0:0:0:0:
184,190,202887,1,0,0:0:0:0:
198,347,203040,6,0,P|152:340|127:326,1,70
309,164,203346,1,0,0:0:0:0:
93,246,203500,1,0,0:0:0:0:
145,69,203653,6,0,P|187:54|229:60,1,70
393,50,203959,1,0,0:0:0:0:
195,129,204112,1,0,0:0:0:0:
281,314,204265,6,0,P|331:324|357:314,1,70
369,116,204571,1,0,0:0:0:0:
349,319,204724,1,0,0:0:0:0:
196,111,204877,6,0,P|158:105|119:113,1,70
153,332,205183,1,0,0:0:0:0:
125,109,205336,1,0,0:0:0:0:
261,254,205489,6,0,P|300:271|333:266,1,70
200,93,205795,1,0,0:0:0:0:
208,312,205948,1,0,0:0:0:0:
55,155,206102,6,0,P|37:98|41:72,1,70
242,80,206408,1,0,0:0:0:0:
58,205,206561,1,0,0:0:0:0:
85,28,206714,5,0,0:0:0:0:
69,342,206867,1,0,0:0:0:0:
191,44,207020,5,0,0:0:0:0:
189,355,207173,1,0,0:0:0:0:
302,45,207326,5,0,0:0:0:0:
319,360,207479,1,0,0:0:0:0:
410,28,207632,5,0,0:0:0:0:
448,344,207785,1,0,0:0:0:0:
239,185,207938,5,0,0:0:0:0:
151,264,209163,5,0,0:0:0:0:
237,200,209316,1,0,0:0:0:0:
237,200,209392,1,0,0:0:0:0:
237,200,209469,2,0,P|283:223|310:222,1,70
386,168,209775,1,0,0:0:0:0:
290,312,209928,6,0,P|309:261|304:216,1,70
234,158,210234,2,0,P|175:140|141:145,1,70
137,233,210540,1,0,0:0:0:0:
100,62,210693,1,0,0:0:0:0:
50,217,210846,2,0,P|47:252|59:287,1,70
257,319,211152,1,0,0:0:0:0:
109,345,211305,1,0,0:0:0:0:
210,240,211458,1,0,0:0:0:0:
24,256,211611,5,0,0:0:0:0:
96,158,211764,1,0,0:0:0:0:
96,158,211841,1,0,0:0:0:0:
96,158,211917,2,0,P|103:111|128:88,1,70
235,125,212224,1,0,0:0:0:0:
179,235,212377,6,0,P|230:250|257:237,1,70
343,181,212683,2,0,P|354:140|347:106,1,70
236,36,212989,1,0,0:0:0:0:
280,209,213142,1,0,0:0:0:0:
167,54,213295,1,0,0:0:0:0:
269,217,213448,1,0,0:0:0:0:
110,158,213601,2,0,P|71:163|39:192,1,70
128,266,213907,1,0,0:0:0:0:
255,119,214060,5,0,0:0:0:0:
339,232,214213,1,0,0:0:0:0:
339,232,214290,1,0,0:0:0:0:
339,232,214366,2,0,P|389:230|421:219,1,70
433,90,214673,1,0,0:0:0:0:
298,73,214826,6,0,P|251:88|218:89,1,70
152,152,215132,2,0,P|109:155|75:168,1,70
216,61,215438,1,0,0:0:0:0:
246,178,215591,1,0,0:0:0:0:
328,99,215744,2,0,P|378:76|423:81,1,70
326,323,216050,1,0,0:0:0:0:
395,163,216203,1,0,0:0:0:0:
383,337,216356,1,0,0:0:0:0:
223,175,216509,5,0,0:0:0:0:
126,259,216662,1,0,0:0:0:0:
126,259,216739,1,0,0:0:0:0:
126,259,216815,2,0,P|133:302|124:330,1,70
64,136,217122,1,0,0:0:0:0:
171,63,217275,2,0,P|213:51|244:56,1,70
349,154,217581,5,0,0:0:0:0:
349,154,217658,1,0,0:0:0:0:
349,154,217734,2,0,P|364:207|362:227,1,70
319,319,218040,1,0,0:0:0:0:
163,230,218193,5,0,0:0:0:0:
163,230,218270,1,0,0:0:0:0:
163,230,218346,2,0,P|148:177|150:157,1,70
193,65,218652,1,0,0:0:0:0:
193,65,218806,1,0,0:0:0:0:
228,239,218959,5,0,0:0:0:0:
229,142,219112,1,0,0:0:0:0:
312,193,219265,1,0,0:0:0:0:
214,262,219418,5,0,0:0:0:0:
216,117,219571,1,0,0:0:0:0:
340,194,219724,1,0,0:0:0:0:
200,286,219877,5,0,0:0:0:0:
202,92,220030,1,0,0:0:0:0:
369,195,220183,1,0,0:0:0:0:
186,309,220336,5,0,0:0:0:0:
189,67,220489,1,0,0:0:0:0:
397,196,220642,1,0,0:0:0:0:
284,145,220795,5,0,0:0:0:0:
282,241,220948,1,0,0:0:0:0:
199,190,221101,1,0,0:0:0:0:
298,121,221255,5,0,0:0:0:0:
295,266,221408,1,0,0:0:0:0:
171,189,221561,1,0,0:0:0:0:
312,98,221714,5,0,0:0:0:0:
309,291,221867,1,0,0:0:0:0:
142,188,222020,1,0,0:0:0:0:
326,74,222173,5,0,0:0:0:0:
321,314,222326,1,0,0:0:0:0:
113,187,222479,1,0,0:0:0:0:
184,224,222632,5,0,0:0:0:0:
132,306,222785,1,0,0:0:0:0:
86,220,222938,1,0,0:0:0:0:
259,101,223091,5,0,0:0:0:0:
184,224,223244,1,0,0:0:0:0:
114,95,223397,1,0,0:0:0:0:
361,213,223551,5,0,0:0:0:0:
202,322,223704,1,0,0:0:0:0:
188,127,223857,1,0,0:0:0:0:
451,195,224010,5,0,0:0:0:0:
270,254,224163,1,0,0:0:0:0:
308,66,224316,1,0,0:0:0:0:
120,280,224469,5,0,0:0:0:0:
357,89,224622,1,0,0:0:0:0:
302,349,224775,1,0,0:0:0:0:
112,72,224928,5,0,0:0:0:0:
410,259,225081,1,0,0:0:0:0:
131,320,225234,1,0,0:0:0:0:
270,40,225387,5,0,0:0:0:0:
321,337,225540,1,0,0:0:0:0:
48,172,225693,1,0,0:0:0:0:
277,200,225846,5,0,0:0:0:0:
