osu file format v14

[General]
AudioFilename: audio140.mp3
AudioLeadIn: 0
PreviewTime: 37653
Countdown: 0
SampleSet: Soft
StackLeniency: 0.2
Mode: 3
LetterboxInBreaks: 0
SpecialStyle: 0
WidescreenStoryboard: 1

[Editor]
Bookmarks: 754,4253,7751,11250,18247,25244,32241,39238,53232,60229,67226,74224,81221,95215,109209,123204,130200,137197,149442,156439,161687
DistanceSpacing: 1.75
BeatDivisor: 4
GridSize: 4
TimelineZoom: 1.6

[Metadata]
Title:TONIGHT
TitleUnicode:TONIGHT
Artist:Bentham
ArtistUnicode:Bentham
Creator:Morbon
Version:chill 1.4x
Source:
Tags:im so elite because mapping rock japan punk pop with funny tags haha woah man
BeatmapID:1946061
BeatmapSetID:932035

[Difficulty]
HPDrainRate:6
CircleSize:4
OverallDifficulty:8
ApproachRate:9
SliderMultiplier:2.1
SliderTickRate:2

[Events]
//Background and Video events
0,0,"background.jpg",0,0
//Break Periods
//Storyboard Layer 0 (Background)
//Storyboard Layer 1 (Fail)
//Storyboard Layer 2 (Pass)
//Storyboard Layer 3 (Foreground)
//Storyboard Sound Samples

[TimingPoints]
809,218.65889212828,4,2,0,10,1,0
114511,217.891823972459,4,2,0,10,1,0
114511,-101.010101010101,4,2,0,10,0,0
114947,200.379384968874,4,2,0,10,1,0
114947,-109.170305676856,4,2,0,10,0,0
115348,212.321738207297,4,2,0,10,1,0
115348,-103.092783505155,4,2,0,10,0,0
115772,228.913272391534,4,2,0,10,1,0
115772,-95.2380952380952,4,2,0,10,0,0
116260,218.65889212828,4,2,0,10,1,0
116260,-100,4,2,0,10,0,0

[Colours]
Combo1 : 121,222,251
Combo2 : 236,45,92

[HitObjects]
192,192,809,5,0,0:0:0:0:
64,192,809,1,0,0:0:0:0:
192,192,918,1,0,0:0:0:0:
320,192,918,1,0,0:0:0:0:
64,192,1027,1,0,0:0:0:0:
320,192,1027,1,0,0:0:0:0:
192,192,1136,1,0,0:0:0:0:
320,192,1191,1,0,0:0:0:0:
448,192,1246,1,0,0:0:0:0:
64,192,1246,1,0,0:0:0:0:
448,192,1355,1,0,0:0:0:0:
320,192,1355,1,0,0:0:0:0:
192,192,1464,1,0,0:0:0:0:
448,192,1464,1,0,0:0:0:0:
320,192,1574,1,0,0:0:0:0:
192,192,1628,1,0,0:0:0:0:
64,192,1683,1,0,0:0:0:0:
448,192,1683,1,0,0:0:0:0:
320,192,1792,1,0,0:0:0:0:
64,192,1792,1,0,0:0:0:0:
192,192,1902,1,0,0:0:0:0:
448,192,1902,1,0,0:0:0:0:
320,192,2011,1,0,0:0:0:0:
192,192,2066,1,0,0:0:0:0:
64,192,2120,1,0,0:0:0:0:
448,192,2120,1,0,0:0:0:0:
320,192,2230,1,0,0:0:0:0:
64,192,2230,1,0,0:0:0:0:
192,192,2339,1,0,0:0:0:0:
448,192,2339,1,0,0:0:0:0:
320,192,2448,1,0,0:0:0:0:
448,192,2503,1,0,0:0:0:0:
192,192,2558,1,0,0:0:0:0:
64,192,2558,1,0,0:0:0:0:
448,192,2667,1,0,0:0:0:0:
192,192,2667,1,0,0:0:0:0:
448,192,2776,1,0,0:0:0:0:
64,192,2776,1,0,0:0:0:0:
192,192,2886,1,0,0:0:0:0:
320,192,2940,1,0,0:0:0:0:
192,192,2995,1,0,0:0:0:0:
448,192,2995,1,0,0:0:0:0:
448,192,3104,1,0,0:0:0:0:
320,192,3104,1,0,0:0:0:0:
64,192,3214,1,0,0:0:0:0:
320,192,3214,1,0,0:0:0:0:
192,192,3323,1,0,0:0:0:0:
320,192,3378,1,0,0:0:0:0:
448,192,3432,1,0,0:0:0:0:
64,192,3432,1,0,0:0:0:0:
192,192,3542,1,0,0:0:0:0:
320,192,3542,1,0,0:0:0:0:
448,192,3651,1,0,0:0:0:0:
192,192,3651,1,0,0:0:0:0:
320,192,3760,1,0,0:0:0:0:
192,192,3815,1,0,0:0:0:0:
64,192,3870,1,0,0:0:0:0:
448,192,3870,1,0,0:0:0:0:
320,192,3979,1,0,0:0:0:0:
64,192,3979,1,0,0:0:0:0:
448,192,4088,1,0,0:0:0:0:
192,192,4088,128,0,4307:0:0:0:0:
320,192,4198,1,0,0:0:0:0:
448,192,4252,1,0,0:0:0:0:
320,192,4307,1,0,0:0:0:0:
64,192,4307,128,0,4416:0:0:0:0:
192,192,4416,1,0,0:0:0:0:
448,192,4416,1,0,0:0:0:0:
320,192,4526,1,0,0:0:0:0:
192,192,4526,128,0,4635:0:0:0:0:
448,192,4635,1,0,0:0:0:0:
64,192,4635,1,0,0:0:0:0:
320,192,4690,1,0,0:0:0:0:
192,192,4744,1,0,0:0:0:0:
448,192,4744,128,0,4854:0:0:0:0:
320,192,4854,1,0,0:0:0:0:
64,192,4854,1,0,0:0:0:0:
192,192,4963,1,0,0:0:0:0:
320,192,4963,128,0,5072:0:0:0:0:
192,192,5072,1,0,0:0:0:0:
448,192,5072,1,0,0:0:0:0:
64,192,5127,1,0,0:0:0:0:
320,192,5182,1,0,0:0:0:0:
448,192,5182,128,0,5291:0:0:0:0:
192,192,5291,1,0,0:0:0:0:
64,192,5291,1,0,0:0:0:0:
448,192,5400,1,0,0:0:0:0:
192,192,5400,128,0,5510:0:0:0:0:
320,192,5510,1,0,0:0:0:0:
64,192,5510,1,0,0:0:0:0:
448,192,5564,1,0,0:0:0:0:
320,192,5619,128,0,5728:0:0:0:0:
192,192,5619,1,0,0:0:0:0:
64,192,5728,1,0,0:0:0:0:
448,192,5728,1,0,0:0:0:0:
448,192,5838,1,0,0:0:0:0:
192,192,5838,128,0,5947:0:0:0:0:
320,192,5947,1,0,0:0:0:0:
64,192,5947,1,0,0:0:0:0:
448,192,6002,1,0,0:0:0:0:
64,192,6056,1,0,0:0:0:0:
320,192,6056,128,0,6166:0:0:0:0:
192,192,6166,1,0,0:0:0:0:
448,192,6166,1,0,0:0:0:0:
320,192,6275,1,0,0:0:0:0:
64,192,6275,1,0,0:0:0:0:
192,192,6384,1,0,0:0:0:0:
448,192,6384,1,0,0:0:0:0:
320,192,6439,1,0,0:0:0:0:
192,192,6494,1,0,0:0:0:0:
64,192,6494,128,0,6603:0:0:0:0:
192,192,6603,1,0,0:0:0:0:
320,192,6603,1,0,0:0:0:0:
320,192,6712,1,0,0:0:0:0:
448,192,6712,128,0,6822:0:0:0:0:
64,192,6822,1,0,0:0:0:0:
320,192,6822,1,0,0:0:0:0:
192,192,6876,1,0,0:0:0:0:
448,192,6931,1,0,0:0:0:0:
64,192,6931,128,0,7040:0:0:0:0:
192,192,7040,1,0,0:0:0:0:
448,192,7040,1,0,0:0:0:0:
64,192,7150,1,0,0:0:0:0:
320,192,7150,1,0,0:0:0:0:
448,192,7259,1,0,0:0:0:0:
192,192,7259,1,0,0:0:0:0:
64,192,7314,1,0,0:0:0:0:
192,192,7368,1,0,0:0:0:0:
448,192,7368,128,0,7587:0:0:0:0:
320,192,7478,1,0,0:0:0:0:
64,192,7478,1,0,0:0:0:0:
64,192,7587,128,0,7806:0:0:0:0:
192,192,7587,1,0,0:0:0:0:
448,192,7696,1,0,0:0:0:0:
192,192,7751,1,0,0:0:0:0:
320,192,7806,1,0,0:0:0:0:
448,192,7806,1,0,0:0:0:0:
192,192,7860,1,0,0:0:0:0:
320,192,7915,1,0,0:0:0:0:
448,192,7915,1,0,0:0:0:0:
64,192,7970,1,0,0:0:0:0:
320,192,8024,1,0,0:0:0:0:
192,192,8024,1,0,0:0:0:0:
448,192,8079,1,0,0:0:0:0:
320,192,8134,1,0,0:0:0:0:
64,192,8134,1,0,0:0:0:0:
192,192,8243,1,0,0:0:0:0:
448,192,8243,1,0,0:0:0:0:
320,192,8298,1,0,0:0:0:0:
64,192,8352,1,0,0:0:0:0:
448,192,8352,1,0,0:0:0:0:
192,192,8407,1,0,0:0:0:0:
320,192,8462,1,0,0:0:0:0:
448,192,8462,1,0,0:0:0:0:
192,192,8516,1,0,0:0:0:0:
64,192,8571,1,0,0:0:0:0:
320,192,8571,1,0,0:0:0:0:
192,192,8680,1,0,0:0:0:0:
448,192,8680,1,0,0:0:0:0:
320,192,8735,1,0,0:0:0:0:
192,192,8790,1,0,0:0:0:0:
448,192,8790,1,0,0:0:0:0:
320,192,8844,1,0,0:0:0:0:
64,192,8899,1,0,0:0:0:0:
192,192,8899,1,0,0:0:0:0:
448,192,9008,1,0,0:0:0:0:
320,192,9008,1,0,0:0:0:0:
64,192,9063,1,0,0:0:0:0:
448,192,9118,1,0,0:0:0:0:
192,192,9118,1,0,0:0:0:0:
320,192,9172,1,0,0:0:0:0:
192,192,9227,1,0,0:0:0:0:
448,192,9227,1,0,0:0:0:0:
320,192,9282,1,0,0:0:0:0:
192,192,9336,1,0,0:0:0:0:
64,192,9336,1,0,0:0:0:0:
320,192,9446,1,0,0:0:0:0:
448,192,9446,1,0,0:0:0:0:
64,192,9500,1,0,0:0:0:0:
320,192,9555,1,0,0:0:0:0:
192,192,9555,1,0,0:0:0:0:
448,192,9610,1,0,0:0:0:0:
192,192,9664,1,0,0:0:0:0:
64,192,9664,1,0,0:0:0:0:
448,192,9719,1,0,0:0:0:0:
320,192,9774,1,0,0:0:0:0:
192,192,9774,1,0,0:0:0:0:
320,192,9883,1,0,0:0:0:0:
64,192,9883,1,0,0:0:0:0:
192,192,9938,1,0,0:0:0:0:
320,192,9992,1,0,0:0:0:0:
448,192,9992,1,0,0:0:0:0:
64,192,10047,1,0,0:0:0:0:
192,192,10102,1,0,0:0:0:0:
448,192,10102,1,0,0:0:0:0:
320,192,10156,1,0,0:0:0:0:
64,192,10211,1,0,0:0:0:0:
192,192,10211,1,0,0:0:0:0:
64,192,10320,1,0,0:0:0:0:
448,192,10320,1,0,0:0:0:0:
192,192,10375,1,0,0:0:0:0:
320,192,10429,128,0,10539:0:0:0:0:
448,192,10429,128,0,10539:0:0:0:0:
192,192,10539,1,0,0:0:0:0:
64,192,10539,1,0,0:0:0:0:
320,192,10593,1,0,0:0:0:0:
448,192,10593,1,0,0:0:0:0:
192,192,10648,1,0,0:0:0:0:
64,192,10648,1,0,0:0:0:0:
320,192,10703,1,0,0:0:0:0:
448,192,10703,1,0,0:0:0:0:
192,192,10757,1,0,0:0:0:0:
64,192,10757,1,0,0:0:0:0:
320,192,10812,1,0,0:0:0:0:
448,192,10867,128,0,11304:0:0:0:0:
64,192,10867,128,0,11304:0:0:0:0:
192,192,11304,1,0,0:0:0:0:
320,192,11304,128,0,11413:0:0:0:0:
192,192,11413,1,0,0:0:0:0:
64,192,11468,1,0,0:0:0:0:
448,192,11523,1,0,0:0:0:0:
192,192,11523,128,0,11632:0:0:0:0:
320,192,11632,1,0,0:0:0:0:
448,192,11687,1,0,0:0:0:0:
192,192,11741,1,0,0:0:0:0:
64,192,11741,128,0,11960:0:0:0:0:
320,192,11851,1,0,0:0:0:0:
448,192,11851,1,0,0:0:0:0:
192,192,11960,1,0,0:0:0:0:
448,192,11960,1,0,0:0:0:0:
64,192,12069,1,0,0:0:0:0:
320,192,12069,128,0,12288:0:0:0:0:
192,192,12179,1,0,0:0:0:0:
448,192,12179,1,0,0:0:0:0:
64,192,12288,1,0,0:0:0:0:
192,192,12288,1,0,0:0:0:0:
64,192,12397,1,0,0:0:0:0:
448,192,12397,1,0,0:0:0:0:
192,192,12507,128,0,12725:0:0:0:0:
448,192,12507,1,0,0:0:0:0:
320,192,12616,1,0,0:0:0:0:
448,192,12616,1,0,0:0:0:0:
320,192,12725,1,0,0:0:0:0:
64,192,12725,128,0,12835:0:0:0:0:
320,192,12835,1,0,0:0:0:0:
448,192,12835,1,0,0:0:0:0:
192,192,12944,1,0,0:0:0:0:
320,192,12944,1,0,0:0:0:0:
64,192,12999,1,0,0:0:0:0:
192,192,13053,1,0,0:0:0:0:
448,192,13053,128,0,13163:0:0:0:0:
192,192,13163,1,0,0:0:0:0:
64,192,13163,1,0,0:0:0:0:
320,192,13217,1,0,0:0:0:0:
448,192,13272,1,0,0:0:0:0:
192,192,13272,128,0,13381:0:0:0:0:
64,192,13381,1,0,0:0:0:0:
448,192,13381,1,0,0:0:0:0:
320,192,13491,1,0,0:0:0:0:
448,192,13491,128,0,13709:0:0:0:0:
192,192,13600,1,0,0:0:0:0:
64,192,13600,1,0,0:0:0:0:
192,192,13709,1,0,0:0:0:0:
320,192,13709,1,0,0:0:0:0:
448,192,13819,1,0,0:0:0:0:
64,192,13819,128,0,14037:0:0:0:0:
448,192,13928,1,0,0:0:0:0:
192,192,13928,1,0,0:0:0:0:
320,192,14037,1,0,0:0:0:0:
448,192,14037,1,0,0:0:0:0:
320,192,14147,1,0,0:0:0:0:
192,192,14147,1,0,0:0:0:0:
192,192,14256,1,0,0:0:0:0:
64,192,14256,1,0,0:0:0:0:
192,192,14365,1,0,0:0:0:0:
320,192,14365,1,0,0:0:0:0:
320,192,14475,1,0,0:0:0:0:
448,192,14475,1,0,0:0:0:0:
64,192,14584,1,0,0:0:0:0:
192,192,14584,128,0,14693:0:0:0:0:
448,192,14693,1,0,0:0:0:0:
320,192,14693,1,0,0:0:0:0:
64,192,14748,1,0,0:0:0:0:
320,192,14803,128,0,14912:0:0:0:0:
448,192,14803,1,0,0:0:0:0:
64,192,14912,1,0,0:0:0:0:
192,192,14967,1,0,0:0:0:0:
320,192,15021,1,0,0:0:0:0:
448,192,15021,128,0,15131:0:0:0:0:
192,192,15131,1,0,0:0:0:0:
320,192,15185,1,0,0:0:0:0:
192,192,15240,1,0,0:0:0:0:
64,192,15240,128,0,15459:0:0:0:0:
320,192,15349,1,0,0:0:0:0:
448,192,15349,1,0,0:0:0:0:
192,192,15459,1,0,0:0:0:0:
448,192,15459,1,0,0:0:0:0:
320,192,15568,128,0,15787:0:0:0:0:
192,192,15568,1,0,0:0:0:0:
64,192,15677,1,0,0:0:0:0:
448,192,15677,1,0,0:0:0:0:
192,192,15787,1,0,0:0:0:0:
448,192,15787,1,0,0:0:0:0:
192,192,15896,1,0,0:0:0:0:
64,192,15896,1,0,0:0:0:0:
448,192,16005,1,0,0:0:0:0:
192,192,16005,128,0,16224:0:0:0:0:
320,192,16115,1,0,0:0:0:0:
448,192,16115,1,0,0:0:0:0:
320,192,16224,1,0,0:0:0:0:
64,192,16224,1,0,0:0:0:0:
64,192,16333,1,0,0:0:0:0:
448,192,16333,1,0,0:0:0:0:
192,192,16443,1,0,0:0:0:0:
448,192,16443,1,0,0:0:0:0:
320,192,16497,1,0,0:0:0:0:
448,192,16552,1,0,0:0:0:0:
64,192,16552,128,0,16661:0:0:0:0:
192,192,16661,1,0,0:0:0:0:
320,192,16716,1,0,0:0:0:0:
192,192,16771,1,0,0:0:0:0:
448,192,16771,128,0,16880:0:0:0:0:
320,192,16880,1,0,0:0:0:0:
64,192,16880,128,0,17099:0:0:0:0:
192,192,16989,1,0,0:0:0:0:
448,192,16989,1,0,0:0:0:0:
320,192,17099,1,0,0:0:0:0:
448,192,17099,1,0,0:0:0:0:
192,192,17208,1,0,0:0:0:0:
320,192,17208,1,0,0:0:0:0:
192,192,17317,128,0,17536:0:0:0:0:
448,192,17317,1,0,0:0:0:0:
320,192,17427,1,0,0:0:0:0:
64,192,17427,1,0,0:0:0:0:
64,192,17536,1,0,0:0:0:0:
448,192,17536,1,0,0:0:0:0:
320,192,17645,1,0,0:0:0:0:
448,192,17645,1,0,0:0:0:0:
64,192,17755,1,0,0:0:0:0:
320,192,17755,1,0,0:0:0:0:
64,192,17864,1,0,0:0:0:0:
448,192,17864,1,0,0:0:0:0:
448,192,17973,1,0,0:0:0:0:
320,192,17973,1,0,0:0:0:0:
320,192,18083,1,0,0:0:0:0:
64,192,18083,128,0,18301:0:0:0:0:
192,192,18192,1,0,0:0:0:0:
448,192,18192,1,0,0:0:0:0:
320,192,18301,1,0,0:0:0:0:
448,192,18301,1,0,0:0:0:0:
320,192,18411,1,0,0:0:0:0:
64,192,18520,1,0,0:0:0:0:
192,192,18520,1,0,0:0:0:0:
192,192,18957,1,0,0:0:0:0:
320,192,18957,1,0,0:0:0:0:
448,192,19176,1,0,0:0:0:0:
448,192,19285,1,0,0:0:0:0:
448,192,19395,1,0,0:0:0:0:
192,192,19395,1,0,0:0:0:0:
320,192,19832,1,0,0:0:0:0:
448,192,19832,1,0,0:0:0:0:
64,192,20050,1,0,0:0:0:0:
64,192,20160,1,0,0:0:0:0:
64,192,20269,1,0,0:0:0:0:
448,192,20269,1,0,0:0:0:0:
320,192,20706,1,0,0:0:0:0:
192,192,20706,1,0,0:0:0:0:
448,192,20925,1,0,0:0:0:0:
448,192,21034,1,0,0:0:0:0:
448,192,21144,1,0,0:0:0:0:
64,192,21144,1,0,0:0:0:0:
448,192,21581,1,0,0:0:0:0:
192,192,21581,1,0,0:0:0:0:
320,192,21800,1,0,0:0:0:0:
320,192,21909,1,0,0:0:0:0:
320,192,22018,1,0,0:0:0:0:
64,192,22018,1,0,0:0:0:0:
448,192,22456,1,0,0:0:0:0:
320,192,22456,1,0,0:0:0:0:
192,192,22674,1,0,0:0:0:0:
192,192,22784,1,0,0:0:0:0:
192,192,22893,1,0,0:0:0:0:
448,192,22893,1,0,0:0:0:0:
192,192,23330,1,0,0:0:0:0:
64,192,23330,1,0,0:0:0:0:
448,192,23549,1,0,0:0:0:0:
448,192,23658,1,0,0:0:0:0:
448,192,23768,1,0,0:0:0:0:
320,192,23768,1,0,0:0:0:0:
320,192,24205,1,0,0:0:0:0:
192,192,24205,1,0,0:0:0:0:
64,192,24424,1,0,0:0:0:0:
64,192,24533,1,0,0:0:0:0:
64,192,24642,1,0,0:0:0:0:
448,192,24642,1,0,0:0:0:0:
320,192,24861,1,0,0:0:0:0:
192,192,24861,1,0,0:0:0:0:
448,192,24970,1,0,0:0:0:0:
320,192,24970,1,0,0:0:0:0:
320,192,25080,1,0,0:0:0:0:
64,192,25080,1,0,0:0:0:0:
64,192,25189,1,0,0:0:0:0:
448,192,25189,1,0,0:0:0:0:
320,192,25298,1,0,0:0:0:0:
448,192,25298,128,0,25408:0:0:0:0:
192,192,25408,1,0,0:0:0:0:
320,192,25517,1,0,0:0:0:0:
64,192,25517,1,0,0:0:0:0:
192,192,25626,1,0,0:0:0:0:
192,192,25736,128,0,25845:0:0:0:0:
448,192,25736,1,0,0:0:0:0:
64,192,25845,1,0,0:0:0:0:
64,192,25954,1,0,0:0:0:0:
320,192,25954,1,0,0:0:0:0:
448,192,26064,1,0,0:0:0:0:
448,192,26173,128,0,26282:0:0:0:0:
192,192,26173,1,0,0:0:0:0:
320,192,26282,1,0,0:0:0:0:
320,192,26392,1,0,0:0:0:0:
64,192,26392,1,0,0:0:0:0:
192,192,26501,1,0,0:0:0:0:
192,192,26610,128,0,26720:0:0:0:0:
448,192,26720,1,0,0:0:0:0:
64,192,26829,1,0,0:0:0:0:
320,192,26829,1,0,0:0:0:0:
448,192,26938,1,0,0:0:0:0:
448,192,27048,128,0,27157:0:0:0:0:
192,192,27048,1,0,0:0:0:0:
64,192,27157,1,0,0:0:0:0:
320,192,27266,1,0,0:0:0:0:
448,192,27266,1,0,0:0:0:0:
192,192,27376,1,0,0:0:0:0:
192,192,27485,128,0,27594:0:0:0:0:
448,192,27594,1,0,0:0:0:0:
64,192,27704,1,0,0:0:0:0:
448,192,27704,1,0,0:0:0:0:
320,192,27813,1,0,0:0:0:0:
320,192,27922,128,0,28032:0:0:0:0:
64,192,27922,1,0,0:0:0:0:
448,192,28032,1,0,0:0:0:0:
192,192,28141,1,0,0:0:0:0:
448,192,28141,1,0,0:0:0:0:
64,192,28250,1,0,0:0:0:0:
64,192,28360,128,0,28469:0:0:0:0:
320,192,28360,1,0,0:0:0:0:
448,192,28469,1,0,0:0:0:0:
320,192,28578,1,0,0:0:0:0:
192,192,28578,1,0,0:0:0:0:
448,192,28688,1,0,0:0:0:0:
448,192,28797,128,0,28906:0:0:0:0:
64,192,28797,1,0,0:0:0:0:
192,192,28906,1,0,0:0:0:0:
320,192,29015,1,0,0:0:0:0:
448,192,29015,1,0,0:0:0:0:
192,192,29125,1,0,0:0:0:0:
192,192,29234,128,0,29343:0:0:0:0:
64,192,29234,1,0,0:0:0:0:
448,192,29343,1,0,0:0:0:0:
64,192,29453,1,0,0:0:0:0:
448,192,29453,1,0,0:0:0:0:
320,192,29562,1,0,0:0:0:0:
320,192,29671,128,0,29781:0:0:0:0:
192,192,29671,1,0,0:0:0:0:
64,192,29781,1,0,0:0:0:0:
448,192,29890,1,0,0:0:0:0:
64,192,29890,1,0,0:0:0:0:
192,192,29999,1,0,0:0:0:0:
192,192,30109,128,0,30218:0:0:0:0:
448,192,30109,1,0,0:0:0:0:
320,192,30218,1,0,0:0:0:0:
64,192,30327,1,0,0:0:0:0:
320,192,30327,1,0,0:0:0:0:
448,192,30437,1,0,0:0:0:0:
448,192,30546,128,0,30655:0:0:0:0:
192,192,30546,1,0,0:0:0:0:
64,192,30655,1,0,0:0:0:0:
192,192,30765,1,0,0:0:0:0:
320,192,30765,1,0,0:0:0:0:
64,192,30874,1,0,0:0:0:0:
64,192,30983,128,0,31093:0:0:0:0:
448,192,30983,1,0,0:0:0:0:
320,192,31093,1,0,0:0:0:0:
192,192,31202,1,0,0:0:0:0:
448,192,31202,1,0,0:0:0:0:
320,192,31311,1,0,0:0:0:0:
320,192,31421,128,0,31530:0:0:0:0:
64,192,31421,1,0,0:0:0:0:
448,192,31530,1,0,0:0:0:0:
64,192,31639,1,0,0:0:0:0:
448,192,31639,1,0,0:0:0:0:
192,192,31749,1,0,0:0:0:0:
192,192,31858,128,0,31967:0:0:0:0:
448,192,31858,1,0,0:0:0:0:
320,192,31913,1,0,0:0:0:0:
64,192,31967,1,0,0:0:0:0:
320,192,32022,1,0,0:0:0:0:
64,192,32077,1,0,0:0:0:0:
448,192,32077,128,0,32186:0:0:0:0:
192,192,32131,1,0,0:0:0:0:
64,192,32186,1,0,0:0:0:0:
320,192,32241,1,0,0:0:0:0:
448,192,32295,1,0,0:0:0:0:
64,192,32295,128,0,32405:0:0:0:0:
192,192,32295,128,0,32405:0:0:0:0:
320,192,32405,1,0,0:0:0:0:
448,192,32405,1,0,0:0:0:0:
320,192,32514,1,0,0:0:0:0:
192,192,32514,1,0,0:0:0:0:
448,192,32623,1,0,0:0:0:0:
64,192,32623,1,0,0:0:0:0:
192,192,32733,1,0,0:0:0:0:
64,192,32733,1,0,0:0:0:0:
192,192,32842,1,0,0:0:0:0:
448,192,32842,1,0,0:0:0:0:
64,192,32951,1,0,0:0:0:0:
448,192,32951,1,0,0:0:0:0:
320,192,33061,1,0,0:0:0:0:
64,192,33061,128,0,33170:0:0:0:0:
192,192,33170,1,0,0:0:0:0:
448,192,33279,128,0,33389:0:0:0:0:
320,192,33279,1,0,0:0:0:0:
192,192,33389,1,0,0:0:0:0:
64,192,33498,128,0,33607:0:0:0:0:
320,192,33498,1,0,0:0:0:0:
448,192,33607,1,0,0:0:0:0:
320,192,33717,128,0,33826:0:0:0:0:
192,192,33717,1,0,0:0:0:0:
448,192,33826,1,0,0:0:0:0:
64,192,33935,1,0,0:0:0:0:
448,192,34045,1,0,0:0:0:0:
64,192,34045,1,0,0:0:0:0:
192,192,34045,1,0,0:0:0:0:
320,192,34154,1,0,0:0:0:0:
448,192,34154,1,0,0:0:0:0:
320,192,34263,1,0,0:0:0:0:
192,192,34263,1,0,0:0:0:0:
64,192,34373,1,0,0:0:0:0:
448,192,34373,1,0,0:0:0:0:
320,192,34482,1,0,0:0:0:0:
192,192,34482,1,0,0:0:0:0:
448,192,34591,1,0,0:0:0:0:
64,192,34591,1,0,0:0:0:0:
320,192,34701,1,0,0:0:0:0:
192,192,34701,1,0,0:0:0:0:
192,192,34810,1,0,0:0:0:0:
448,192,34810,1,0,0:0:0:0:
320,192,34919,1,0,0:0:0:0:
320,192,35029,128,0,35138:0:0:0:0:
64,192,35029,1,0,0:0:0:0:
192,192,35138,128,0,35247:0:0:0:0:
64,192,35247,128,0,35357:0:0:0:0:
320,192,35357,128,0,35466:0:0:0:0:
192,192,35466,128,0,35575:0:0:0:0:
320,192,35575,128,0,35685:0:0:0:0:
448,192,35685,128,0,35794:0:0:0:0:
64,192,35794,1,0,0:0:0:0:
192,192,35794,1,0,0:0:0:0:
320,192,35903,1,0,0:0:0:0:
64,192,35903,1,0,0:0:0:0:
448,192,36013,1,0,0:0:0:0:
192,192,36013,1,0,0:0:0:0:
192,192,36122,1,0,0:0:0:0:
64,192,36122,1,0,0:0:0:0:
320,192,36231,1,0,0:0:0:0:
64,192,36231,1,0,0:0:0:0:
448,192,36341,1,0,0:0:0:0:
320,192,36341,1,0,0:0:0:0:
448,192,36450,1,0,0:0:0:0:
192,192,36450,1,0,0:0:0:0:
192,192,36559,1,0,0:0:0:0:
320,192,36559,1,0,0:0:0:0:
64,192,36669,1,0,0:0:0:0:
192,192,36778,128,0,36997:0:0:0:0:
448,192,36778,128,0,36887:0:0:0:0:
320,192,36887,1,0,0:0:0:0:
64,192,36997,1,0,0:0:0:0:
320,192,36997,1,0,0:0:0:0:
448,192,37106,1,0,0:0:0:0:
64,192,37106,1,0,0:0:0:0:
192,192,37215,1,0,0:0:0:0:
320,192,37215,1,0,0:0:0:0:
320,192,37325,1,0,0:0:0:0:
64,192,37325,1,0,0:0:0:0:
192,192,37434,1,0,0:0:0:0:
448,192,37434,1,0,0:0:0:0:
448,192,37543,1,0,0:0:0:0:
192,192,37543,1,0,0:0:0:0:
64,192,37543,128,0,37653:0:0:0:0:
448,192,37653,1,0,0:0:0:0:
320,192,37653,1,0,0:0:0:0:
320,192,37762,1,0,0:0:0:0:
64,192,37762,1,0,0:0:0:0:
64,192,37871,1,0,0:0:0:0:
448,192,37871,1,0,0:0:0:0:
448,192,37981,1,0,0:0:0:0:
192,192,37981,1,0,0:0:0:0:
192,192,38090,1,0,0:0:0:0:
320,192,38090,1,0,0:0:0:0:
64,192,38199,1,0,0:0:0:0:
448,192,38309,1,0,0:0:0:0:
320,192,38309,1,0,0:0:0:0:
320,192,38418,1,0,0:0:0:0:
192,192,38418,1,0,0:0:0:0:
192,192,38527,1,0,0:0:0:0:
64,192,38527,1,0,0:0:0:0:
64,192,38636,1,0,0:0:0:0:
448,192,38636,1,0,0:0:0:0:
448,192,38746,1,0,0:0:0:0:
192,192,38746,1,0,0:0:0:0:
192,192,38855,1,0,0:0:0:0:
448,192,38855,128,0,39019:0:0:0:0:
320,192,38855,1,0,0:0:0:0:
192,192,39074,128,0,39238:0:0:0:0:
64,192,39074,128,0,39238:0:0:0:0:
448,192,39292,5,0,0:0:0:0:
320,192,39292,1,0,0:0:0:0:
192,192,39329,1,0,0:0:0:0:
64,192,39365,1,0,0:0:0:0:
448,192,39402,1,0,0:0:0:0:
320,192,39438,1,0,0:0:0:0:
192,192,39475,1,0,0:0:0:0:
64,192,39511,1,0,0:0:0:0:
448,192,39511,1,0,0:0:0:0:
320,192,39548,1,0,0:0:0:0:
192,192,39584,1,0,0:0:0:0:
448,192,39620,1,0,0:0:0:0:
64,192,39657,1,0,0:0:0:0:
320,192,39693,1,0,0:0:0:0:
448,192,39730,1,0,0:0:0:0:
192,192,39730,1,0,0:0:0:0:
64,192,39766,1,0,0:0:0:0:
320,192,39803,1,0,0:0:0:0:
448,192,39839,1,0,0:0:0:0:
64,192,39876,1,0,0:0:0:0:
192,192,39912,1,0,0:0:0:0:
320,192,39948,1,0,0:0:0:0:
448,192,39948,1,0,0:0:0:0:
64,192,39985,1,0,0:0:0:0:
192,192,40021,1,0,0:0:0:0:
448,192,40058,1,0,0:0:0:0:
320,192,40094,1,0,0:0:0:0:
64,192,40131,1,0,0:0:0:0:
448,192,40167,1,0,0:0:0:0:
192,192,40167,1,0,0:0:0:0:
320,192,40204,1,0,0:0:0:0:
64,192,40240,1,0,0:0:0:0:
448,192,40276,1,0,0:0:0:0:
192,192,40313,1,0,0:0:0:0:
320,192,40349,1,0,0:0:0:0:
64,192,40386,1,0,0:0:0:0:
448,192,40386,1,0,0:0:0:0:
192,192,40422,1,0,0:0:0:0:
320,192,40459,1,0,0:0:0:0:
64,192,40495,1,0,0:0:0:0:
448,192,40532,1,0,0:0:0:0:
192,192,40568,1,0,0:0:0:0:
64,192,40604,1,0,0:0:0:0:
320,192,40641,1,0,0:0:0:0:
448,192,40677,1,0,0:0:0:0:
192,192,40714,1,0,0:0:0:0:
64,192,40714,1,0,0:0:0:0:
320,192,40750,1,0,0:0:0:0:
448,192,40787,1,0,0:0:0:0:
64,192,40823,1,0,0:0:0:0:
192,192,40823,1,0,0:0:0:0:
320,192,40878,1,0,0:0:0:0:
64,192,40932,1,0,0:0:0:0:
448,192,40932,1,0,0:0:0:0:
192,192,40987,1,0,0:0:0:0:
320,192,41042,1,0,0:0:0:0:
64,192,41042,1,0,0:0:0:0:
448,192,41042,1,0,0:0:0:0:
320,192,41151,1,0,0:0:0:0:
192,192,41151,1,0,0:0:0:0:
192,192,41260,1,0,0:0:0:0:
64,192,41260,1,0,0:0:0:0:
192,192,41370,1,0,0:0:0:0:
320,192,41370,1,0,0:0:0:0:
320,192,41479,1,0,0:0:0:0:
448,192,41479,1,0,0:0:0:0:
320,192,41588,1,0,0:0:0:0:
192,192,41588,1,0,0:0:0:0:
448,192,41698,1,0,0:0:0:0:
64,192,41698,1,0,0:0:0:0:
192,192,41807,1,0,0:0:0:0:
320,192,41807,1,0,0:0:0:0:
320,192,41916,1,0,0:0:0:0:
448,192,41916,1,0,0:0:0:0:
64,192,41916,1,0,0:0:0:0:
192,192,42026,1,0,0:0:0:0:
448,192,42026,1,0,0:0:0:0:
320,192,42135,1,0,0:0:0:0:
64,192,42135,1,0,0:0:0:0:
192,192,42244,1,0,0:0:0:0:
64,192,42244,1,0,0:0:0:0:
192,192,42354,1,0,0:0:0:0:
448,192,42354,1,0,0:0:0:0:
448,192,42463,1,0,0:0:0:0:
320,192,42463,1,0,0:0:0:0:
320,192,42572,1,0,0:0:0:0:
64,192,42572,1,0,0:0:0:0:
192,192,42682,1,0,0:0:0:0:
64,192,42682,1,0,0:0:0:0:
192,192,42791,1,0,0:0:0:0:
448,192,42791,1,0,0:0:0:0:
64,192,42791,1,0,0:0:0:0:
320,192,42846,1,0,0:0:0:0:
192,192,42900,1,0,0:0:0:0:
64,192,42955,1,0,0:0:0:0:
448,192,43010,1,0,0:0:0:0:
320,192,43010,1,0,0:0:0:0:
192,192,43064,1,0,0:0:0:0:
64,192,43119,1,0,0:0:0:0:
320,192,43174,1,0,0:0:0:0:
448,192,43228,1,0,0:0:0:0:
64,192,43228,1,0,0:0:0:0:
192,192,43283,1,0,0:0:0:0:
320,192,43338,1,0,0:0:0:0:
64,192,43392,1,0,0:0:0:0:
192,192,43447,1,0,0:0:0:0:
448,192,43447,1,0,0:0:0:0:
320,192,43502,1,0,0:0:0:0:
192,192,43556,1,0,0:0:0:0:
448,192,43611,1,0,0:0:0:0:
320,192,43666,1,0,0:0:0:0:
64,192,43666,1,0,0:0:0:0:
64,192,43775,1,0,0:0:0:0:
448,192,43775,1,0,0:0:0:0:
320,192,43884,1,0,0:0:0:0:
64,192,43884,1,0,0:0:0:0:
320,192,43994,1,0,0:0:0:0:
192,192,43994,1,0,0:0:0:0:
448,192,44103,1,0,0:0:0:0:
192,192,44103,1,0,0:0:0:0:
448,192,44212,1,0,0:0:0:0:
320,192,44212,1,0,0:0:0:0:
192,192,44322,1,0,0:0:0:0:
320,192,44322,1,0,0:0:0:0:
64,192,44376,1,0,0:0:0:0:
192,192,44431,1,0,0:0:0:0:
320,192,44486,1,0,0:0:0:0:
192,192,44540,1,0,0:0:0:0:
448,192,44540,1,0,0:0:0:0:
64,192,44540,1,0,0:0:0:0:
320,192,44595,1,0,0:0:0:0:
192,192,44650,1,0,0:0:0:0:
448,192,44704,1,0,0:0:0:0:
320,192,44759,1,0,0:0:0:0:
64,192,44759,1,0,0:0:0:0:
192,192,44814,1,0,0:0:0:0:
448,192,44868,1,0,0:0:0:0:
320,192,44923,1,0,0:0:0:0:
192,192,44978,1,0,0:0:0:0:
64,192,44978,1,0,0:0:0:0:
448,192,45032,1,0,0:0:0:0:
320,192,45087,1,0,0:0:0:0:
192,192,45142,1,0,0:0:0:0:
448,192,45196,1,0,0:0:0:0:
64,192,45196,1,0,0:0:0:0:
192,192,45251,1,0,0:0:0:0:
448,192,45306,1,0,0:0:0:0:
320,192,45360,1,0,0:0:0:0:
192,192,45415,1,0,0:0:0:0:
64,192,45415,1,0,0:0:0:0:
192,192,45524,1,0,0:0:0:0:
320,192,45524,1,0,0:0:0:0:
320,192,45634,1,0,0:0:0:0:
448,192,45634,1,0,0:0:0:0:
448,192,45743,1,0,0:0:0:0:
192,192,45743,1,0,0:0:0:0:
448,192,45852,1,0,0:0:0:0:
64,192,45852,1,0,0:0:0:0:
320,192,45852,1,0,0:0:0:0:
192,192,45962,1,0,0:0:0:0:
64,192,45962,1,0,0:0:0:0:
320,192,46016,1,0,0:0:0:0:
448,192,46016,1,0,0:0:0:0:
192,192,46071,1,0,0:0:0:0:
64,192,46071,1,0,0:0:0:0:
320,192,46126,1,0,0:0:0:0:
448,192,46126,1,0,0:0:0:0:
192,192,46180,1,0,0:0:0:0:
64,192,46180,1,0,0:0:0:0:
320,192,46235,1,0,0:0:0:0:
448,192,46235,1,0,0:0:0:0:
192,192,46290,1,0,0:0:0:0:
64,192,46290,1,0,0:0:0:0:
320,192,46326,1,0,0:0:0:0:
448,192,46362,1,0,0:0:0:0:
192,192,46399,1,0,0:0:0:0:
64,192,46435,1,0,0:0:0:0:
448,192,46472,1,0,0:0:0:0:
320,192,46508,1,0,0:0:0:0:
192,192,46508,1,0,0:0:0:0:
64,192,46545,1,0,0:0:0:0:
448,192,46581,1,0,0:0:0:0:
320,192,46618,1,0,0:0:0:0:
192,192,46654,1,0,0:0:0:0:
64,192,46690,1,0,0:0:0:0:
320,192,46727,1,0,0:0:0:0:
448,192,46727,1,0,0:0:0:0:
192,192,46763,1,0,0:0:0:0:
64,192,46800,1,0,0:0:0:0:
320,192,46836,1,0,0:0:0:0:
448,192,46873,1,0,0:0:0:0:
64,192,46909,1,0,0:0:0:0:
320,192,46946,1,0,0:0:0:0:
192,192,46946,1,0,0:0:0:0:
448,192,46982,1,0,0:0:0:0:
64,192,47018,1,0,0:0:0:0:
192,192,47055,1,0,0:0:0:0:
448,192,47091,1,0,0:0:0:0:
320,192,47128,1,0,0:0:0:0:
192,192,47164,1,0,0:0:0:0:
64,192,47164,1,0,0:0:0:0:
448,192,47201,1,0,0:0:0:0:
320,192,47237,1,0,0:0:0:0:
192,192,47274,1,0,0:0:0:0:
448,192,47310,1,0,0:0:0:0:
64,192,47346,1,0,0:0:0:0:
192,192,47383,1,0,0:0:0:0:
320,192,47383,1,0,0:0:0:0:
448,192,47419,1,0,0:0:0:0:
64,192,47456,1,0,0:0:0:0:
320,192,47492,1,0,0:0:0:0:
192,192,47529,1,0,0:0:0:0:
64,192,47565,1,0,0:0:0:0:
448,192,47602,1,0,0:0:0:0:
320,192,47602,1,0,0:0:0:0:
192,192,47638,1,0,0:0:0:0:
64,192,47674,1,0,0:0:0:0:
448,192,47711,1,0,0:0:0:0:
320,192,47747,1,0,0:0:0:0:
192,192,47784,1,0,0:0:0:0:
64,192,47820,1,0,0:0:0:0:
448,192,47820,1,0,0:0:0:0:
320,192,47875,1,0,0:0:0:0:
192,192,47929,1,0,0:0:0:0:
64,192,47929,1,0,0:0:0:0:
320,192,47984,1,0,0:0:0:0:
448,192,48039,1,0,0:0:0:0:
192,192,48039,1,0,0:0:0:0:
64,192,48039,1,0,0:0:0:0:
192,192,48148,1,0,0:0:0:0:
448,192,48148,1,0,0:0:0:0:
448,192,48257,1,0,0:0:0:0:
64,192,48257,1,0,0:0:0:0:
192,192,48367,1,0,0:0:0:0:
448,192,48367,1,0,0:0:0:0:
320,192,48476,1,0,0:0:0:0:
192,192,48476,1,0,0:0:0:0:
64,192,48585,1,0,0:0:0:0:
320,192,48585,1,0,0:0:0:0:
64,192,48695,1,0,0:0:0:0:
448,192,48695,1,0,0:0:0:0:
64,192,48804,1,0,0:0:0:0:
320,192,48804,1,0,0:0:0:0:
192,192,48913,1,0,0:0:0:0:
448,192,48913,1,0,0:0:0:0:
320,192,48913,1,0,0:0:0:0:
64,192,49023,1,0,0:0:0:0:
192,192,49023,1,0,0:0:0:0:
192,192,49132,1,0,0:0:0:0:
320,192,49132,1,0,0:0:0:0:
320,192,49241,1,0,0:0:0:0:
448,192,49241,1,0,0:0:0:0:
320,192,49351,1,0,0:0:0:0:
192,192,49351,1,0,0:0:0:0:
64,192,49460,1,0,0:0:0:0:
192,192,49460,1,0,0:0:0:0:
192,192,49569,1,0,0:0:0:0:
320,192,49569,1,0,0:0:0:0:
64,192,49624,1,0,0:0:0:0:
320,192,49679,1,0,0:0:0:0:
448,192,49679,1,0,0:0:0:0:
192,192,49733,1,0,0:0:0:0:
320,192,49788,1,0,0:0:0:0:
448,192,49788,1,0,0:0:0:0:
64,192,49788,1,0,0:0:0:0:
192,192,49843,1,0,0:0:0:0:
448,192,49897,1,0,0:0:0:0:
64,192,49952,1,0,0:0:0:0:
192,192,50007,1,0,0:0:0:0:
448,192,50007,1,0,0:0:0:0:
320,192,50061,1,0,0:0:0:0:
64,192,50116,1,0,0:0:0:0:
192,192,50171,1,0,0:0:0:0:
320,192,50225,1,0,0:0:0:0:
448,192,50225,1,0,0:0:0:0:
64,192,50280,1,0,0:0:0:0:
192,192,50335,1,0,0:0:0:0:
320,192,50389,1,0,0:0:0:0:
448,192,50444,1,0,0:0:0:0:
64,192,50444,1,0,0:0:0:0:
192,192,50499,1,0,0:0:0:0:
448,192,50553,1,0,0:0:0:0:
320,192,50608,1,0,0:0:0:0:
192,192,50663,1,0,0:0:0:0:
64,192,50663,1,0,0:0:0:0:
64,192,50772,1,0,0:0:0:0:
320,192,50772,1,0,0:0:0:0:
448,192,50881,1,0,0:0:0:0:
320,192,50881,1,0,0:0:0:0:
448,192,50991,1,0,0:0:0:0:
192,192,50991,1,0,0:0:0:0:
320,192,51100,1,0,0:0:0:0:
64,192,51100,1,0,0:0:0:0:
192,192,51209,1,0,0:0:0:0:
64,192,51209,1,0,0:0:0:0:
192,192,51319,1,0,0:0:0:0:
448,192,51319,1,0,0:0:0:0:
64,192,51373,1,0,0:0:0:0:
192,192,51428,1,0,0:0:0:0:
320,192,51428,1,0,0:0:0:0:
448,192,51483,1,0,0:0:0:0:
320,192,51537,1,0,0:0:0:0:
192,192,51537,1,0,0:0:0:0:
64,192,51537,1,0,0:0:0:0:
448,192,51592,1,0,0:0:0:0:
192,192,51647,1,0,0:0:0:0:
320,192,51701,1,0,0:0:0:0:
448,192,51756,1,0,0:0:0:0:
64,192,51756,1,0,0:0:0:0:
192,192,51811,1,0,0:0:0:0:
320,192,51865,1,0,0:0:0:0:
64,192,51920,1,0,0:0:0:0:
192,192,51975,1,0,0:0:0:0:
448,192,51975,1,0,0:0:0:0:
320,192,52029,1,0,0:0:0:0:
64,192,52084,1,0,0:0:0:0:
192,192,52139,1,0,0:0:0:0:
64,192,52193,1,0,0:0:0:0:
448,192,52193,1,0,0:0:0:0:
320,192,52248,1,0,0:0:0:0:
192,192,52303,1,0,0:0:0:0:
64,192,52357,1,0,0:0:0:0:
448,192,52412,1,0,0:0:0:0:
320,192,52412,1,0,0:0:0:0:
192,192,52521,1,0,0:0:0:0:
64,192,52521,1,0,0:0:0:0:
320,192,52576,1,0,0:0:0:0:
448,192,52576,1,0,0:0:0:0:
192,192,52631,1,0,0:0:0:0:
64,192,52631,1,0,0:0:0:0:
320,192,52685,1,0,0:0:0:0:
448,192,52685,1,0,0:0:0:0:
192,192,52740,1,0,0:0:0:0:
64,192,52740,1,0,0:0:0:0:
320,192,52795,1,0,0:0:0:0:
448,192,52795,1,0,0:0:0:0:
192,192,52849,1,0,0:0:0:0:
64,192,52849,1,0,0:0:0:0:
320,192,52904,1,0,0:0:0:0:
448,192,52959,1,0,0:0:0:0:
192,192,52959,1,0,0:0:0:0:
320,192,53013,1,0,0:0:0:0:
192,192,53068,1,0,0:0:0:0:
64,192,53068,1,0,0:0:0:0:
320,192,53123,1,0,0:0:0:0:
448,192,53177,1,0,0:0:0:0:
64,192,53177,1,0,0:0:0:0:
192,192,53232,1,0,0:0:0:0:
320,192,53287,1,0,0:0:0:0:
448,192,53287,1,0,0:0:0:0:
64,192,53287,128,0,53396:0:0:0:0:
192,192,53396,1,0,0:0:0:0:
448,192,53451,1,0,0:0:0:0:
64,192,53505,1,0,0:0:0:0:
320,192,53505,128,0,53615:0:0:0:0:
448,192,53615,1,0,0:0:0:0:
64,192,53669,1,0,0:0:0:0:
448,192,53724,1,0,0:0:0:0:
192,192,53724,128,0,53943:0:0:0:0:
320,192,53833,1,0,0:0:0:0:
64,192,53833,1,0,0:0:0:0:
448,192,53943,1,0,0:0:0:0:
320,192,53943,1,0,0:0:0:0:
64,192,54052,1,0,0:0:0:0:
448,192,54052,128,0,54271:0:0:0:0:
320,192,54161,1,0,0:0:0:0:
192,192,54161,1,0,0:0:0:0:
192,192,54271,1,0,0:0:0:0:
64,192,54271,1,0,0:0:0:0:
64,192,54380,1,0,0:0:0:0:
320,192,54380,1,0,0:0:0:0:
64,192,54489,128,0,54708:0:0:0:0:
320,192,54489,1,0,0:0:0:0:
192,192,54599,1,0,0:0:0:0:
448,192,54599,1,0,0:0:0:0:
192,192,54708,1,0,0:0:0:0:
320,192,54708,1,0,0:0:0:0:
320,192,54817,1,0,0:0:0:0:
448,192,54817,128,0,55036:0:0:0:0:
64,192,54927,1,0,0:0:0:0:
192,192,54981,1,0,0:0:0:0:
320,192,55036,1,0,0:0:0:0:
64,192,55036,128,0,55145:0:0:0:0:
192,192,55145,1,0,0:0:0:0:
448,192,55200,1,0,0:0:0:0:
320,192,55255,128,0,55364:0:0:0:0:
64,192,55255,1,0,0:0:0:0:
192,192,55364,1,0,0:0:0:0:
64,192,55473,1,0,0:0:0:0:
192,192,55473,128,0,55692:0:0:0:0:
448,192,55583,1,0,0:0:0:0:
320,192,55583,1,0,0:0:0:0:
64,192,55692,1,0,0:0:0:0:
448,192,55692,1,0,0:0:0:0:
64,192,55801,1,0,0:0:0:0:
320,192,55801,128,0,56020:0:0:0:0:
192,192,55911,1,0,0:0:0:0:
448,192,55911,1,0,0:0:0:0:
64,192,56020,1,0,0:0:0:0:
448,192,56020,1,0,0:0:0:0:
320,192,56129,1,0,0:0:0:0:
192,192,56129,1,0,0:0:0:0:
192,192,56239,1,0,0:0:0:0:
64,192,56239,1,0,0:0:0:0:
192,192,56348,1,0,0:0:0:0:
448,192,56348,1,0,0:0:0:0:
64,192,56457,1,0,0:0:0:0:
320,192,56457,1,0,0:0:0:0:
320,192,56567,1,0,0:0:0:0:
64,192,56567,128,0,56785:0:0:0:0:
192,192,56676,1,0,0:0:0:0:
448,192,56676,1,0,0:0:0:0:
320,192,56731,1,0,0:0:0:0:
192,192,56785,1,0,0:0:0:0:
448,192,56785,128,0,56895:0:0:0:0:
64,192,56895,1,0,0:0:0:0:
320,192,56949,1,0,0:0:0:0:
192,192,57004,128,0,57113:0:0:0:0:
448,192,57004,1,0,0:0:0:0:
320,192,57113,1,0,0:0:0:0:
448,192,57168,1,0,0:0:0:0:
64,192,57222,128,0,57441:0:0:0:0:
320,192,57222,1,0,0:0:0:0:
192,192,57332,1,0,0:0:0:0:
448,192,57332,1,0,0:0:0:0:
448,192,57441,1,0,0:0:0:0:
320,192,57441,1,0,0:0:0:0:
448,192,57550,128,0,57769:0:0:0:0:
192,192,57550,1,0,0:0:0:0:
320,192,57660,1,0,0:0:0:0:
192,192,57660,1,0,0:0:0:0:
320,192,57769,1,0,0:0:0:0:
64,192,57769,1,0,0:0:0:0:
192,192,57878,1,0,0:0:0:0:
64,192,57878,1,0,0:0:0:0:
192,192,57988,1,0,0:0:0:0:
448,192,57988,128,0,58206:0:0:0:0:
320,192,58097,1,0,0:0:0:0:
64,192,58097,1,0,0:0:0:0:
320,192,58206,1,0,0:0:0:0:
192,192,58206,1,0,0:0:0:0:
192,192,58316,1,0,0:0:0:0:
448,192,58316,1,0,0:0:0:0:
64,192,58425,1,0,0:0:0:0:
192,192,58425,1,0,0:0:0:0:
320,192,58480,1,0,0:0:0:0:
192,192,58534,1,0,0:0:0:0:
64,192,58534,1,0,0:0:0:0:
448,192,58534,128,0,58644:0:0:0:0:
320,192,58644,1,0,0:0:0:0:
192,192,58698,1,0,0:0:0:0:
64,192,58753,128,0,58862:0:0:0:0:
320,192,58753,1,0,0:0:0:0:
448,192,58862,1,0,0:0:0:0:
192,192,58862,1,0,0:0:0:0:
320,192,58972,128,0,59190:0:0:0:0:
64,192,58972,1,0,0:0:0:0:
192,192,59081,1,0,0:0:0:0:
448,192,59081,1,0,0:0:0:0:
64,192,59190,1,0,0:0:0:0:
448,192,59190,1,0,0:0:0:0:
320,192,59300,1,0,0:0:0:0:
192,192,59300,128,0,59518:0:0:0:0:
64,192,59409,1,0,0:0:0:0:
320,192,59409,1,0,0:0:0:0:
448,192,59518,1,0,0:0:0:0:
64,192,59518,1,0,0:0:0:0:
448,192,59628,1,0,0:0:0:0:
320,192,59628,1,0,0:0:0:0:
320,192,59737,1,0,0:0:0:0:
64,192,59737,1,0,0:0:0:0:
448,192,59846,1,0,0:0:0:0:
64,192,59846,1,0,0:0:0:0:
448,192,59956,1,0,0:0:0:0:
320,192,59956,1,0,0:0:0:0:
320,192,60065,1,0,0:0:0:0:
192,192,60065,1,0,0:0:0:0:
192,192,60174,1,0,0:0:0:0:
64,192,60174,1,0,0:0:0:0:
320,192,60284,1,0,0:0:0:0:
192,192,60284,1,0,0:0:0:0:
448,192,60284,128,0,60393:0:0:0:0:
64,192,60393,1,0,0:0:0:0:
64,192,60502,128,0,60612:0:0:0:0:
192,192,60502,1,0,0:0:0:0:
448,192,60612,1,0,0:0:0:0:
320,192,60721,128,0,60830:0:0:0:0:
192,192,60721,1,0,0:0:0:0:
64,192,60830,1,0,0:0:0:0:
192,192,60940,128,0,61049:0:0:0:0:
448,192,60940,1,0,0:0:0:0:
320,192,61049,1,0,0:0:0:0:
448,192,61158,128,0,61268:0:0:0:0:
64,192,61158,1,0,0:0:0:0:
192,192,61268,1,0,0:0:0:0:
320,192,61377,128,0,61486:0:0:0:0:
64,192,61377,1,0,0:0:0:0:
448,192,61486,1,0,0:0:0:0:
192,192,61596,128,0,61705:0:0:0:0:
64,192,61596,1,0,0:0:0:0:
448,192,61705,1,0,0:0:0:0:
64,192,61814,128,0,61924:0:0:0:0:
320,192,61814,1,0,0:0:0:0:
192,192,61924,1,0,0:0:0:0:
320,192,62033,128,0,62142:0:0:0:0:
448,192,62033,1,0,0:0:0:0:
64,192,62142,1,0,0:0:0:0:
448,192,62252,128,0,62361:0:0:0:0:
192,192,62252,1,0,0:0:0:0:
320,192,62361,1,0,0:0:0:0:
192,192,62470,128,0,62580:0:0:0:0:
64,192,62470,1,0,0:0:0:0:
448,192,62580,1,0,0:0:0:0:
64,192,62689,128,0,62798:0:0:0:0:
320,192,62689,1,0,0:0:0:0:
192,192,62798,1,0,0:0:0:0:
448,192,62908,128,0,63017:0:0:0:0:
320,192,62908,1,0,0:0:0:0:
64,192,63017,1,0,0:0:0:0:
320,192,63126,128,0,63236:0:0:0:0:
192,192,63126,1,0,0:0:0:0:
448,192,63236,1,0,0:0:0:0:
192,192,63345,128,0,63454:0:0:0:0:
64,192,63345,1,0,0:0:0:0:
448,192,63454,1,0,0:0:0:0:
64,192,63564,128,0,63673:0:0:0:0:
320,192,63564,1,0,0:0:0:0:
192,192,63673,1,0,0:0:0:0:
320,192,63782,128,0,63892:0:0:0:0:
448,192,63782,1,0,0:0:0:0:
192,192,63892,1,0,0:0:0:0:
64,192,64001,128,0,64110:0:0:0:0:
448,192,64001,1,0,0:0:0:0:
320,192,64110,1,0,0:0:0:0:
192,192,64220,128,0,64329:0:0:0:0:
64,192,64220,1,0,0:0:0:0:
320,192,64329,1,0,0:0:0:0:
448,192,64438,128,0,64548:0:0:0:0:
64,192,64438,1,0,0:0:0:0:
320,192,64548,1,0,0:0:0:0:
64,192,64657,128,0,64766:0:0:0:0:
192,192,64657,1,0,0:0:0:0:
448,192,64766,1,0,0:0:0:0:
192,192,64876,128,0,64985:0:0:0:0:
320,192,64876,1,0,0:0:0:0:
64,192,64985,1,0,0:0:0:0:
320,192,65094,128,0,65204:0:0:0:0:
448,192,65094,1,0,0:0:0:0:
192,192,65204,1,0,0:0:0:0:
448,192,65313,128,0,65422:0:0:0:0:
64,192,65313,1,0,0:0:0:0:
320,192,65422,1,0,0:0:0:0:
192,192,65532,128,0,65641:0:0:0:0:
64,192,65532,1,0,0:0:0:0:
320,192,65641,1,0,0:0:0:0:
448,192,65750,128,0,65860:0:0:0:0:
64,192,65750,1,0,0:0:0:0:
192,192,65860,1,0,0:0:0:0:
64,192,65969,128,0,66078:0:0:0:0:
320,192,65969,1,0,0:0:0:0:
448,192,66078,1,0,0:0:0:0:
320,192,66188,128,0,66297:0:0:0:0:
192,192,66188,1,0,0:0:0:0:
64,192,66297,1,0,0:0:0:0:
448,192,66406,128,0,66515:0:0:0:0:
192,192,66406,1,0,0:0:0:0:
320,192,66515,1,0,0:0:0:0:
64,192,66625,128,0,66734:0:0:0:0:
192,192,66625,1,0,0:0:0:0:
320,192,66734,1,0,0:0:0:0:
448,192,66843,128,0,67062:0:0:0:0:
192,192,66843,1,0,0:0:0:0:
192,192,67062,128,0,67281:0:0:0:0:
64,192,67062,1,0,0:0:0:0:
320,192,67281,128,0,67390:0:0:0:0:
448,192,67281,128,0,67390:0:0:0:0:
64,192,67390,1,0,0:0:0:0:
192,192,67390,1,0,0:0:0:0:
448,192,67499,1,0,0:0:0:0:
192,192,67499,1,0,0:0:0:0:
448,192,67609,1,0,0:0:0:0:
64,192,67609,1,0,0:0:0:0:
192,192,67718,128,0,67827:0:0:0:0:
320,192,67718,128,0,67827:0:0:0:0:
64,192,67827,1,0,0:0:0:0:
448,192,67827,1,0,0:0:0:0:
320,192,67937,1,0,0:0:0:0:
64,192,67937,1,0,0:0:0:0:
64,192,68046,128,0,68155:0:0:0:0:
320,192,68046,128,0,68155:0:0:0:0:
192,192,68155,128,0,68265:0:0:0:0:
448,192,68155,128,0,68265:0:0:0:0:
320,192,68265,1,0,0:0:0:0:
64,192,68265,1,0,0:0:0:0:
320,192,68374,1,0,0:0:0:0:
448,192,68374,1,0,0:0:0:0:
192,192,68483,1,0,0:0:0:0:
448,192,68483,1,0,0:0:0:0:
64,192,68593,128,0,68702:0:0:0:0:
192,192,68593,128,0,68702:0:0:0:0:
320,192,68702,1,0,0:0:0:0:
448,192,68702,1,0,0:0:0:0:
192,192,68811,1,0,0:0:0:0:
320,192,68811,1,0,0:0:0:0:
448,192,68921,128,0,69030:0:0:0:0:
192,192,68921,128,0,69030:0:0:0:0:
320,192,69030,128,0,69139:0:0:0:0:
64,192,69030,128,0,69139:0:0:0:0:
192,192,69139,1,0,0:0:0:0:
448,192,69139,1,0,0:0:0:0:
320,192,69249,1,0,0:0:0:0:
192,192,69249,1,0,0:0:0:0:
64,192,69358,1,0,0:0:0:0:
320,192,69358,1,0,0:0:0:0:
64,192,69467,128,0,69577:0:0:0:0:
448,192,69467,128,0,69577:0:0:0:0:
320,192,69577,1,0,0:0:0:0:
192,192,69577,1,0,0:0:0:0:
448,192,69686,1,0,0:0:0:0:
320,192,69686,1,0,0:0:0:0:
192,192,69795,128,0,69905:0:0:0:0:
320,192,69795,128,0,69905:0:0:0:0:
64,192,69905,128,0,70014:0:0:0:0:
448,192,69905,128,0,70014:0:0:0:0:
320,192,70014,1,0,0:0:0:0:
192,192,70014,1,0,0:0:0:0:
64,192,70123,1,0,0:0:0:0:
192,192,70123,1,0,0:0:0:0:
448,192,70233,1,0,0:0:0:0:
64,192,70233,1,0,0:0:0:0:
320,192,70342,128,0,70451:0:0:0:0:
448,192,70342,128,0,70451:0:0:0:0:
192,192,70451,1,0,0:0:0:0:
64,192,70451,1,0,0:0:0:0:
320,192,70561,1,0,0:0:0:0:
192,192,70561,1,0,0:0:0:0:
64,192,70670,1,0,0:0:0:0:
320,192,70670,1,0,0:0:0:0:
448,192,70725,1,0,0:0:0:0:
192,192,70779,128,0,70889:0:0:0:0:
64,192,70779,128,0,70889:0:0:0:0:
320,192,70889,1,0,0:0:0:0:
448,192,70889,1,0,0:0:0:0:
320,192,70998,1,0,0:0:0:0:
64,192,70998,1,0,0:0:0:0:
64,192,71107,1,0,0:0:0:0:
192,192,71107,1,0,0:0:0:0:
320,192,71162,1,0,0:0:0:0:
192,192,71217,128,0,71326:0:0:0:0:
448,192,71217,128,0,71326:0:0:0:0:
64,192,71326,1,0,0:0:0:0:
320,192,71326,1,0,0:0:0:0:
448,192,71435,1,0,0:0:0:0:
320,192,71435,1,0,0:0:0:0:
448,192,71545,1,0,0:0:0:0:
64,192,71545,1,0,0:0:0:0:
192,192,71599,1,0,0:0:0:0:
320,192,71654,128,0,71763:0:0:0:0:
448,192,71654,128,0,71763:0:0:0:0:
192,192,71763,1,0,0:0:0:0:
64,192,71763,1,0,0:0:0:0:
64,192,71873,1,0,0:0:0:0:
320,192,71873,1,0,0:0:0:0:
448,192,71982,1,0,0:0:0:0:
320,192,71982,1,0,0:0:0:0:
192,192,72037,1,0,0:0:0:0:
64,192,72091,128,0,72201:0:0:0:0:
448,192,72091,128,0,72201:0:0:0:0:
320,192,72201,1,0,0:0:0:0:
192,192,72201,1,0,0:0:0:0:
448,192,72310,1,0,0:0:0:0:
192,192,72310,1,0,0:0:0:0:
64,192,72419,1,0,0:0:0:0:
448,192,72419,1,0,0:0:0:0:
192,192,72474,1,0,0:0:0:0:
320,192,72529,128,0,72638:0:0:0:0:
448,192,72529,128,0,72638:0:0:0:0:
192,192,72638,1,0,0:0:0:0:
64,192,72638,1,0,0:0:0:0:
448,192,72747,1,0,0:0:0:0:
192,192,72747,1,0,0:0:0:0:
448,192,72857,1,0,0:0:0:0:
320,192,72857,1,0,0:0:0:0:
192,192,72911,1,0,0:0:0:0:
64,192,72966,128,0,73075:0:0:0:0:
320,192,72966,128,0,73075:0:0:0:0:
192,192,73075,1,0,0:0:0:0:
448,192,73075,1,0,0:0:0:0:
320,192,73185,1,0,0:0:0:0:
192,192,73185,1,0,0:0:0:0:
448,192,73294,1,0,0:0:0:0:
320,192,73294,1,0,0:0:0:0:
192,192,73349,1,0,0:0:0:0:
64,192,73403,128,0,73513:0:0:0:0:
448,192,73403,128,0,73513:0:0:0:0:
320,192,73513,1,0,0:0:0:0:
192,192,73513,1,0,0:0:0:0:
64,192,73622,1,0,0:0:0:0:
320,192,73622,1,0,0:0:0:0:
64,192,73731,1,0,0:0:0:0:
448,192,73731,1,0,0:0:0:0:
320,192,73786,1,0,0:0:0:0:
192,192,73841,128,0,73950:0:0:0:0:
64,192,73841,128,0,73950:0:0:0:0:
448,192,73950,1,0,0:0:0:0:
320,192,74005,1,0,0:0:0:0:
448,192,74059,128,0,74169:0:0:0:0:
192,192,74059,1,0,0:0:0:0:
64,192,74169,1,0,0:0:0:0:
192,192,74223,1,0,0:0:0:0:
448,192,74278,1,0,0:0:0:0:
320,192,74278,1,0,0:0:0:0:
64,192,74278,1,0,0:0:0:0:
320,192,74387,1,0,0:0:0:0:
192,192,74387,1,0,0:0:0:0:
64,192,74497,1,0,0:0:0:0:
192,192,74497,1,0,0:0:0:0:
448,192,74606,1,0,0:0:0:0:
192,192,74606,1,0,0:0:0:0:
448,192,74715,1,0,0:0:0:0:
320,192,74715,1,0,0:0:0:0:
320,192,74825,1,0,0:0:0:0:
64,192,74825,1,0,0:0:0:0:
448,192,74934,1,0,0:0:0:0:
64,192,74934,1,0,0:0:0:0:
192,192,75043,1,0,0:0:0:0:
448,192,75043,128,0,75153:0:0:0:0:
320,192,75153,1,0,0:0:0:0:
64,192,75262,128,0,75371:0:0:0:0:
192,192,75262,1,0,0:0:0:0:
320,192,75371,1,0,0:0:0:0:
448,192,75481,128,0,75590:0:0:0:0:
64,192,75590,1,0,0:0:0:0:
192,192,75699,128,0,75809:0:0:0:0:
320,192,75699,1,0,0:0:0:0:
448,192,75809,1,0,0:0:0:0:
320,192,75918,128,0,76027:0:0:0:0:
64,192,75918,1,0,0:0:0:0:
448,192,76027,1,0,0:0:0:0:
192,192,76027,1,0,0:0:0:0:
64,192,76136,1,0,0:0:0:0:
448,192,76136,1,0,0:0:0:0:
320,192,76246,1,0,0:0:0:0:
64,192,76246,1,0,0:0:0:0:
320,192,76355,1,0,0:0:0:0:
192,192,76355,1,0,0:0:0:0:
64,192,76464,1,0,0:0:0:0:
448,192,76464,1,0,0:0:0:0:
448,192,76574,1,0,0:0:0:0:
320,192,76574,1,0,0:0:0:0:
320,192,76683,1,0,0:0:0:0:
192,192,76683,1,0,0:0:0:0:
192,192,76792,1,0,0:0:0:0:
64,192,76792,1,0,0:0:0:0:
64,192,76902,1,0,0:0:0:0:
192,192,77011,128,0,77120:0:0:0:0:
320,192,77120,128,0,77230:0:0:0:0:
64,192,77230,128,0,77339:0:0:0:0:
192,192,77339,128,0,77448:0:0:0:0:
320,192,77448,128,0,77558:0:0:0:0:
448,192,77558,128,0,77667:0:0:0:0:
192,192,77667,128,0,77776:0:0:0:0:
448,192,77776,1,0,0:0:0:0:
320,192,77776,1,0,0:0:0:0:
320,192,77886,1,0,0:0:0:0:
64,192,77886,1,0,0:0:0:0:
448,192,77995,1,0,0:0:0:0:
64,192,77995,1,0,0:0:0:0:
448,192,78104,1,0,0:0:0:0:
320,192,78104,1,0,0:0:0:0:
64,192,78214,1,0,0:0:0:0:
320,192,78214,1,0,0:0:0:0:
64,192,78323,1,0,0:0:0:0:
192,192,78323,1,0,0:0:0:0:
448,192,78432,1,0,0:0:0:0:
192,192,78432,1,0,0:0:0:0:
448,192,78542,1,0,0:0:0:0:
320,192,78542,1,0,0:0:0:0:
320,192,78651,1,0,0:0:0:0:
64,192,78760,128,0,79034:0:0:0:0:
448,192,78760,128,0,78870:0:0:0:0:
320,192,78870,1,0,0:0:0:0:
192,192,78870,1,0,0:0:0:0:
448,192,78979,1,0,0:0:0:0:
320,192,78979,1,0,0:0:0:0:
320,192,79088,1,0,0:0:0:0:
192,192,79088,1,0,0:0:0:0:
192,192,79198,1,0,0:0:0:0:
64,192,79198,1,0,0:0:0:0:
192,192,79307,1,0,0:0:0:0:
320,192,79307,1,0,0:0:0:0:
448,192,79416,1,0,0:0:0:0:
320,192,79416,1,0,0:0:0:0:
448,192,79526,1,0,0:0:0:0:
192,192,79526,1,0,0:0:0:0:
64,192,79526,128,0,79635:0:0:0:0:
448,192,79635,1,0,0:0:0:0:
320,192,79635,1,0,0:0:0:0:
320,192,79744,1,0,0:0:0:0:
192,192,79744,1,0,0:0:0:0:
64,192,79854,1,0,0:0:0:0:
192,192,79854,1,0,0:0:0:0:
448,192,79963,1,0,0:0:0:0:
64,192,79963,1,0,0:0:0:0:
320,192,80072,128,0,80182:0:0:0:0:
448,192,80072,128,0,80182:0:0:0:0:
192,192,80182,1,0,0:0:0:0:
64,192,80182,1,0,0:0:0:0:
448,192,80291,1,0,0:0:0:0:
192,192,80291,1,0,0:0:0:0:
448,192,80400,1,0,0:0:0:0:
320,192,80400,1,0,0:0:0:0:
64,192,80510,1,0,0:0:0:0:
320,192,80510,1,0,0:0:0:0:
64,192,80619,1,0,0:0:0:0:
448,192,80619,1,0,0:0:0:0:
448,192,80728,1,0,0:0:0:0:
320,192,80728,1,0,0:0:0:0:
192,192,80838,128,0,81002:0:0:0:0:
320,192,80838,1,0,0:0:0:0:
64,192,80838,1,0,0:0:0:0:
64,192,81056,128,0,81220:0:0:0:0:
448,192,81056,128,0,81220:0:0:0:0:
192,192,81275,1,0,0:0:0:0:
320,192,81275,1,0,0:0:0:0:
64,192,81311,1,0,0:0:0:0:
448,192,81348,1,0,0:0:0:0:
320,192,81384,1,0,0:0:0:0:
64,192,81421,1,0,0:0:0:0:
192,192,81457,1,0,0:0:0:0:
320,192,81494,1,0,0:0:0:0:
448,192,81494,1,0,0:0:0:0:
64,192,81530,1,0,0:0:0:0:
192,192,81567,1,0,0:0:0:0:
320,192,81603,1,0,0:0:0:0:
448,192,81639,1,0,0:0:0:0:
192,192,81676,1,0,0:0:0:0:
320,192,81712,1,0,0:0:0:0:
64,192,81712,1,0,0:0:0:0:
448,192,81749,1,0,0:0:0:0:
192,192,81785,1,0,0:0:0:0:
64,192,81822,1,0,0:0:0:0:
320,192,81858,1,0,0:0:0:0:
192,192,81895,1,0,0:0:0:0:
448,192,81931,1,0,0:0:0:0:
64,192,81931,1,0,0:0:0:0:
320,192,81967,1,0,0:0:0:0:
192,192,82004,1,0,0:0:0:0:
64,192,82040,1,0,0:0:0:0:
448,192,82077,1,0,0:0:0:0:
320,192,82113,1,0,0:0:0:0:
192,192,82150,1,0,0:0:0:0:
64,192,82150,1,0,0:0:0:0:
448,192,82186,1,0,0:0:0:0:
320,192,82222,1,0,0:0:0:0:
64,192,82259,1,0,0:0:0:0:
192,192,82295,1,0,0:0:0:0:
320,192,82332,1,0,0:0:0:0:
448,192,82368,1,0,0:0:0:0:
64,192,82368,1,0,0:0:0:0:
192,192,82405,1,0,0:0:0:0:
320,192,82441,1,0,0:0:0:0:
64,192,82478,1,0,0:0:0:0:
192,192,82514,1,0,0:0:0:0:
448,192,82550,1,0,0:0:0:0:
320,192,82587,1,0,0:0:0:0:
64,192,82587,1,0,0:0:0:0:
192,192,82623,1,0,0:0:0:0:
448,192,82660,1,0,0:0:0:0:
320,192,82696,1,0,0:0:0:0:
192,192,82733,1,0,0:0:0:0:
64,192,82769,1,0,0:0:0:0:
448,192,82806,1,0,0:0:0:0:
320,192,82806,1,0,0:0:0:0:
192,192,82860,1,0,0:0:0:0:
64,192,82915,1,0,0:0:0:0:
448,192,82915,1,0,0:0:0:0:
320,192,82970,1,0,0:0:0:0:
192,192,83024,1,0,0:0:0:0:
64,192,83024,1,0,0:0:0:0:
448,192,83024,1,0,0:0:0:0:
320,192,83134,1,0,0:0:0:0:
192,192,83134,1,0,0:0:0:0:
192,192,83243,1,0,0:0:0:0:
64,192,83243,1,0,0:0:0:0:
448,192,83352,1,0,0:0:0:0:
320,192,83352,1,0,0:0:0:0:
320,192,83462,1,0,0:0:0:0:
192,192,83462,1,0,0:0:0:0:
448,192,83571,1,0,0:0:0:0:
320,192,83571,1,0,0:0:0:0:
64,192,83680,1,0,0:0:0:0:
192,192,83680,1,0,0:0:0:0:
448,192,83790,1,0,0:0:0:0:
192,192,83790,1,0,0:0:0:0:
320,192,83899,1,0,0:0:0:0:
64,192,83899,1,0,0:0:0:0:
448,192,83899,1,0,0:0:0:0:
448,192,84008,1,0,0:0:0:0:
320,192,84008,1,0,0:0:0:0:
64,192,84118,1,0,0:0:0:0:
192,192,84118,1,0,0:0:0:0:
192,192,84227,1,0,0:0:0:0:
64,192,84227,1,0,0:0:0:0:
448,192,84336,1,0,0:0:0:0:
192,192,84336,1,0,0:0:0:0:
320,192,84446,1,0,0:0:0:0:
448,192,84446,1,0,0:0:0:0:
320,192,84555,1,0,0:0:0:0:
64,192,84555,1,0,0:0:0:0:
192,192,84610,1,0,0:0:0:0:
64,192,84664,1,0,0:0:0:0:
448,192,84664,1,0,0:0:0:0:
320,192,84719,1,0,0:0:0:0:
448,192,84774,1,0,0:0:0:0:
192,192,84774,1,0,0:0:0:0:
64,192,84774,1,0,0:0:0:0:
320,192,84828,1,0,0:0:0:0:
192,192,84883,1,0,0:0:0:0:
448,192,84938,1,0,0:0:0:0:
64,192,84992,1,0,0:0:0:0:
320,192,84992,1,0,0:0:0:0:
192,192,85047,1,0,0:0:0:0:
448,192,85102,1,0,0:0:0:0:
320,192,85156,1,0,0:0:0:0:
192,192,85211,1,0,0:0:0:0:
64,192,85211,1,0,0:0:0:0:
448,192,85265,1,0,0:0:0:0:
320,192,85320,1,0,0:0:0:0:
64,192,85375,1,0,0:0:0:0:
448,192,85429,1,0,0:0:0:0:
192,192,85429,1,0,0:0:0:0:
320,192,85484,1,0,0:0:0:0:
192,192,85539,1,0,0:0:0:0:
64,192,85593,1,0,0:0:0:0:
320,192,85648,1,0,0:0:0:0:
448,192,85648,1,0,0:0:0:0:
320,192,85757,1,0,0:0:0:0:
192,192,85757,1,0,0:0:0:0:
448,192,85867,1,0,0:0:0:0:
192,192,85867,1,0,0:0:0:0:
448,192,85976,1,0,0:0:0:0:
320,192,85976,1,0,0:0:0:0:
320,192,86085,1,0,0:0:0:0:
64,192,86085,1,0,0:0:0:0:
192,192,86195,1,0,0:0:0:0:
64,192,86195,1,0,0:0:0:0:
448,192,86304,1,0,0:0:0:0:
192,192,86304,1,0,0:0:0:0:
320,192,86359,1,0,0:0:0:0:
448,192,86413,1,0,0:0:0:0:
64,192,86413,1,0,0:0:0:0:
192,192,86468,1,0,0:0:0:0:
448,192,86523,1,0,0:0:0:0:
320,192,86523,1,0,0:0:0:0:
64,192,86523,1,0,0:0:0:0:
192,192,86577,1,0,0:0:0:0:
320,192,86632,1,0,0:0:0:0:
64,192,86687,1,0,0:0:0:0:
320,192,86741,1,0,0:0:0:0:
448,192,86741,1,0,0:0:0:0:
192,192,86796,1,0,0:0:0:0:
64,192,86851,1,0,0:0:0:0:
192,192,86905,1,0,0:0:0:0:
448,192,86960,1,0,0:0:0:0:
320,192,86960,1,0,0:0:0:0:
64,192,87015,1,0,0:0:0:0:
192,192,87069,1,0,0:0:0:0:
320,192,87124,1,0,0:0:0:0:
448,192,87179,1,0,0:0:0:0:
64,192,87179,1,0,0:0:0:0:
192,192,87233,1,0,0:0:0:0:
448,192,87288,1,0,0:0:0:0:
320,192,87343,1,0,0:0:0:0:
192,192,87397,1,0,0:0:0:0:
64,192,87397,1,0,0:0:0:0:
320,192,87507,1,0,0:0:0:0:
192,192,87507,1,0,0:0:0:0:
448,192,87616,1,0,0:0:0:0:
320,192,87616,1,0,0:0:0:0:
320,192,87725,1,0,0:0:0:0:
64,192,87725,1,0,0:0:0:0:
448,192,87835,1,0,0:0:0:0:
64,192,87835,1,0,0:0:0:0:
192,192,87835,1,0,0:0:0:0:
448,192,87944,1,0,0:0:0:0:
320,192,87944,1,0,0:0:0:0:
64,192,87999,1,0,0:0:0:0:
192,192,87999,1,0,0:0:0:0:
320,192,88053,1,0,0:0:0:0:
448,192,88053,1,0,0:0:0:0:
192,192,88108,1,0,0:0:0:0:
64,192,88108,1,0,0:0:0:0:
320,192,88163,1,0,0:0:0:0:
448,192,88163,1,0,0:0:0:0:
192,192,88217,1,0,0:0:0:0:
64,192,88217,1,0,0:0:0:0:
448,192,88272,1,0,0:0:0:0:
320,192,88272,1,0,0:0:0:0:
192,192,88309,1,0,0:0:0:0:
64,192,88345,1,0,0:0:0:0:
320,192,88381,1,0,0:0:0:0:
448,192,88418,1,0,0:0:0:0:
64,192,88454,1,0,0:0:0:0:
192,192,88491,1,0,0:0:0:0:
320,192,88491,1,0,0:0:0:0:
448,192,88527,1,0,0:0:0:0:
64,192,88564,1,0,0:0:0:0:
192,192,88600,1,0,0:0:0:0:
448,192,88636,1,0,0:0:0:0:
320,192,88673,1,0,0:0:0:0:
64,192,88709,1,0,0:0:0:0:
192,192,88709,1,0,0:0:0:0:
448,192,88746,1,0,0:0:0:0:
320,192,88782,1,0,0:0:0:0:
192,192,88819,1,0,0:0:0:0:
64,192,88855,1,0,0:0:0:0:
320,192,88892,1,0,0:0:0:0:
192,192,88928,1,0,0:0:0:0:
448,192,88928,1,0,0:0:0:0:
64,192,88964,1,0,0:0:0:0:
320,192,89001,1,0,0:0:0:0:
448,192,89037,1,0,0:0:0:0:
192,192,89074,1,0,0:0:0:0:
320,192,89110,1,0,0:0:0:0:
448,192,89147,1,0,0:0:0:0:
64,192,89147,1,0,0:0:0:0:
192,192,89183,1,0,0:0:0:0:
320,192,89220,1,0,0:0:0:0:
64,192,89256,1,0,0:0:0:0:
192,192,89292,1,0,0:0:0:0:
448,192,89329,1,0,0:0:0:0:
320,192,89365,1,0,0:0:0:0:
64,192,89365,1,0,0:0:0:0:
192,192,89402,1,0,0:0:0:0:
448,192,89438,1,0,0:0:0:0:
320,192,89475,1,0,0:0:0:0:
192,192,89511,1,0,0:0:0:0:
64,192,89548,1,0,0:0:0:0:
448,192,89584,1,0,0:0:0:0:
320,192,89584,1,0,0:0:0:0:
192,192,89620,1,0,0:0:0:0:
64,192,89657,1,0,0:0:0:0:
320,192,89693,1,0,0:0:0:0:
448,192,89730,1,0,0:0:0:0:
192,192,89766,1,0,0:0:0:0:
64,192,89803,1,0,0:0:0:0:
320,192,89803,1,0,0:0:0:0:
448,192,89857,1,0,0:0:0:0:
192,192,89912,1,0,0:0:0:0:
320,192,89912,1,0,0:0:0:0:
64,192,89967,1,0,0:0:0:0:
192,192,90021,1,0,0:0:0:0:
448,192,90021,1,0,0:0:0:0:
320,192,90021,1,0,0:0:0:0:
320,192,90131,1,0,0:0:0:0:
64,192,90131,1,0,0:0:0:0:
448,192,90240,1,0,0:0:0:0:
320,192,90240,1,0,0:0:0:0:
448,192,90349,1,0,0:0:0:0:
192,192,90349,1,0,0:0:0:0:
192,192,90459,1,0,0:0:0:0:
64,192,90459,1,0,0:0:0:0:
320,192,90568,1,0,0:0:0:0:
192,192,90568,1,0,0:0:0:0:
320,192,90677,1,0,0:0:0:0:
64,192,90677,1,0,0:0:0:0:
448,192,90787,1,0,0:0:0:0:
64,192,90787,1,0,0:0:0:0:
448,192,90896,1,0,0:0:0:0:
320,192,90896,1,0,0:0:0:0:
320,192,91005,1,0,0:0:0:0:
192,192,91005,1,0,0:0:0:0:
192,192,91115,1,0,0:0:0:0:
64,192,91115,1,0,0:0:0:0:
448,192,91224,1,0,0:0:0:0:
64,192,91224,1,0,0:0:0:0:
192,192,91333,1,0,0:0:0:0:
64,192,91333,1,0,0:0:0:0:
192,192,91443,1,0,0:0:0:0:
320,192,91443,1,0,0:0:0:0:
448,192,91552,1,0,0:0:0:0:
320,192,91552,1,0,0:0:0:0:
320,192,91661,1,0,0:0:0:0:
192,192,91661,1,0,0:0:0:0:
192,192,91771,1,0,0:0:0:0:
64,192,91771,1,0,0:0:0:0:
448,192,91771,1,0,0:0:0:0:
320,192,91825,1,0,0:0:0:0:
192,192,91880,1,0,0:0:0:0:
448,192,91935,1,0,0:0:0:0:
320,192,91989,1,0,0:0:0:0:
64,192,91989,1,0,0:0:0:0:
192,192,92044,1,0,0:0:0:0:
448,192,92099,1,0,0:0:0:0:
320,192,92153,1,0,0:0:0:0:
192,192,92208,1,0,0:0:0:0:
448,192,92208,1,0,0:0:0:0:
64,192,92263,1,0,0:0:0:0:
192,192,92317,1,0,0:0:0:0:
320,192,92372,1,0,0:0:0:0:
448,192,92427,1,0,0:0:0:0:
64,192,92427,1,0,0:0:0:0:
320,192,92481,1,0,0:0:0:0:
192,192,92536,1,0,0:0:0:0:
64,192,92591,1,0,0:0:0:0:
448,192,92645,1,0,0:0:0:0:
192,192,92645,1,0,0:0:0:0:
320,192,92755,1,0,0:0:0:0:
192,192,92755,1,0,0:0:0:0:
448,192,92864,1,0,0:0:0:0:
320,192,92864,1,0,0:0:0:0:
448,192,92973,1,0,0:0:0:0:
64,192,92973,1,0,0:0:0:0:
192,192,93083,1,0,0:0:0:0:
64,192,93083,1,0,0:0:0:0:
320,192,93192,1,0,0:0:0:0:
192,192,93192,1,0,0:0:0:0:
448,192,93301,1,0,0:0:0:0:
320,192,93301,1,0,0:0:0:0:
64,192,93411,1,0,0:0:0:0:
448,192,93411,1,0,0:0:0:0:
448,192,93520,1,0,0:0:0:0:
192,192,93520,1,0,0:0:0:0:
64,192,93575,1,0,0:0:0:0:
192,192,93629,1,0,0:0:0:0:
320,192,93684,1,0,0:0:0:0:
448,192,93739,1,0,0:0:0:0:
192,192,93739,1,0,0:0:0:0:
320,192,93793,1,0,0:0:0:0:
192,192,93848,1,0,0:0:0:0:
64,192,93903,1,0,0:0:0:0:
448,192,93957,1,0,0:0:0:0:
320,192,93957,1,0,0:0:0:0:
192,192,94012,1,0,0:0:0:0:
64,192,94067,1,0,0:0:0:0:
192,192,94121,1,0,0:0:0:0:
448,192,94176,1,0,0:0:0:0:
320,192,94176,1,0,0:0:0:0:
64,192,94231,1,0,0:0:0:0:
448,192,94285,1,0,0:0:0:0:
192,192,94285,1,0,0:0:0:0:
320,192,94340,1,0,0:0:0:0:
448,192,94395,1,0,0:0:0:0:
64,192,94395,1,0,0:0:0:0:
64,192,94504,1,0,0:0:0:0:
320,192,94504,1,0,0:0:0:0:
192,192,94613,1,0,0:0:0:0:
448,192,94613,1,0,0:0:0:0:
192,192,94722,1,0,0:0:0:0:
320,192,94722,1,0,0:0:0:0:
192,192,94832,1,0,0:0:0:0:
64,192,94832,1,0,0:0:0:0:
320,192,94886,1,0,0:0:0:0:
192,192,94941,1,0,0:0:0:0:
448,192,94941,1,0,0:0:0:0:
320,192,94996,1,0,0:0:0:0:
448,192,95050,1,0,0:0:0:0:
64,192,95050,1,0,0:0:0:0:
192,192,95105,1,0,0:0:0:0:
64,192,95160,1,0,0:0:0:0:
320,192,95160,1,0,0:0:0:0:
192,192,95214,1,0,0:0:0:0:
448,192,95269,1,0,0:0:0:0:
64,192,95269,1,0,0:0:0:0:
320,192,95269,1,0,0:0:0:0:
192,192,95306,1,0,0:0:0:0:
64,192,95342,1,0,0:0:0:0:
448,192,95378,1,0,0:0:0:0:
320,192,95415,1,0,0:0:0:0:
192,192,95451,1,0,0:0:0:0:
64,192,95488,1,0,0:0:0:0:
448,192,95488,1,0,0:0:0:0:
320,192,95524,1,0,0:0:0:0:
192,192,95561,1,0,0:0:0:0:
64,192,95597,1,0,0:0:0:0:
448,192,95634,1,0,0:0:0:0:
320,192,95670,1,0,0:0:0:0:
192,192,95706,1,0,0:0:0:0:
64,192,95706,1,0,0:0:0:0:
448,192,95743,1,0,0:0:0:0:
320,192,95779,1,0,0:0:0:0:
192,192,95816,1,0,0:0:0:0:
64,192,95852,1,0,0:0:0:0:
448,192,95889,1,0,0:0:0:0:
320,192,95925,1,0,0:0:0:0:
192,192,95925,1,0,0:0:0:0:
64,192,95962,1,0,0:0:0:0:
448,192,95998,1,0,0:0:0:0:
320,192,96034,1,0,0:0:0:0:
64,192,96071,1,0,0:0:0:0:
192,192,96107,1,0,0:0:0:0:
448,192,96144,1,0,0:0:0:0:
320,192,96144,1,0,0:0:0:0:
64,192,96180,1,0,0:0:0:0:
192,192,96217,1,0,0:0:0:0:
320,192,96253,1,0,0:0:0:0:
448,192,96290,1,0,0:0:0:0:
64,192,96290,1,0,0:0:0:0:
192,192,96326,1,0,0:0:0:0:
320,192,96362,1,0,0:0:0:0:
448,192,96362,1,0,0:0:0:0:
64,192,96399,1,0,0:0:0:0:
192,192,96435,1,0,0:0:0:0:
320,192,96472,1,0,0:0:0:0:
448,192,96508,1,0,0:0:0:0:
64,192,96545,1,0,0:0:0:0:
192,192,96581,1,0,0:0:0:0:
320,192,96581,1,0,0:0:0:0:
448,192,96618,1,0,0:0:0:0:
64,192,96654,1,0,0:0:0:0:
192,192,96690,1,0,0:0:0:0:
448,192,96690,1,0,0:0:0:0:
320,192,96727,1,0,0:0:0:0:
64,192,96763,1,0,0:0:0:0:
192,192,96800,1,0,0:0:0:0:
448,192,96800,1,0,0:0:0:0:
320,192,96836,1,0,0:0:0:0:
64,192,96873,1,0,0:0:0:0:
448,192,96909,1,0,0:0:0:0:
192,192,96909,1,0,0:0:0:0:
320,192,96946,1,0,0:0:0:0:
64,192,96982,1,0,0:0:0:0:
192,192,97018,1,0,0:0:0:0:
448,192,97018,128,0,97128:0:0:0:0:
64,192,97073,1,0,0:0:0:0:
320,192,97128,1,0,0:0:0:0:
192,192,97237,1,0,0:0:0:0:
64,192,97237,128,0,97346:0:0:0:0:
320,192,97346,1,0,0:0:0:0:
448,192,97346,128,0,97456:0:0:0:0:
192,192,97456,128,0,97565:0:0:0:0:
64,192,97456,1,0,0:0:0:0:
320,192,97565,128,0,97674:0:0:0:0:
448,192,97565,1,0,0:0:0:0:
192,192,97674,1,0,0:0:0:0:
64,192,97674,128,0,97784:0:0:0:0:
192,192,97784,1,0,0:0:0:0:
320,192,97784,128,0,97893:0:0:0:0:
64,192,97893,1,0,0:0:0:0:
448,192,97893,128,0,98002:0:0:0:0:
192,192,98002,1,0,0:0:0:0:
320,192,98002,1,0,0:0:0:0:
192,192,98112,1,0,0:0:0:0:
64,192,98112,1,0,0:0:0:0:
64,192,98221,1,0,0:0:0:0:
320,192,98221,1,0,0:0:0:0:
448,192,98330,1,0,0:0:0:0:
320,192,98330,1,0,0:0:0:0:
448,192,98440,1,0,0:0:0:0:
192,192,98440,1,0,0:0:0:0:
192,192,98549,1,0,0:0:0:0:
64,192,98549,1,0,0:0:0:0:
320,192,98604,1,0,0:0:0:0:
192,192,98658,1,0,0:0:0:0:
448,192,98658,1,0,0:0:0:0:
320,192,98713,1,0,0:0:0:0:
192,192,98768,1,0,0:0:0:0:
64,192,98768,1,0,0:0:0:0:
448,192,98768,1,0,0:0:0:0:
320,192,98877,1,0,0:0:0:0:
64,192,98877,1,0,0:0:0:0:
192,192,98986,128,0,99096:0:0:0:0:
320,192,98986,1,0,0:0:0:0:
448,192,99096,1,0,0:0:0:0:
64,192,99096,1,0,0:0:0:0:
320,192,99205,128,0,99314:0:0:0:0:
448,192,99205,1,0,0:0:0:0:
192,192,99314,1,0,0:0:0:0:
64,192,99314,1,0,0:0:0:0:
448,192,99424,1,0,0:0:0:0:
320,192,99424,1,0,0:0:0:0:
192,192,99533,128,0,99752:0:0:0:0:
448,192,99533,1,0,0:0:0:0:
64,192,99642,1,0,0:0:0:0:
320,192,99642,1,0,0:0:0:0:
320,192,99752,1,0,0:0:0:0:
448,192,99752,1,0,0:0:0:0:
448,192,99861,1,0,0:0:0:0:
64,192,99861,1,0,0:0:0:0:
64,192,99970,128,0,100080:0:0:0:0:
320,192,99970,1,0,0:0:0:0:
192,192,100080,128,0,100189:0:0:0:0:
448,192,100080,1,0,0:0:0:0:
448,192,100189,128,0,100408:0:0:0:0:
320,192,100189,1,0,0:0:0:0:
320,192,100298,1,0,0:0:0:0:
64,192,100298,1,0,0:0:0:0:
192,192,100408,1,0,0:0:0:0:
64,192,100408,1,0,0:0:0:0:
320,192,100462,1,0,0:0:0:0:
192,192,100517,128,0,100736:0:0:0:0:
448,192,100517,1,0,0:0:0:0:
64,192,100517,1,0,0:0:0:0:
64,192,100626,1,0,0:0:0:0:
320,192,100626,1,0,0:0:0:0:
448,192,100736,1,0,0:0:0:0:
320,192,100790,1,0,0:0:0:0:
64,192,100845,128,0,101064:0:0:0:0:
192,192,100845,1,0,0:0:0:0:
448,192,100845,1,0,0:0:0:0:
192,192,100954,1,0,0:0:0:0:
320,192,100954,1,0,0:0:0:0:
320,192,101064,1,0,0:0:0:0:
448,192,101064,1,0,0:0:0:0:
192,192,101118,1,0,0:0:0:0:
320,192,101173,128,0,101282:0:0:0:0:
64,192,101173,1,0,0:0:0:0:
448,192,101173,1,0,0:0:0:0:
64,192,101282,1,0,0:0:0:0:
192,192,101337,1,0,0:0:0:0:
64,192,101392,128,0,101501:0:0:0:0:
448,192,101392,1,0,0:0:0:0:
320,192,101392,1,0,0:0:0:0:
320,192,101501,1,0,0:0:0:0:
192,192,101556,1,0,0:0:0:0:
448,192,101610,128,0,101720:0:0:0:0:
64,192,101610,1,0,0:0:0:0:
320,192,101610,1,0,0:0:0:0:
192,192,101720,1,0,0:0:0:0:
320,192,101774,1,0,0:0:0:0:
64,192,101829,128,0,101938:0:0:0:0:
448,192,101829,1,0,0:0:0:0:
192,192,101829,1,0,0:0:0:0:
320,192,101938,1,0,0:0:0:0:
448,192,101938,1,0,0:0:0:0:
192,192,101993,1,0,0:0:0:0:
64,192,101993,1,0,0:0:0:0:
448,192,102048,1,0,0:0:0:0:
320,192,102048,1,0,0:0:0:0:
192,192,102102,1,0,0:0:0:0:
64,192,102102,1,0,0:0:0:0:
448,192,102157,1,0,0:0:0:0:
320,192,102157,1,0,0:0:0:0:
192,192,102212,1,0,0:0:0:0:
64,192,102212,1,0,0:0:0:0:
448,192,102266,1,0,0:0:0:0:
320,192,102266,1,0,0:0:0:0:
64,192,102303,1,0,0:0:0:0:
192,192,102339,1,0,0:0:0:0:
448,192,102376,1,0,0:0:0:0:
320,192,102412,1,0,0:0:0:0:
192,192,102448,1,0,0:0:0:0:
64,192,102485,1,0,0:0:0:0:
448,192,102485,1,0,0:0:0:0:
192,192,102521,1,0,0:0:0:0:
320,192,102558,1,0,0:0:0:0:
448,192,102594,1,0,0:0:0:0:
64,192,102631,1,0,0:0:0:0:
192,192,102667,1,0,0:0:0:0:
448,192,102704,1,0,0:0:0:0:
320,192,102704,1,0,0:0:0:0:
64,192,102740,1,0,0:0:0:0:
192,192,102776,1,0,0:0:0:0:
320,192,102813,1,0,0:0:0:0:
448,192,102849,1,0,0:0:0:0:
64,192,102886,1,0,0:0:0:0:
320,192,102922,1,0,0:0:0:0:
192,192,102922,1,0,0:0:0:0:
448,192,102959,1,0,0:0:0:0:
64,192,102995,1,0,0:0:0:0:
192,192,103032,1,0,0:0:0:0:
448,192,103068,1,0,0:0:0:0:
320,192,103104,1,0,0:0:0:0:
192,192,103141,1,0,0:0:0:0:
64,192,103141,1,0,0:0:0:0:
448,192,103177,1,0,0:0:0:0:
320,192,103214,1,0,0:0:0:0:
192,192,103250,1,0,0:0:0:0:
448,192,103287,1,0,0:0:0:0:
64,192,103287,1,0,0:0:0:0:
320,192,103323,1,0,0:0:0:0:
64,192,103360,1,0,0:0:0:0:
192,192,103360,1,0,0:0:0:0:
448,192,103396,1,0,0:0:0:0:
320,192,103432,1,0,0:0:0:0:
192,192,103469,1,0,0:0:0:0:
64,192,103505,1,0,0:0:0:0:
448,192,103542,1,0,0:0:0:0:
192,192,103578,1,0,0:0:0:0:
320,192,103578,1,0,0:0:0:0:
448,192,103633,1,0,0:0:0:0:
64,192,103633,1,0,0:0:0:0:
192,192,103688,1,0,0:0:0:0:
320,192,103688,1,0,0:0:0:0:
448,192,103742,1,0,0:0:0:0:
64,192,103742,1,0,0:0:0:0:
192,192,103797,1,0,0:0:0:0:
320,192,103797,1,0,0:0:0:0:
448,192,103852,1,0,0:0:0:0:
64,192,103852,1,0,0:0:0:0:
192,192,103906,1,0,0:0:0:0:
320,192,103906,1,0,0:0:0:0:
64,192,103961,1,0,0:0:0:0:
448,192,104015,1,0,0:0:0:0:
320,192,104015,1,0,0:0:0:0:
192,192,104070,1,0,0:0:0:0:
448,192,104125,1,0,0:0:0:0:
320,192,104125,1,0,0:0:0:0:
64,192,104179,1,0,0:0:0:0:
320,192,104234,1,0,0:0:0:0:
192,192,104234,1,0,0:0:0:0:
448,192,104289,1,0,0:0:0:0:
192,192,104343,1,0,0:0:0:0:
64,192,104343,1,0,0:0:0:0:
320,192,104398,1,0,0:0:0:0:
192,192,104453,1,0,0:0:0:0:
64,192,104453,1,0,0:0:0:0:
448,192,104507,1,0,0:0:0:0:
320,192,104562,1,0,0:0:0:0:
192,192,104562,1,0,0:0:0:0:
64,192,104617,1,0,0:0:0:0:
192,192,104671,1,0,0:0:0:0:
320,192,104671,1,0,0:0:0:0:
448,192,104726,1,0,0:0:0:0:
192,192,104781,1,0,0:0:0:0:
64,192,104781,1,0,0:0:0:0:
320,192,104835,1,0,0:0:0:0:
448,192,104890,1,0,0:0:0:0:
192,192,104890,1,0,0:0:0:0:
320,192,104945,1,0,0:0:0:0:
448,192,104999,1,0,0:0:0:0:
64,192,104999,1,0,0:0:0:0:
192,192,105054,1,0,0:0:0:0:
320,192,105109,1,0,0:0:0:0:
64,192,105109,1,0,0:0:0:0:
192,192,105163,1,0,0:0:0:0:
448,192,105218,1,0,0:0:0:0:
64,192,105218,1,0,0:0:0:0:
320,192,105273,1,0,0:0:0:0:
192,192,105327,1,0,0:0:0:0:
448,192,105327,1,0,0:0:0:0:
320,192,105382,1,0,0:0:0:0:
64,192,105437,1,0,0:0:0:0:
448,192,105437,1,0,0:0:0:0:
192,192,105491,1,0,0:0:0:0:
320,192,105546,1,0,0:0:0:0:
448,192,105546,1,0,0:0:0:0:
192,192,105601,1,0,0:0:0:0:
64,192,105601,1,0,0:0:0:0:
320,192,105655,1,0,0:0:0:0:
448,192,105655,1,0,0:0:0:0:
192,192,105710,1,0,0:0:0:0:
64,192,105710,1,0,0:0:0:0:
448,192,105765,1,0,0:0:0:0:
320,192,105765,1,0,0:0:0:0:
192,192,105819,1,0,0:0:0:0:
64,192,105874,1,0,0:0:0:0:
448,192,105874,1,0,0:0:0:0:
192,192,105983,1,0,0:0:0:0:
448,192,105983,1,0,0:0:0:0:
64,192,106038,1,0,0:0:0:0:
320,192,106093,1,0,0:0:0:0:
192,192,106093,1,0,0:0:0:0:
320,192,106202,1,0,0:0:0:0:
64,192,106202,1,0,0:0:0:0:
448,192,106257,1,0,0:0:0:0:
192,192,106311,1,0,0:0:0:0:
64,192,106311,1,0,0:0:0:0:
320,192,106366,1,0,0:0:0:0:
448,192,106366,1,0,0:0:0:0:
192,192,106421,1,0,0:0:0:0:
64,192,106421,1,0,0:0:0:0:
320,192,106475,1,0,0:0:0:0:
448,192,106475,1,0,0:0:0:0:
192,192,106530,1,0,0:0:0:0:
64,192,106530,1,0,0:0:0:0:
320,192,106585,1,0,0:0:0:0:
448,192,106585,1,0,0:0:0:0:
192,192,106639,1,0,0:0:0:0:
64,192,106639,1,0,0:0:0:0:
320,192,106694,1,0,0:0:0:0:
448,192,106749,1,0,0:0:0:0:
192,192,106749,1,0,0:0:0:0:
320,192,106858,1,0,0:0:0:0:
64,192,106858,128,0,106967:0:0:0:0:
448,192,106967,128,0,107077:0:0:0:0:
192,192,106967,1,0,0:0:0:0:
320,192,107077,1,0,0:0:0:0:
64,192,107131,1,0,0:0:0:0:
448,192,107186,1,0,0:0:0:0:
320,192,107186,1,0,0:0:0:0:
192,192,107241,1,0,0:0:0:0:
64,192,107241,1,0,0:0:0:0:
448,192,107295,1,0,0:0:0:0:
320,192,107295,1,0,0:0:0:0:
192,192,107350,1,0,0:0:0:0:
64,192,107350,1,0,0:0:0:0:
320,192,107405,1,0,0:0:0:0:
448,192,107405,1,0,0:0:0:0:
192,192,107459,1,0,0:0:0:0:
64,192,107459,1,0,0:0:0:0:
320,192,107514,1,0,0:0:0:0:
448,192,107514,1,0,0:0:0:0:
64,192,107623,1,0,0:0:0:0:
320,192,107623,1,0,0:0:0:0:
192,192,107678,1,0,0:0:0:0:
320,192,107733,1,0,0:0:0:0:
448,192,107733,1,0,0:0:0:0:
64,192,107787,1,0,0:0:0:0:
192,192,107842,1,0,0:0:0:0:
448,192,107842,1,0,0:0:0:0:
320,192,107897,1,0,0:0:0:0:
64,192,107951,1,0,0:0:0:0:
192,192,107951,1,0,0:0:0:0:
320,192,108061,1,0,0:0:0:0:
192,192,108061,1,0,0:0:0:0:
64,192,108115,1,0,0:0:0:0:
448,192,108170,1,0,0:0:0:0:
192,192,108170,1,0,0:0:0:0:
320,192,108225,1,0,0:0:0:0:
64,192,108279,1,0,0:0:0:0:
448,192,108279,1,0,0:0:0:0:
192,192,108334,1,0,0:0:0:0:
320,192,108389,1,0,0:0:0:0:
64,192,108389,1,0,0:0:0:0:
448,192,108462,1,0,0:0:0:0:
448,192,108534,1,0,0:0:0:0:
192,192,108607,1,0,0:0:0:0:
64,192,108607,1,0,0:0:0:0:
64,192,108680,1,0,0:0:0:0:
320,192,108753,1,0,0:0:0:0:
192,192,108826,1,0,0:0:0:0:
448,192,108826,1,0,0:0:0:0:
448,192,108899,1,0,0:0:0:0:
64,192,108972,1,0,0:0:0:0:
192,192,109045,1,0,0:0:0:0:
320,192,109045,1,0,0:0:0:0:
448,192,109045,1,0,0:0:0:0:
192,192,109118,1,0,0:0:0:0:
64,192,109190,1,0,0:0:0:0:
64,192,109263,1,0,0:0:0:0:
320,192,109263,1,0,0:0:0:0:
448,192,109263,1,0,0:0:0:0:
192,192,109336,1,0,0:0:0:0:
448,192,109409,1,0,0:0:0:0:
320,192,109482,1,0,0:0:0:0:
64,192,109482,1,0,0:0:0:0:
192,192,109555,1,0,0:0:0:0:
320,192,109628,1,0,0:0:0:0:
448,192,109701,1,0,0:0:0:0:
64,192,109701,1,0,0:0:0:0:
192,192,109774,1,0,0:0:0:0:
320,192,109846,1,0,0:0:0:0:
448,192,109919,1,0,0:0:0:0:
192,192,109919,1,0,0:0:0:0:
64,192,109992,1,0,0:0:0:0:
320,192,110065,1,0,0:0:0:0:
192,192,110138,1,0,0:0:0:0:
64,192,110138,1,0,0:0:0:0:
448,192,110211,1,0,0:0:0:0:
192,192,110284,1,0,0:0:0:0:
320,192,110357,1,0,0:0:0:0:
448,192,110357,1,0,0:0:0:0:
64,192,110429,1,0,0:0:0:0:
320,192,110502,1,0,0:0:0:0:
448,192,110575,1,0,0:0:0:0:
192,192,110575,1,0,0:0:0:0:
64,192,110648,1,0,0:0:0:0:
192,192,110721,1,0,0:0:0:0:
320,192,110794,1,0,0:0:0:0:
448,192,110794,1,0,0:0:0:0:
448,192,110867,1,0,0:0:0:0:
320,192,110940,1,0,0:0:0:0:
192,192,111013,1,0,0:0:0:0:
448,192,111013,1,0,0:0:0:0:
64,192,111013,1,0,0:0:0:0:
64,192,111085,1,0,0:0:0:0:
192,192,111158,1,0,0:0:0:0:
320,192,111231,1,0,0:0:0:0:
448,192,111231,1,0,0:0:0:0:
320,192,111304,1,0,0:0:0:0:
448,192,111377,1,0,0:0:0:0:
192,192,111450,1,0,0:0:0:0:
64,192,111450,1,0,0:0:0:0:
64,192,111523,1,0,0:0:0:0:
320,192,111596,1,0,0:0:0:0:
448,192,111669,1,0,0:0:0:0:
192,192,111669,1,0,0:0:0:0:
64,192,111741,1,0,0:0:0:0:
320,192,111814,128,0,112033:0:0:0:0:
192,192,111887,1,0,0:0:0:0:
64,192,111887,1,0,0:0:0:0:
448,192,111960,1,0,0:0:0:0:
192,192,112033,1,0,0:0:0:0:
64,192,112106,1,0,0:0:0:0:
448,192,112106,1,0,0:0:0:0:
320,192,112179,1,0,0:0:0:0:
64,192,112252,1,0,0:0:0:0:
448,192,112325,1,0,0:0:0:0:
320,192,112325,1,0,0:0:0:0:
320,192,112397,1,0,0:0:0:0:
192,192,112470,1,0,0:0:0:0:
64,192,112543,1,0,0:0:0:0:
448,192,112543,1,0,0:0:0:0:
64,192,112616,1,0,0:0:0:0:
320,192,112689,1,0,0:0:0:0:
64,192,112762,1,0,0:0:0:0:
192,192,112762,1,0,0:0:0:0:
448,192,112762,128,0,113199:0:0:0:0:
320,192,112835,1,0,0:0:0:0:
192,192,112908,1,0,0:0:0:0:
64,192,112981,1,0,0:0:0:0:
320,192,112981,1,0,0:0:0:0:
192,192,113053,1,0,0:0:0:0:
320,192,113126,1,0,0:0:0:0:
192,192,113199,1,0,0:0:0:0:
64,192,113199,1,0,0:0:0:0:
320,192,113272,1,0,0:0:0:0:
448,192,113345,1,0,0:0:0:0:
64,192,113418,1,0,0:0:0:0:
320,192,113418,1,0,0:0:0:0:
448,192,113491,1,0,0:0:0:0:
192,192,113564,1,0,0:0:0:0:
320,192,113636,1,0,0:0:0:0:
64,192,113636,128,0,114074:0:0:0:0:
448,192,113709,1,0,0:0:0:0:
192,192,113782,1,0,0:0:0:0:
320,192,113855,1,0,0:0:0:0:
448,192,113855,1,0,0:0:0:0:
192,192,113928,1,0,0:0:0:0:
320,192,114001,1,0,0:0:0:0:
192,192,114074,1,0,0:0:0:0:
448,192,114074,1,0,0:0:0:0:
320,192,114147,1,0,0:0:0:0:
64,192,114147,1,0,0:0:0:0:
448,192,114220,1,0,0:0:0:0:
192,192,114220,1,0,0:0:0:0:
320,192,114292,1,0,0:0:0:0:
64,192,114292,1,0,0:0:0:0:
448,192,114365,1,0,0:0:0:0:
192,192,114365,1,0,0:0:0:0:
320,192,114438,1,0,0:0:0:0:
64,192,114438,1,0,0:0:0:0:
448,192,114511,1,0,0:0:0:0:
192,192,114511,1,0,0:0:0:0:
320,192,114656,1,0,0:0:0:0:
192,192,114656,1,0,0:0:0:0:
64,192,114656,1,0,0:0:0:0:
64,192,114801,1,0,0:0:0:0:
192,192,114801,1,0,0:0:0:0:
448,192,114801,1,0,0:0:0:0:
448,192,114947,1,0,0:0:0:0:
64,192,114947,1,0,0:0:0:0:
320,192,114947,1,0,0:0:0:0:
320,192,115080,1,0,0:0:0:0:
192,192,115080,1,0,0:0:0:0:
448,192,115080,1,0,0:0:0:0:
192,192,115214,1,0,0:0:0:0:
64,192,115214,1,0,0:0:0:0:
448,192,115214,1,0,0:0:0:0:
64,192,115348,1,0,0:0:0:0:
448,192,115348,1,0,0:0:0:0:
320,192,115348,1,0,0:0:0:0:
320,192,115489,1,0,0:0:0:0:
192,192,115489,1,0,0:0:0:0:
64,192,115489,1,0,0:0:0:0:
448,192,115631,1,0,0:0:0:0:
320,192,115631,1,0,0:0:0:0:
64,192,115631,1,0,0:0:0:0:
320,192,115772,1,0,0:0:0:0:
64,192,115772,1,0,0:0:0:0:
448,192,115772,1,0,0:0:0:0:
192,192,115848,1,0,0:0:0:0:
320,192,115924,1,0,0:0:0:0:
448,192,115924,1,0,0:0:0:0:
192,192,116000,1,0,0:0:0:0:
64,192,116077,1,0,0:0:0:0:
448,192,116077,1,0,0:0:0:0:
192,192,116153,1,0,0:0:0:0:
320,192,116229,1,0,0:0:0:0:
448,192,116229,128,0,116697:0:0:0:0:
64,192,116332,1,0,0:0:0:0:
192,192,116405,1,0,0:0:0:0:
320,192,116478,1,0,0:0:0:0:
64,192,116478,1,0,0:0:0:0:
192,192,116551,1,0,0:0:0:0:
320,192,116628,1,0,0:0:0:0:
64,192,116697,1,0,0:0:0:0:
192,192,116697,1,0,0:0:0:0:
320,192,116770,1,0,0:0:0:0:
192,192,116843,1,0,0:0:0:0:
64,192,116843,1,0,0:0:0:0:
448,192,116915,1,0,0:0:0:0:
320,192,116988,1,0,0:0:0:0:
192,192,116988,1,0,0:0:0:0:
64,192,117061,1,0,0:0:0:0:
448,192,117134,1,0,0:0:0:0:
320,192,117134,1,0,0:0:0:0:
192,192,117207,1,0,0:0:0:0:
64,192,117280,1,0,0:0:0:0:
448,192,117353,1,0,0:0:0:0:
192,192,117353,1,0,0:0:0:0:
64,192,117426,1,0,0:0:0:0:
192,192,117499,1,0,0:0:0:0:
320,192,117571,1,0,0:0:0:0:
192,192,117571,128,0,117717:0:0:0:0:
448,192,117644,1,0,0:0:0:0:
64,192,117717,1,0,0:0:0:0:
320,192,117790,1,0,0:0:0:0:
448,192,117790,1,0,0:0:0:0:
192,192,117863,1,0,0:0:0:0:
320,192,117936,1,0,0:0:0:0:
64,192,118009,1,0,0:0:0:0:
320,192,118009,128,0,118227:0:0:0:0:
192,192,118082,1,0,0:0:0:0:
448,192,118155,1,0,0:0:0:0:
192,192,118227,1,0,0:0:0:0:
64,192,118227,1,0,0:0:0:0:
448,192,118300,1,0,0:0:0:0:
192,192,118373,1,0,0:0:0:0:
448,192,118446,1,0,0:0:0:0:
320,192,118446,1,0,0:0:0:0:
448,192,118519,1,0,0:0:0:0:
320,192,118596,1,0,0:0:0:0:
192,192,118665,1,0,0:0:0:0:
64,192,118665,1,0,0:0:0:0:
64,192,118738,1,0,0:0:0:0:
320,192,118811,1,0,0:0:0:0:
192,192,118883,1,0,0:0:0:0:
448,192,118883,1,0,0:0:0:0:
320,192,118956,1,0,0:0:0:0:
64,192,119029,1,0,0:0:0:0:
192,192,119102,1,0,0:0:0:0:
448,192,119102,1,0,0:0:0:0:
320,192,119175,1,0,0:0:0:0:
192,192,119248,1,0,0:0:0:0:
448,192,119321,1,0,0:0:0:0:
320,192,119321,1,0,0:0:0:0:
192,192,119394,1,0,0:0:0:0:
64,192,119394,1,0,0:0:0:0:
448,192,119466,1,0,0:0:0:0:
320,192,119466,1,0,0:0:0:0:
192,192,119539,1,0,0:0:0:0:
64,192,119539,1,0,0:0:0:0:
320,192,119612,1,0,0:0:0:0:
448,192,119612,1,0,0:0:0:0:
192,192,119685,1,0,0:0:0:0:
64,192,119685,1,0,0:0:0:0:
320,192,119758,128,0,119908:0:0:0:0:
448,192,119758,128,0,119977:0:0:0:0:
192,192,119831,1,0,0:0:0:0:
64,192,119908,1,0,0:0:0:0:
192,192,119977,1,0,0:0:0:0:
320,192,120050,1,0,0:0:0:0:
448,192,120122,1,0,0:0:0:0:
320,192,120195,1,0,0:0:0:0:
192,192,120195,1,0,0:0:0:0:
448,192,120268,1,0,0:0:0:0:
64,192,120268,1,0,0:0:0:0:
192,192,120341,1,0,0:0:0:0:
320,192,120341,1,0,0:0:0:0:
448,192,120414,1,0,0:0:0:0:
64,192,120414,1,0,0:0:0:0:
192,192,120487,1,0,0:0:0:0:
320,192,120487,1,0,0:0:0:0:
448,192,120560,1,0,0:0:0:0:
64,192,120560,1,0,0:0:0:0:
192,192,120633,128,0,120851:0:0:0:0:
320,192,120633,128,0,120778:0:0:0:0:
448,192,120706,1,0,0:0:0:0:
64,192,120778,1,0,0:0:0:0:
448,192,120851,1,0,0:0:0:0:
320,192,120924,1,0,0:0:0:0:
192,192,120997,1,0,0:0:0:0:
320,192,121070,1,0,0:0:0:0:
64,192,121070,1,0,0:0:0:0:
192,192,121143,1,0,0:0:0:0:
448,192,121143,1,0,0:0:0:0:
320,192,121216,1,0,0:0:0:0:
64,192,121216,1,0,0:0:0:0:
192,192,121289,1,0,0:0:0:0:
448,192,121289,1,0,0:0:0:0:
320,192,121362,1,0,0:0:0:0:
64,192,121362,1,0,0:0:0:0:
192,192,121434,1,0,0:0:0:0:
448,192,121434,1,0,0:0:0:0:
64,192,121507,1,0,0:0:0:0:
320,192,121507,1,0,0:0:0:0:
192,192,121580,1,0,0:0:0:0:
320,192,121653,1,0,0:0:0:0:
64,192,121653,1,0,0:0:0:0:
192,192,121726,1,0,0:0:0:0:
448,192,121726,1,0,0:0:0:0:
320,192,121799,1,0,0:0:0:0:
192,192,121876,1,0,0:0:0:0:
64,192,121876,1,0,0:0:0:0:
320,192,121945,1,0,0:0:0:0:
448,192,121945,1,0,0:0:0:0:
192,192,122018,1,0,0:0:0:0:
64,192,122018,1,0,0:0:0:0:
320,192,122090,1,0,0:0:0:0:
192,192,122163,1,0,0:0:0:0:
448,192,122163,1,0,0:0:0:0:
320,192,122236,1,0,0:0:0:0:
64,192,122236,1,0,0:0:0:0:
192,192,122309,1,0,0:0:0:0:
448,192,122382,1,0,0:0:0:0:
64,192,122382,1,0,0:0:0:0:
320,192,122455,1,0,0:0:0:0:
192,192,122455,1,0,0:0:0:0:
448,192,122528,1,0,0:0:0:0:
64,192,122528,1,0,0:0:0:0:
192,192,122601,1,0,0:0:0:0:
320,192,122601,1,0,0:0:0:0:
448,192,122673,1,0,0:0:0:0:
64,192,122673,1,0,0:0:0:0:
192,192,122746,1,0,0:0:0:0:
320,192,122819,1,0,0:0:0:0:
448,192,122819,128,0,123257:0:0:0:0:
64,192,122819,1,0,0:0:0:0:
192,192,123038,128,0,123257:0:0:0:0:
320,192,123257,1,0,0:0:0:0:
64,192,123257,1,0,0:0:0:0:
64,192,123475,1,0,0:0:0:0:
192,192,123475,1,0,0:0:0:0:
192,192,123694,1,0,0:0:0:0:
64,192,123694,1,0,0:0:0:0:
448,192,123803,128,0,123913:0:0:0:0:
192,192,123913,1,0,0:0:0:0:
64,192,123913,1,0,0:0:0:0:
320,192,124022,128,0,124131:0:0:0:0:
192,192,124131,1,0,0:0:0:0:
64,192,124131,1,0,0:0:0:0:
192,192,124350,1,0,0:0:0:0:
64,192,124350,1,0,0:0:0:0:
192,192,124569,1,0,0:0:0:0:
64,192,124569,1,0,0:0:0:0:
320,192,124678,128,0,124787:0:0:0:0:
192,192,124787,1,0,0:0:0:0:
64,192,124787,1,0,0:0:0:0:
448,192,124897,128,0,125006:0:0:0:0:
192,192,125006,1,0,0:0:0:0:
64,192,125006,1,0,0:0:0:0:
192,192,125225,1,0,0:0:0:0:
64,192,125225,1,0,0:0:0:0:
448,192,125334,128,0,125443:0:0:0:0:
192,192,125443,1,0,0:0:0:0:
64,192,125443,1,0,0:0:0:0:
320,192,125553,128,0,125662:0:0:0:0:
192,192,125662,1,0,0:0:0:0:
64,192,125662,1,0,0:0:0:0:
448,192,125771,128,0,125880:0:0:0:0:
192,192,125880,1,0,0:0:0:0:
64,192,125880,1,0,0:0:0:0:
320,192,125990,128,0,126099:0:0:0:0:
192,192,126099,1,0,0:0:0:0:
64,192,126099,1,0,0:0:0:0:
448,192,126208,128,0,126318:0:0:0:0:
192,192,126318,1,0,0:0:0:0:
64,192,126318,1,0,0:0:0:0:
320,192,126427,128,0,126536:0:0:0:0:
192,192,126536,1,0,0:0:0:0:
64,192,126536,1,0,0:0:0:0:
448,192,126646,128,0,126755:0:0:0:0:
192,192,126755,1,0,0:0:0:0:
64,192,126755,1,0,0:0:0:0:
320,192,126864,128,0,126974:0:0:0:0:
192,192,126974,1,0,0:0:0:0:
64,192,126974,1,0,0:0:0:0:
448,192,127083,128,0,127192:0:0:0:0:
192,192,127192,1,0,0:0:0:0:
64,192,127192,1,0,0:0:0:0:
320,192,127302,128,0,127411:0:0:0:0:
192,192,127411,1,0,0:0:0:0:
64,192,127411,1,0,0:0:0:0:
448,192,127520,128,0,127630:0:0:0:0:
192,192,127630,1,0,0:0:0:0:
64,192,127630,1,0,0:0:0:0:
192,192,127848,1,0,0:0:0:0:
64,192,127848,1,0,0:0:0:0:
192,192,128067,1,0,0:0:0:0:
64,192,128067,1,0,0:0:0:0:
192,192,128286,1,0,0:0:0:0:
64,192,128286,1,0,0:0:0:0:
448,192,128395,128,0,128504:0:0:0:0:
64,192,128504,1,0,0:0:0:0:
192,192,128504,1,0,0:0:0:0:
320,192,128614,128,0,128723:0:0:0:0:
192,192,128723,1,0,0:0:0:0:
64,192,128723,1,0,0:0:0:0:
448,192,128832,128,0,128942:0:0:0:0:
192,192,128942,1,0,0:0:0:0:
64,192,128942,1,0,0:0:0:0:
320,192,129051,128,0,129160:0:0:0:0:
64,192,129160,1,0,0:0:0:0:
192,192,129160,1,0,0:0:0:0:
448,192,129270,128,0,129379:0:0:0:0:
192,192,129379,1,0,0:0:0:0:
64,192,129379,1,0,0:0:0:0:
320,192,129434,1,0,0:0:0:0:
448,192,129488,1,0,0:0:0:0:
192,192,129488,1,0,0:0:0:0:
320,192,129543,1,0,0:0:0:0:
64,192,129598,1,0,0:0:0:0:
448,192,129598,1,0,0:0:0:0:
192,192,129652,1,0,0:0:0:0:
64,192,129707,1,0,0:0:0:0:
320,192,129707,1,0,0:0:0:0:
192,192,129762,1,0,0:0:0:0:
320,192,129816,1,0,0:0:0:0:
64,192,129816,128,0,130035:0:0:0:0:
448,192,129816,128,0,130035:0:0:0:0:
320,192,130035,128,0,130254:0:0:0:0:
192,192,130035,128,0,130217:0:0:0:0:
448,192,130254,1,0,0:0:0:0:
64,192,130254,1,0,0:0:0:0:
192,192,130290,1,0,0:0:0:0:
320,192,130327,1,0,0:0:0:0:
64,192,130363,1,0,0:0:0:0:
192,192,130399,1,0,0:0:0:0:
448,192,130436,1,0,0:0:0:0:
320,192,130472,1,0,0:0:0:0:
64,192,130472,1,0,0:0:0:0:
192,192,130509,1,0,0:0:0:0:
448,192,130545,1,0,0:0:0:0:
320,192,130582,1,0,0:0:0:0:
192,192,130618,1,0,0:0:0:0:
448,192,130655,1,0,0:0:0:0:
64,192,130691,1,0,0:0:0:0:
320,192,130691,1,0,0:0:0:0:
192,192,130727,1,0,0:0:0:0:
448,192,130764,1,0,0:0:0:0:
320,192,130800,1,0,0:0:0:0:
64,192,130841,1,0,0:0:0:0:
192,192,130873,1,0,0:0:0:0:
320,192,130910,1,0,0:0:0:0:
448,192,130910,1,0,0:0:0:0:
64,192,130946,1,0,0:0:0:0:
192,192,130983,1,0,0:0:0:0:
448,192,131019,1,0,0:0:0:0:
320,192,131055,1,0,0:0:0:0:
64,192,131092,1,0,0:0:0:0:
448,192,131128,1,0,0:0:0:0:
192,192,131128,1,0,0:0:0:0:
320,192,131165,1,0,0:0:0:0:
64,192,131201,1,0,0:0:0:0:
192,192,131238,1,0,0:0:0:0:
448,192,131274,1,0,0:0:0:0:
320,192,131311,1,0,0:0:0:0:
192,192,131347,1,0,0:0:0:0:
64,192,131347,1,0,0:0:0:0:
448,192,131383,1,0,0:0:0:0:
320,192,131420,1,0,0:0:0:0:
64,192,131456,1,0,0:0:0:0:
192,192,131493,1,0,0:0:0:0:
320,192,131529,1,0,0:0:0:0:
448,192,131566,1,0,0:0:0:0:
64,192,131566,1,0,0:0:0:0:
192,192,131602,1,0,0:0:0:0:
320,192,131639,1,0,0:0:0:0:
448,192,131675,1,0,0:0:0:0:
192,192,131711,1,0,0:0:0:0:
64,192,131748,1,0,0:0:0:0:
320,192,131784,1,0,0:0:0:0:
448,192,131784,1,0,0:0:0:0:
192,192,131821,1,0,0:0:0:0:
64,192,131857,1,0,0:0:0:0:
448,192,131894,1,0,0:0:0:0:
320,192,131930,1,0,0:0:0:0:
64,192,131966,1,0,0:0:0:0:
448,192,132003,1,0,0:0:0:0:
192,192,132003,1,0,0:0:0:0:
320,192,132112,1,0,0:0:0:0:
64,192,132112,1,0,0:0:0:0:
448,192,132222,1,0,0:0:0:0:
320,192,132222,1,0,0:0:0:0:
192,192,132222,1,0,0:0:0:0:
448,192,132331,1,0,0:0:0:0:
64,192,132331,1,0,0:0:0:0:
192,192,132440,1,0,0:0:0:0:
64,192,132440,1,0,0:0:0:0:
448,192,132440,1,0,0:0:0:0:
320,192,132550,1,0,0:0:0:0:
192,192,132550,1,0,0:0:0:0:
448,192,132659,1,0,0:0:0:0:
320,192,132659,1,0,0:0:0:0:
64,192,132659,1,0,0:0:0:0:
448,192,132768,1,0,0:0:0:0:
192,192,132768,1,0,0:0:0:0:
320,192,132878,1,0,0:0:0:0:
192,192,132878,1,0,0:0:0:0:
64,192,132878,1,0,0:0:0:0:
64,192,132987,1,0,0:0:0:0:
320,192,132987,1,0,0:0:0:0:
448,192,133096,1,0,0:0:0:0:
320,192,133096,1,0,0:0:0:0:
192,192,133096,1,0,0:0:0:0:
192,192,133206,1,0,0:0:0:0:
448,192,133206,1,0,0:0:0:0:
64,192,133315,1,0,0:0:0:0:
320,192,133315,1,0,0:0:0:0:
192,192,133315,1,0,0:0:0:0:
64,192,133424,1,0,0:0:0:0:
320,192,133424,1,0,0:0:0:0:
448,192,133534,1,0,0:0:0:0:
320,192,133534,1,0,0:0:0:0:
192,192,133534,1,0,0:0:0:0:
192,192,133643,1,0,0:0:0:0:
320,192,133643,1,0,0:0:0:0:
448,192,133752,1,0,0:0:0:0:
192,192,133752,1,0,0:0:0:0:
64,192,133752,1,0,0:0:0:0:
320,192,133789,1,0,0:0:0:0:
192,192,133825,1,0,0:0:0:0:
64,192,133862,1,0,0:0:0:0:
320,192,133898,1,0,0:0:0:0:
192,192,133934,1,0,0:0:0:0:
448,192,133971,1,0,0:0:0:0:
64,192,133971,1,0,0:0:0:0:
320,192,134007,1,0,0:0:0:0:
192,192,134044,1,0,0:0:0:0:
448,192,134080,1,0,0:0:0:0:
64,192,134121,1,0,0:0:0:0:
192,192,134153,1,0,0:0:0:0:
320,192,134190,1,0,0:0:0:0:
448,192,134190,1,0,0:0:0:0:
64,192,134226,1,0,0:0:0:0:
192,192,134262,1,0,0:0:0:0:
320,192,134299,1,0,0:0:0:0:
448,192,134335,1,0,0:0:0:0:
64,192,134372,1,0,0:0:0:0:
320,192,134408,1,0,0:0:0:0:
192,192,134408,1,0,0:0:0:0:
448,192,134445,1,0,0:0:0:0:
64,192,134481,1,0,0:0:0:0:
320,192,134518,1,0,0:0:0:0:
192,192,134554,1,0,0:0:0:0:
320,192,134590,1,0,0:0:0:0:
64,192,134627,1,0,0:0:0:0:
448,192,134627,1,0,0:0:0:0:
192,192,134663,1,0,0:0:0:0:
448,192,134700,1,0,0:0:0:0:
320,192,134736,1,0,0:0:0:0:
64,192,134773,1,0,0:0:0:0:
192,192,134809,1,0,0:0:0:0:
448,192,134846,1,0,0:0:0:0:
320,192,134846,1,0,0:0:0:0:
64,192,134882,1,0,0:0:0:0:
192,192,134918,1,0,0:0:0:0:
448,192,134955,1,0,0:0:0:0:
320,192,134991,1,0,0:0:0:0:
64,192,135028,1,0,0:0:0:0:
192,192,135064,1,0,0:0:0:0:
448,192,135064,1,0,0:0:0:0:
320,192,135101,1,0,0:0:0:0:
64,192,135137,1,0,0:0:0:0:
192,192,135173,1,0,0:0:0:0:
448,192,135210,1,0,0:0:0:0:
320,192,135246,1,0,0:0:0:0:
64,192,135283,1,0,0:0:0:0:
192,192,135283,1,0,0:0:0:0:
448,192,135319,1,0,0:0:0:0:
320,192,135356,1,0,0:0:0:0:
64,192,135392,1,0,0:0:0:0:
192,192,135429,1,0,0:0:0:0:
448,192,135465,1,0,0:0:0:0:
320,192,135501,1,0,0:0:0:0:
64,192,135501,1,0,0:0:0:0:
192,192,135501,1,0,0:0:0:0:
320,192,135611,1,0,0:0:0:0:
192,192,135611,1,0,0:0:0:0:
448,192,135720,1,0,0:0:0:0:
64,192,135720,1,0,0:0:0:0:
192,192,135720,1,0,0:0:0:0:
64,192,135829,1,0,0:0:0:0:
320,192,135829,1,0,0:0:0:0:
448,192,135829,1,0,0:0:0:0:
64,192,135939,1,0,0:0:0:0:
192,192,135939,1,0,0:0:0:0:
448,192,135939,1,0,0:0:0:0:
448,192,136048,1,0,0:0:0:0:
320,192,136048,1,0,0:0:0:0:
192,192,136048,1,0,0:0:0:0:
320,192,136157,1,0,0:0:0:0:
192,192,136157,1,0,0:0:0:0:
448,192,136267,1,0,0:0:0:0:
320,192,136267,1,0,0:0:0:0:
64,192,136267,1,0,0:0:0:0:
192,192,136376,1,0,0:0:0:0:
64,192,136376,1,0,0:0:0:0:
448,192,136376,1,0,0:0:0:0:
320,192,136431,1,0,0:0:0:0:
192,192,136485,1,0,0:0:0:0:
64,192,136485,1,0,0:0:0:0:
320,192,136540,1,0,0:0:0:0:
448,192,136540,1,0,0:0:0:0:
192,192,136595,1,0,0:0:0:0:
64,192,136595,1,0,0:0:0:0:
320,192,136649,1,0,0:0:0:0:
448,192,136649,1,0,0:0:0:0:
192,192,136704,1,0,0:0:0:0:
64,192,136704,1,0,0:0:0:0:
320,192,136759,1,0,0:0:0:0:
448,192,136813,1,0,0:0:0:0:
64,192,136813,1,0,0:0:0:0:
192,192,136868,1,0,0:0:0:0:
320,192,136923,1,0,0:0:0:0:
64,192,136923,1,0,0:0:0:0:
192,192,136977,1,0,0:0:0:0:
448,192,137032,1,0,0:0:0:0:
320,192,137032,1,0,0:0:0:0:
192,192,137087,1,0,0:0:0:0:
64,192,137141,1,0,0:0:0:0:
448,192,137141,1,0,0:0:0:0:
320,192,137196,1,0,0:0:0:0:
192,192,137251,1,0,0:0:0:0:
64,192,137251,1,0,0:0:0:0:
448,192,137251,1,0,0:0:0:0:
320,192,137287,1,0,0:0:0:0:
192,192,137324,1,0,0:0:0:0:
64,192,137360,1,0,0:0:0:0:
448,192,137360,1,0,0:0:0:0:
320,192,137397,1,0,0:0:0:0:
192,192,137433,1,0,0:0:0:0:
64,192,137469,1,0,0:0:0:0:
448,192,137469,1,0,0:0:0:0:
320,192,137524,1,0,0:0:0:0:
192,192,137579,1,0,0:0:0:0:
64,192,137579,1,0,0:0:0:0:
448,192,137633,1,0,0:0:0:0:
320,192,137688,1,0,0:0:0:0:
192,192,137688,1,0,0:0:0:0:
64,192,137743,1,0,0:0:0:0:
320,192,137797,1,0,0:0:0:0:
448,192,137797,1,0,0:0:0:0:
64,192,137852,1,0,0:0:0:0:
192,192,137907,1,0,0:0:0:0:
448,192,137907,1,0,0:0:0:0:
320,192,137961,1,0,0:0:0:0:
64,192,138016,1,0,0:0:0:0:
192,192,138016,1,0,0:0:0:0:
320,192,138071,1,0,0:0:0:0:
448,192,138125,1,0,0:0:0:0:
64,192,138125,1,0,0:0:0:0:
192,192,138180,1,0,0:0:0:0:
320,192,138235,1,0,0:0:0:0:
64,192,138289,1,0,0:0:0:0:
448,192,138344,1,0,0:0:0:0:
192,192,138344,1,0,0:0:0:0:
320,192,138399,1,0,0:0:0:0:
64,192,138453,1,0,0:0:0:0:
192,192,138508,1,0,0:0:0:0:
448,192,138563,1,0,0:0:0:0:
320,192,138563,1,0,0:0:0:0:
192,192,138617,1,0,0:0:0:0:
64,192,138672,1,0,0:0:0:0:
320,192,138727,1,0,0:0:0:0:
192,192,138781,1,0,0:0:0:0:
64,192,138781,1,0,0:0:0:0:
448,192,138836,1,0,0:0:0:0:
320,192,138891,1,0,0:0:0:0:
192,192,138945,1,0,0:0:0:0:
64,192,139000,1,0,0:0:0:0:
448,192,139000,1,0,0:0:0:0:
320,192,139000,1,0,0:0:0:0:
192,192,139036,1,0,0:0:0:0:
320,192,139073,1,0,0:0:0:0:
448,192,139109,1,0,0:0:0:0:
64,192,139109,1,0,0:0:0:0:
192,192,139146,1,0,0:0:0:0:
320,192,139182,1,0,0:0:0:0:
448,192,139219,1,0,0:0:0:0:
64,192,139219,1,0,0:0:0:0:
192,192,139273,1,0,0:0:0:0:
320,192,139328,1,0,0:0:0:0:
64,192,139328,1,0,0:0:0:0:
192,192,139383,1,0,0:0:0:0:
448,192,139437,1,0,0:0:0:0:
320,192,139437,1,0,0:0:0:0:
64,192,139492,1,0,0:0:0:0:
192,192,139547,1,0,0:0:0:0:
448,192,139547,1,0,0:0:0:0:
320,192,139601,1,0,0:0:0:0:
64,192,139656,1,0,0:0:0:0:
192,192,139656,1,0,0:0:0:0:
448,192,139711,1,0,0:0:0:0:
320,192,139765,1,0,0:0:0:0:
64,192,139765,1,0,0:0:0:0:
192,192,139820,1,0,0:0:0:0:
448,192,139875,1,0,0:0:0:0:
320,192,139875,1,0,0:0:0:0:
64,192,139929,1,0,0:0:0:0:
192,192,139984,1,0,0:0:0:0:
448,192,140039,1,0,0:0:0:0:
320,192,140093,1,0,0:0:0:0:
64,192,140093,1,0,0:0:0:0:
192,192,140148,1,0,0:0:0:0:
448,192,140203,1,0,0:0:0:0:
320,192,140257,1,0,0:0:0:0:
192,192,140312,1,0,0:0:0:0:
64,192,140312,1,0,0:0:0:0:
448,192,140367,1,0,0:0:0:0:
320,192,140421,1,0,0:0:0:0:
192,192,140476,1,0,0:0:0:0:
448,192,140531,1,0,0:0:0:0:
64,192,140531,1,0,0:0:0:0:
320,192,140585,1,0,0:0:0:0:
192,192,140640,1,0,0:0:0:0:
448,192,140695,1,0,0:0:0:0:
192,192,140749,1,0,0:0:0:0:
64,192,140749,128,0,140968:0:0:0:0:
320,192,140749,1,0,0:0:0:0:
448,192,140804,1,0,0:0:0:0:
192,192,140859,128,0,140968:0:0:0:0:
320,192,140859,1,0,0:0:0:0:
448,192,140913,1,0,0:0:0:0:
320,192,140968,128,0,141187:0:0:0:0:
448,192,141077,128,0,141187:0:0:0:0:
192,192,141077,1,0,0:0:0:0:
64,192,141132,1,0,0:0:0:0:
192,192,141187,128,0,141405:0:0:0:0:
64,192,141296,128,0,141405:0:0:0:0:
448,192,141296,1,0,0:0:0:0:
320,192,141351,1,0,0:0:0:0:
448,192,141405,128,0,141624:0:0:0:0:
320,192,141515,128,0,141624:0:0:0:0:
64,192,141515,1,0,0:0:0:0:
192,192,141569,1,0,0:0:0:0:
64,192,141624,128,0,141843:0:0:0:0:
192,192,141733,128,0,141843:0:0:0:0:
448,192,141733,1,0,0:0:0:0:
320,192,141788,1,0,0:0:0:0:
448,192,141843,128,0,142061:0:0:0:0:
320,192,141952,128,0,142061:0:0:0:0:
192,192,141952,1,0,0:0:0:0:
64,192,142007,1,0,0:0:0:0:
192,192,142061,128,0,142280:0:0:0:0:
64,192,142171,128,0,142280:0:0:0:0:
320,192,142171,1,0,0:0:0:0:
448,192,142225,1,0,0:0:0:0:
320,192,142280,128,0,142499:0:0:0:0:
448,192,142389,128,0,142499:0:0:0:0:
64,192,142389,1,0,0:0:0:0:
192,192,142444,1,0,0:0:0:0:
64,192,142499,128,0,142717:0:0:0:0:
192,192,142553,1,0,0:0:0:0:
448,192,142608,128,0,142827:0:0:0:0:
320,192,142608,1,0,0:0:0:0:
192,192,142717,128,0,142936:0:0:0:0:
320,192,142717,1,0,0:0:0:0:
320,192,142827,128,0,143045:0:0:0:0:
64,192,142827,1,0,0:0:0:0:
64,192,142936,128,0,143155:0:0:0:0:
448,192,142936,1,0,0:0:0:0:
448,192,143045,128,0,143264:0:0:0:0:
192,192,143045,1,0,0:0:0:0:
192,192,143155,128,0,143373:0:0:0:0:
320,192,143155,1,0,0:0:0:0:
320,192,143264,128,0,143483:0:0:0:0:
64,192,143264,1,0,0:0:0:0:
64,192,143373,128,0,143592:0:0:0:0:
448,192,143373,1,0,0:0:0:0:
448,192,143483,128,0,143701:0:0:0:0:
192,192,143483,1,0,0:0:0:0:
320,192,143592,128,0,143811:0:0:0:0:
192,192,143592,1,0,0:0:0:0:
64,192,143701,1,0,0:0:0:0:
192,192,143756,1,0,0:0:0:0:
448,192,143811,128,0,144248:0:0:0:0:
64,192,143811,1,0,0:0:0:0:
64,192,143920,1,0,0:0:0:0:
320,192,143920,1,0,0:0:0:0:
192,192,143975,1,0,0:0:0:0:
64,192,144029,1,0,0:0:0:0:
320,192,144029,1,0,0:0:0:0:
192,192,144084,1,0,0:0:0:0:
64,192,144139,1,0,0:0:0:0:
320,192,144139,1,0,0:0:0:0:
192,192,144193,1,0,0:0:0:0:
64,192,144248,1,0,0:0:0:0:
320,192,144248,1,0,0:0:0:0:
192,192,144284,1,0,0:0:0:0:
320,192,144321,1,0,0:0:0:0:
448,192,144357,1,0,0:0:0:0:
64,192,144357,1,0,0:0:0:0:
192,192,144394,1,0,0:0:0:0:
320,192,144430,1,0,0:0:0:0:
448,192,144466,1,0,0:0:0:0:
64,192,144466,1,0,0:0:0:0:
192,192,144521,1,0,0:0:0:0:
320,192,144576,1,0,0:0:0:0:
64,192,144576,1,0,0:0:0:0:
448,192,144630,1,0,0:0:0:0:
192,192,144685,1,0,0:0:0:0:
320,192,144685,1,0,0:0:0:0:
64,192,144740,1,0,0:0:0:0:
448,192,144794,1,0,0:0:0:0:
192,192,144794,1,0,0:0:0:0:
320,192,144849,1,0,0:0:0:0:
64,192,144904,1,0,0:0:0:0:
192,192,144904,1,0,0:0:0:0:
448,192,144958,1,0,0:0:0:0:
320,192,145013,1,0,0:0:0:0:
64,192,145013,1,0,0:0:0:0:
192,192,145068,1,0,0:0:0:0:
448,192,145122,1,0,0:0:0:0:
320,192,145122,1,0,0:0:0:0:
64,192,145122,1,0,0:0:0:0:
192,192,145177,1,0,0:0:0:0:
320,192,145232,1,0,0:0:0:0:
448,192,145286,1,0,0:0:0:0:
192,192,145341,1,0,0:0:0:0:
64,192,145341,1,0,0:0:0:0:
320,192,145396,1,0,0:0:0:0:
64,192,145450,1,0,0:0:0:0:
192,192,145505,1,0,0:0:0:0:
64,192,145560,1,0,0:0:0:0:
448,192,145560,1,0,0:0:0:0:
320,192,145614,1,0,0:0:0:0:
192,192,145669,1,0,0:0:0:0:
448,192,145724,1,0,0:0:0:0:
320,192,145778,1,0,0:0:0:0:
64,192,145778,1,0,0:0:0:0:
192,192,145833,1,0,0:0:0:0:
64,192,145888,1,0,0:0:0:0:
448,192,145888,1,0,0:0:0:0:
320,192,145942,1,0,0:0:0:0:
448,192,145997,1,0,0:0:0:0:
192,192,145997,1,0,0:0:0:0:
64,192,145997,1,0,0:0:0:0:
320,192,146034,1,0,0:0:0:0:
192,192,146070,1,0,0:0:0:0:
64,192,146106,1,0,0:0:0:0:
448,192,146106,1,0,0:0:0:0:
320,192,146143,1,0,0:0:0:0:
192,192,146179,1,0,0:0:0:0:
64,192,146216,1,0,0:0:0:0:
448,192,146216,1,0,0:0:0:0:
320,192,146270,1,0,0:0:0:0:
192,192,146325,1,0,0:0:0:0:
64,192,146325,1,0,0:0:0:0:
448,192,146380,1,0,0:0:0:0:
320,192,146434,1,0,0:0:0:0:
192,192,146434,1,0,0:0:0:0:
448,192,146489,1,0,0:0:0:0:
64,192,146544,1,0,0:0:0:0:
320,192,146544,1,0,0:0:0:0:
192,192,146598,1,0,0:0:0:0:
448,192,146653,1,0,0:0:0:0:
64,192,146653,1,0,0:0:0:0:
320,192,146708,1,0,0:0:0:0:
192,192,146762,1,0,0:0:0:0:
448,192,146762,1,0,0:0:0:0:
64,192,146817,1,0,0:0:0:0:
192,192,146872,1,0,0:0:0:0:
320,192,146872,1,0,0:0:0:0:
448,192,146926,1,0,0:0:0:0:
64,192,146981,1,0,0:0:0:0:
320,192,147036,1,0,0:0:0:0:
192,192,147090,1,0,0:0:0:0:
64,192,147090,1,0,0:0:0:0:
448,192,147145,1,0,0:0:0:0:
320,192,147200,1,0,0:0:0:0:
64,192,147254,1,0,0:0:0:0:
192,192,147309,1,0,0:0:0:0:
448,192,147309,1,0,0:0:0:0:
320,192,147364,1,0,0:0:0:0:
192,192,147418,1,0,0:0:0:0:
64,192,147473,1,0,0:0:0:0:
448,192,147528,1,0,0:0:0:0:
320,192,147528,1,0,0:0:0:0:
192,192,147582,1,0,0:0:0:0:
64,192,147637,1,0,0:0:0:0:
320,192,147637,1,0,0:0:0:0:
192,192,147692,1,0,0:0:0:0:
320,192,147746,1,0,0:0:0:0:
448,192,147746,1,0,0:0:0:0:
64,192,147801,1,0,0:0:0:0:
192,192,147856,1,0,0:0:0:0:
448,192,147856,1,0,0:0:0:0:
320,192,147910,1,0,0:0:0:0:
64,192,147965,1,0,0:0:0:0:
192,192,147965,1,0,0:0:0:0:
448,192,148020,1,0,0:0:0:0:
320,192,148074,1,0,0:0:0:0:
64,192,148074,1,0,0:0:0:0:
192,192,148129,1,0,0:0:0:0:
320,192,148184,1,0,0:0:0:0:
448,192,148184,1,0,0:0:0:0:
64,192,148238,1,0,0:0:0:0:
192,192,148293,1,0,0:0:0:0:
448,192,148293,1,0,0:0:0:0:
320,192,148348,1,0,0:0:0:0:
64,192,148402,1,0,0:0:0:0:
192,192,148402,1,0,0:0:0:0:
448,192,148457,1,0,0:0:0:0:
320,192,148512,1,0,0:0:0:0:
64,192,148512,1,0,0:0:0:0:
192,192,148566,1,0,0:0:0:0:
320,192,148621,1,0,0:0:0:0:
64,192,148621,128,0,148730:0:0:0:0:
448,192,148621,128,0,148730:0:0:0:0:
320,192,148840,128,0,149004:0:0:0:0:
192,192,149058,128,0,149222:0:0:0:0:
320,192,149277,128,0,149496:0:0:0:0:
192,192,149496,1,0,0:0:0:0:
64,192,149496,1,0,0:0:0:0:
448,192,149496,128,0,149550:0:0:0:0:
192,192,149605,1,0,0:0:0:0:
320,192,149660,1,0,0:0:0:0:
448,192,149714,1,0,0:0:0:0:
192,192,149714,1,0,0:0:0:0:
64,192,149714,128,0,149769:0:0:0:0:
320,192,149824,1,0,0:0:0:0:
192,192,149878,1,0,0:0:0:0:
64,192,149933,1,0,0:0:0:0:
320,192,149933,1,0,0:0:0:0:
448,192,149933,128,0,150152:0:0:0:0:
192,192,150042,1,0,0:0:0:0:
320,192,150042,1,0,0:0:0:0:
192,192,150152,1,0,0:0:0:0:
64,192,150152,128,0,150206:0:0:0:0:
320,192,150261,1,0,0:0:0:0:
192,192,150261,128,0,150480:0:0:0:0:
448,192,150370,1,0,0:0:0:0:
320,192,150370,1,0,0:0:0:0:
64,192,150370,1,0,0:0:0:0:
448,192,150480,1,0,0:0:0:0:
64,192,150480,1,0,0:0:0:0:
320,192,150589,1,0,0:0:0:0:
192,192,150589,1,0,0:0:0:0:
192,192,150698,128,0,150917:0:0:0:0:
64,192,150698,128,0,150917:0:0:0:0:
320,192,150808,128,0,150862:0:0:0:0:
448,192,150808,128,0,150862:0:0:0:0:
320,192,150917,1,0,0:0:0:0:
448,192,150917,1,0,0:0:0:0:
192,192,151026,1,0,0:0:0:0:
64,192,151026,1,0,0:0:0:0:
192,192,151136,1,0,0:0:0:0:
448,192,151136,1,0,0:0:0:0:
64,192,151190,1,0,0:0:0:0:
448,192,151245,1,0,0:0:0:0:
320,192,151245,1,0,0:0:0:0:
192,192,151245,128,0,151300:0:0:0:0:
448,192,151354,1,0,0:0:0:0:
320,192,151409,1,0,0:0:0:0:
192,192,151464,1,0,0:0:0:0:
64,192,151464,1,0,0:0:0:0:
448,192,151464,128,0,151518:0:0:0:0:
64,192,151573,1,0,0:0:0:0:
192,192,151628,1,0,0:0:0:0:
448,192,151682,1,0,0:0:0:0:
320,192,151682,1,0,0:0:0:0:
64,192,151682,128,0,151901:0:0:0:0:
192,192,151792,1,0,0:0:0:0:
320,192,151792,1,0,0:0:0:0:
320,192,151901,1,0,0:0:0:0:
448,192,151901,1,0,0:0:0:0:
448,192,152010,128,0,152229:0:0:0:0:
192,192,152010,128,0,152229:0:0:0:0:
64,192,152010,1,0,0:0:0:0:
320,192,152120,1,0,0:0:0:0:
64,192,152120,1,0,0:0:0:0:
320,192,152229,1,0,0:0:0:0:
64,192,152338,1,0,0:0:0:0:
448,192,152338,128,0,152448:0:0:0:0:
192,192,152338,1,0,0:0:0:0:
320,192,152448,1,0,0:0:0:0:
64,192,152448,128,0,152557:0:0:0:0:
448,192,152557,1,0,0:0:0:0:
320,192,152557,128,0,152666:0:0:0:0:
448,192,152666,1,0,0:0:0:0:
192,192,152666,128,0,152776:0:0:0:0:
320,192,152776,1,0,0:0:0:0:
64,192,152776,128,0,152994:0:0:0:0:
448,192,152776,128,0,152994:0:0:0:0:
320,192,152885,128,0,152940:0:0:0:0:
192,192,152885,1,0,0:0:0:0:
192,192,152994,128,0,153049:0:0:0:0:
64,192,153104,1,0,0:0:0:0:
320,192,153158,1,0,0:0:0:0:
448,192,153213,1,0,0:0:0:0:
192,192,153213,1,0,0:0:0:0:
64,192,153213,128,0,153268:0:0:0:0:
448,192,153322,1,0,0:0:0:0:
192,192,153377,1,0,0:0:0:0:
64,192,153432,1,0,0:0:0:0:
448,192,153432,1,0,0:0:0:0:
320,192,153432,128,0,153650:0:0:0:0:
64,192,153541,1,0,0:0:0:0:
192,192,153541,1,0,0:0:0:0:
192,192,153650,1,0,0:0:0:0:
448,192,153650,1,0,0:0:0:0:
448,192,153760,128,0,153978:0:0:0:0:
192,192,153760,1,0,0:0:0:0:
64,192,153760,1,0,0:0:0:0:
320,192,153869,1,0,0:0:0:0:
192,192,153869,1,0,0:0:0:0:
64,192,153978,1,0,0:0:0:0:
320,192,153978,1,0,0:0:0:0:
448,192,154087,1,0,0:0:0:0:
192,192,154087,1,0,0:0:0:0:
448,192,154197,128,0,154415:0:0:0:0:
320,192,154197,128,0,154415:0:0:0:0:
192,192,154306,128,0,154361:0:0:0:0:
64,192,154306,128,0,154361:0:0:0:0:
192,192,154415,1,0,0:0:0:0:
64,192,154415,1,0,0:0:0:0:
320,192,154525,1,0,0:0:0:0:
192,192,154525,128,0,154579:0:0:0:0:
448,192,154634,1,0,0:0:0:0:
320,192,154689,1,0,0:0:0:0:
192,192,154743,1,0,0:0:0:0:
64,192,154743,1,0,0:0:0:0:
448,192,154743,128,0,154798:0:0:0:0:
64,192,154853,1,0,0:0:0:0:
448,192,154907,1,0,0:0:0:0:
192,192,154962,1,0,0:0:0:0:
320,192,154962,1,0,0:0:0:0:
64,192,154962,128,0,155017:0:0:0:0:
448,192,155071,1,0,0:0:0:0:
64,192,155126,1,0,0:0:0:0:
192,192,155181,1,0,0:0:0:0:
320,192,155181,1,0,0:0:0:0:
448,192,155181,128,0,155399:0:0:0:0:
320,192,155290,1,0,0:0:0:0:
64,192,155290,1,0,0:0:0:0:
192,192,155399,1,0,0:0:0:0:
64,192,155399,128,0,155509:0:0:0:0:
320,192,155509,128,0,155727:0:0:0:0:
192,192,155509,1,0,0:0:0:0:
448,192,155618,1,0,0:0:0:0:
64,192,155618,1,0,0:0:0:0:
192,192,155673,1,0,0:0:0:0:
448,192,155727,1,0,0:0:0:0:
64,192,155727,1,0,0:0:0:0:
192,192,155782,1,0,0:0:0:0:
448,192,155837,1,0,0:0:0:0:
320,192,155837,1,0,0:0:0:0:
192,192,155891,1,0,0:0:0:0:
64,192,155946,1,0,0:0:0:0:
320,192,156001,1,0,0:0:0:0:
448,192,156055,1,0,0:0:0:0:
192,192,156055,1,0,0:0:0:0:
64,192,156110,1,0,0:0:0:0:
320,192,156165,1,0,0:0:0:0:
448,192,156165,1,0,0:0:0:0:
192,192,156219,1,0,0:0:0:0:
64,192,156274,128,0,156438:0:0:0:0:
320,192,156274,128,0,156438:0:0:0:0:
192,192,156493,1,0,0:0:0:0:
320,192,156493,1,0,0:0:0:0:
448,192,156493,1,0,0:0:0:0:
448,192,156602,1,0,0:0:0:0:
320,192,156602,1,0,0:0:0:0:
192,192,156602,1,0,0:0:0:0:
192,192,156711,1,0,0:0:0:0:
320,192,156711,1,0,0:0:0:0:
448,192,156711,1,0,0:0:0:0:
320,192,156821,1,0,0:0:0:0:
192,192,156821,1,0,0:0:0:0:
64,192,156821,1,0,0:0:0:0:
192,192,156930,1,0,0:0:0:0:
64,192,156930,1,0,0:0:0:0:
320,192,156930,1,0,0:0:0:0:
320,192,157039,1,0,0:0:0:0:
192,192,157039,1,0,0:0:0:0:
64,192,157039,1,0,0:0:0:0:
64,192,157149,1,0,0:0:0:0:
448,192,157149,1,0,0:0:0:0:
192,192,157149,1,0,0:0:0:0:
448,192,157258,1,0,0:0:0:0:
192,192,157258,1,0,0:0:0:0:
64,192,157258,1,0,0:0:0:0:
448,192,157367,1,0,0:0:0:0:
192,192,157367,1,0,0:0:0:0:
64,192,157367,1,0,0:0:0:0:
448,192,157477,1,0,0:0:0:0:
320,192,157477,1,0,0:0:0:0:
64,192,157477,1,0,0:0:0:0:
64,192,157586,1,0,0:0:0:0:
320,192,157586,1,0,0:0:0:0:
448,192,157586,1,0,0:0:0:0:
64,192,157695,1,0,0:0:0:0:
320,192,157695,1,0,0:0:0:0:
448,192,157695,1,0,0:0:0:0:
192,192,157805,1,0,0:0:0:0:
320,192,157805,1,0,0:0:0:0:
64,192,157805,1,0,0:0:0:0:
320,192,157914,1,0,0:0:0:0:
192,192,157914,1,0,0:0:0:0:
64,192,157914,1,0,0:0:0:0:
64,192,158023,1,0,0:0:0:0:
192,192,158023,1,0,0:0:0:0:
320,192,158023,1,0,0:0:0:0:
448,192,158133,1,0,0:0:0:0:
192,192,158133,1,0,0:0:0:0:
320,192,158133,1,0,0:0:0:0:
192,192,158242,1,0,0:0:0:0:
320,192,158242,1,0,0:0:0:0:
448,192,158242,1,0,0:0:0:0:
448,192,158351,1,0,0:0:0:0:
320,192,158351,1,0,0:0:0:0:
192,192,158351,1,0,0:0:0:0:
320,192,158461,1,0,0:0:0:0:
448,192,158461,1,0,0:0:0:0:
64,192,158461,1,0,0:0:0:0:
64,192,158570,1,0,0:0:0:0:
320,192,158570,1,0,0:0:0:0:
448,192,158570,1,0,0:0:0:0:
448,192,158679,1,0,0:0:0:0:
320,192,158679,1,0,0:0:0:0:
64,192,158679,1,0,0:0:0:0:
64,192,158789,1,0,0:0:0:0:
192,192,158789,1,0,0:0:0:0:
448,192,158789,1,0,0:0:0:0:
448,192,158898,1,0,0:0:0:0:
192,192,158898,1,0,0:0:0:0:
64,192,158898,1,0,0:0:0:0:
64,192,159007,1,0,0:0:0:0:
192,192,159007,1,0,0:0:0:0:
448,192,159007,1,0,0:0:0:0:
320,192,159117,1,0,0:0:0:0:
448,192,159117,1,0,0:0:0:0:
64,192,159117,1,0,0:0:0:0:
64,192,159226,1,0,0:0:0:0:
320,192,159226,1,0,0:0:0:0:
448,192,159226,1,0,0:0:0:0:
448,192,159335,1,0,0:0:0:0:
320,192,159335,1,0,0:0:0:0:
64,192,159335,1,0,0:0:0:0:
320,192,159445,1,0,0:0:0:0:
192,192,159445,1,0,0:0:0:0:
64,192,159445,1,0,0:0:0:0:
320,192,159554,1,0,0:0:0:0:
192,192,159554,1,0,0:0:0:0:
64,192,159554,1,0,0:0:0:0:
64,192,159663,1,0,0:0:0:0:
192,192,159663,1,0,0:0:0:0:
320,192,159663,1,0,0:0:0:0:
448,192,159773,1,0,0:0:0:0:
192,192,159773,1,0,0:0:0:0:
64,192,159773,1,0,0:0:0:0:
64,192,159882,1,0,0:0:0:0:
192,192,159882,1,0,0:0:0:0:
448,192,159882,1,0,0:0:0:0:
448,192,159991,1,0,0:0:0:0:
192,192,159991,1,0,0:0:0:0:
64,192,159991,1,0,0:0:0:0:
448,192,160101,1,0,0:0:0:0:
320,192,160101,1,0,0:0:0:0:
192,192,160101,1,0,0:0:0:0:
192,192,160210,1,0,0:0:0:0:
320,192,160210,1,0,0:0:0:0:
448,192,160210,1,0,0:0:0:0:
448,192,160319,1,0,0:0:0:0:
320,192,160319,1,0,0:0:0:0:
192,192,160319,1,0,0:0:0:0:
64,192,160429,1,0,0:0:0:0:
192,192,160429,1,0,0:0:0:0:
320,192,160429,1,0,0:0:0:0:
320,192,160538,1,0,0:0:0:0:
192,192,160538,1,0,0:0:0:0:
64,192,160538,1,0,0:0:0:0:
64,192,160647,1,0,0:0:0:0:
192,192,160647,1,0,0:0:0:0:
320,192,160647,1,0,0:0:0:0:
448,192,160757,1,0,0:0:0:0:
192,192,160757,1,0,0:0:0:0:
64,192,160757,1,0,0:0:0:0:
64,192,160866,1,0,0:0:0:0:
192,192,160866,1,0,0:0:0:0:
448,192,160866,1,0,0:0:0:0:
448,192,160975,1,0,0:0:0:0:
192,192,160975,1,0,0:0:0:0:
64,192,160975,1,0,0:0:0:0:
448,192,161085,1,0,0:0:0:0:
320,192,161085,1,0,0:0:0:0:
192,192,161085,1,0,0:0:0:0:
192,192,161194,1,0,0:0:0:0:
320,192,161194,1,0,0:0:0:0:
448,192,161194,1,0,0:0:0:0:
448,192,161303,1,0,0:0:0:0:
320,192,161303,1,0,0:0:0:0:
192,192,161303,1,0,0:0:0:0:
64,192,161413,128,0,161522:0:0:0:0:
448,192,161413,128,0,161522:0:0:0:0:
192,192,161413,128,0,161522:0:0:0:0:
