osu file format v14

[General]
AudioFilename: audio130.mp3
AudioLeadIn: 0
PreviewTime: 40546
Countdown: 0
SampleSet: None
StackLeniency: 0.2
Mode: 3
LetterboxInBreaks: 0
SpecialStyle: 0
WidescreenStoryboard: 1

[Editor]
Bookmarks: 809,4577,8345,12112,19648,27183,34718,42253,57324,64859,72395,79930,87465,102536,117607,132678,140212,147748,160935,168470,174122
DistanceSpacing: 1.75
BeatDivisor: 4
GridSize: 4
TimelineZoom: 1.6

[Metadata]
Title:TONIGHT
TitleUnicode:TONIGHT
Artist:Bentham
ArtistUnicode:Bentham
Creator:Morbon
Version:chill 1.3x
Source:
Tags:im so elite because mapping rock japan punk pop with funny tags haha woah man
BeatmapID:1946060
BeatmapSetID:932035

[Difficulty]
HPDrainRate:6
CircleSize:4
OverallDifficulty:8
ApproachRate:9
SliderMultiplier:2.1
SliderTickRate:2

[Events]
//Background and Video events
0,0,"background.jpg",0,0
//Break Periods
//Storyboard Layer 0 (Background)
//Storyboard Layer 1 (Fail)
//Storyboard Layer 2 (Pass)
//Storyboard Layer 3 (Foreground)
//Storyboard Sound Samples

[TimingPoints]
868,235.478806907378,4,2,0,10,1,0
123316,234.652733508802,4,2,0,10,1,0
123316,-101.010101010101,4,2,0,10,0,0
123786,215.793183812634,4,2,0,10,1,0
123786,-109.170305676856,4,2,0,10,0,0
124217,228.654179607858,4,2,0,10,1,0
124217,-103.092783505155,4,2,0,10,0,0
124674,246.521985652421,4,2,0,10,1,0
124674,-95.2380952380952,4,2,0,10,0,0
125200,235.478806907378,4,2,0,10,1,0
125200,-100,4,2,0,10,0,0

[Colours]
Combo1 : 121,222,251
Combo2 : 236,45,92

[HitObjects]
192,192,868,5,0,0:0:0:0:
64,192,868,1,0,0:0:0:0:
192,192,985,1,0,0:0:0:0:
320,192,985,1,0,0:0:0:0:
64,192,1103,1,0,0:0:0:0:
320,192,1103,1,0,0:0:0:0:
192,192,1221,1,0,0:0:0:0:
320,192,1280,1,0,0:0:0:0:
448,192,1338,1,0,0:0:0:0:
64,192,1338,1,0,0:0:0:0:
448,192,1456,1,0,0:0:0:0:
320,192,1456,1,0,0:0:0:0:
192,192,1574,1,0,0:0:0:0:
448,192,1574,1,0,0:0:0:0:
320,192,1692,1,0,0:0:0:0:
192,192,1751,1,0,0:0:0:0:
64,192,1809,1,0,0:0:0:0:
448,192,1809,1,0,0:0:0:0:
320,192,1927,1,0,0:0:0:0:
64,192,1927,1,0,0:0:0:0:
192,192,2045,1,0,0:0:0:0:
448,192,2045,1,0,0:0:0:0:
320,192,2163,1,0,0:0:0:0:
192,192,2222,1,0,0:0:0:0:
64,192,2280,1,0,0:0:0:0:
448,192,2280,1,0,0:0:0:0:
320,192,2398,1,0,0:0:0:0:
64,192,2398,1,0,0:0:0:0:
192,192,2516,1,0,0:0:0:0:
448,192,2516,1,0,0:0:0:0:
320,192,2634,1,0,0:0:0:0:
448,192,2692,1,0,0:0:0:0:
192,192,2751,1,0,0:0:0:0:
64,192,2751,1,0,0:0:0:0:
448,192,2869,1,0,0:0:0:0:
192,192,2869,1,0,0:0:0:0:
448,192,2987,1,0,0:0:0:0:
64,192,2987,1,0,0:0:0:0:
192,192,3105,1,0,0:0:0:0:
320,192,3163,1,0,0:0:0:0:
192,192,3222,1,0,0:0:0:0:
448,192,3222,1,0,0:0:0:0:
448,192,3340,1,0,0:0:0:0:
320,192,3340,1,0,0:0:0:0:
64,192,3458,1,0,0:0:0:0:
320,192,3458,1,0,0:0:0:0:
192,192,3576,1,0,0:0:0:0:
320,192,3634,1,0,0:0:0:0:
448,192,3693,1,0,0:0:0:0:
64,192,3693,1,0,0:0:0:0:
192,192,3811,1,0,0:0:0:0:
320,192,3811,1,0,0:0:0:0:
448,192,3929,1,0,0:0:0:0:
192,192,3929,1,0,0:0:0:0:
320,192,4046,1,0,0:0:0:0:
192,192,4105,1,0,0:0:0:0:
64,192,4164,1,0,0:0:0:0:
448,192,4164,1,0,0:0:0:0:
320,192,4282,1,0,0:0:0:0:
64,192,4282,1,0,0:0:0:0:
448,192,4400,1,0,0:0:0:0:
192,192,4400,128,0,4635:0:0:0:0:
320,192,4517,1,0,0:0:0:0:
448,192,4576,1,0,0:0:0:0:
320,192,4635,1,0,0:0:0:0:
64,192,4635,128,0,4753:0:0:0:0:
192,192,4753,1,0,0:0:0:0:
448,192,4753,1,0,0:0:0:0:
320,192,4871,1,0,0:0:0:0:
192,192,4871,128,0,4988:0:0:0:0:
448,192,4988,1,0,0:0:0:0:
64,192,4988,1,0,0:0:0:0:
320,192,5047,1,0,0:0:0:0:
192,192,5106,1,0,0:0:0:0:
448,192,5106,128,0,5224:0:0:0:0:
320,192,5224,1,0,0:0:0:0:
64,192,5224,1,0,0:0:0:0:
192,192,5342,1,0,0:0:0:0:
320,192,5342,128,0,5459:0:0:0:0:
192,192,5459,1,0,0:0:0:0:
448,192,5459,1,0,0:0:0:0:
64,192,5518,1,0,0:0:0:0:
320,192,5577,1,0,0:0:0:0:
448,192,5577,128,0,5695:0:0:0:0:
192,192,5695,1,0,0:0:0:0:
64,192,5695,1,0,0:0:0:0:
448,192,5813,1,0,0:0:0:0:
192,192,5813,128,0,5930:0:0:0:0:
320,192,5930,1,0,0:0:0:0:
64,192,5930,1,0,0:0:0:0:
448,192,5989,1,0,0:0:0:0:
320,192,6048,128,0,6166:0:0:0:0:
192,192,6048,1,0,0:0:0:0:
64,192,6166,1,0,0:0:0:0:
448,192,6166,1,0,0:0:0:0:
448,192,6284,1,0,0:0:0:0:
192,192,6284,128,0,6401:0:0:0:0:
320,192,6401,1,0,0:0:0:0:
64,192,6401,1,0,0:0:0:0:
448,192,6460,1,0,0:0:0:0:
64,192,6519,1,0,0:0:0:0:
320,192,6519,128,0,6637:0:0:0:0:
192,192,6637,1,0,0:0:0:0:
448,192,6637,1,0,0:0:0:0:
320,192,6754,1,0,0:0:0:0:
64,192,6754,1,0,0:0:0:0:
192,192,6872,1,0,0:0:0:0:
448,192,6872,1,0,0:0:0:0:
320,192,6931,1,0,0:0:0:0:
192,192,6990,1,0,0:0:0:0:
64,192,6990,128,0,7108:0:0:0:0:
192,192,7108,1,0,0:0:0:0:
320,192,7108,1,0,0:0:0:0:
320,192,7225,1,0,0:0:0:0:
448,192,7225,128,0,7343:0:0:0:0:
64,192,7343,1,0,0:0:0:0:
320,192,7343,1,0,0:0:0:0:
192,192,7402,1,0,0:0:0:0:
448,192,7461,1,0,0:0:0:0:
64,192,7461,128,0,7579:0:0:0:0:
192,192,7579,1,0,0:0:0:0:
448,192,7579,1,0,0:0:0:0:
64,192,7696,1,0,0:0:0:0:
320,192,7696,1,0,0:0:0:0:
448,192,7814,1,0,0:0:0:0:
192,192,7814,1,0,0:0:0:0:
64,192,7873,1,0,0:0:0:0:
192,192,7932,1,0,0:0:0:0:
448,192,7932,128,0,8167:0:0:0:0:
320,192,8050,1,0,0:0:0:0:
64,192,8050,1,0,0:0:0:0:
64,192,8167,128,0,8403:0:0:0:0:
192,192,8167,1,0,0:0:0:0:
448,192,8285,1,0,0:0:0:0:
192,192,8344,1,0,0:0:0:0:
320,192,8403,1,0,0:0:0:0:
448,192,8403,1,0,0:0:0:0:
192,192,8462,1,0,0:0:0:0:
320,192,8521,1,0,0:0:0:0:
448,192,8521,1,0,0:0:0:0:
64,192,8579,1,0,0:0:0:0:
320,192,8638,1,0,0:0:0:0:
192,192,8638,1,0,0:0:0:0:
448,192,8697,1,0,0:0:0:0:
320,192,8756,1,0,0:0:0:0:
64,192,8756,1,0,0:0:0:0:
192,192,8874,1,0,0:0:0:0:
448,192,8874,1,0,0:0:0:0:
320,192,8933,1,0,0:0:0:0:
64,192,8992,1,0,0:0:0:0:
448,192,8992,1,0,0:0:0:0:
192,192,9050,1,0,0:0:0:0:
320,192,9109,1,0,0:0:0:0:
448,192,9109,1,0,0:0:0:0:
192,192,9168,1,0,0:0:0:0:
64,192,9227,1,0,0:0:0:0:
320,192,9227,1,0,0:0:0:0:
192,192,9345,1,0,0:0:0:0:
448,192,9345,1,0,0:0:0:0:
320,192,9404,1,0,0:0:0:0:
192,192,9462,1,0,0:0:0:0:
448,192,9462,1,0,0:0:0:0:
320,192,9521,1,0,0:0:0:0:
64,192,9580,1,0,0:0:0:0:
192,192,9580,1,0,0:0:0:0:
448,192,9698,1,0,0:0:0:0:
320,192,9698,1,0,0:0:0:0:
64,192,9757,1,0,0:0:0:0:
448,192,9816,1,0,0:0:0:0:
192,192,9816,1,0,0:0:0:0:
320,192,9875,1,0,0:0:0:0:
192,192,9933,1,0,0:0:0:0:
448,192,9933,1,0,0:0:0:0:
320,192,9992,1,0,0:0:0:0:
192,192,10051,1,0,0:0:0:0:
64,192,10051,1,0,0:0:0:0:
320,192,10169,1,0,0:0:0:0:
448,192,10169,1,0,0:0:0:0:
64,192,10228,1,0,0:0:0:0:
320,192,10287,1,0,0:0:0:0:
192,192,10287,1,0,0:0:0:0:
448,192,10346,1,0,0:0:0:0:
192,192,10404,1,0,0:0:0:0:
64,192,10404,1,0,0:0:0:0:
448,192,10463,1,0,0:0:0:0:
320,192,10522,1,0,0:0:0:0:
192,192,10522,1,0,0:0:0:0:
320,192,10640,1,0,0:0:0:0:
64,192,10640,1,0,0:0:0:0:
192,192,10699,1,0,0:0:0:0:
320,192,10758,1,0,0:0:0:0:
448,192,10758,1,0,0:0:0:0:
64,192,10816,1,0,0:0:0:0:
192,192,10875,1,0,0:0:0:0:
448,192,10875,1,0,0:0:0:0:
320,192,10934,1,0,0:0:0:0:
64,192,10993,1,0,0:0:0:0:
192,192,10993,1,0,0:0:0:0:
64,192,11111,1,0,0:0:0:0:
448,192,11111,1,0,0:0:0:0:
192,192,11170,1,0,0:0:0:0:
320,192,11229,128,0,11346:0:0:0:0:
448,192,11229,128,0,11346:0:0:0:0:
192,192,11346,1,0,0:0:0:0:
64,192,11346,1,0,0:0:0:0:
320,192,11405,1,0,0:0:0:0:
448,192,11405,1,0,0:0:0:0:
192,192,11464,1,0,0:0:0:0:
64,192,11464,1,0,0:0:0:0:
320,192,11523,1,0,0:0:0:0:
448,192,11523,1,0,0:0:0:0:
192,192,11582,1,0,0:0:0:0:
64,192,11582,1,0,0:0:0:0:
320,192,11641,1,0,0:0:0:0:
448,192,11700,128,0,12170:0:0:0:0:
64,192,11700,128,0,12170:0:0:0:0:
192,192,12170,1,0,0:0:0:0:
320,192,12170,128,0,12288:0:0:0:0:
192,192,12288,1,0,0:0:0:0:
64,192,12347,1,0,0:0:0:0:
448,192,12406,1,0,0:0:0:0:
192,192,12406,128,0,12524:0:0:0:0:
320,192,12524,1,0,0:0:0:0:
448,192,12583,1,0,0:0:0:0:
192,192,12641,1,0,0:0:0:0:
64,192,12641,128,0,12877:0:0:0:0:
320,192,12759,1,0,0:0:0:0:
448,192,12759,1,0,0:0:0:0:
192,192,12877,1,0,0:0:0:0:
448,192,12877,1,0,0:0:0:0:
64,192,12995,1,0,0:0:0:0:
320,192,12995,128,0,13230:0:0:0:0:
192,192,13112,1,0,0:0:0:0:
448,192,13112,1,0,0:0:0:0:
64,192,13230,1,0,0:0:0:0:
192,192,13230,1,0,0:0:0:0:
64,192,13348,1,0,0:0:0:0:
448,192,13348,1,0,0:0:0:0:
192,192,13466,128,0,13701:0:0:0:0:
448,192,13466,1,0,0:0:0:0:
320,192,13583,1,0,0:0:0:0:
448,192,13583,1,0,0:0:0:0:
320,192,13701,1,0,0:0:0:0:
64,192,13701,128,0,13819:0:0:0:0:
320,192,13819,1,0,0:0:0:0:
448,192,13819,1,0,0:0:0:0:
192,192,13937,1,0,0:0:0:0:
320,192,13937,1,0,0:0:0:0:
64,192,13995,1,0,0:0:0:0:
192,192,14054,1,0,0:0:0:0:
448,192,14054,128,0,14172:0:0:0:0:
192,192,14172,1,0,0:0:0:0:
64,192,14172,1,0,0:0:0:0:
320,192,14231,1,0,0:0:0:0:
448,192,14290,1,0,0:0:0:0:
192,192,14290,128,0,14408:0:0:0:0:
64,192,14408,1,0,0:0:0:0:
448,192,14408,1,0,0:0:0:0:
320,192,14525,1,0,0:0:0:0:
448,192,14525,128,0,14761:0:0:0:0:
192,192,14643,1,0,0:0:0:0:
64,192,14643,1,0,0:0:0:0:
192,192,14761,1,0,0:0:0:0:
320,192,14761,1,0,0:0:0:0:
448,192,14878,1,0,0:0:0:0:
64,192,14878,128,0,15114:0:0:0:0:
448,192,14996,1,0,0:0:0:0:
192,192,14996,1,0,0:0:0:0:
320,192,15114,1,0,0:0:0:0:
448,192,15114,1,0,0:0:0:0:
320,192,15232,1,0,0:0:0:0:
192,192,15232,1,0,0:0:0:0:
192,192,15349,1,0,0:0:0:0:
64,192,15349,1,0,0:0:0:0:
192,192,15467,1,0,0:0:0:0:
320,192,15467,1,0,0:0:0:0:
320,192,15585,1,0,0:0:0:0:
448,192,15585,1,0,0:0:0:0:
64,192,15703,1,0,0:0:0:0:
192,192,15703,128,0,15820:0:0:0:0:
448,192,15820,1,0,0:0:0:0:
320,192,15820,1,0,0:0:0:0:
64,192,15879,1,0,0:0:0:0:
320,192,15938,128,0,16056:0:0:0:0:
448,192,15938,1,0,0:0:0:0:
64,192,16056,1,0,0:0:0:0:
192,192,16115,1,0,0:0:0:0:
320,192,16174,1,0,0:0:0:0:
448,192,16174,128,0,16291:0:0:0:0:
192,192,16291,1,0,0:0:0:0:
320,192,16350,1,0,0:0:0:0:
192,192,16409,1,0,0:0:0:0:
64,192,16409,128,0,16645:0:0:0:0:
320,192,16527,1,0,0:0:0:0:
448,192,16527,1,0,0:0:0:0:
192,192,16645,1,0,0:0:0:0:
448,192,16645,1,0,0:0:0:0:
320,192,16762,128,0,16998:0:0:0:0:
192,192,16762,1,0,0:0:0:0:
64,192,16880,1,0,0:0:0:0:
448,192,16880,1,0,0:0:0:0:
192,192,16998,1,0,0:0:0:0:
448,192,16998,1,0,0:0:0:0:
192,192,17116,1,0,0:0:0:0:
64,192,17116,1,0,0:0:0:0:
448,192,17233,1,0,0:0:0:0:
192,192,17233,128,0,17469:0:0:0:0:
320,192,17351,1,0,0:0:0:0:
448,192,17351,1,0,0:0:0:0:
320,192,17469,1,0,0:0:0:0:
64,192,17469,1,0,0:0:0:0:
64,192,17586,1,0,0:0:0:0:
448,192,17586,1,0,0:0:0:0:
192,192,17704,1,0,0:0:0:0:
448,192,17704,1,0,0:0:0:0:
320,192,17763,1,0,0:0:0:0:
448,192,17822,1,0,0:0:0:0:
64,192,17822,128,0,17940:0:0:0:0:
192,192,17940,1,0,0:0:0:0:
320,192,17999,1,0,0:0:0:0:
192,192,18057,1,0,0:0:0:0:
448,192,18057,128,0,18175:0:0:0:0:
320,192,18175,1,0,0:0:0:0:
64,192,18175,128,0,18411:0:0:0:0:
192,192,18293,1,0,0:0:0:0:
448,192,18293,1,0,0:0:0:0:
320,192,18411,1,0,0:0:0:0:
448,192,18411,1,0,0:0:0:0:
192,192,18528,1,0,0:0:0:0:
320,192,18528,1,0,0:0:0:0:
192,192,18646,128,0,18882:0:0:0:0:
448,192,18646,1,0,0:0:0:0:
320,192,18764,1,0,0:0:0:0:
64,192,18764,1,0,0:0:0:0:
64,192,18882,1,0,0:0:0:0:
448,192,18882,1,0,0:0:0:0:
320,192,18999,1,0,0:0:0:0:
448,192,18999,1,0,0:0:0:0:
64,192,19117,1,0,0:0:0:0:
320,192,19117,1,0,0:0:0:0:
64,192,19235,1,0,0:0:0:0:
448,192,19235,1,0,0:0:0:0:
448,192,19353,1,0,0:0:0:0:
320,192,19353,1,0,0:0:0:0:
320,192,19470,1,0,0:0:0:0:
64,192,19470,128,0,19706:0:0:0:0:
192,192,19588,1,0,0:0:0:0:
448,192,19588,1,0,0:0:0:0:
320,192,19706,1,0,0:0:0:0:
448,192,19706,1,0,0:0:0:0:
320,192,19824,1,0,0:0:0:0:
64,192,19941,1,0,0:0:0:0:
192,192,19941,1,0,0:0:0:0:
192,192,20412,1,0,0:0:0:0:
320,192,20412,1,0,0:0:0:0:
448,192,20648,1,0,0:0:0:0:
448,192,20765,1,0,0:0:0:0:
448,192,20883,1,0,0:0:0:0:
192,192,20883,1,0,0:0:0:0:
320,192,21354,1,0,0:0:0:0:
448,192,21354,1,0,0:0:0:0:
64,192,21590,1,0,0:0:0:0:
64,192,21707,1,0,0:0:0:0:
64,192,21825,1,0,0:0:0:0:
448,192,21825,1,0,0:0:0:0:
320,192,22296,1,0,0:0:0:0:
192,192,22296,1,0,0:0:0:0:
448,192,22532,1,0,0:0:0:0:
448,192,22649,1,0,0:0:0:0:
448,192,22767,1,0,0:0:0:0:
64,192,22767,1,0,0:0:0:0:
448,192,23238,1,0,0:0:0:0:
192,192,23238,1,0,0:0:0:0:
320,192,23473,1,0,0:0:0:0:
320,192,23591,1,0,0:0:0:0:
320,192,23709,1,0,0:0:0:0:
64,192,23709,1,0,0:0:0:0:
448,192,24180,1,0,0:0:0:0:
320,192,24180,1,0,0:0:0:0:
192,192,24415,1,0,0:0:0:0:
192,192,24533,1,0,0:0:0:0:
192,192,24651,1,0,0:0:0:0:
448,192,24651,1,0,0:0:0:0:
192,192,25122,1,0,0:0:0:0:
64,192,25122,1,0,0:0:0:0:
448,192,25357,1,0,0:0:0:0:
448,192,25475,1,0,0:0:0:0:
448,192,25593,1,0,0:0:0:0:
320,192,25593,1,0,0:0:0:0:
320,192,26064,1,0,0:0:0:0:
192,192,26064,1,0,0:0:0:0:
64,192,26299,1,0,0:0:0:0:
64,192,26417,1,0,0:0:0:0:
64,192,26535,1,0,0:0:0:0:
448,192,26535,1,0,0:0:0:0:
320,192,26770,1,0,0:0:0:0:
192,192,26770,1,0,0:0:0:0:
448,192,26888,1,0,0:0:0:0:
320,192,26888,1,0,0:0:0:0:
320,192,27006,1,0,0:0:0:0:
64,192,27006,1,0,0:0:0:0:
64,192,27123,1,0,0:0:0:0:
448,192,27123,1,0,0:0:0:0:
320,192,27241,1,0,0:0:0:0:
448,192,27241,128,0,27359:0:0:0:0:
192,192,27359,1,0,0:0:0:0:
320,192,27477,1,0,0:0:0:0:
64,192,27477,1,0,0:0:0:0:
192,192,27594,1,0,0:0:0:0:
192,192,27712,128,0,27830:0:0:0:0:
448,192,27712,1,0,0:0:0:0:
64,192,27830,1,0,0:0:0:0:
64,192,27948,1,0,0:0:0:0:
320,192,27948,1,0,0:0:0:0:
448,192,28065,1,0,0:0:0:0:
448,192,28183,128,0,28301:0:0:0:0:
192,192,28183,1,0,0:0:0:0:
320,192,28301,1,0,0:0:0:0:
320,192,28419,1,0,0:0:0:0:
64,192,28419,1,0,0:0:0:0:
192,192,28536,1,0,0:0:0:0:
192,192,28654,128,0,28772:0:0:0:0:
448,192,28772,1,0,0:0:0:0:
64,192,28889,1,0,0:0:0:0:
320,192,28889,1,0,0:0:0:0:
448,192,29007,1,0,0:0:0:0:
448,192,29125,128,0,29243:0:0:0:0:
192,192,29125,1,0,0:0:0:0:
64,192,29243,1,0,0:0:0:0:
320,192,29360,1,0,0:0:0:0:
448,192,29360,1,0,0:0:0:0:
192,192,29478,1,0,0:0:0:0:
192,192,29596,128,0,29714:0:0:0:0:
448,192,29714,1,0,0:0:0:0:
64,192,29831,1,0,0:0:0:0:
448,192,29831,1,0,0:0:0:0:
320,192,29949,1,0,0:0:0:0:
320,192,30067,128,0,30185:0:0:0:0:
64,192,30067,1,0,0:0:0:0:
448,192,30185,1,0,0:0:0:0:
192,192,30302,1,0,0:0:0:0:
448,192,30302,1,0,0:0:0:0:
64,192,30420,1,0,0:0:0:0:
64,192,30538,128,0,30656:0:0:0:0:
320,192,30538,1,0,0:0:0:0:
448,192,30656,1,0,0:0:0:0:
320,192,30773,1,0,0:0:0:0:
192,192,30773,1,0,0:0:0:0:
448,192,30891,1,0,0:0:0:0:
448,192,31009,128,0,31127:0:0:0:0:
64,192,31009,1,0,0:0:0:0:
192,192,31127,1,0,0:0:0:0:
320,192,31244,1,0,0:0:0:0:
448,192,31244,1,0,0:0:0:0:
192,192,31362,1,0,0:0:0:0:
192,192,31480,128,0,31597:0:0:0:0:
64,192,31480,1,0,0:0:0:0:
448,192,31597,1,0,0:0:0:0:
64,192,31715,1,0,0:0:0:0:
448,192,31715,1,0,0:0:0:0:
320,192,31833,1,0,0:0:0:0:
320,192,31951,128,0,32068:0:0:0:0:
192,192,31951,1,0,0:0:0:0:
64,192,32068,1,0,0:0:0:0:
448,192,32186,1,0,0:0:0:0:
64,192,32186,1,0,0:0:0:0:
192,192,32304,1,0,0:0:0:0:
192,192,32422,128,0,32539:0:0:0:0:
448,192,32422,1,0,0:0:0:0:
320,192,32539,1,0,0:0:0:0:
64,192,32657,1,0,0:0:0:0:
320,192,32657,1,0,0:0:0:0:
448,192,32775,1,0,0:0:0:0:
448,192,32893,128,0,33010:0:0:0:0:
192,192,32893,1,0,0:0:0:0:
64,192,33010,1,0,0:0:0:0:
192,192,33128,1,0,0:0:0:0:
320,192,33128,1,0,0:0:0:0:
64,192,33246,1,0,0:0:0:0:
64,192,33364,128,0,33481:0:0:0:0:
448,192,33364,1,0,0:0:0:0:
320,192,33481,1,0,0:0:0:0:
192,192,33599,1,0,0:0:0:0:
448,192,33599,1,0,0:0:0:0:
320,192,33717,1,0,0:0:0:0:
320,192,33835,128,0,33952:0:0:0:0:
64,192,33835,1,0,0:0:0:0:
448,192,33952,1,0,0:0:0:0:
64,192,34070,1,0,0:0:0:0:
448,192,34070,1,0,0:0:0:0:
192,192,34188,1,0,0:0:0:0:
192,192,34305,128,0,34423:0:0:0:0:
448,192,34305,1,0,0:0:0:0:
320,192,34364,1,0,0:0:0:0:
64,192,34423,1,0,0:0:0:0:
320,192,34482,1,0,0:0:0:0:
64,192,34541,1,0,0:0:0:0:
448,192,34541,128,0,34659:0:0:0:0:
192,192,34600,1,0,0:0:0:0:
64,192,34659,1,0,0:0:0:0:
320,192,34718,1,0,0:0:0:0:
448,192,34776,1,0,0:0:0:0:
64,192,34776,128,0,34894:0:0:0:0:
192,192,34776,128,0,34894:0:0:0:0:
320,192,34894,1,0,0:0:0:0:
448,192,34894,1,0,0:0:0:0:
320,192,35012,1,0,0:0:0:0:
192,192,35012,1,0,0:0:0:0:
448,192,35130,1,0,0:0:0:0:
64,192,35130,1,0,0:0:0:0:
192,192,35247,1,0,0:0:0:0:
64,192,35247,1,0,0:0:0:0:
192,192,35365,1,0,0:0:0:0:
448,192,35365,1,0,0:0:0:0:
64,192,35483,1,0,0:0:0:0:
448,192,35483,1,0,0:0:0:0:
320,192,35601,1,0,0:0:0:0:
64,192,35601,128,0,35718:0:0:0:0:
192,192,35718,1,0,0:0:0:0:
448,192,35836,128,0,35954:0:0:0:0:
320,192,35836,1,0,0:0:0:0:
192,192,35954,1,0,0:0:0:0:
64,192,36072,128,0,36189:0:0:0:0:
320,192,36072,1,0,0:0:0:0:
448,192,36189,1,0,0:0:0:0:
320,192,36307,128,0,36425:0:0:0:0:
192,192,36307,1,0,0:0:0:0:
448,192,36425,1,0,0:0:0:0:
64,192,36543,1,0,0:0:0:0:
448,192,36660,1,0,0:0:0:0:
64,192,36660,1,0,0:0:0:0:
192,192,36660,1,0,0:0:0:0:
320,192,36778,1,0,0:0:0:0:
448,192,36778,1,0,0:0:0:0:
320,192,36896,1,0,0:0:0:0:
192,192,36896,1,0,0:0:0:0:
64,192,37013,1,0,0:0:0:0:
448,192,37013,1,0,0:0:0:0:
320,192,37131,1,0,0:0:0:0:
192,192,37131,1,0,0:0:0:0:
448,192,37249,1,0,0:0:0:0:
64,192,37249,1,0,0:0:0:0:
320,192,37367,1,0,0:0:0:0:
192,192,37367,1,0,0:0:0:0:
192,192,37484,1,0,0:0:0:0:
448,192,37484,1,0,0:0:0:0:
320,192,37602,1,0,0:0:0:0:
320,192,37720,128,0,37838:0:0:0:0:
64,192,37720,1,0,0:0:0:0:
192,192,37838,128,0,37955:0:0:0:0:
64,192,37955,128,0,38073:0:0:0:0:
320,192,38073,128,0,38191:0:0:0:0:
192,192,38191,128,0,38309:0:0:0:0:
320,192,38309,128,0,38426:0:0:0:0:
448,192,38426,128,0,38544:0:0:0:0:
64,192,38544,1,0,0:0:0:0:
192,192,38544,1,0,0:0:0:0:
320,192,38662,1,0,0:0:0:0:
64,192,38662,1,0,0:0:0:0:
448,192,38780,1,0,0:0:0:0:
192,192,38780,1,0,0:0:0:0:
192,192,38897,1,0,0:0:0:0:
64,192,38897,1,0,0:0:0:0:
320,192,39015,1,0,0:0:0:0:
64,192,39015,1,0,0:0:0:0:
448,192,39133,1,0,0:0:0:0:
320,192,39133,1,0,0:0:0:0:
448,192,39251,1,0,0:0:0:0:
192,192,39251,1,0,0:0:0:0:
192,192,39368,1,0,0:0:0:0:
320,192,39368,1,0,0:0:0:0:
64,192,39486,1,0,0:0:0:0:
192,192,39604,128,0,39839:0:0:0:0:
448,192,39604,128,0,39722:0:0:0:0:
320,192,39722,1,0,0:0:0:0:
64,192,39839,1,0,0:0:0:0:
320,192,39839,1,0,0:0:0:0:
448,192,39957,1,0,0:0:0:0:
64,192,39957,1,0,0:0:0:0:
192,192,40075,1,0,0:0:0:0:
320,192,40075,1,0,0:0:0:0:
320,192,40192,1,0,0:0:0:0:
64,192,40192,1,0,0:0:0:0:
192,192,40310,1,0,0:0:0:0:
448,192,40310,1,0,0:0:0:0:
448,192,40428,1,0,0:0:0:0:
192,192,40428,1,0,0:0:0:0:
64,192,40428,128,0,40546:0:0:0:0:
448,192,40546,1,0,0:0:0:0:
320,192,40546,1,0,0:0:0:0:
320,192,40663,1,0,0:0:0:0:
64,192,40663,1,0,0:0:0:0:
64,192,40781,1,0,0:0:0:0:
448,192,40781,1,0,0:0:0:0:
448,192,40899,1,0,0:0:0:0:
192,192,40899,1,0,0:0:0:0:
192,192,41017,1,0,0:0:0:0:
320,192,41017,1,0,0:0:0:0:
64,192,41134,1,0,0:0:0:0:
448,192,41252,1,0,0:0:0:0:
320,192,41252,1,0,0:0:0:0:
320,192,41370,1,0,0:0:0:0:
192,192,41370,1,0,0:0:0:0:
192,192,41488,1,0,0:0:0:0:
64,192,41488,1,0,0:0:0:0:
64,192,41605,1,0,0:0:0:0:
448,192,41605,1,0,0:0:0:0:
448,192,41723,1,0,0:0:0:0:
192,192,41723,1,0,0:0:0:0:
192,192,41841,1,0,0:0:0:0:
448,192,41841,128,0,42017:0:0:0:0:
320,192,41841,1,0,0:0:0:0:
192,192,42076,128,0,42253:0:0:0:0:
64,192,42076,128,0,42253:0:0:0:0:
448,192,42312,5,0,0:0:0:0:
320,192,42312,1,0,0:0:0:0:
192,192,42351,1,0,0:0:0:0:
64,192,42390,1,0,0:0:0:0:
448,192,42430,1,0,0:0:0:0:
320,192,42469,1,0,0:0:0:0:
192,192,42508,1,0,0:0:0:0:
64,192,42547,1,0,0:0:0:0:
448,192,42547,1,0,0:0:0:0:
320,192,42586,1,0,0:0:0:0:
192,192,42626,1,0,0:0:0:0:
448,192,42665,1,0,0:0:0:0:
64,192,42704,1,0,0:0:0:0:
320,192,42743,1,0,0:0:0:0:
448,192,42783,1,0,0:0:0:0:
192,192,42783,1,0,0:0:0:0:
64,192,42822,1,0,0:0:0:0:
320,192,42861,1,0,0:0:0:0:
448,192,42900,1,0,0:0:0:0:
64,192,42940,1,0,0:0:0:0:
192,192,42979,1,0,0:0:0:0:
320,192,43018,1,0,0:0:0:0:
448,192,43018,1,0,0:0:0:0:
64,192,43057,1,0,0:0:0:0:
192,192,43097,1,0,0:0:0:0:
448,192,43136,1,0,0:0:0:0:
320,192,43175,1,0,0:0:0:0:
64,192,43214,1,0,0:0:0:0:
448,192,43254,1,0,0:0:0:0:
192,192,43254,1,0,0:0:0:0:
320,192,43293,1,0,0:0:0:0:
64,192,43332,1,0,0:0:0:0:
448,192,43371,1,0,0:0:0:0:
192,192,43411,1,0,0:0:0:0:
320,192,43450,1,0,0:0:0:0:
64,192,43489,1,0,0:0:0:0:
448,192,43489,1,0,0:0:0:0:
192,192,43528,1,0,0:0:0:0:
320,192,43568,1,0,0:0:0:0:
64,192,43607,1,0,0:0:0:0:
448,192,43646,1,0,0:0:0:0:
192,192,43685,1,0,0:0:0:0:
64,192,43725,1,0,0:0:0:0:
320,192,43764,1,0,0:0:0:0:
448,192,43803,1,0,0:0:0:0:
192,192,43842,1,0,0:0:0:0:
64,192,43842,1,0,0:0:0:0:
320,192,43882,1,0,0:0:0:0:
448,192,43921,1,0,0:0:0:0:
64,192,43960,1,0,0:0:0:0:
192,192,43960,1,0,0:0:0:0:
320,192,44019,1,0,0:0:0:0:
64,192,44078,1,0,0:0:0:0:
448,192,44078,1,0,0:0:0:0:
192,192,44137,1,0,0:0:0:0:
320,192,44196,1,0,0:0:0:0:
64,192,44196,1,0,0:0:0:0:
448,192,44196,1,0,0:0:0:0:
320,192,44313,1,0,0:0:0:0:
192,192,44313,1,0,0:0:0:0:
192,192,44431,1,0,0:0:0:0:
64,192,44431,1,0,0:0:0:0:
192,192,44549,1,0,0:0:0:0:
320,192,44549,1,0,0:0:0:0:
320,192,44667,1,0,0:0:0:0:
448,192,44667,1,0,0:0:0:0:
320,192,44784,1,0,0:0:0:0:
192,192,44784,1,0,0:0:0:0:
448,192,44902,1,0,0:0:0:0:
64,192,44902,1,0,0:0:0:0:
192,192,45020,1,0,0:0:0:0:
320,192,45020,1,0,0:0:0:0:
320,192,45138,1,0,0:0:0:0:
448,192,45138,1,0,0:0:0:0:
64,192,45138,1,0,0:0:0:0:
192,192,45255,1,0,0:0:0:0:
448,192,45255,1,0,0:0:0:0:
320,192,45373,1,0,0:0:0:0:
64,192,45373,1,0,0:0:0:0:
192,192,45491,1,0,0:0:0:0:
64,192,45491,1,0,0:0:0:0:
192,192,45608,1,0,0:0:0:0:
448,192,45608,1,0,0:0:0:0:
448,192,45726,1,0,0:0:0:0:
320,192,45726,1,0,0:0:0:0:
320,192,45844,1,0,0:0:0:0:
64,192,45844,1,0,0:0:0:0:
192,192,45962,1,0,0:0:0:0:
64,192,45962,1,0,0:0:0:0:
192,192,46079,1,0,0:0:0:0:
448,192,46079,1,0,0:0:0:0:
64,192,46079,1,0,0:0:0:0:
320,192,46138,1,0,0:0:0:0:
192,192,46197,1,0,0:0:0:0:
64,192,46256,1,0,0:0:0:0:
448,192,46315,1,0,0:0:0:0:
320,192,46315,1,0,0:0:0:0:
192,192,46374,1,0,0:0:0:0:
64,192,46433,1,0,0:0:0:0:
320,192,46492,1,0,0:0:0:0:
448,192,46550,1,0,0:0:0:0:
64,192,46550,1,0,0:0:0:0:
192,192,46609,1,0,0:0:0:0:
320,192,46668,1,0,0:0:0:0:
64,192,46727,1,0,0:0:0:0:
192,192,46786,1,0,0:0:0:0:
448,192,46786,1,0,0:0:0:0:
320,192,46845,1,0,0:0:0:0:
192,192,46904,1,0,0:0:0:0:
448,192,46962,1,0,0:0:0:0:
320,192,47021,1,0,0:0:0:0:
64,192,47021,1,0,0:0:0:0:
64,192,47139,1,0,0:0:0:0:
448,192,47139,1,0,0:0:0:0:
320,192,47257,1,0,0:0:0:0:
64,192,47257,1,0,0:0:0:0:
320,192,47375,1,0,0:0:0:0:
192,192,47375,1,0,0:0:0:0:
448,192,47492,1,0,0:0:0:0:
192,192,47492,1,0,0:0:0:0:
448,192,47610,1,0,0:0:0:0:
320,192,47610,1,0,0:0:0:0:
192,192,47728,1,0,0:0:0:0:
320,192,47728,1,0,0:0:0:0:
64,192,47787,1,0,0:0:0:0:
192,192,47846,1,0,0:0:0:0:
320,192,47904,1,0,0:0:0:0:
192,192,47963,1,0,0:0:0:0:
448,192,47963,1,0,0:0:0:0:
64,192,47963,1,0,0:0:0:0:
320,192,48022,1,0,0:0:0:0:
192,192,48081,1,0,0:0:0:0:
448,192,48140,1,0,0:0:0:0:
320,192,48199,1,0,0:0:0:0:
64,192,48199,1,0,0:0:0:0:
192,192,48258,1,0,0:0:0:0:
448,192,48316,1,0,0:0:0:0:
320,192,48375,1,0,0:0:0:0:
192,192,48434,1,0,0:0:0:0:
64,192,48434,1,0,0:0:0:0:
448,192,48493,1,0,0:0:0:0:
320,192,48552,1,0,0:0:0:0:
192,192,48611,1,0,0:0:0:0:
448,192,48670,1,0,0:0:0:0:
64,192,48670,1,0,0:0:0:0:
192,192,48729,1,0,0:0:0:0:
448,192,48787,1,0,0:0:0:0:
320,192,48846,1,0,0:0:0:0:
192,192,48905,1,0,0:0:0:0:
64,192,48905,1,0,0:0:0:0:
192,192,49023,1,0,0:0:0:0:
320,192,49023,1,0,0:0:0:0:
320,192,49141,1,0,0:0:0:0:
448,192,49141,1,0,0:0:0:0:
448,192,49258,1,0,0:0:0:0:
192,192,49258,1,0,0:0:0:0:
448,192,49376,1,0,0:0:0:0:
64,192,49376,1,0,0:0:0:0:
320,192,49376,1,0,0:0:0:0:
192,192,49494,1,0,0:0:0:0:
64,192,49494,1,0,0:0:0:0:
320,192,49553,1,0,0:0:0:0:
448,192,49553,1,0,0:0:0:0:
192,192,49612,1,0,0:0:0:0:
64,192,49612,1,0,0:0:0:0:
320,192,49670,1,0,0:0:0:0:
448,192,49670,1,0,0:0:0:0:
192,192,49729,1,0,0:0:0:0:
64,192,49729,1,0,0:0:0:0:
320,192,49788,1,0,0:0:0:0:
448,192,49788,1,0,0:0:0:0:
192,192,49847,1,0,0:0:0:0:
64,192,49847,1,0,0:0:0:0:
320,192,49886,1,0,0:0:0:0:
448,192,49926,1,0,0:0:0:0:
192,192,49965,1,0,0:0:0:0:
64,192,50004,1,0,0:0:0:0:
448,192,50043,1,0,0:0:0:0:
320,192,50083,1,0,0:0:0:0:
192,192,50083,1,0,0:0:0:0:
64,192,50122,1,0,0:0:0:0:
448,192,50161,1,0,0:0:0:0:
320,192,50200,1,0,0:0:0:0:
192,192,50240,1,0,0:0:0:0:
64,192,50279,1,0,0:0:0:0:
320,192,50318,1,0,0:0:0:0:
448,192,50318,1,0,0:0:0:0:
192,192,50357,1,0,0:0:0:0:
64,192,50397,1,0,0:0:0:0:
320,192,50436,1,0,0:0:0:0:
448,192,50475,1,0,0:0:0:0:
64,192,50514,1,0,0:0:0:0:
320,192,50554,1,0,0:0:0:0:
192,192,50554,1,0,0:0:0:0:
448,192,50593,1,0,0:0:0:0:
64,192,50632,1,0,0:0:0:0:
192,192,50671,1,0,0:0:0:0:
448,192,50711,1,0,0:0:0:0:
320,192,50750,1,0,0:0:0:0:
192,192,50789,1,0,0:0:0:0:
64,192,50789,1,0,0:0:0:0:
448,192,50828,1,0,0:0:0:0:
320,192,50867,1,0,0:0:0:0:
192,192,50907,1,0,0:0:0:0:
448,192,50946,1,0,0:0:0:0:
64,192,50985,1,0,0:0:0:0:
192,192,51024,1,0,0:0:0:0:
320,192,51024,1,0,0:0:0:0:
448,192,51064,1,0,0:0:0:0:
64,192,51103,1,0,0:0:0:0:
320,192,51142,1,0,0:0:0:0:
192,192,51181,1,0,0:0:0:0:
64,192,51221,1,0,0:0:0:0:
448,192,51260,1,0,0:0:0:0:
320,192,51260,1,0,0:0:0:0:
192,192,51299,1,0,0:0:0:0:
64,192,51338,1,0,0:0:0:0:
448,192,51378,1,0,0:0:0:0:
320,192,51417,1,0,0:0:0:0:
192,192,51456,1,0,0:0:0:0:
64,192,51495,1,0,0:0:0:0:
448,192,51495,1,0,0:0:0:0:
320,192,51554,1,0,0:0:0:0:
192,192,51613,1,0,0:0:0:0:
64,192,51613,1,0,0:0:0:0:
320,192,51672,1,0,0:0:0:0:
448,192,51731,1,0,0:0:0:0:
192,192,51731,1,0,0:0:0:0:
64,192,51731,1,0,0:0:0:0:
192,192,51849,1,0,0:0:0:0:
448,192,51849,1,0,0:0:0:0:
448,192,51966,1,0,0:0:0:0:
64,192,51966,1,0,0:0:0:0:
192,192,52084,1,0,0:0:0:0:
448,192,52084,1,0,0:0:0:0:
320,192,52202,1,0,0:0:0:0:
192,192,52202,1,0,0:0:0:0:
64,192,52320,1,0,0:0:0:0:
320,192,52320,1,0,0:0:0:0:
64,192,52437,1,0,0:0:0:0:
448,192,52437,1,0,0:0:0:0:
64,192,52555,1,0,0:0:0:0:
320,192,52555,1,0,0:0:0:0:
192,192,52673,1,0,0:0:0:0:
448,192,52673,1,0,0:0:0:0:
320,192,52673,1,0,0:0:0:0:
64,192,52791,1,0,0:0:0:0:
192,192,52791,1,0,0:0:0:0:
192,192,52908,1,0,0:0:0:0:
320,192,52908,1,0,0:0:0:0:
320,192,53026,1,0,0:0:0:0:
448,192,53026,1,0,0:0:0:0:
320,192,53144,1,0,0:0:0:0:
192,192,53144,1,0,0:0:0:0:
64,192,53262,1,0,0:0:0:0:
192,192,53262,1,0,0:0:0:0:
192,192,53379,1,0,0:0:0:0:
320,192,53379,1,0,0:0:0:0:
64,192,53438,1,0,0:0:0:0:
320,192,53497,1,0,0:0:0:0:
448,192,53497,1,0,0:0:0:0:
192,192,53556,1,0,0:0:0:0:
320,192,53615,1,0,0:0:0:0:
448,192,53615,1,0,0:0:0:0:
64,192,53615,1,0,0:0:0:0:
192,192,53674,1,0,0:0:0:0:
448,192,53732,1,0,0:0:0:0:
64,192,53791,1,0,0:0:0:0:
192,192,53850,1,0,0:0:0:0:
448,192,53850,1,0,0:0:0:0:
320,192,53909,1,0,0:0:0:0:
64,192,53968,1,0,0:0:0:0:
192,192,54027,1,0,0:0:0:0:
320,192,54086,1,0,0:0:0:0:
448,192,54086,1,0,0:0:0:0:
64,192,54145,1,0,0:0:0:0:
192,192,54203,1,0,0:0:0:0:
320,192,54262,1,0,0:0:0:0:
448,192,54321,1,0,0:0:0:0:
64,192,54321,1,0,0:0:0:0:
192,192,54380,1,0,0:0:0:0:
448,192,54439,1,0,0:0:0:0:
320,192,54498,1,0,0:0:0:0:
192,192,54557,1,0,0:0:0:0:
64,192,54557,1,0,0:0:0:0:
64,192,54674,1,0,0:0:0:0:
320,192,54674,1,0,0:0:0:0:
448,192,54792,1,0,0:0:0:0:
320,192,54792,1,0,0:0:0:0:
448,192,54910,1,0,0:0:0:0:
192,192,54910,1,0,0:0:0:0:
320,192,55028,1,0,0:0:0:0:
64,192,55028,1,0,0:0:0:0:
192,192,55145,1,0,0:0:0:0:
64,192,55145,1,0,0:0:0:0:
192,192,55263,1,0,0:0:0:0:
448,192,55263,1,0,0:0:0:0:
64,192,55322,1,0,0:0:0:0:
192,192,55381,1,0,0:0:0:0:
320,192,55381,1,0,0:0:0:0:
448,192,55440,1,0,0:0:0:0:
320,192,55499,1,0,0:0:0:0:
192,192,55499,1,0,0:0:0:0:
64,192,55499,1,0,0:0:0:0:
448,192,55557,1,0,0:0:0:0:
192,192,55616,1,0,0:0:0:0:
320,192,55675,1,0,0:0:0:0:
448,192,55734,1,0,0:0:0:0:
64,192,55734,1,0,0:0:0:0:
192,192,55793,1,0,0:0:0:0:
320,192,55852,1,0,0:0:0:0:
64,192,55911,1,0,0:0:0:0:
192,192,55970,1,0,0:0:0:0:
448,192,55970,1,0,0:0:0:0:
320,192,56028,1,0,0:0:0:0:
64,192,56087,1,0,0:0:0:0:
192,192,56146,1,0,0:0:0:0:
64,192,56205,1,0,0:0:0:0:
448,192,56205,1,0,0:0:0:0:
320,192,56264,1,0,0:0:0:0:
192,192,56323,1,0,0:0:0:0:
64,192,56382,1,0,0:0:0:0:
448,192,56440,1,0,0:0:0:0:
320,192,56440,1,0,0:0:0:0:
192,192,56558,1,0,0:0:0:0:
64,192,56558,1,0,0:0:0:0:
320,192,56617,1,0,0:0:0:0:
448,192,56617,1,0,0:0:0:0:
192,192,56676,1,0,0:0:0:0:
64,192,56676,1,0,0:0:0:0:
320,192,56735,1,0,0:0:0:0:
448,192,56735,1,0,0:0:0:0:
192,192,56794,1,0,0:0:0:0:
64,192,56794,1,0,0:0:0:0:
320,192,56853,1,0,0:0:0:0:
448,192,56853,1,0,0:0:0:0:
192,192,56911,1,0,0:0:0:0:
64,192,56911,1,0,0:0:0:0:
320,192,56970,1,0,0:0:0:0:
448,192,57029,1,0,0:0:0:0:
192,192,57029,1,0,0:0:0:0:
320,192,57088,1,0,0:0:0:0:
192,192,57147,1,0,0:0:0:0:
64,192,57147,1,0,0:0:0:0:
320,192,57206,1,0,0:0:0:0:
448,192,57265,1,0,0:0:0:0:
64,192,57265,1,0,0:0:0:0:
192,192,57324,1,0,0:0:0:0:
320,192,57382,1,0,0:0:0:0:
448,192,57382,1,0,0:0:0:0:
64,192,57382,128,0,57500:0:0:0:0:
192,192,57500,1,0,0:0:0:0:
448,192,57559,1,0,0:0:0:0:
64,192,57618,1,0,0:0:0:0:
320,192,57618,128,0,57736:0:0:0:0:
448,192,57736,1,0,0:0:0:0:
64,192,57795,1,0,0:0:0:0:
448,192,57853,1,0,0:0:0:0:
192,192,57853,128,0,58089:0:0:0:0:
320,192,57971,1,0,0:0:0:0:
64,192,57971,1,0,0:0:0:0:
448,192,58089,1,0,0:0:0:0:
320,192,58089,1,0,0:0:0:0:
64,192,58207,1,0,0:0:0:0:
448,192,58207,128,0,58442:0:0:0:0:
320,192,58324,1,0,0:0:0:0:
192,192,58324,1,0,0:0:0:0:
192,192,58442,1,0,0:0:0:0:
64,192,58442,1,0,0:0:0:0:
64,192,58560,1,0,0:0:0:0:
320,192,58560,1,0,0:0:0:0:
64,192,58678,128,0,58913:0:0:0:0:
320,192,58678,1,0,0:0:0:0:
192,192,58795,1,0,0:0:0:0:
448,192,58795,1,0,0:0:0:0:
192,192,58913,1,0,0:0:0:0:
320,192,58913,1,0,0:0:0:0:
320,192,59031,1,0,0:0:0:0:
448,192,59031,128,0,59266:0:0:0:0:
64,192,59149,1,0,0:0:0:0:
192,192,59207,1,0,0:0:0:0:
320,192,59266,1,0,0:0:0:0:
64,192,59266,128,0,59384:0:0:0:0:
192,192,59384,1,0,0:0:0:0:
448,192,59443,1,0,0:0:0:0:
320,192,59502,128,0,59619:0:0:0:0:
64,192,59502,1,0,0:0:0:0:
192,192,59619,1,0,0:0:0:0:
64,192,59737,1,0,0:0:0:0:
192,192,59737,128,0,59973:0:0:0:0:
448,192,59855,1,0,0:0:0:0:
320,192,59855,1,0,0:0:0:0:
64,192,59973,1,0,0:0:0:0:
448,192,59973,1,0,0:0:0:0:
64,192,60090,1,0,0:0:0:0:
320,192,60090,128,0,60326:0:0:0:0:
192,192,60208,1,0,0:0:0:0:
448,192,60208,1,0,0:0:0:0:
64,192,60326,1,0,0:0:0:0:
448,192,60326,1,0,0:0:0:0:
320,192,60444,1,0,0:0:0:0:
192,192,60444,1,0,0:0:0:0:
192,192,60561,1,0,0:0:0:0:
64,192,60561,1,0,0:0:0:0:
192,192,60679,1,0,0:0:0:0:
448,192,60679,1,0,0:0:0:0:
64,192,60797,1,0,0:0:0:0:
320,192,60797,1,0,0:0:0:0:
320,192,60915,1,0,0:0:0:0:
64,192,60915,128,0,61150:0:0:0:0:
192,192,61032,1,0,0:0:0:0:
448,192,61032,1,0,0:0:0:0:
320,192,61091,1,0,0:0:0:0:
192,192,61150,1,0,0:0:0:0:
448,192,61150,128,0,61268:0:0:0:0:
64,192,61268,1,0,0:0:0:0:
320,192,61327,1,0,0:0:0:0:
192,192,61386,128,0,61503:0:0:0:0:
448,192,61386,1,0,0:0:0:0:
320,192,61503,1,0,0:0:0:0:
448,192,61562,1,0,0:0:0:0:
64,192,61621,128,0,61857:0:0:0:0:
320,192,61621,1,0,0:0:0:0:
192,192,61739,1,0,0:0:0:0:
448,192,61739,1,0,0:0:0:0:
448,192,61857,1,0,0:0:0:0:
320,192,61857,1,0,0:0:0:0:
448,192,61974,128,0,62210:0:0:0:0:
192,192,61974,1,0,0:0:0:0:
320,192,62092,1,0,0:0:0:0:
192,192,62092,1,0,0:0:0:0:
320,192,62210,1,0,0:0:0:0:
64,192,62210,1,0,0:0:0:0:
192,192,62327,1,0,0:0:0:0:
64,192,62327,1,0,0:0:0:0:
192,192,62445,1,0,0:0:0:0:
448,192,62445,128,0,62681:0:0:0:0:
320,192,62563,1,0,0:0:0:0:
64,192,62563,1,0,0:0:0:0:
320,192,62681,1,0,0:0:0:0:
192,192,62681,1,0,0:0:0:0:
192,192,62798,1,0,0:0:0:0:
448,192,62798,1,0,0:0:0:0:
64,192,62916,1,0,0:0:0:0:
192,192,62916,1,0,0:0:0:0:
320,192,62975,1,0,0:0:0:0:
192,192,63034,1,0,0:0:0:0:
64,192,63034,1,0,0:0:0:0:
448,192,63034,128,0,63152:0:0:0:0:
320,192,63152,1,0,0:0:0:0:
192,192,63211,1,0,0:0:0:0:
64,192,63269,128,0,63387:0:0:0:0:
320,192,63269,1,0,0:0:0:0:
448,192,63387,1,0,0:0:0:0:
192,192,63387,1,0,0:0:0:0:
320,192,63505,128,0,63740:0:0:0:0:
64,192,63505,1,0,0:0:0:0:
192,192,63623,1,0,0:0:0:0:
448,192,63623,1,0,0:0:0:0:
64,192,63740,1,0,0:0:0:0:
448,192,63740,1,0,0:0:0:0:
320,192,63858,1,0,0:0:0:0:
192,192,63858,128,0,64094:0:0:0:0:
64,192,63976,1,0,0:0:0:0:
320,192,63976,1,0,0:0:0:0:
448,192,64094,1,0,0:0:0:0:
64,192,64094,1,0,0:0:0:0:
448,192,64211,1,0,0:0:0:0:
320,192,64211,1,0,0:0:0:0:
320,192,64329,1,0,0:0:0:0:
64,192,64329,1,0,0:0:0:0:
448,192,64447,1,0,0:0:0:0:
64,192,64447,1,0,0:0:0:0:
448,192,64565,1,0,0:0:0:0:
320,192,64565,1,0,0:0:0:0:
320,192,64682,1,0,0:0:0:0:
192,192,64682,1,0,0:0:0:0:
192,192,64800,1,0,0:0:0:0:
64,192,64800,1,0,0:0:0:0:
320,192,64918,1,0,0:0:0:0:
192,192,64918,1,0,0:0:0:0:
448,192,64918,128,0,65035:0:0:0:0:
64,192,65035,1,0,0:0:0:0:
64,192,65153,128,0,65271:0:0:0:0:
192,192,65153,1,0,0:0:0:0:
448,192,65271,1,0,0:0:0:0:
320,192,65389,128,0,65506:0:0:0:0:
192,192,65389,1,0,0:0:0:0:
64,192,65506,1,0,0:0:0:0:
192,192,65624,128,0,65742:0:0:0:0:
448,192,65624,1,0,0:0:0:0:
320,192,65742,1,0,0:0:0:0:
448,192,65860,128,0,65977:0:0:0:0:
64,192,65860,1,0,0:0:0:0:
192,192,65977,1,0,0:0:0:0:
320,192,66095,128,0,66213:0:0:0:0:
64,192,66095,1,0,0:0:0:0:
448,192,66213,1,0,0:0:0:0:
192,192,66331,128,0,66448:0:0:0:0:
64,192,66331,1,0,0:0:0:0:
448,192,66448,1,0,0:0:0:0:
64,192,66566,128,0,66684:0:0:0:0:
320,192,66566,1,0,0:0:0:0:
192,192,66684,1,0,0:0:0:0:
320,192,66802,128,0,66919:0:0:0:0:
448,192,66802,1,0,0:0:0:0:
64,192,66919,1,0,0:0:0:0:
448,192,67037,128,0,67155:0:0:0:0:
192,192,67037,1,0,0:0:0:0:
320,192,67155,1,0,0:0:0:0:
192,192,67273,128,0,67390:0:0:0:0:
64,192,67273,1,0,0:0:0:0:
448,192,67390,1,0,0:0:0:0:
64,192,67508,128,0,67626:0:0:0:0:
320,192,67508,1,0,0:0:0:0:
192,192,67626,1,0,0:0:0:0:
448,192,67743,128,0,67861:0:0:0:0:
320,192,67743,1,0,0:0:0:0:
64,192,67861,1,0,0:0:0:0:
320,192,67979,128,0,68097:0:0:0:0:
192,192,67979,1,0,0:0:0:0:
448,192,68097,1,0,0:0:0:0:
192,192,68214,128,0,68332:0:0:0:0:
64,192,68214,1,0,0:0:0:0:
448,192,68332,1,0,0:0:0:0:
64,192,68450,128,0,68568:0:0:0:0:
320,192,68450,1,0,0:0:0:0:
192,192,68568,1,0,0:0:0:0:
320,192,68685,128,0,68803:0:0:0:0:
448,192,68685,1,0,0:0:0:0:
192,192,68803,1,0,0:0:0:0:
64,192,68921,128,0,69039:0:0:0:0:
448,192,68921,1,0,0:0:0:0:
320,192,69039,1,0,0:0:0:0:
192,192,69156,128,0,69274:0:0:0:0:
64,192,69156,1,0,0:0:0:0:
320,192,69274,1,0,0:0:0:0:
448,192,69392,128,0,69510:0:0:0:0:
64,192,69392,1,0,0:0:0:0:
320,192,69510,1,0,0:0:0:0:
64,192,69627,128,0,69745:0:0:0:0:
192,192,69627,1,0,0:0:0:0:
448,192,69745,1,0,0:0:0:0:
192,192,69863,128,0,69981:0:0:0:0:
320,192,69863,1,0,0:0:0:0:
64,192,69981,1,0,0:0:0:0:
320,192,70098,128,0,70216:0:0:0:0:
448,192,70098,1,0,0:0:0:0:
192,192,70216,1,0,0:0:0:0:
448,192,70334,128,0,70451:0:0:0:0:
64,192,70334,1,0,0:0:0:0:
320,192,70451,1,0,0:0:0:0:
192,192,70569,128,0,70687:0:0:0:0:
64,192,70569,1,0,0:0:0:0:
320,192,70687,1,0,0:0:0:0:
448,192,70805,128,0,70922:0:0:0:0:
64,192,70805,1,0,0:0:0:0:
192,192,70922,1,0,0:0:0:0:
64,192,71040,128,0,71158:0:0:0:0:
320,192,71040,1,0,0:0:0:0:
448,192,71158,1,0,0:0:0:0:
320,192,71276,128,0,71393:0:0:0:0:
192,192,71276,1,0,0:0:0:0:
64,192,71393,1,0,0:0:0:0:
448,192,71511,128,0,71629:0:0:0:0:
192,192,71511,1,0,0:0:0:0:
320,192,71629,1,0,0:0:0:0:
64,192,71747,128,0,71864:0:0:0:0:
192,192,71747,1,0,0:0:0:0:
320,192,71864,1,0,0:0:0:0:
448,192,71982,128,0,72218:0:0:0:0:
192,192,71982,1,0,0:0:0:0:
192,192,72218,128,0,72453:0:0:0:0:
64,192,72218,1,0,0:0:0:0:
320,192,72453,128,0,72571:0:0:0:0:
448,192,72453,128,0,72571:0:0:0:0:
64,192,72571,1,0,0:0:0:0:
192,192,72571,1,0,0:0:0:0:
448,192,72689,1,0,0:0:0:0:
192,192,72689,1,0,0:0:0:0:
448,192,72806,1,0,0:0:0:0:
64,192,72806,1,0,0:0:0:0:
192,192,72924,128,0,73042:0:0:0:0:
320,192,72924,128,0,73042:0:0:0:0:
64,192,73042,1,0,0:0:0:0:
448,192,73042,1,0,0:0:0:0:
320,192,73159,1,0,0:0:0:0:
64,192,73159,1,0,0:0:0:0:
64,192,73277,128,0,73395:0:0:0:0:
320,192,73277,128,0,73395:0:0:0:0:
192,192,73395,128,0,73513:0:0:0:0:
448,192,73395,128,0,73513:0:0:0:0:
320,192,73513,1,0,0:0:0:0:
64,192,73513,1,0,0:0:0:0:
320,192,73630,1,0,0:0:0:0:
448,192,73630,1,0,0:0:0:0:
192,192,73748,1,0,0:0:0:0:
448,192,73748,1,0,0:0:0:0:
64,192,73866,128,0,73984:0:0:0:0:
192,192,73866,128,0,73984:0:0:0:0:
320,192,73984,1,0,0:0:0:0:
448,192,73984,1,0,0:0:0:0:
192,192,74101,1,0,0:0:0:0:
320,192,74101,1,0,0:0:0:0:
448,192,74219,128,0,74337:0:0:0:0:
192,192,74219,128,0,74337:0:0:0:0:
320,192,74337,128,0,74455:0:0:0:0:
64,192,74337,128,0,74455:0:0:0:0:
192,192,74455,1,0,0:0:0:0:
448,192,74455,1,0,0:0:0:0:
320,192,74572,1,0,0:0:0:0:
192,192,74572,1,0,0:0:0:0:
64,192,74690,1,0,0:0:0:0:
320,192,74690,1,0,0:0:0:0:
64,192,74808,128,0,74926:0:0:0:0:
448,192,74808,128,0,74926:0:0:0:0:
320,192,74926,1,0,0:0:0:0:
192,192,74926,1,0,0:0:0:0:
448,192,75043,1,0,0:0:0:0:
320,192,75043,1,0,0:0:0:0:
192,192,75161,128,0,75279:0:0:0:0:
320,192,75161,128,0,75279:0:0:0:0:
64,192,75279,128,0,75397:0:0:0:0:
448,192,75279,128,0,75397:0:0:0:0:
320,192,75397,1,0,0:0:0:0:
192,192,75397,1,0,0:0:0:0:
64,192,75514,1,0,0:0:0:0:
192,192,75514,1,0,0:0:0:0:
448,192,75632,1,0,0:0:0:0:
64,192,75632,1,0,0:0:0:0:
320,192,75750,128,0,75867:0:0:0:0:
448,192,75750,128,0,75867:0:0:0:0:
192,192,75867,1,0,0:0:0:0:
64,192,75867,1,0,0:0:0:0:
320,192,75985,1,0,0:0:0:0:
192,192,75985,1,0,0:0:0:0:
64,192,76103,1,0,0:0:0:0:
320,192,76103,1,0,0:0:0:0:
448,192,76162,1,0,0:0:0:0:
192,192,76221,128,0,76338:0:0:0:0:
64,192,76221,128,0,76338:0:0:0:0:
320,192,76338,1,0,0:0:0:0:
448,192,76338,1,0,0:0:0:0:
320,192,76456,1,0,0:0:0:0:
64,192,76456,1,0,0:0:0:0:
64,192,76574,1,0,0:0:0:0:
192,192,76574,1,0,0:0:0:0:
320,192,76633,1,0,0:0:0:0:
192,192,76692,128,0,76809:0:0:0:0:
448,192,76692,128,0,76809:0:0:0:0:
64,192,76809,1,0,0:0:0:0:
320,192,76809,1,0,0:0:0:0:
448,192,76927,1,0,0:0:0:0:
320,192,76927,1,0,0:0:0:0:
448,192,77045,1,0,0:0:0:0:
64,192,77045,1,0,0:0:0:0:
192,192,77104,1,0,0:0:0:0:
320,192,77163,128,0,77280:0:0:0:0:
448,192,77163,128,0,77280:0:0:0:0:
192,192,77280,1,0,0:0:0:0:
64,192,77280,1,0,0:0:0:0:
64,192,77398,1,0,0:0:0:0:
320,192,77398,1,0,0:0:0:0:
448,192,77516,1,0,0:0:0:0:
320,192,77516,1,0,0:0:0:0:
192,192,77575,1,0,0:0:0:0:
64,192,77634,128,0,77751:0:0:0:0:
448,192,77634,128,0,77751:0:0:0:0:
320,192,77751,1,0,0:0:0:0:
192,192,77751,1,0,0:0:0:0:
448,192,77869,1,0,0:0:0:0:
192,192,77869,1,0,0:0:0:0:
64,192,77987,1,0,0:0:0:0:
448,192,77987,1,0,0:0:0:0:
192,192,78046,1,0,0:0:0:0:
320,192,78105,128,0,78222:0:0:0:0:
448,192,78105,128,0,78222:0:0:0:0:
192,192,78222,1,0,0:0:0:0:
64,192,78222,1,0,0:0:0:0:
448,192,78340,1,0,0:0:0:0:
192,192,78340,1,0,0:0:0:0:
448,192,78458,1,0,0:0:0:0:
320,192,78458,1,0,0:0:0:0:
192,192,78517,1,0,0:0:0:0:
64,192,78576,128,0,78693:0:0:0:0:
320,192,78576,128,0,78693:0:0:0:0:
192,192,78693,1,0,0:0:0:0:
448,192,78693,1,0,0:0:0:0:
320,192,78811,1,0,0:0:0:0:
192,192,78811,1,0,0:0:0:0:
448,192,78929,1,0,0:0:0:0:
320,192,78929,1,0,0:0:0:0:
192,192,78988,1,0,0:0:0:0:
64,192,79046,128,0,79164:0:0:0:0:
448,192,79046,128,0,79164:0:0:0:0:
320,192,79164,1,0,0:0:0:0:
192,192,79164,1,0,0:0:0:0:
64,192,79282,1,0,0:0:0:0:
320,192,79282,1,0,0:0:0:0:
64,192,79400,1,0,0:0:0:0:
448,192,79400,1,0,0:0:0:0:
320,192,79459,1,0,0:0:0:0:
192,192,79517,128,0,79635:0:0:0:0:
64,192,79517,128,0,79635:0:0:0:0:
448,192,79635,1,0,0:0:0:0:
320,192,79694,1,0,0:0:0:0:
448,192,79753,128,0,79871:0:0:0:0:
192,192,79753,1,0,0:0:0:0:
64,192,79871,1,0,0:0:0:0:
192,192,79930,1,0,0:0:0:0:
448,192,79988,1,0,0:0:0:0:
320,192,79988,1,0,0:0:0:0:
64,192,79988,1,0,0:0:0:0:
320,192,80106,1,0,0:0:0:0:
192,192,80106,1,0,0:0:0:0:
64,192,80224,1,0,0:0:0:0:
192,192,80224,1,0,0:0:0:0:
448,192,80342,1,0,0:0:0:0:
192,192,80342,1,0,0:0:0:0:
448,192,80459,1,0,0:0:0:0:
320,192,80459,1,0,0:0:0:0:
320,192,80577,1,0,0:0:0:0:
64,192,80577,1,0,0:0:0:0:
448,192,80695,1,0,0:0:0:0:
64,192,80695,1,0,0:0:0:0:
192,192,80813,1,0,0:0:0:0:
448,192,80813,128,0,80930:0:0:0:0:
320,192,80930,1,0,0:0:0:0:
64,192,81048,128,0,81166:0:0:0:0:
192,192,81048,1,0,0:0:0:0:
320,192,81166,1,0,0:0:0:0:
448,192,81284,128,0,81401:0:0:0:0:
64,192,81401,1,0,0:0:0:0:
192,192,81519,128,0,81637:0:0:0:0:
320,192,81519,1,0,0:0:0:0:
448,192,81637,1,0,0:0:0:0:
320,192,81754,128,0,81872:0:0:0:0:
64,192,81754,1,0,0:0:0:0:
448,192,81872,1,0,0:0:0:0:
192,192,81872,1,0,0:0:0:0:
64,192,81990,1,0,0:0:0:0:
448,192,81990,1,0,0:0:0:0:
320,192,82108,1,0,0:0:0:0:
64,192,82108,1,0,0:0:0:0:
320,192,82225,1,0,0:0:0:0:
192,192,82225,1,0,0:0:0:0:
64,192,82343,1,0,0:0:0:0:
448,192,82343,1,0,0:0:0:0:
448,192,82461,1,0,0:0:0:0:
320,192,82461,1,0,0:0:0:0:
320,192,82579,1,0,0:0:0:0:
192,192,82579,1,0,0:0:0:0:
192,192,82696,1,0,0:0:0:0:
64,192,82696,1,0,0:0:0:0:
64,192,82814,1,0,0:0:0:0:
192,192,82932,128,0,83050:0:0:0:0:
320,192,83050,128,0,83167:0:0:0:0:
64,192,83167,128,0,83285:0:0:0:0:
192,192,83285,128,0,83403:0:0:0:0:
320,192,83403,128,0,83521:0:0:0:0:
448,192,83521,128,0,83638:0:0:0:0:
192,192,83638,128,0,83756:0:0:0:0:
448,192,83756,1,0,0:0:0:0:
320,192,83756,1,0,0:0:0:0:
320,192,83874,1,0,0:0:0:0:
64,192,83874,1,0,0:0:0:0:
448,192,83992,1,0,0:0:0:0:
64,192,83992,1,0,0:0:0:0:
448,192,84109,1,0,0:0:0:0:
320,192,84109,1,0,0:0:0:0:
64,192,84227,1,0,0:0:0:0:
320,192,84227,1,0,0:0:0:0:
64,192,84345,1,0,0:0:0:0:
192,192,84345,1,0,0:0:0:0:
448,192,84462,1,0,0:0:0:0:
192,192,84462,1,0,0:0:0:0:
448,192,84580,1,0,0:0:0:0:
320,192,84580,1,0,0:0:0:0:
320,192,84698,1,0,0:0:0:0:
64,192,84816,128,0,85110:0:0:0:0:
448,192,84816,128,0,84933:0:0:0:0:
320,192,84933,1,0,0:0:0:0:
192,192,84933,1,0,0:0:0:0:
448,192,85051,1,0,0:0:0:0:
320,192,85051,1,0,0:0:0:0:
320,192,85169,1,0,0:0:0:0:
192,192,85169,1,0,0:0:0:0:
192,192,85287,1,0,0:0:0:0:
64,192,85287,1,0,0:0:0:0:
192,192,85404,1,0,0:0:0:0:
320,192,85404,1,0,0:0:0:0:
448,192,85522,1,0,0:0:0:0:
320,192,85522,1,0,0:0:0:0:
448,192,85640,1,0,0:0:0:0:
192,192,85640,1,0,0:0:0:0:
64,192,85640,128,0,85758:0:0:0:0:
448,192,85758,1,0,0:0:0:0:
320,192,85758,1,0,0:0:0:0:
320,192,85875,1,0,0:0:0:0:
192,192,85875,1,0,0:0:0:0:
64,192,85993,1,0,0:0:0:0:
192,192,85993,1,0,0:0:0:0:
448,192,86111,1,0,0:0:0:0:
64,192,86111,1,0,0:0:0:0:
320,192,86229,128,0,86346:0:0:0:0:
448,192,86229,128,0,86346:0:0:0:0:
192,192,86346,1,0,0:0:0:0:
64,192,86346,1,0,0:0:0:0:
448,192,86464,1,0,0:0:0:0:
192,192,86464,1,0,0:0:0:0:
448,192,86582,1,0,0:0:0:0:
320,192,86582,1,0,0:0:0:0:
64,192,86700,1,0,0:0:0:0:
320,192,86700,1,0,0:0:0:0:
64,192,86817,1,0,0:0:0:0:
448,192,86817,1,0,0:0:0:0:
448,192,86935,1,0,0:0:0:0:
320,192,86935,1,0,0:0:0:0:
192,192,87053,128,0,87229:0:0:0:0:
320,192,87053,1,0,0:0:0:0:
64,192,87053,1,0,0:0:0:0:
64,192,87288,128,0,87465:0:0:0:0:
448,192,87288,128,0,87465:0:0:0:0:
192,192,87524,1,0,0:0:0:0:
320,192,87524,1,0,0:0:0:0:
64,192,87563,1,0,0:0:0:0:
448,192,87602,1,0,0:0:0:0:
320,192,87641,1,0,0:0:0:0:
64,192,87681,1,0,0:0:0:0:
192,192,87720,1,0,0:0:0:0:
320,192,87759,1,0,0:0:0:0:
448,192,87759,1,0,0:0:0:0:
64,192,87798,1,0,0:0:0:0:
192,192,87838,1,0,0:0:0:0:
320,192,87877,1,0,0:0:0:0:
448,192,87916,1,0,0:0:0:0:
192,192,87955,1,0,0:0:0:0:
320,192,87995,1,0,0:0:0:0:
64,192,87995,1,0,0:0:0:0:
448,192,88034,1,0,0:0:0:0:
192,192,88073,1,0,0:0:0:0:
64,192,88112,1,0,0:0:0:0:
320,192,88152,1,0,0:0:0:0:
192,192,88191,1,0,0:0:0:0:
448,192,88230,1,0,0:0:0:0:
64,192,88230,1,0,0:0:0:0:
320,192,88269,1,0,0:0:0:0:
192,192,88309,1,0,0:0:0:0:
64,192,88348,1,0,0:0:0:0:
448,192,88387,1,0,0:0:0:0:
320,192,88426,1,0,0:0:0:0:
192,192,88466,1,0,0:0:0:0:
64,192,88466,1,0,0:0:0:0:
448,192,88505,1,0,0:0:0:0:
320,192,88544,1,0,0:0:0:0:
64,192,88583,1,0,0:0:0:0:
192,192,88623,1,0,0:0:0:0:
320,192,88662,1,0,0:0:0:0:
448,192,88701,1,0,0:0:0:0:
64,192,88701,1,0,0:0:0:0:
192,192,88740,1,0,0:0:0:0:
320,192,88780,1,0,0:0:0:0:
64,192,88819,1,0,0:0:0:0:
192,192,88858,1,0,0:0:0:0:
448,192,88897,1,0,0:0:0:0:
320,192,88937,1,0,0:0:0:0:
64,192,88937,1,0,0:0:0:0:
192,192,88976,1,0,0:0:0:0:
448,192,89015,1,0,0:0:0:0:
320,192,89054,1,0,0:0:0:0:
192,192,89094,1,0,0:0:0:0:
64,192,89133,1,0,0:0:0:0:
448,192,89172,1,0,0:0:0:0:
320,192,89172,1,0,0:0:0:0:
192,192,89231,1,0,0:0:0:0:
64,192,89290,1,0,0:0:0:0:
448,192,89290,1,0,0:0:0:0:
320,192,89349,1,0,0:0:0:0:
192,192,89408,1,0,0:0:0:0:
64,192,89408,1,0,0:0:0:0:
448,192,89408,1,0,0:0:0:0:
320,192,89525,1,0,0:0:0:0:
192,192,89525,1,0,0:0:0:0:
192,192,89643,1,0,0:0:0:0:
64,192,89643,1,0,0:0:0:0:
448,192,89761,1,0,0:0:0:0:
320,192,89761,1,0,0:0:0:0:
320,192,89878,1,0,0:0:0:0:
192,192,89878,1,0,0:0:0:0:
448,192,89996,1,0,0:0:0:0:
320,192,89996,1,0,0:0:0:0:
64,192,90114,1,0,0:0:0:0:
192,192,90114,1,0,0:0:0:0:
448,192,90232,1,0,0:0:0:0:
192,192,90232,1,0,0:0:0:0:
320,192,90349,1,0,0:0:0:0:
64,192,90349,1,0,0:0:0:0:
448,192,90349,1,0,0:0:0:0:
448,192,90467,1,0,0:0:0:0:
320,192,90467,1,0,0:0:0:0:
64,192,90585,1,0,0:0:0:0:
192,192,90585,1,0,0:0:0:0:
192,192,90703,1,0,0:0:0:0:
64,192,90703,1,0,0:0:0:0:
448,192,90820,1,0,0:0:0:0:
192,192,90820,1,0,0:0:0:0:
320,192,90938,1,0,0:0:0:0:
448,192,90938,1,0,0:0:0:0:
320,192,91056,1,0,0:0:0:0:
64,192,91056,1,0,0:0:0:0:
192,192,91115,1,0,0:0:0:0:
64,192,91174,1,0,0:0:0:0:
448,192,91174,1,0,0:0:0:0:
320,192,91232,1,0,0:0:0:0:
448,192,91291,1,0,0:0:0:0:
192,192,91291,1,0,0:0:0:0:
64,192,91291,1,0,0:0:0:0:
320,192,91350,1,0,0:0:0:0:
192,192,91409,1,0,0:0:0:0:
448,192,91468,1,0,0:0:0:0:
64,192,91527,1,0,0:0:0:0:
320,192,91527,1,0,0:0:0:0:
192,192,91586,1,0,0:0:0:0:
448,192,91645,1,0,0:0:0:0:
320,192,91703,1,0,0:0:0:0:
192,192,91762,1,0,0:0:0:0:
64,192,91762,1,0,0:0:0:0:
448,192,91821,1,0,0:0:0:0:
320,192,91880,1,0,0:0:0:0:
64,192,91939,1,0,0:0:0:0:
448,192,91998,1,0,0:0:0:0:
192,192,91998,1,0,0:0:0:0:
320,192,92057,1,0,0:0:0:0:
192,192,92116,1,0,0:0:0:0:
64,192,92174,1,0,0:0:0:0:
320,192,92233,1,0,0:0:0:0:
448,192,92233,1,0,0:0:0:0:
320,192,92351,1,0,0:0:0:0:
192,192,92351,1,0,0:0:0:0:
448,192,92469,1,0,0:0:0:0:
192,192,92469,1,0,0:0:0:0:
448,192,92586,1,0,0:0:0:0:
320,192,92586,1,0,0:0:0:0:
320,192,92704,1,0,0:0:0:0:
64,192,92704,1,0,0:0:0:0:
192,192,92822,1,0,0:0:0:0:
64,192,92822,1,0,0:0:0:0:
448,192,92940,1,0,0:0:0:0:
192,192,92940,1,0,0:0:0:0:
320,192,92999,1,0,0:0:0:0:
448,192,93057,1,0,0:0:0:0:
64,192,93057,1,0,0:0:0:0:
192,192,93116,1,0,0:0:0:0:
448,192,93175,1,0,0:0:0:0:
320,192,93175,1,0,0:0:0:0:
64,192,93175,1,0,0:0:0:0:
192,192,93234,1,0,0:0:0:0:
320,192,93293,1,0,0:0:0:0:
64,192,93352,1,0,0:0:0:0:
320,192,93411,1,0,0:0:0:0:
448,192,93411,1,0,0:0:0:0:
192,192,93470,1,0,0:0:0:0:
64,192,93528,1,0,0:0:0:0:
192,192,93587,1,0,0:0:0:0:
448,192,93646,1,0,0:0:0:0:
320,192,93646,1,0,0:0:0:0:
64,192,93705,1,0,0:0:0:0:
192,192,93764,1,0,0:0:0:0:
320,192,93823,1,0,0:0:0:0:
448,192,93882,1,0,0:0:0:0:
64,192,93882,1,0,0:0:0:0:
192,192,93940,1,0,0:0:0:0:
448,192,93999,1,0,0:0:0:0:
320,192,94058,1,0,0:0:0:0:
192,192,94117,1,0,0:0:0:0:
64,192,94117,1,0,0:0:0:0:
320,192,94235,1,0,0:0:0:0:
192,192,94235,1,0,0:0:0:0:
448,192,94353,1,0,0:0:0:0:
320,192,94353,1,0,0:0:0:0:
320,192,94470,1,0,0:0:0:0:
64,192,94470,1,0,0:0:0:0:
448,192,94588,1,0,0:0:0:0:
64,192,94588,1,0,0:0:0:0:
192,192,94588,1,0,0:0:0:0:
448,192,94706,1,0,0:0:0:0:
320,192,94706,1,0,0:0:0:0:
64,192,94765,1,0,0:0:0:0:
192,192,94765,1,0,0:0:0:0:
320,192,94824,1,0,0:0:0:0:
448,192,94824,1,0,0:0:0:0:
192,192,94882,1,0,0:0:0:0:
64,192,94882,1,0,0:0:0:0:
320,192,94941,1,0,0:0:0:0:
448,192,94941,1,0,0:0:0:0:
192,192,95000,1,0,0:0:0:0:
64,192,95000,1,0,0:0:0:0:
448,192,95059,1,0,0:0:0:0:
320,192,95059,1,0,0:0:0:0:
192,192,95098,1,0,0:0:0:0:
64,192,95138,1,0,0:0:0:0:
320,192,95177,1,0,0:0:0:0:
448,192,95216,1,0,0:0:0:0:
64,192,95255,1,0,0:0:0:0:
192,192,95295,1,0,0:0:0:0:
320,192,95295,1,0,0:0:0:0:
448,192,95334,1,0,0:0:0:0:
64,192,95373,1,0,0:0:0:0:
192,192,95412,1,0,0:0:0:0:
448,192,95451,1,0,0:0:0:0:
320,192,95491,1,0,0:0:0:0:
64,192,95530,1,0,0:0:0:0:
192,192,95530,1,0,0:0:0:0:
448,192,95569,1,0,0:0:0:0:
320,192,95608,1,0,0:0:0:0:
192,192,95648,1,0,0:0:0:0:
64,192,95687,1,0,0:0:0:0:
320,192,95726,1,0,0:0:0:0:
192,192,95765,1,0,0:0:0:0:
448,192,95765,1,0,0:0:0:0:
64,192,95805,1,0,0:0:0:0:
320,192,95844,1,0,0:0:0:0:
448,192,95883,1,0,0:0:0:0:
192,192,95922,1,0,0:0:0:0:
320,192,95962,1,0,0:0:0:0:
448,192,96001,1,0,0:0:0:0:
64,192,96001,1,0,0:0:0:0:
192,192,96040,1,0,0:0:0:0:
320,192,96079,1,0,0:0:0:0:
64,192,96119,1,0,0:0:0:0:
192,192,96158,1,0,0:0:0:0:
448,192,96197,1,0,0:0:0:0:
320,192,96236,1,0,0:0:0:0:
64,192,96236,1,0,0:0:0:0:
192,192,96276,1,0,0:0:0:0:
448,192,96315,1,0,0:0:0:0:
320,192,96354,1,0,0:0:0:0:
192,192,96393,1,0,0:0:0:0:
64,192,96433,1,0,0:0:0:0:
448,192,96472,1,0,0:0:0:0:
320,192,96472,1,0,0:0:0:0:
192,192,96511,1,0,0:0:0:0:
64,192,96550,1,0,0:0:0:0:
320,192,96590,1,0,0:0:0:0:
448,192,96629,1,0,0:0:0:0:
192,192,96668,1,0,0:0:0:0:
64,192,96707,1,0,0:0:0:0:
320,192,96707,1,0,0:0:0:0:
448,192,96766,1,0,0:0:0:0:
192,192,96825,1,0,0:0:0:0:
320,192,96825,1,0,0:0:0:0:
64,192,96884,1,0,0:0:0:0:
192,192,96943,1,0,0:0:0:0:
448,192,96943,1,0,0:0:0:0:
320,192,96943,1,0,0:0:0:0:
320,192,97061,1,0,0:0:0:0:
64,192,97061,1,0,0:0:0:0:
448,192,97178,1,0,0:0:0:0:
320,192,97178,1,0,0:0:0:0:
448,192,97296,1,0,0:0:0:0:
192,192,97296,1,0,0:0:0:0:
192,192,97414,1,0,0:0:0:0:
64,192,97414,1,0,0:0:0:0:
320,192,97532,1,0,0:0:0:0:
192,192,97532,1,0,0:0:0:0:
320,192,97649,1,0,0:0:0:0:
64,192,97649,1,0,0:0:0:0:
448,192,97767,1,0,0:0:0:0:
64,192,97767,1,0,0:0:0:0:
448,192,97885,1,0,0:0:0:0:
320,192,97885,1,0,0:0:0:0:
320,192,98003,1,0,0:0:0:0:
192,192,98003,1,0,0:0:0:0:
192,192,98120,1,0,0:0:0:0:
64,192,98120,1,0,0:0:0:0:
448,192,98238,1,0,0:0:0:0:
64,192,98238,1,0,0:0:0:0:
192,192,98356,1,0,0:0:0:0:
64,192,98356,1,0,0:0:0:0:
192,192,98473,1,0,0:0:0:0:
320,192,98473,1,0,0:0:0:0:
448,192,98591,1,0,0:0:0:0:
320,192,98591,1,0,0:0:0:0:
320,192,98709,1,0,0:0:0:0:
192,192,98709,1,0,0:0:0:0:
192,192,98827,1,0,0:0:0:0:
64,192,98827,1,0,0:0:0:0:
448,192,98827,1,0,0:0:0:0:
320,192,98886,1,0,0:0:0:0:
192,192,98944,1,0,0:0:0:0:
448,192,99003,1,0,0:0:0:0:
320,192,99062,1,0,0:0:0:0:
64,192,99062,1,0,0:0:0:0:
192,192,99121,1,0,0:0:0:0:
448,192,99180,1,0,0:0:0:0:
320,192,99239,1,0,0:0:0:0:
192,192,99298,1,0,0:0:0:0:
448,192,99298,1,0,0:0:0:0:
64,192,99357,1,0,0:0:0:0:
192,192,99415,1,0,0:0:0:0:
320,192,99474,1,0,0:0:0:0:
448,192,99533,1,0,0:0:0:0:
64,192,99533,1,0,0:0:0:0:
320,192,99592,1,0,0:0:0:0:
192,192,99651,1,0,0:0:0:0:
64,192,99710,1,0,0:0:0:0:
448,192,99769,1,0,0:0:0:0:
192,192,99769,1,0,0:0:0:0:
320,192,99886,1,0,0:0:0:0:
192,192,99886,1,0,0:0:0:0:
448,192,100004,1,0,0:0:0:0:
320,192,100004,1,0,0:0:0:0:
448,192,100122,1,0,0:0:0:0:
64,192,100122,1,0,0:0:0:0:
192,192,100240,1,0,0:0:0:0:
64,192,100240,1,0,0:0:0:0:
320,192,100357,1,0,0:0:0:0:
192,192,100357,1,0,0:0:0:0:
448,192,100475,1,0,0:0:0:0:
320,192,100475,1,0,0:0:0:0:
64,192,100593,1,0,0:0:0:0:
448,192,100593,1,0,0:0:0:0:
448,192,100711,1,0,0:0:0:0:
192,192,100711,1,0,0:0:0:0:
64,192,100769,1,0,0:0:0:0:
192,192,100828,1,0,0:0:0:0:
320,192,100887,1,0,0:0:0:0:
448,192,100946,1,0,0:0:0:0:
192,192,100946,1,0,0:0:0:0:
320,192,101005,1,0,0:0:0:0:
192,192,101064,1,0,0:0:0:0:
64,192,101123,1,0,0:0:0:0:
448,192,101181,1,0,0:0:0:0:
320,192,101181,1,0,0:0:0:0:
192,192,101240,1,0,0:0:0:0:
64,192,101299,1,0,0:0:0:0:
192,192,101358,1,0,0:0:0:0:
448,192,101417,1,0,0:0:0:0:
320,192,101417,1,0,0:0:0:0:
64,192,101476,1,0,0:0:0:0:
448,192,101535,1,0,0:0:0:0:
192,192,101535,1,0,0:0:0:0:
320,192,101594,1,0,0:0:0:0:
448,192,101652,1,0,0:0:0:0:
64,192,101652,1,0,0:0:0:0:
64,192,101770,1,0,0:0:0:0:
320,192,101770,1,0,0:0:0:0:
192,192,101888,1,0,0:0:0:0:
448,192,101888,1,0,0:0:0:0:
192,192,102006,1,0,0:0:0:0:
320,192,102006,1,0,0:0:0:0:
192,192,102123,1,0,0:0:0:0:
64,192,102123,1,0,0:0:0:0:
320,192,102182,1,0,0:0:0:0:
192,192,102241,1,0,0:0:0:0:
448,192,102241,1,0,0:0:0:0:
320,192,102300,1,0,0:0:0:0:
448,192,102359,1,0,0:0:0:0:
64,192,102359,1,0,0:0:0:0:
192,192,102418,1,0,0:0:0:0:
64,192,102477,1,0,0:0:0:0:
320,192,102477,1,0,0:0:0:0:
192,192,102535,1,0,0:0:0:0:
448,192,102594,1,0,0:0:0:0:
64,192,102594,1,0,0:0:0:0:
320,192,102594,1,0,0:0:0:0:
192,192,102634,1,0,0:0:0:0:
64,192,102673,1,0,0:0:0:0:
448,192,102712,1,0,0:0:0:0:
320,192,102751,1,0,0:0:0:0:
192,192,102791,1,0,0:0:0:0:
64,192,102830,1,0,0:0:0:0:
448,192,102830,1,0,0:0:0:0:
320,192,102869,1,0,0:0:0:0:
192,192,102908,1,0,0:0:0:0:
64,192,102948,1,0,0:0:0:0:
448,192,102987,1,0,0:0:0:0:
320,192,103026,1,0,0:0:0:0:
192,192,103065,1,0,0:0:0:0:
64,192,103065,1,0,0:0:0:0:
448,192,103105,1,0,0:0:0:0:
320,192,103144,1,0,0:0:0:0:
192,192,103183,1,0,0:0:0:0:
64,192,103222,1,0,0:0:0:0:
448,192,103262,1,0,0:0:0:0:
320,192,103301,1,0,0:0:0:0:
192,192,103301,1,0,0:0:0:0:
64,192,103340,1,0,0:0:0:0:
448,192,103379,1,0,0:0:0:0:
320,192,103419,1,0,0:0:0:0:
64,192,103458,1,0,0:0:0:0:
192,192,103497,1,0,0:0:0:0:
448,192,103536,1,0,0:0:0:0:
320,192,103536,1,0,0:0:0:0:
64,192,103576,1,0,0:0:0:0:
192,192,103615,1,0,0:0:0:0:
320,192,103654,1,0,0:0:0:0:
448,192,103693,1,0,0:0:0:0:
64,192,103693,1,0,0:0:0:0:
192,192,103732,1,0,0:0:0:0:
320,192,103772,1,0,0:0:0:0:
448,192,103772,1,0,0:0:0:0:
64,192,103811,1,0,0:0:0:0:
192,192,103850,1,0,0:0:0:0:
320,192,103889,1,0,0:0:0:0:
448,192,103929,1,0,0:0:0:0:
64,192,103968,1,0,0:0:0:0:
192,192,104007,1,0,0:0:0:0:
320,192,104007,1,0,0:0:0:0:
448,192,104046,1,0,0:0:0:0:
64,192,104086,1,0,0:0:0:0:
192,192,104125,1,0,0:0:0:0:
448,192,104125,1,0,0:0:0:0:
320,192,104164,1,0,0:0:0:0:
64,192,104203,1,0,0:0:0:0:
192,192,104243,1,0,0:0:0:0:
448,192,104243,1,0,0:0:0:0:
320,192,104282,1,0,0:0:0:0:
64,192,104321,1,0,0:0:0:0:
448,192,104360,1,0,0:0:0:0:
192,192,104360,1,0,0:0:0:0:
320,192,104400,1,0,0:0:0:0:
64,192,104439,1,0,0:0:0:0:
192,192,104478,1,0,0:0:0:0:
448,192,104478,128,0,104596:0:0:0:0:
64,192,104537,1,0,0:0:0:0:
320,192,104596,1,0,0:0:0:0:
192,192,104714,1,0,0:0:0:0:
64,192,104714,128,0,104831:0:0:0:0:
320,192,104831,1,0,0:0:0:0:
448,192,104831,128,0,104949:0:0:0:0:
192,192,104949,128,0,105067:0:0:0:0:
64,192,104949,1,0,0:0:0:0:
320,192,105067,128,0,105185:0:0:0:0:
448,192,105067,1,0,0:0:0:0:
192,192,105185,1,0,0:0:0:0:
64,192,105185,128,0,105302:0:0:0:0:
192,192,105302,1,0,0:0:0:0:
320,192,105302,128,0,105420:0:0:0:0:
64,192,105420,1,0,0:0:0:0:
448,192,105420,128,0,105538:0:0:0:0:
192,192,105538,1,0,0:0:0:0:
320,192,105538,1,0,0:0:0:0:
192,192,105656,1,0,0:0:0:0:
64,192,105656,1,0,0:0:0:0:
64,192,105773,1,0,0:0:0:0:
320,192,105773,1,0,0:0:0:0:
448,192,105891,1,0,0:0:0:0:
320,192,105891,1,0,0:0:0:0:
448,192,106009,1,0,0:0:0:0:
192,192,106009,1,0,0:0:0:0:
192,192,106127,1,0,0:0:0:0:
64,192,106127,1,0,0:0:0:0:
320,192,106185,1,0,0:0:0:0:
192,192,106244,1,0,0:0:0:0:
448,192,106244,1,0,0:0:0:0:
320,192,106303,1,0,0:0:0:0:
192,192,106362,1,0,0:0:0:0:
64,192,106362,1,0,0:0:0:0:
448,192,106362,1,0,0:0:0:0:
320,192,106480,1,0,0:0:0:0:
64,192,106480,1,0,0:0:0:0:
192,192,106597,128,0,106715:0:0:0:0:
320,192,106597,1,0,0:0:0:0:
448,192,106715,1,0,0:0:0:0:
64,192,106715,1,0,0:0:0:0:
320,192,106833,128,0,106951:0:0:0:0:
448,192,106833,1,0,0:0:0:0:
192,192,106951,1,0,0:0:0:0:
64,192,106951,1,0,0:0:0:0:
448,192,107068,1,0,0:0:0:0:
320,192,107068,1,0,0:0:0:0:
192,192,107186,128,0,107422:0:0:0:0:
448,192,107186,1,0,0:0:0:0:
64,192,107304,1,0,0:0:0:0:
320,192,107304,1,0,0:0:0:0:
320,192,107422,1,0,0:0:0:0:
448,192,107422,1,0,0:0:0:0:
448,192,107539,1,0,0:0:0:0:
64,192,107539,1,0,0:0:0:0:
64,192,107657,128,0,107775:0:0:0:0:
320,192,107657,1,0,0:0:0:0:
192,192,107775,128,0,107893:0:0:0:0:
448,192,107775,1,0,0:0:0:0:
448,192,107893,128,0,108128:0:0:0:0:
320,192,107893,1,0,0:0:0:0:
320,192,108010,1,0,0:0:0:0:
64,192,108010,1,0,0:0:0:0:
192,192,108128,1,0,0:0:0:0:
64,192,108128,1,0,0:0:0:0:
320,192,108187,1,0,0:0:0:0:
192,192,108246,128,0,108481:0:0:0:0:
448,192,108246,1,0,0:0:0:0:
64,192,108246,1,0,0:0:0:0:
64,192,108364,1,0,0:0:0:0:
320,192,108364,1,0,0:0:0:0:
448,192,108481,1,0,0:0:0:0:
320,192,108540,1,0,0:0:0:0:
64,192,108599,128,0,108835:0:0:0:0:
192,192,108599,1,0,0:0:0:0:
448,192,108599,1,0,0:0:0:0:
192,192,108717,1,0,0:0:0:0:
320,192,108717,1,0,0:0:0:0:
320,192,108835,1,0,0:0:0:0:
448,192,108835,1,0,0:0:0:0:
192,192,108893,1,0,0:0:0:0:
320,192,108952,128,0,109070:0:0:0:0:
64,192,108952,1,0,0:0:0:0:
448,192,108952,1,0,0:0:0:0:
64,192,109070,1,0,0:0:0:0:
192,192,109129,1,0,0:0:0:0:
64,192,109188,128,0,109305:0:0:0:0:
448,192,109188,1,0,0:0:0:0:
320,192,109188,1,0,0:0:0:0:
320,192,109305,1,0,0:0:0:0:
192,192,109364,1,0,0:0:0:0:
448,192,109423,128,0,109541:0:0:0:0:
64,192,109423,1,0,0:0:0:0:
320,192,109423,1,0,0:0:0:0:
192,192,109541,1,0,0:0:0:0:
320,192,109600,1,0,0:0:0:0:
64,192,109659,128,0,109776:0:0:0:0:
448,192,109659,1,0,0:0:0:0:
192,192,109659,1,0,0:0:0:0:
320,192,109776,1,0,0:0:0:0:
448,192,109776,1,0,0:0:0:0:
192,192,109835,1,0,0:0:0:0:
64,192,109835,1,0,0:0:0:0:
448,192,109894,1,0,0:0:0:0:
320,192,109894,1,0,0:0:0:0:
192,192,109953,1,0,0:0:0:0:
64,192,109953,1,0,0:0:0:0:
448,192,110012,1,0,0:0:0:0:
320,192,110012,1,0,0:0:0:0:
192,192,110071,1,0,0:0:0:0:
64,192,110071,1,0,0:0:0:0:
448,192,110130,1,0,0:0:0:0:
320,192,110130,1,0,0:0:0:0:
64,192,110169,1,0,0:0:0:0:
192,192,110208,1,0,0:0:0:0:
448,192,110247,1,0,0:0:0:0:
320,192,110287,1,0,0:0:0:0:
192,192,110326,1,0,0:0:0:0:
64,192,110365,1,0,0:0:0:0:
448,192,110365,1,0,0:0:0:0:
192,192,110404,1,0,0:0:0:0:
320,192,110444,1,0,0:0:0:0:
448,192,110483,1,0,0:0:0:0:
64,192,110522,1,0,0:0:0:0:
192,192,110561,1,0,0:0:0:0:
448,192,110601,1,0,0:0:0:0:
320,192,110601,1,0,0:0:0:0:
64,192,110640,1,0,0:0:0:0:
192,192,110679,1,0,0:0:0:0:
320,192,110718,1,0,0:0:0:0:
448,192,110758,1,0,0:0:0:0:
64,192,110797,1,0,0:0:0:0:
320,192,110836,1,0,0:0:0:0:
192,192,110836,1,0,0:0:0:0:
448,192,110875,1,0,0:0:0:0:
64,192,110915,1,0,0:0:0:0:
192,192,110954,1,0,0:0:0:0:
448,192,110993,1,0,0:0:0:0:
320,192,111032,1,0,0:0:0:0:
192,192,111072,1,0,0:0:0:0:
64,192,111072,1,0,0:0:0:0:
448,192,111111,1,0,0:0:0:0:
320,192,111150,1,0,0:0:0:0:
192,192,111189,1,0,0:0:0:0:
448,192,111229,1,0,0:0:0:0:
64,192,111229,1,0,0:0:0:0:
320,192,111268,1,0,0:0:0:0:
64,192,111307,1,0,0:0:0:0:
192,192,111307,1,0,0:0:0:0:
448,192,111346,1,0,0:0:0:0:
320,192,111386,1,0,0:0:0:0:
192,192,111425,1,0,0:0:0:0:
64,192,111464,1,0,0:0:0:0:
448,192,111503,1,0,0:0:0:0:
192,192,111543,1,0,0:0:0:0:
320,192,111543,1,0,0:0:0:0:
448,192,111601,1,0,0:0:0:0:
64,192,111601,1,0,0:0:0:0:
192,192,111660,1,0,0:0:0:0:
320,192,111660,1,0,0:0:0:0:
448,192,111719,1,0,0:0:0:0:
64,192,111719,1,0,0:0:0:0:
192,192,111778,1,0,0:0:0:0:
320,192,111778,1,0,0:0:0:0:
448,192,111837,1,0,0:0:0:0:
64,192,111837,1,0,0:0:0:0:
192,192,111896,1,0,0:0:0:0:
320,192,111896,1,0,0:0:0:0:
64,192,111955,1,0,0:0:0:0:
448,192,112013,1,0,0:0:0:0:
320,192,112013,1,0,0:0:0:0:
192,192,112072,1,0,0:0:0:0:
448,192,112131,1,0,0:0:0:0:
320,192,112131,1,0,0:0:0:0:
64,192,112190,1,0,0:0:0:0:
320,192,112249,1,0,0:0:0:0:
192,192,112249,1,0,0:0:0:0:
448,192,112308,1,0,0:0:0:0:
192,192,112367,1,0,0:0:0:0:
64,192,112367,1,0,0:0:0:0:
320,192,112426,1,0,0:0:0:0:
192,192,112484,1,0,0:0:0:0:
64,192,112484,1,0,0:0:0:0:
448,192,112543,1,0,0:0:0:0:
320,192,112602,1,0,0:0:0:0:
192,192,112602,1,0,0:0:0:0:
64,192,112661,1,0,0:0:0:0:
192,192,112720,1,0,0:0:0:0:
320,192,112720,1,0,0:0:0:0:
448,192,112779,1,0,0:0:0:0:
192,192,112838,1,0,0:0:0:0:
64,192,112838,1,0,0:0:0:0:
320,192,112897,1,0,0:0:0:0:
448,192,112955,1,0,0:0:0:0:
192,192,112955,1,0,0:0:0:0:
320,192,113014,1,0,0:0:0:0:
448,192,113073,1,0,0:0:0:0:
64,192,113073,1,0,0:0:0:0:
192,192,113132,1,0,0:0:0:0:
320,192,113191,1,0,0:0:0:0:
64,192,113191,1,0,0:0:0:0:
192,192,113250,1,0,0:0:0:0:
448,192,113309,1,0,0:0:0:0:
64,192,113309,1,0,0:0:0:0:
320,192,113367,1,0,0:0:0:0:
192,192,113426,1,0,0:0:0:0:
448,192,113426,1,0,0:0:0:0:
320,192,113485,1,0,0:0:0:0:
64,192,113544,1,0,0:0:0:0:
448,192,113544,1,0,0:0:0:0:
192,192,113603,1,0,0:0:0:0:
320,192,113662,1,0,0:0:0:0:
448,192,113662,1,0,0:0:0:0:
192,192,113721,1,0,0:0:0:0:
64,192,113721,1,0,0:0:0:0:
320,192,113780,1,0,0:0:0:0:
448,192,113780,1,0,0:0:0:0:
192,192,113838,1,0,0:0:0:0:
64,192,113838,1,0,0:0:0:0:
448,192,113897,1,0,0:0:0:0:
320,192,113897,1,0,0:0:0:0:
192,192,113956,1,0,0:0:0:0:
64,192,114015,1,0,0:0:0:0:
448,192,114015,1,0,0:0:0:0:
192,192,114133,1,0,0:0:0:0:
448,192,114133,1,0,0:0:0:0:
64,192,114192,1,0,0:0:0:0:
320,192,114251,1,0,0:0:0:0:
192,192,114251,1,0,0:0:0:0:
320,192,114368,1,0,0:0:0:0:
64,192,114368,1,0,0:0:0:0:
448,192,114427,1,0,0:0:0:0:
192,192,114486,1,0,0:0:0:0:
64,192,114486,1,0,0:0:0:0:
320,192,114545,1,0,0:0:0:0:
448,192,114545,1,0,0:0:0:0:
192,192,114604,1,0,0:0:0:0:
64,192,114604,1,0,0:0:0:0:
320,192,114663,1,0,0:0:0:0:
448,192,114663,1,0,0:0:0:0:
192,192,114722,1,0,0:0:0:0:
64,192,114722,1,0,0:0:0:0:
320,192,114780,1,0,0:0:0:0:
448,192,114780,1,0,0:0:0:0:
192,192,114839,1,0,0:0:0:0:
64,192,114839,1,0,0:0:0:0:
320,192,114898,1,0,0:0:0:0:
448,192,114957,1,0,0:0:0:0:
192,192,114957,1,0,0:0:0:0:
320,192,115075,1,0,0:0:0:0:
64,192,115075,128,0,115192:0:0:0:0:
448,192,115192,128,0,115310:0:0:0:0:
192,192,115192,1,0,0:0:0:0:
320,192,115310,1,0,0:0:0:0:
64,192,115369,1,0,0:0:0:0:
448,192,115428,1,0,0:0:0:0:
320,192,115428,1,0,0:0:0:0:
192,192,115487,1,0,0:0:0:0:
64,192,115487,1,0,0:0:0:0:
448,192,115546,1,0,0:0:0:0:
320,192,115546,1,0,0:0:0:0:
192,192,115605,1,0,0:0:0:0:
64,192,115605,1,0,0:0:0:0:
320,192,115663,1,0,0:0:0:0:
448,192,115663,1,0,0:0:0:0:
192,192,115722,1,0,0:0:0:0:
64,192,115722,1,0,0:0:0:0:
320,192,115781,1,0,0:0:0:0:
448,192,115781,1,0,0:0:0:0:
64,192,115899,1,0,0:0:0:0:
320,192,115899,1,0,0:0:0:0:
192,192,115958,1,0,0:0:0:0:
320,192,116017,1,0,0:0:0:0:
448,192,116017,1,0,0:0:0:0:
64,192,116076,1,0,0:0:0:0:
192,192,116134,1,0,0:0:0:0:
448,192,116134,1,0,0:0:0:0:
320,192,116193,1,0,0:0:0:0:
64,192,116252,1,0,0:0:0:0:
192,192,116252,1,0,0:0:0:0:
320,192,116370,1,0,0:0:0:0:
192,192,116370,1,0,0:0:0:0:
64,192,116429,1,0,0:0:0:0:
448,192,116488,1,0,0:0:0:0:
192,192,116488,1,0,0:0:0:0:
320,192,116546,1,0,0:0:0:0:
64,192,116605,1,0,0:0:0:0:
448,192,116605,1,0,0:0:0:0:
192,192,116664,1,0,0:0:0:0:
320,192,116723,1,0,0:0:0:0:
64,192,116723,1,0,0:0:0:0:
448,192,116802,1,0,0:0:0:0:
448,192,116880,1,0,0:0:0:0:
192,192,116959,1,0,0:0:0:0:
64,192,116959,1,0,0:0:0:0:
64,192,117037,1,0,0:0:0:0:
320,192,117116,1,0,0:0:0:0:
192,192,117194,1,0,0:0:0:0:
448,192,117194,1,0,0:0:0:0:
448,192,117273,1,0,0:0:0:0:
64,192,117351,1,0,0:0:0:0:
192,192,117430,1,0,0:0:0:0:
320,192,117430,1,0,0:0:0:0:
448,192,117430,1,0,0:0:0:0:
192,192,117508,1,0,0:0:0:0:
64,192,117586,1,0,0:0:0:0:
64,192,117665,1,0,0:0:0:0:
320,192,117665,1,0,0:0:0:0:
448,192,117665,1,0,0:0:0:0:
192,192,117743,1,0,0:0:0:0:
448,192,117822,1,0,0:0:0:0:
320,192,117900,1,0,0:0:0:0:
64,192,117900,1,0,0:0:0:0:
192,192,117979,1,0,0:0:0:0:
320,192,118057,1,0,0:0:0:0:
448,192,118136,1,0,0:0:0:0:
64,192,118136,1,0,0:0:0:0:
192,192,118214,1,0,0:0:0:0:
320,192,118293,1,0,0:0:0:0:
448,192,118371,1,0,0:0:0:0:
192,192,118371,1,0,0:0:0:0:
64,192,118450,1,0,0:0:0:0:
320,192,118528,1,0,0:0:0:0:
192,192,118607,1,0,0:0:0:0:
64,192,118607,1,0,0:0:0:0:
448,192,118685,1,0,0:0:0:0:
192,192,118764,1,0,0:0:0:0:
320,192,118842,1,0,0:0:0:0:
448,192,118842,1,0,0:0:0:0:
64,192,118921,1,0,0:0:0:0:
320,192,118999,1,0,0:0:0:0:
448,192,119078,1,0,0:0:0:0:
192,192,119078,1,0,0:0:0:0:
64,192,119156,1,0,0:0:0:0:
192,192,119235,1,0,0:0:0:0:
320,192,119313,1,0,0:0:0:0:
448,192,119313,1,0,0:0:0:0:
448,192,119392,1,0,0:0:0:0:
320,192,119470,1,0,0:0:0:0:
192,192,119549,1,0,0:0:0:0:
448,192,119549,1,0,0:0:0:0:
64,192,119549,1,0,0:0:0:0:
64,192,119627,1,0,0:0:0:0:
192,192,119706,1,0,0:0:0:0:
320,192,119784,1,0,0:0:0:0:
448,192,119784,1,0,0:0:0:0:
320,192,119863,1,0,0:0:0:0:
448,192,119941,1,0,0:0:0:0:
192,192,120020,1,0,0:0:0:0:
64,192,120020,1,0,0:0:0:0:
64,192,120098,1,0,0:0:0:0:
320,192,120177,1,0,0:0:0:0:
448,192,120255,1,0,0:0:0:0:
192,192,120255,1,0,0:0:0:0:
64,192,120334,1,0,0:0:0:0:
320,192,120412,128,0,120648:0:0:0:0:
192,192,120491,1,0,0:0:0:0:
64,192,120491,1,0,0:0:0:0:
448,192,120569,1,0,0:0:0:0:
192,192,120648,1,0,0:0:0:0:
64,192,120726,1,0,0:0:0:0:
448,192,120726,1,0,0:0:0:0:
320,192,120805,1,0,0:0:0:0:
64,192,120883,1,0,0:0:0:0:
448,192,120962,1,0,0:0:0:0:
320,192,120962,1,0,0:0:0:0:
320,192,121040,1,0,0:0:0:0:
192,192,121119,1,0,0:0:0:0:
64,192,121197,1,0,0:0:0:0:
448,192,121197,1,0,0:0:0:0:
64,192,121276,1,0,0:0:0:0:
320,192,121354,1,0,0:0:0:0:
64,192,121433,1,0,0:0:0:0:
192,192,121433,1,0,0:0:0:0:
448,192,121433,128,0,121904:0:0:0:0:
320,192,121511,1,0,0:0:0:0:
192,192,121590,1,0,0:0:0:0:
64,192,121668,1,0,0:0:0:0:
320,192,121668,1,0,0:0:0:0:
192,192,121747,1,0,0:0:0:0:
320,192,121825,1,0,0:0:0:0:
192,192,121904,1,0,0:0:0:0:
64,192,121904,1,0,0:0:0:0:
320,192,121982,1,0,0:0:0:0:
448,192,122061,1,0,0:0:0:0:
64,192,122139,1,0,0:0:0:0:
320,192,122139,1,0,0:0:0:0:
448,192,122218,1,0,0:0:0:0:
192,192,122296,1,0,0:0:0:0:
320,192,122375,1,0,0:0:0:0:
64,192,122375,128,0,122846:0:0:0:0:
448,192,122453,1,0,0:0:0:0:
192,192,122532,1,0,0:0:0:0:
320,192,122610,1,0,0:0:0:0:
448,192,122610,1,0,0:0:0:0:
192,192,122689,1,0,0:0:0:0:
320,192,122767,1,0,0:0:0:0:
192,192,122846,1,0,0:0:0:0:
448,192,122846,1,0,0:0:0:0:
320,192,122924,1,0,0:0:0:0:
64,192,122924,1,0,0:0:0:0:
448,192,123003,1,0,0:0:0:0:
192,192,123003,1,0,0:0:0:0:
320,192,123081,1,0,0:0:0:0:
64,192,123081,1,0,0:0:0:0:
448,192,123159,1,0,0:0:0:0:
192,192,123159,1,0,0:0:0:0:
320,192,123238,1,0,0:0:0:0:
64,192,123238,1,0,0:0:0:0:
448,192,123316,1,0,0:0:0:0:
192,192,123316,1,0,0:0:0:0:
320,192,123472,1,0,0:0:0:0:
192,192,123472,1,0,0:0:0:0:
64,192,123472,1,0,0:0:0:0:
64,192,123628,1,0,0:0:0:0:
192,192,123628,1,0,0:0:0:0:
448,192,123628,1,0,0:0:0:0:
448,192,123786,1,0,0:0:0:0:
64,192,123786,1,0,0:0:0:0:
320,192,123786,1,0,0:0:0:0:
320,192,123929,1,0,0:0:0:0:
192,192,123929,1,0,0:0:0:0:
448,192,123929,1,0,0:0:0:0:
192,192,124073,1,0,0:0:0:0:
64,192,124073,1,0,0:0:0:0:
448,192,124073,1,0,0:0:0:0:
64,192,124217,1,0,0:0:0:0:
448,192,124217,1,0,0:0:0:0:
320,192,124217,1,0,0:0:0:0:
320,192,124369,1,0,0:0:0:0:
192,192,124369,1,0,0:0:0:0:
64,192,124369,1,0,0:0:0:0:
448,192,124521,1,0,0:0:0:0:
320,192,124521,1,0,0:0:0:0:
64,192,124521,1,0,0:0:0:0:
320,192,124674,1,0,0:0:0:0:
64,192,124674,1,0,0:0:0:0:
448,192,124674,1,0,0:0:0:0:
192,192,124756,1,0,0:0:0:0:
320,192,124838,1,0,0:0:0:0:
448,192,124838,1,0,0:0:0:0:
192,192,124920,1,0,0:0:0:0:
64,192,125002,1,0,0:0:0:0:
448,192,125002,1,0,0:0:0:0:
192,192,125084,1,0,0:0:0:0:
320,192,125167,1,0,0:0:0:0:
448,192,125167,128,0,125670:0:0:0:0:
64,192,125278,1,0,0:0:0:0:
192,192,125356,1,0,0:0:0:0:
320,192,125435,1,0,0:0:0:0:
64,192,125435,1,0,0:0:0:0:
192,192,125513,1,0,0:0:0:0:
320,192,125592,1,0,0:0:0:0:
64,192,125670,1,0,0:0:0:0:
192,192,125670,1,0,0:0:0:0:
320,192,125749,1,0,0:0:0:0:
192,192,125827,1,0,0:0:0:0:
64,192,125827,1,0,0:0:0:0:
448,192,125906,1,0,0:0:0:0:
320,192,125984,1,0,0:0:0:0:
192,192,125984,1,0,0:0:0:0:
64,192,126063,1,0,0:0:0:0:
448,192,126141,1,0,0:0:0:0:
320,192,126141,1,0,0:0:0:0:
192,192,126220,1,0,0:0:0:0:
64,192,126298,1,0,0:0:0:0:
448,192,126377,1,0,0:0:0:0:
192,192,126377,1,0,0:0:0:0:
64,192,126455,1,0,0:0:0:0:
192,192,126534,1,0,0:0:0:0:
320,192,126612,1,0,0:0:0:0:
192,192,126612,128,0,126769:0:0:0:0:
448,192,126691,1,0,0:0:0:0:
64,192,126769,1,0,0:0:0:0:
320,192,126848,1,0,0:0:0:0:
448,192,126848,1,0,0:0:0:0:
192,192,126926,1,0,0:0:0:0:
320,192,127005,1,0,0:0:0:0:
64,192,127083,1,0,0:0:0:0:
320,192,127083,128,0,127319:0:0:0:0:
192,192,127162,1,0,0:0:0:0:
448,192,127240,1,0,0:0:0:0:
192,192,127319,1,0,0:0:0:0:
64,192,127319,1,0,0:0:0:0:
448,192,127397,1,0,0:0:0:0:
192,192,127476,1,0,0:0:0:0:
448,192,127554,1,0,0:0:0:0:
320,192,127554,1,0,0:0:0:0:
448,192,127633,1,0,0:0:0:0:
320,192,127711,1,0,0:0:0:0:
192,192,127790,1,0,0:0:0:0:
64,192,127790,1,0,0:0:0:0:
64,192,127868,1,0,0:0:0:0:
320,192,127947,1,0,0:0:0:0:
192,192,128025,1,0,0:0:0:0:
448,192,128025,1,0,0:0:0:0:
320,192,128104,1,0,0:0:0:0:
64,192,128182,1,0,0:0:0:0:
192,192,128261,1,0,0:0:0:0:
448,192,128261,1,0,0:0:0:0:
320,192,128339,1,0,0:0:0:0:
192,192,128418,1,0,0:0:0:0:
448,192,128496,1,0,0:0:0:0:
320,192,128496,1,0,0:0:0:0:
192,192,128575,1,0,0:0:0:0:
64,192,128575,1,0,0:0:0:0:
448,192,128653,1,0,0:0:0:0:
320,192,128653,1,0,0:0:0:0:
192,192,128732,1,0,0:0:0:0:
64,192,128732,1,0,0:0:0:0:
320,192,128810,1,0,0:0:0:0:
448,192,128810,1,0,0:0:0:0:
192,192,128889,1,0,0:0:0:0:
64,192,128889,1,0,0:0:0:0:
320,192,128967,128,0,129124:0:0:0:0:
448,192,128967,128,0,129203:0:0:0:0:
192,192,129046,1,0,0:0:0:0:
64,192,129124,1,0,0:0:0:0:
192,192,129203,1,0,0:0:0:0:
320,192,129281,1,0,0:0:0:0:
448,192,129360,1,0,0:0:0:0:
320,192,129438,1,0,0:0:0:0:
192,192,129438,1,0,0:0:0:0:
448,192,129517,1,0,0:0:0:0:
64,192,129517,1,0,0:0:0:0:
192,192,129595,1,0,0:0:0:0:
320,192,129595,1,0,0:0:0:0:
448,192,129674,1,0,0:0:0:0:
64,192,129674,1,0,0:0:0:0:
192,192,129752,1,0,0:0:0:0:
320,192,129752,1,0,0:0:0:0:
448,192,129831,1,0,0:0:0:0:
64,192,129831,1,0,0:0:0:0:
192,192,129909,128,0,130145:0:0:0:0:
320,192,129909,128,0,130066:0:0:0:0:
448,192,129988,1,0,0:0:0:0:
64,192,130066,1,0,0:0:0:0:
448,192,130145,1,0,0:0:0:0:
320,192,130223,1,0,0:0:0:0:
192,192,130302,1,0,0:0:0:0:
320,192,130380,1,0,0:0:0:0:
64,192,130380,1,0,0:0:0:0:
192,192,130459,1,0,0:0:0:0:
448,192,130459,1,0,0:0:0:0:
320,192,130537,1,0,0:0:0:0:
64,192,130537,1,0,0:0:0:0:
192,192,130616,1,0,0:0:0:0:
448,192,130616,1,0,0:0:0:0:
320,192,130694,1,0,0:0:0:0:
64,192,130694,1,0,0:0:0:0:
192,192,130772,1,0,0:0:0:0:
448,192,130772,1,0,0:0:0:0:
64,192,130851,1,0,0:0:0:0:
320,192,130851,1,0,0:0:0:0:
192,192,130929,1,0,0:0:0:0:
320,192,131008,1,0,0:0:0:0:
64,192,131008,1,0,0:0:0:0:
192,192,131086,1,0,0:0:0:0:
448,192,131086,1,0,0:0:0:0:
320,192,131165,1,0,0:0:0:0:
192,192,131243,1,0,0:0:0:0:
64,192,131243,1,0,0:0:0:0:
320,192,131322,1,0,0:0:0:0:
448,192,131322,1,0,0:0:0:0:
192,192,131400,1,0,0:0:0:0:
64,192,131400,1,0,0:0:0:0:
320,192,131479,1,0,0:0:0:0:
192,192,131557,1,0,0:0:0:0:
448,192,131557,1,0,0:0:0:0:
320,192,131636,1,0,0:0:0:0:
64,192,131636,1,0,0:0:0:0:
192,192,131714,1,0,0:0:0:0:
448,192,131793,1,0,0:0:0:0:
64,192,131793,1,0,0:0:0:0:
320,192,131871,1,0,0:0:0:0:
192,192,131871,1,0,0:0:0:0:
448,192,131950,1,0,0:0:0:0:
64,192,131950,1,0,0:0:0:0:
192,192,132028,1,0,0:0:0:0:
320,192,132028,1,0,0:0:0:0:
448,192,132107,1,0,0:0:0:0:
64,192,132107,1,0,0:0:0:0:
192,192,132185,1,0,0:0:0:0:
320,192,132264,1,0,0:0:0:0:
448,192,132264,128,0,132735:0:0:0:0:
64,192,132264,1,0,0:0:0:0:
192,192,132499,128,0,132735:0:0:0:0:
320,192,132735,1,0,0:0:0:0:
64,192,132735,1,0,0:0:0:0:
64,192,132970,1,0,0:0:0:0:
192,192,132970,1,0,0:0:0:0:
192,192,133206,1,0,0:0:0:0:
64,192,133206,1,0,0:0:0:0:
448,192,133324,128,0,133441:0:0:0:0:
192,192,133441,1,0,0:0:0:0:
64,192,133441,1,0,0:0:0:0:
320,192,133559,128,0,133677:0:0:0:0:
192,192,133677,1,0,0:0:0:0:
64,192,133677,1,0,0:0:0:0:
192,192,133912,1,0,0:0:0:0:
64,192,133912,1,0,0:0:0:0:
192,192,134148,1,0,0:0:0:0:
64,192,134148,1,0,0:0:0:0:
320,192,134265,128,0,134383:0:0:0:0:
192,192,134383,1,0,0:0:0:0:
64,192,134383,1,0,0:0:0:0:
448,192,134501,128,0,134619:0:0:0:0:
192,192,134619,1,0,0:0:0:0:
64,192,134619,1,0,0:0:0:0:
192,192,134854,1,0,0:0:0:0:
64,192,134854,1,0,0:0:0:0:
448,192,134972,128,0,135090:0:0:0:0:
192,192,135090,1,0,0:0:0:0:
64,192,135090,1,0,0:0:0:0:
320,192,135207,128,0,135325:0:0:0:0:
192,192,135325,1,0,0:0:0:0:
64,192,135325,1,0,0:0:0:0:
448,192,135443,128,0,135561:0:0:0:0:
192,192,135561,1,0,0:0:0:0:
64,192,135561,1,0,0:0:0:0:
320,192,135678,128,0,135796:0:0:0:0:
192,192,135796,1,0,0:0:0:0:
64,192,135796,1,0,0:0:0:0:
448,192,135914,128,0,136032:0:0:0:0:
192,192,136032,1,0,0:0:0:0:
64,192,136032,1,0,0:0:0:0:
320,192,136149,128,0,136267:0:0:0:0:
192,192,136267,1,0,0:0:0:0:
64,192,136267,1,0,0:0:0:0:
448,192,136385,128,0,136502:0:0:0:0:
192,192,136502,1,0,0:0:0:0:
64,192,136502,1,0,0:0:0:0:
320,192,136620,128,0,136738:0:0:0:0:
192,192,136738,1,0,0:0:0:0:
64,192,136738,1,0,0:0:0:0:
448,192,136856,128,0,136973:0:0:0:0:
192,192,136973,1,0,0:0:0:0:
64,192,136973,1,0,0:0:0:0:
320,192,137091,128,0,137209:0:0:0:0:
192,192,137209,1,0,0:0:0:0:
64,192,137209,1,0,0:0:0:0:
448,192,137327,128,0,137444:0:0:0:0:
192,192,137444,1,0,0:0:0:0:
64,192,137444,1,0,0:0:0:0:
192,192,137680,1,0,0:0:0:0:
64,192,137680,1,0,0:0:0:0:
192,192,137915,1,0,0:0:0:0:
64,192,137915,1,0,0:0:0:0:
192,192,138151,1,0,0:0:0:0:
64,192,138151,1,0,0:0:0:0:
448,192,138269,128,0,138386:0:0:0:0:
64,192,138386,1,0,0:0:0:0:
192,192,138386,1,0,0:0:0:0:
320,192,138504,128,0,138622:0:0:0:0:
192,192,138622,1,0,0:0:0:0:
64,192,138622,1,0,0:0:0:0:
448,192,138740,128,0,138857:0:0:0:0:
192,192,138857,1,0,0:0:0:0:
64,192,138857,1,0,0:0:0:0:
320,192,138975,128,0,139093:0:0:0:0:
64,192,139093,1,0,0:0:0:0:
192,192,139093,1,0,0:0:0:0:
448,192,139210,128,0,139328:0:0:0:0:
192,192,139328,1,0,0:0:0:0:
64,192,139328,1,0,0:0:0:0:
320,192,139387,1,0,0:0:0:0:
448,192,139446,1,0,0:0:0:0:
192,192,139446,1,0,0:0:0:0:
320,192,139505,1,0,0:0:0:0:
64,192,139564,1,0,0:0:0:0:
448,192,139564,1,0,0:0:0:0:
192,192,139623,1,0,0:0:0:0:
64,192,139681,1,0,0:0:0:0:
320,192,139681,1,0,0:0:0:0:
192,192,139740,1,0,0:0:0:0:
320,192,139799,1,0,0:0:0:0:
64,192,139799,128,0,140035:0:0:0:0:
448,192,139799,128,0,140035:0:0:0:0:
320,192,140035,128,0,140270:0:0:0:0:
192,192,140035,128,0,140231:0:0:0:0:
448,192,140270,1,0,0:0:0:0:
64,192,140270,1,0,0:0:0:0:
192,192,140309,1,0,0:0:0:0:
320,192,140349,1,0,0:0:0:0:
64,192,140388,1,0,0:0:0:0:
192,192,140427,1,0,0:0:0:0:
448,192,140466,1,0,0:0:0:0:
320,192,140506,1,0,0:0:0:0:
64,192,140506,1,0,0:0:0:0:
192,192,140545,1,0,0:0:0:0:
448,192,140584,1,0,0:0:0:0:
320,192,140623,1,0,0:0:0:0:
192,192,140663,1,0,0:0:0:0:
448,192,140702,1,0,0:0:0:0:
64,192,140741,1,0,0:0:0:0:
320,192,140741,1,0,0:0:0:0:
192,192,140780,1,0,0:0:0:0:
448,192,140820,1,0,0:0:0:0:
320,192,140859,1,0,0:0:0:0:
64,192,140898,1,0,0:0:0:0:
192,192,140937,1,0,0:0:0:0:
320,192,140977,1,0,0:0:0:0:
448,192,140977,1,0,0:0:0:0:
64,192,141016,1,0,0:0:0:0:
192,192,141055,1,0,0:0:0:0:
448,192,141094,1,0,0:0:0:0:
320,192,141134,1,0,0:0:0:0:
64,192,141173,1,0,0:0:0:0:
448,192,141212,1,0,0:0:0:0:
192,192,141212,1,0,0:0:0:0:
320,192,141251,1,0,0:0:0:0:
64,192,141291,1,0,0:0:0:0:
192,192,141330,1,0,0:0:0:0:
448,192,141369,1,0,0:0:0:0:
320,192,141408,1,0,0:0:0:0:
192,192,141448,1,0,0:0:0:0:
64,192,141448,1,0,0:0:0:0:
448,192,141487,1,0,0:0:0:0:
320,192,141526,1,0,0:0:0:0:
64,192,141565,1,0,0:0:0:0:
192,192,141605,1,0,0:0:0:0:
320,192,141644,1,0,0:0:0:0:
448,192,141683,1,0,0:0:0:0:
64,192,141683,1,0,0:0:0:0:
192,192,141722,1,0,0:0:0:0:
320,192,141762,1,0,0:0:0:0:
448,192,141801,1,0,0:0:0:0:
192,192,141840,1,0,0:0:0:0:
64,192,141879,1,0,0:0:0:0:
320,192,141918,1,0,0:0:0:0:
448,192,141918,1,0,0:0:0:0:
192,192,141958,1,0,0:0:0:0:
64,192,141997,1,0,0:0:0:0:
448,192,142036,1,0,0:0:0:0:
320,192,142075,1,0,0:0:0:0:
64,192,142115,1,0,0:0:0:0:
448,192,142154,1,0,0:0:0:0:
192,192,142154,1,0,0:0:0:0:
320,192,142272,1,0,0:0:0:0:
64,192,142272,1,0,0:0:0:0:
448,192,142389,1,0,0:0:0:0:
320,192,142389,1,0,0:0:0:0:
192,192,142389,1,0,0:0:0:0:
448,192,142507,1,0,0:0:0:0:
64,192,142507,1,0,0:0:0:0:
192,192,142625,1,0,0:0:0:0:
64,192,142625,1,0,0:0:0:0:
448,192,142625,1,0,0:0:0:0:
320,192,142743,1,0,0:0:0:0:
192,192,142743,1,0,0:0:0:0:
448,192,142860,1,0,0:0:0:0:
320,192,142860,1,0,0:0:0:0:
64,192,142860,1,0,0:0:0:0:
448,192,142978,1,0,0:0:0:0:
192,192,142978,1,0,0:0:0:0:
320,192,143096,1,0,0:0:0:0:
192,192,143096,1,0,0:0:0:0:
64,192,143096,1,0,0:0:0:0:
64,192,143214,1,0,0:0:0:0:
320,192,143214,1,0,0:0:0:0:
448,192,143331,1,0,0:0:0:0:
320,192,143331,1,0,0:0:0:0:
192,192,143331,1,0,0:0:0:0:
192,192,143449,1,0,0:0:0:0:
448,192,143449,1,0,0:0:0:0:
64,192,143567,1,0,0:0:0:0:
320,192,143567,1,0,0:0:0:0:
192,192,143567,1,0,0:0:0:0:
64,192,143685,1,0,0:0:0:0:
320,192,143685,1,0,0:0:0:0:
448,192,143802,1,0,0:0:0:0:
320,192,143802,1,0,0:0:0:0:
192,192,143802,1,0,0:0:0:0:
192,192,143920,1,0,0:0:0:0:
320,192,143920,1,0,0:0:0:0:
448,192,144038,1,0,0:0:0:0:
192,192,144038,1,0,0:0:0:0:
64,192,144038,1,0,0:0:0:0:
320,192,144077,1,0,0:0:0:0:
192,192,144116,1,0,0:0:0:0:
64,192,144156,1,0,0:0:0:0:
320,192,144195,1,0,0:0:0:0:
192,192,144234,1,0,0:0:0:0:
448,192,144273,1,0,0:0:0:0:
64,192,144273,1,0,0:0:0:0:
320,192,144313,1,0,0:0:0:0:
192,192,144352,1,0,0:0:0:0:
448,192,144391,1,0,0:0:0:0:
64,192,144430,1,0,0:0:0:0:
192,192,144470,1,0,0:0:0:0:
320,192,144509,1,0,0:0:0:0:
448,192,144509,1,0,0:0:0:0:
64,192,144548,1,0,0:0:0:0:
192,192,144587,1,0,0:0:0:0:
320,192,144627,1,0,0:0:0:0:
448,192,144666,1,0,0:0:0:0:
64,192,144705,1,0,0:0:0:0:
320,192,144744,1,0,0:0:0:0:
192,192,144744,1,0,0:0:0:0:
448,192,144783,1,0,0:0:0:0:
64,192,144823,1,0,0:0:0:0:
320,192,144862,1,0,0:0:0:0:
192,192,144901,1,0,0:0:0:0:
320,192,144940,1,0,0:0:0:0:
64,192,144980,1,0,0:0:0:0:
448,192,144980,1,0,0:0:0:0:
192,192,145019,1,0,0:0:0:0:
448,192,145058,1,0,0:0:0:0:
320,192,145097,1,0,0:0:0:0:
64,192,145137,1,0,0:0:0:0:
192,192,145176,1,0,0:0:0:0:
448,192,145215,1,0,0:0:0:0:
320,192,145215,1,0,0:0:0:0:
64,192,145254,1,0,0:0:0:0:
192,192,145294,1,0,0:0:0:0:
448,192,145333,1,0,0:0:0:0:
320,192,145372,1,0,0:0:0:0:
64,192,145411,1,0,0:0:0:0:
192,192,145451,1,0,0:0:0:0:
448,192,145451,1,0,0:0:0:0:
320,192,145490,1,0,0:0:0:0:
64,192,145529,1,0,0:0:0:0:
192,192,145568,1,0,0:0:0:0:
448,192,145608,1,0,0:0:0:0:
320,192,145647,1,0,0:0:0:0:
64,192,145686,1,0,0:0:0:0:
192,192,145686,1,0,0:0:0:0:
448,192,145725,1,0,0:0:0:0:
320,192,145765,1,0,0:0:0:0:
64,192,145804,1,0,0:0:0:0:
192,192,145843,1,0,0:0:0:0:
448,192,145882,1,0,0:0:0:0:
320,192,145922,1,0,0:0:0:0:
64,192,145922,1,0,0:0:0:0:
192,192,145922,1,0,0:0:0:0:
320,192,146039,1,0,0:0:0:0:
192,192,146039,1,0,0:0:0:0:
448,192,146157,1,0,0:0:0:0:
64,192,146157,1,0,0:0:0:0:
192,192,146157,1,0,0:0:0:0:
64,192,146275,1,0,0:0:0:0:
320,192,146275,1,0,0:0:0:0:
448,192,146275,1,0,0:0:0:0:
64,192,146393,1,0,0:0:0:0:
192,192,146393,1,0,0:0:0:0:
448,192,146393,1,0,0:0:0:0:
448,192,146510,1,0,0:0:0:0:
320,192,146510,1,0,0:0:0:0:
192,192,146510,1,0,0:0:0:0:
320,192,146628,1,0,0:0:0:0:
192,192,146628,1,0,0:0:0:0:
448,192,146746,1,0,0:0:0:0:
320,192,146746,1,0,0:0:0:0:
64,192,146746,1,0,0:0:0:0:
192,192,146864,1,0,0:0:0:0:
64,192,146864,1,0,0:0:0:0:
448,192,146864,1,0,0:0:0:0:
320,192,146922,1,0,0:0:0:0:
192,192,146981,1,0,0:0:0:0:
64,192,146981,1,0,0:0:0:0:
320,192,147040,1,0,0:0:0:0:
448,192,147040,1,0,0:0:0:0:
192,192,147099,1,0,0:0:0:0:
64,192,147099,1,0,0:0:0:0:
320,192,147158,1,0,0:0:0:0:
448,192,147158,1,0,0:0:0:0:
192,192,147217,1,0,0:0:0:0:
64,192,147217,1,0,0:0:0:0:
320,192,147276,1,0,0:0:0:0:
448,192,147335,1,0,0:0:0:0:
64,192,147335,1,0,0:0:0:0:
192,192,147393,1,0,0:0:0:0:
320,192,147452,1,0,0:0:0:0:
64,192,147452,1,0,0:0:0:0:
192,192,147511,1,0,0:0:0:0:
448,192,147570,1,0,0:0:0:0:
320,192,147570,1,0,0:0:0:0:
192,192,147629,1,0,0:0:0:0:
64,192,147688,1,0,0:0:0:0:
448,192,147688,1,0,0:0:0:0:
320,192,147747,1,0,0:0:0:0:
192,192,147805,1,0,0:0:0:0:
64,192,147805,1,0,0:0:0:0:
448,192,147805,1,0,0:0:0:0:
320,192,147845,1,0,0:0:0:0:
192,192,147884,1,0,0:0:0:0:
64,192,147923,1,0,0:0:0:0:
448,192,147923,1,0,0:0:0:0:
320,192,147962,1,0,0:0:0:0:
192,192,148002,1,0,0:0:0:0:
64,192,148041,1,0,0:0:0:0:
448,192,148041,1,0,0:0:0:0:
320,192,148100,1,0,0:0:0:0:
192,192,148159,1,0,0:0:0:0:
64,192,148159,1,0,0:0:0:0:
448,192,148218,1,0,0:0:0:0:
320,192,148276,1,0,0:0:0:0:
192,192,148276,1,0,0:0:0:0:
64,192,148335,1,0,0:0:0:0:
320,192,148394,1,0,0:0:0:0:
448,192,148394,1,0,0:0:0:0:
64,192,148453,1,0,0:0:0:0:
192,192,148512,1,0,0:0:0:0:
448,192,148512,1,0,0:0:0:0:
320,192,148571,1,0,0:0:0:0:
64,192,148630,1,0,0:0:0:0:
192,192,148630,1,0,0:0:0:0:
320,192,148689,1,0,0:0:0:0:
448,192,148747,1,0,0:0:0:0:
64,192,148747,1,0,0:0:0:0:
192,192,148806,1,0,0:0:0:0:
320,192,148865,1,0,0:0:0:0:
64,192,148924,1,0,0:0:0:0:
448,192,148983,1,0,0:0:0:0:
192,192,148983,1,0,0:0:0:0:
320,192,149042,1,0,0:0:0:0:
64,192,149101,1,0,0:0:0:0:
192,192,149159,1,0,0:0:0:0:
448,192,149218,1,0,0:0:0:0:
320,192,149218,1,0,0:0:0:0:
192,192,149277,1,0,0:0:0:0:
64,192,149336,1,0,0:0:0:0:
320,192,149395,1,0,0:0:0:0:
192,192,149454,1,0,0:0:0:0:
64,192,149454,1,0,0:0:0:0:
448,192,149513,1,0,0:0:0:0:
320,192,149572,1,0,0:0:0:0:
192,192,149630,1,0,0:0:0:0:
64,192,149689,1,0,0:0:0:0:
448,192,149689,1,0,0:0:0:0:
320,192,149689,1,0,0:0:0:0:
192,192,149729,1,0,0:0:0:0:
320,192,149768,1,0,0:0:0:0:
448,192,149807,1,0,0:0:0:0:
64,192,149807,1,0,0:0:0:0:
192,192,149846,1,0,0:0:0:0:
320,192,149886,1,0,0:0:0:0:
448,192,149925,1,0,0:0:0:0:
64,192,149925,1,0,0:0:0:0:
192,192,149984,1,0,0:0:0:0:
320,192,150043,1,0,0:0:0:0:
64,192,150043,1,0,0:0:0:0:
192,192,150101,1,0,0:0:0:0:
448,192,150160,1,0,0:0:0:0:
320,192,150160,1,0,0:0:0:0:
64,192,150219,1,0,0:0:0:0:
192,192,150278,1,0,0:0:0:0:
448,192,150278,1,0,0:0:0:0:
320,192,150337,1,0,0:0:0:0:
64,192,150396,1,0,0:0:0:0:
192,192,150396,1,0,0:0:0:0:
448,192,150455,1,0,0:0:0:0:
320,192,150513,1,0,0:0:0:0:
64,192,150513,1,0,0:0:0:0:
192,192,150572,1,0,0:0:0:0:
448,192,150631,1,0,0:0:0:0:
320,192,150631,1,0,0:0:0:0:
64,192,150690,1,0,0:0:0:0:
192,192,150749,1,0,0:0:0:0:
448,192,150808,1,0,0:0:0:0:
320,192,150867,1,0,0:0:0:0:
64,192,150867,1,0,0:0:0:0:
192,192,150926,1,0,0:0:0:0:
448,192,150984,1,0,0:0:0:0:
320,192,151043,1,0,0:0:0:0:
192,192,151102,1,0,0:0:0:0:
64,192,151102,1,0,0:0:0:0:
448,192,151161,1,0,0:0:0:0:
320,192,151220,1,0,0:0:0:0:
192,192,151279,1,0,0:0:0:0:
448,192,151338,1,0,0:0:0:0:
64,192,151338,1,0,0:0:0:0:
320,192,151397,1,0,0:0:0:0:
192,192,151455,1,0,0:0:0:0:
448,192,151514,1,0,0:0:0:0:
192,192,151573,1,0,0:0:0:0:
64,192,151573,128,0,151809:0:0:0:0:
320,192,151573,1,0,0:0:0:0:
448,192,151632,1,0,0:0:0:0:
192,192,151691,128,0,151809:0:0:0:0:
320,192,151691,1,0,0:0:0:0:
448,192,151750,1,0,0:0:0:0:
320,192,151809,128,0,152044:0:0:0:0:
448,192,151926,128,0,152044:0:0:0:0:
192,192,151926,1,0,0:0:0:0:
64,192,151985,1,0,0:0:0:0:
192,192,152044,128,0,152280:0:0:0:0:
64,192,152162,128,0,152280:0:0:0:0:
448,192,152162,1,0,0:0:0:0:
320,192,152221,1,0,0:0:0:0:
448,192,152280,128,0,152515:0:0:0:0:
320,192,152397,128,0,152515:0:0:0:0:
64,192,152397,1,0,0:0:0:0:
192,192,152456,1,0,0:0:0:0:
64,192,152515,128,0,152751:0:0:0:0:
192,192,152633,128,0,152751:0:0:0:0:
448,192,152633,1,0,0:0:0:0:
320,192,152692,1,0,0:0:0:0:
448,192,152751,128,0,152986:0:0:0:0:
320,192,152868,128,0,152986:0:0:0:0:
192,192,152868,1,0,0:0:0:0:
64,192,152927,1,0,0:0:0:0:
192,192,152986,128,0,153221:0:0:0:0:
64,192,153104,128,0,153221:0:0:0:0:
320,192,153104,1,0,0:0:0:0:
448,192,153163,1,0,0:0:0:0:
320,192,153221,128,0,153457:0:0:0:0:
448,192,153339,128,0,153457:0:0:0:0:
64,192,153339,1,0,0:0:0:0:
192,192,153398,1,0,0:0:0:0:
64,192,153457,128,0,153692:0:0:0:0:
192,192,153516,1,0,0:0:0:0:
448,192,153575,128,0,153810:0:0:0:0:
320,192,153575,1,0,0:0:0:0:
192,192,153692,128,0,153928:0:0:0:0:
320,192,153692,1,0,0:0:0:0:
320,192,153810,128,0,154046:0:0:0:0:
64,192,153810,1,0,0:0:0:0:
64,192,153928,128,0,154163:0:0:0:0:
448,192,153928,1,0,0:0:0:0:
448,192,154046,128,0,154281:0:0:0:0:
192,192,154046,1,0,0:0:0:0:
192,192,154163,128,0,154399:0:0:0:0:
320,192,154163,1,0,0:0:0:0:
320,192,154281,128,0,154517:0:0:0:0:
64,192,154281,1,0,0:0:0:0:
64,192,154399,128,0,154634:0:0:0:0:
448,192,154399,1,0,0:0:0:0:
448,192,154517,128,0,154752:0:0:0:0:
192,192,154517,1,0,0:0:0:0:
320,192,154634,128,0,154870:0:0:0:0:
192,192,154634,1,0,0:0:0:0:
64,192,154752,1,0,0:0:0:0:
192,192,154811,1,0,0:0:0:0:
448,192,154870,128,0,155341:0:0:0:0:
64,192,154870,1,0,0:0:0:0:
64,192,154988,1,0,0:0:0:0:
320,192,154988,1,0,0:0:0:0:
192,192,155046,1,0,0:0:0:0:
64,192,155105,1,0,0:0:0:0:
320,192,155105,1,0,0:0:0:0:
192,192,155164,1,0,0:0:0:0:
64,192,155223,1,0,0:0:0:0:
320,192,155223,1,0,0:0:0:0:
192,192,155282,1,0,0:0:0:0:
64,192,155341,1,0,0:0:0:0:
320,192,155341,1,0,0:0:0:0:
192,192,155380,1,0,0:0:0:0:
320,192,155419,1,0,0:0:0:0:
448,192,155459,1,0,0:0:0:0:
64,192,155459,1,0,0:0:0:0:
192,192,155498,1,0,0:0:0:0:
320,192,155537,1,0,0:0:0:0:
448,192,155576,1,0,0:0:0:0:
64,192,155576,1,0,0:0:0:0:
192,192,155635,1,0,0:0:0:0:
320,192,155694,1,0,0:0:0:0:
64,192,155694,1,0,0:0:0:0:
448,192,155753,1,0,0:0:0:0:
192,192,155812,1,0,0:0:0:0:
320,192,155812,1,0,0:0:0:0:
64,192,155871,1,0,0:0:0:0:
448,192,155929,1,0,0:0:0:0:
192,192,155929,1,0,0:0:0:0:
320,192,155988,1,0,0:0:0:0:
64,192,156047,1,0,0:0:0:0:
192,192,156047,1,0,0:0:0:0:
448,192,156106,1,0,0:0:0:0:
320,192,156165,1,0,0:0:0:0:
64,192,156165,1,0,0:0:0:0:
192,192,156224,1,0,0:0:0:0:
448,192,156283,1,0,0:0:0:0:
320,192,156283,1,0,0:0:0:0:
64,192,156283,1,0,0:0:0:0:
192,192,156342,1,0,0:0:0:0:
320,192,156400,1,0,0:0:0:0:
448,192,156459,1,0,0:0:0:0:
192,192,156518,1,0,0:0:0:0:
64,192,156518,1,0,0:0:0:0:
320,192,156577,1,0,0:0:0:0:
64,192,156636,1,0,0:0:0:0:
192,192,156695,1,0,0:0:0:0:
64,192,156754,1,0,0:0:0:0:
448,192,156754,1,0,0:0:0:0:
320,192,156813,1,0,0:0:0:0:
192,192,156871,1,0,0:0:0:0:
448,192,156930,1,0,0:0:0:0:
320,192,156989,1,0,0:0:0:0:
64,192,156989,1,0,0:0:0:0:
192,192,157048,1,0,0:0:0:0:
64,192,157107,1,0,0:0:0:0:
448,192,157107,1,0,0:0:0:0:
320,192,157166,1,0,0:0:0:0:
448,192,157225,1,0,0:0:0:0:
192,192,157225,1,0,0:0:0:0:
64,192,157225,1,0,0:0:0:0:
320,192,157264,1,0,0:0:0:0:
192,192,157303,1,0,0:0:0:0:
64,192,157342,1,0,0:0:0:0:
448,192,157342,1,0,0:0:0:0:
320,192,157382,1,0,0:0:0:0:
192,192,157421,1,0,0:0:0:0:
64,192,157460,1,0,0:0:0:0:
448,192,157460,1,0,0:0:0:0:
320,192,157519,1,0,0:0:0:0:
192,192,157578,1,0,0:0:0:0:
64,192,157578,1,0,0:0:0:0:
448,192,157637,1,0,0:0:0:0:
320,192,157696,1,0,0:0:0:0:
192,192,157696,1,0,0:0:0:0:
448,192,157754,1,0,0:0:0:0:
64,192,157813,1,0,0:0:0:0:
320,192,157813,1,0,0:0:0:0:
192,192,157872,1,0,0:0:0:0:
448,192,157931,1,0,0:0:0:0:
64,192,157931,1,0,0:0:0:0:
320,192,157990,1,0,0:0:0:0:
192,192,158049,1,0,0:0:0:0:
448,192,158049,1,0,0:0:0:0:
64,192,158108,1,0,0:0:0:0:
192,192,158167,1,0,0:0:0:0:
320,192,158167,1,0,0:0:0:0:
448,192,158225,1,0,0:0:0:0:
64,192,158284,1,0,0:0:0:0:
320,192,158343,1,0,0:0:0:0:
192,192,158402,1,0,0:0:0:0:
64,192,158402,1,0,0:0:0:0:
448,192,158461,1,0,0:0:0:0:
320,192,158520,1,0,0:0:0:0:
64,192,158579,1,0,0:0:0:0:
192,192,158637,1,0,0:0:0:0:
448,192,158637,1,0,0:0:0:0:
320,192,158696,1,0,0:0:0:0:
192,192,158755,1,0,0:0:0:0:
64,192,158814,1,0,0:0:0:0:
448,192,158873,1,0,0:0:0:0:
320,192,158873,1,0,0:0:0:0:
192,192,158932,1,0,0:0:0:0:
64,192,158991,1,0,0:0:0:0:
320,192,158991,1,0,0:0:0:0:
192,192,159050,1,0,0:0:0:0:
320,192,159108,1,0,0:0:0:0:
448,192,159108,1,0,0:0:0:0:
64,192,159167,1,0,0:0:0:0:
192,192,159226,1,0,0:0:0:0:
448,192,159226,1,0,0:0:0:0:
320,192,159285,1,0,0:0:0:0:
64,192,159344,1,0,0:0:0:0:
192,192,159344,1,0,0:0:0:0:
448,192,159403,1,0,0:0:0:0:
320,192,159462,1,0,0:0:0:0:
64,192,159462,1,0,0:0:0:0:
192,192,159521,1,0,0:0:0:0:
320,192,159579,1,0,0:0:0:0:
448,192,159579,1,0,0:0:0:0:
64,192,159638,1,0,0:0:0:0:
192,192,159697,1,0,0:0:0:0:
448,192,159697,1,0,0:0:0:0:
320,192,159756,1,0,0:0:0:0:
64,192,159815,1,0,0:0:0:0:
192,192,159815,1,0,0:0:0:0:
448,192,159874,1,0,0:0:0:0:
320,192,159933,1,0,0:0:0:0:
64,192,159933,1,0,0:0:0:0:
192,192,159991,1,0,0:0:0:0:
320,192,160050,1,0,0:0:0:0:
64,192,160050,128,0,160168:0:0:0:0:
448,192,160050,128,0,160168:0:0:0:0:
320,192,160286,128,0,160462:0:0:0:0:
192,192,160521,128,0,160698:0:0:0:0:
320,192,160757,128,0,160992:0:0:0:0:
192,192,160992,1,0,0:0:0:0:
64,192,160992,1,0,0:0:0:0:
448,192,160992,128,0,161051:0:0:0:0:
192,192,161110,1,0,0:0:0:0:
320,192,161169,1,0,0:0:0:0:
448,192,161228,1,0,0:0:0:0:
192,192,161228,1,0,0:0:0:0:
64,192,161228,128,0,161287:0:0:0:0:
320,192,161345,1,0,0:0:0:0:
192,192,161404,1,0,0:0:0:0:
64,192,161463,1,0,0:0:0:0:
320,192,161463,1,0,0:0:0:0:
448,192,161463,128,0,161699:0:0:0:0:
192,192,161581,1,0,0:0:0:0:
320,192,161581,1,0,0:0:0:0:
192,192,161699,1,0,0:0:0:0:
64,192,161699,128,0,161758:0:0:0:0:
320,192,161816,1,0,0:0:0:0:
192,192,161816,128,0,162052:0:0:0:0:
448,192,161934,1,0,0:0:0:0:
320,192,161934,1,0,0:0:0:0:
64,192,161934,1,0,0:0:0:0:
448,192,162052,1,0,0:0:0:0:
64,192,162052,1,0,0:0:0:0:
320,192,162170,1,0,0:0:0:0:
192,192,162170,1,0,0:0:0:0:
192,192,162287,128,0,162523:0:0:0:0:
64,192,162287,128,0,162523:0:0:0:0:
320,192,162405,128,0,162464:0:0:0:0:
448,192,162405,128,0,162464:0:0:0:0:
320,192,162523,1,0,0:0:0:0:
448,192,162523,1,0,0:0:0:0:
192,192,162641,1,0,0:0:0:0:
64,192,162641,1,0,0:0:0:0:
192,192,162758,1,0,0:0:0:0:
448,192,162758,1,0,0:0:0:0:
64,192,162817,1,0,0:0:0:0:
448,192,162876,1,0,0:0:0:0:
320,192,162876,1,0,0:0:0:0:
192,192,162876,128,0,162935:0:0:0:0:
448,192,162994,1,0,0:0:0:0:
320,192,163053,1,0,0:0:0:0:
192,192,163112,1,0,0:0:0:0:
64,192,163112,1,0,0:0:0:0:
448,192,163112,128,0,163170:0:0:0:0:
64,192,163229,1,0,0:0:0:0:
192,192,163288,1,0,0:0:0:0:
448,192,163347,1,0,0:0:0:0:
320,192,163347,1,0,0:0:0:0:
64,192,163347,128,0,163583:0:0:0:0:
192,192,163465,1,0,0:0:0:0:
320,192,163465,1,0,0:0:0:0:
320,192,163583,1,0,0:0:0:0:
448,192,163583,1,0,0:0:0:0:
448,192,163700,128,0,163936:0:0:0:0:
192,192,163700,128,0,163936:0:0:0:0:
64,192,163700,1,0,0:0:0:0:
320,192,163818,1,0,0:0:0:0:
64,192,163818,1,0,0:0:0:0:
320,192,163936,1,0,0:0:0:0:
64,192,164054,1,0,0:0:0:0:
448,192,164054,128,0,164171:0:0:0:0:
192,192,164054,1,0,0:0:0:0:
320,192,164171,1,0,0:0:0:0:
64,192,164171,128,0,164289:0:0:0:0:
448,192,164289,1,0,0:0:0:0:
320,192,164289,128,0,164407:0:0:0:0:
448,192,164407,1,0,0:0:0:0:
192,192,164407,128,0,164524:0:0:0:0:
320,192,164524,1,0,0:0:0:0:
64,192,164524,128,0,164760:0:0:0:0:
448,192,164524,128,0,164760:0:0:0:0:
320,192,164642,128,0,164701:0:0:0:0:
192,192,164642,1,0,0:0:0:0:
192,192,164760,128,0,164819:0:0:0:0:
64,192,164878,1,0,0:0:0:0:
320,192,164937,1,0,0:0:0:0:
448,192,164995,1,0,0:0:0:0:
192,192,164995,1,0,0:0:0:0:
64,192,164995,128,0,165054:0:0:0:0:
448,192,165113,1,0,0:0:0:0:
192,192,165172,1,0,0:0:0:0:
64,192,165231,1,0,0:0:0:0:
448,192,165231,1,0,0:0:0:0:
320,192,165231,128,0,165466:0:0:0:0:
64,192,165349,1,0,0:0:0:0:
192,192,165349,1,0,0:0:0:0:
192,192,165466,1,0,0:0:0:0:
448,192,165466,1,0,0:0:0:0:
448,192,165584,128,0,165820:0:0:0:0:
192,192,165584,1,0,0:0:0:0:
64,192,165584,1,0,0:0:0:0:
320,192,165702,1,0,0:0:0:0:
192,192,165702,1,0,0:0:0:0:
64,192,165820,1,0,0:0:0:0:
320,192,165820,1,0,0:0:0:0:
448,192,165937,1,0,0:0:0:0:
192,192,165937,1,0,0:0:0:0:
448,192,166055,128,0,166291:0:0:0:0:
320,192,166055,128,0,166291:0:0:0:0:
192,192,166173,128,0,166232:0:0:0:0:
64,192,166173,128,0,166232:0:0:0:0:
192,192,166291,1,0,0:0:0:0:
64,192,166291,1,0,0:0:0:0:
320,192,166408,1,0,0:0:0:0:
192,192,166408,128,0,166467:0:0:0:0:
448,192,166526,1,0,0:0:0:0:
320,192,166585,1,0,0:0:0:0:
192,192,166644,1,0,0:0:0:0:
64,192,166644,1,0,0:0:0:0:
448,192,166644,128,0,166703:0:0:0:0:
64,192,166762,1,0,0:0:0:0:
448,192,166820,1,0,0:0:0:0:
192,192,166879,1,0,0:0:0:0:
320,192,166879,1,0,0:0:0:0:
64,192,166879,128,0,166938:0:0:0:0:
448,192,166997,1,0,0:0:0:0:
64,192,167056,1,0,0:0:0:0:
192,192,167115,1,0,0:0:0:0:
320,192,167115,1,0,0:0:0:0:
448,192,167115,128,0,167350:0:0:0:0:
320,192,167232,1,0,0:0:0:0:
64,192,167232,1,0,0:0:0:0:
192,192,167350,1,0,0:0:0:0:
64,192,167350,128,0,167468:0:0:0:0:
320,192,167468,128,0,167703:0:0:0:0:
192,192,167468,1,0,0:0:0:0:
448,192,167586,1,0,0:0:0:0:
64,192,167586,1,0,0:0:0:0:
192,192,167645,1,0,0:0:0:0:
448,192,167703,1,0,0:0:0:0:
64,192,167703,1,0,0:0:0:0:
192,192,167762,1,0,0:0:0:0:
448,192,167821,1,0,0:0:0:0:
320,192,167821,1,0,0:0:0:0:
192,192,167880,1,0,0:0:0:0:
64,192,167939,1,0,0:0:0:0:
320,192,167998,1,0,0:0:0:0:
448,192,168057,1,0,0:0:0:0:
192,192,168057,1,0,0:0:0:0:
64,192,168116,1,0,0:0:0:0:
320,192,168174,1,0,0:0:0:0:
448,192,168174,1,0,0:0:0:0:
192,192,168233,1,0,0:0:0:0:
64,192,168292,128,0,168469:0:0:0:0:
320,192,168292,128,0,168469:0:0:0:0:
192,192,168528,1,0,0:0:0:0:
320,192,168528,1,0,0:0:0:0:
448,192,168528,1,0,0:0:0:0:
448,192,168645,1,0,0:0:0:0:
320,192,168645,1,0,0:0:0:0:
192,192,168645,1,0,0:0:0:0:
192,192,168763,1,0,0:0:0:0:
320,192,168763,1,0,0:0:0:0:
448,192,168763,1,0,0:0:0:0:
320,192,168881,1,0,0:0:0:0:
192,192,168881,1,0,0:0:0:0:
64,192,168881,1,0,0:0:0:0:
192,192,168999,1,0,0:0:0:0:
64,192,168999,1,0,0:0:0:0:
320,192,168999,1,0,0:0:0:0:
320,192,169116,1,0,0:0:0:0:
192,192,169116,1,0,0:0:0:0:
64,192,169116,1,0,0:0:0:0:
64,192,169234,1,0,0:0:0:0:
448,192,169234,1,0,0:0:0:0:
192,192,169234,1,0,0:0:0:0:
448,192,169352,1,0,0:0:0:0:
192,192,169352,1,0,0:0:0:0:
64,192,169352,1,0,0:0:0:0:
448,192,169470,1,0,0:0:0:0:
192,192,169470,1,0,0:0:0:0:
64,192,169470,1,0,0:0:0:0:
448,192,169587,1,0,0:0:0:0:
320,192,169587,1,0,0:0:0:0:
64,192,169587,1,0,0:0:0:0:
64,192,169705,1,0,0:0:0:0:
320,192,169705,1,0,0:0:0:0:
448,192,169705,1,0,0:0:0:0:
64,192,169823,1,0,0:0:0:0:
320,192,169823,1,0,0:0:0:0:
448,192,169823,1,0,0:0:0:0:
192,192,169940,1,0,0:0:0:0:
320,192,169940,1,0,0:0:0:0:
64,192,169940,1,0,0:0:0:0:
320,192,170058,1,0,0:0:0:0:
192,192,170058,1,0,0:0:0:0:
64,192,170058,1,0,0:0:0:0:
64,192,170176,1,0,0:0:0:0:
192,192,170176,1,0,0:0:0:0:
320,192,170176,1,0,0:0:0:0:
448,192,170294,1,0,0:0:0:0:
192,192,170294,1,0,0:0:0:0:
320,192,170294,1,0,0:0:0:0:
192,192,170411,1,0,0:0:0:0:
320,192,170411,1,0,0:0:0:0:
448,192,170411,1,0,0:0:0:0:
448,192,170529,1,0,0:0:0:0:
320,192,170529,1,0,0:0:0:0:
192,192,170529,1,0,0:0:0:0:
320,192,170647,1,0,0:0:0:0:
448,192,170647,1,0,0:0:0:0:
64,192,170647,1,0,0:0:0:0:
64,192,170765,1,0,0:0:0:0:
320,192,170765,1,0,0:0:0:0:
448,192,170765,1,0,0:0:0:0:
448,192,170882,1,0,0:0:0:0:
320,192,170882,1,0,0:0:0:0:
64,192,170882,1,0,0:0:0:0:
64,192,171000,1,0,0:0:0:0:
192,192,171000,1,0,0:0:0:0:
448,192,171000,1,0,0:0:0:0:
448,192,171118,1,0,0:0:0:0:
192,192,171118,1,0,0:0:0:0:
64,192,171118,1,0,0:0:0:0:
64,192,171236,1,0,0:0:0:0:
192,192,171236,1,0,0:0:0:0:
448,192,171236,1,0,0:0:0:0:
320,192,171353,1,0,0:0:0:0:
448,192,171353,1,0,0:0:0:0:
64,192,171353,1,0,0:0:0:0:
64,192,171471,1,0,0:0:0:0:
320,192,171471,1,0,0:0:0:0:
448,192,171471,1,0,0:0:0:0:
448,192,171589,1,0,0:0:0:0:
320,192,171589,1,0,0:0:0:0:
64,192,171589,1,0,0:0:0:0:
320,192,171707,1,0,0:0:0:0:
192,192,171707,1,0,0:0:0:0:
64,192,171707,1,0,0:0:0:0:
320,192,171824,1,0,0:0:0:0:
192,192,171824,1,0,0:0:0:0:
64,192,171824,1,0,0:0:0:0:
64,192,171942,1,0,0:0:0:0:
192,192,171942,1,0,0:0:0:0:
320,192,171942,1,0,0:0:0:0:
448,192,172060,1,0,0:0:0:0:
192,192,172060,1,0,0:0:0:0:
64,192,172060,1,0,0:0:0:0:
64,192,172178,1,0,0:0:0:0:
192,192,172178,1,0,0:0:0:0:
448,192,172178,1,0,0:0:0:0:
448,192,172295,1,0,0:0:0:0:
192,192,172295,1,0,0:0:0:0:
64,192,172295,1,0,0:0:0:0:
448,192,172413,1,0,0:0:0:0:
320,192,172413,1,0,0:0:0:0:
192,192,172413,1,0,0:0:0:0:
192,192,172531,1,0,0:0:0:0:
320,192,172531,1,0,0:0:0:0:
448,192,172531,1,0,0:0:0:0:
448,192,172648,1,0,0:0:0:0:
320,192,172648,1,0,0:0:0:0:
192,192,172648,1,0,0:0:0:0:
64,192,172766,1,0,0:0:0:0:
192,192,172766,1,0,0:0:0:0:
320,192,172766,1,0,0:0:0:0:
320,192,172884,1,0,0:0:0:0:
192,192,172884,1,0,0:0:0:0:
64,192,172884,1,0,0:0:0:0:
64,192,173002,1,0,0:0:0:0:
192,192,173002,1,0,0:0:0:0:
320,192,173002,1,0,0:0:0:0:
448,192,173119,1,0,0:0:0:0:
192,192,173119,1,0,0:0:0:0:
64,192,173119,1,0,0:0:0:0:
64,192,173237,1,0,0:0:0:0:
192,192,173237,1,0,0:0:0:0:
448,192,173237,1,0,0:0:0:0:
448,192,173355,1,0,0:0:0:0:
192,192,173355,1,0,0:0:0:0:
64,192,173355,1,0,0:0:0:0:
448,192,173473,1,0,0:0:0:0:
320,192,173473,1,0,0:0:0:0:
192,192,173473,1,0,0:0:0:0:
192,192,173590,1,0,0:0:0:0:
320,192,173590,1,0,0:0:0:0:
448,192,173590,1,0,0:0:0:0:
448,192,173708,1,0,0:0:0:0:
320,192,173708,1,0,0:0:0:0:
192,192,173708,1,0,0:0:0:0:
64,192,173826,128,0,173944:0:0:0:0:
448,192,173826,128,0,173944:0:0:0:0:
192,192,173826,128,0,173944:0:0:0:0:
