osu file format v14

[General]
AudioFilename: audio120.mp3
AudioLeadIn: 0
PreviewTime: 43922
Countdown: 0
SampleSet: None
StackLeniency: 0.2
Mode: 3
LetterboxInBreaks: 0
SpecialStyle: 0
WidescreenStoryboard: 1

[Editor]
Bookmarks: 873,4955,9037,13118,21282,29445,37608,45771,62098,70261,78424,86588,94751,111078,127404,143731,151893,160057,174342,182506,188628
DistanceSpacing: 1.75
BeatDivisor: 3
GridSize: 4
TimelineZoom: 1.6

[Metadata]
Title:TONIGHT
TitleUnicode:TONIGHT
Artist:Bentham
ArtistUnicode:Bentham
Creator:Morbon
Version:chill 1.2x
Source:
Tags:im so elite because mapping rock japan punk pop with funny tags haha woah man
BeatmapID:1946059
BeatmapSetID:932035

[Difficulty]
HPDrainRate:6
CircleSize:4
OverallDifficulty:8
ApproachRate:9
SliderMultiplier:2.1
SliderTickRate:2

[Events]
//Background and Video events
0,0,"background.jpg",0,0
//Break Periods
//Storyboard Layer 0 (Background)
//Storyboard Layer 1 (Fail)
//Storyboard Layer 2 (Pass)
//Storyboard Layer 3 (Foreground)
//Storyboard Sound Samples

[TimingPoints]
938,255.102040816327,4,1,0,90,1,0
133591,254.207127967868,4,1,0,90,1,0
133591,-101.010101010101,4,1,0,90,0,0
134099,233.775949130353,4,1,0,90,1,0
134099,-109.170305676856,4,1,0,90,0,0
134566,247.70869457518,4,1,0,90,1,0
134566,-103.092783505155,4,1,0,90,0,0
135062,267.065484456789,4,1,0,90,1,0
135062,-95.2380952380952,4,1,0,90,0,0
135632,255.102040816327,4,1,0,90,1,0
135632,-100,4,1,0,90,0,0

[Colours]
Combo1 : 121,222,251
Combo2 : 236,45,92

[HitObjects]
192,192,938,5,0,0:0:0:0:
64,192,938,1,0,0:0:0:0:
192,192,1065,1,0,0:0:0:0:
320,192,1065,1,0,0:0:0:0:
64,192,1193,1,0,0:0:0:0:
320,192,1193,1,0,0:0:0:0:
192,192,1320,1,0,0:0:0:0:
320,192,1384,1,0,0:0:0:0:
448,192,1448,1,0,0:0:0:0:
64,192,1448,1,0,0:0:0:0:
448,192,1575,1,0,0:0:0:0:
320,192,1575,1,0,0:0:0:0:
192,192,1703,1,0,0:0:0:0:
448,192,1703,1,0,0:0:0:0:
320,192,1830,1,0,0:0:0:0:
192,192,1894,1,0,0:0:0:0:
64,192,1958,1,0,0:0:0:0:
448,192,1958,1,0,0:0:0:0:
320,192,2085,1,0,0:0:0:0:
64,192,2085,1,0,0:0:0:0:
192,192,2213,1,0,0:0:0:0:
448,192,2213,1,0,0:0:0:0:
320,192,2341,1,0,0:0:0:0:
192,192,2404,1,0,0:0:0:0:
64,192,2468,1,0,0:0:0:0:
448,192,2468,1,0,0:0:0:0:
320,192,2596,1,0,0:0:0:0:
64,192,2596,1,0,0:0:0:0:
192,192,2723,1,0,0:0:0:0:
448,192,2723,1,0,0:0:0:0:
320,192,2851,1,0,0:0:0:0:
448,192,2915,1,0,0:0:0:0:
192,192,2978,1,0,0:0:0:0:
64,192,2978,1,0,0:0:0:0:
448,192,3106,1,0,0:0:0:0:
192,192,3106,1,0,0:0:0:0:
448,192,3233,1,0,0:0:0:0:
64,192,3233,1,0,0:0:0:0:
192,192,3361,1,0,0:0:0:0:
320,192,3425,1,0,0:0:0:0:
192,192,3489,1,0,0:0:0:0:
448,192,3489,1,0,0:0:0:0:
448,192,3616,1,0,0:0:0:0:
320,192,3616,1,0,0:0:0:0:
64,192,3744,1,0,0:0:0:0:
320,192,3744,1,0,0:0:0:0:
192,192,3871,1,0,0:0:0:0:
320,192,3935,1,0,0:0:0:0:
448,192,3999,1,0,0:0:0:0:
64,192,3999,1,0,0:0:0:0:
192,192,4126,1,0,0:0:0:0:
320,192,4126,1,0,0:0:0:0:
448,192,4254,1,0,0:0:0:0:
192,192,4254,1,0,0:0:0:0:
320,192,4381,1,0,0:0:0:0:
192,192,4445,1,0,0:0:0:0:
64,192,4509,1,0,0:0:0:0:
448,192,4509,1,0,0:0:0:0:
320,192,4636,1,0,0:0:0:0:
64,192,4636,1,0,0:0:0:0:
448,192,4764,1,0,0:0:0:0:
192,192,4764,128,0,5019:0:0:0:0:
320,192,4892,1,0,0:0:0:0:
448,192,4955,1,0,0:0:0:0:
320,192,5019,1,0,0:0:0:0:
64,192,5019,128,0,5147:0:0:0:0:
192,192,5147,1,0,0:0:0:0:
448,192,5147,1,0,0:0:0:0:
320,192,5274,1,0,0:0:0:0:
192,192,5274,128,0,5402:0:0:0:0:
448,192,5402,1,0,0:0:0:0:
64,192,5402,1,0,0:0:0:0:
320,192,5466,1,0,0:0:0:0:
192,192,5529,1,0,0:0:0:0:
448,192,5529,128,0,5657:0:0:0:0:
320,192,5657,1,0,0:0:0:0:
64,192,5657,1,0,0:0:0:0:
192,192,5784,1,0,0:0:0:0:
320,192,5784,128,0,5912:0:0:0:0:
192,192,5912,1,0,0:0:0:0:
448,192,5912,1,0,0:0:0:0:
64,192,5976,1,0,0:0:0:0:
320,192,6040,1,0,0:0:0:0:
448,192,6040,128,0,6167:0:0:0:0:
192,192,6167,1,0,0:0:0:0:
64,192,6167,1,0,0:0:0:0:
448,192,6295,1,0,0:0:0:0:
192,192,6295,128,0,6422:0:0:0:0:
320,192,6422,1,0,0:0:0:0:
64,192,6422,1,0,0:0:0:0:
448,192,6486,1,0,0:0:0:0:
320,192,6550,128,0,6677:0:0:0:0:
192,192,6550,1,0,0:0:0:0:
64,192,6677,1,0,0:0:0:0:
448,192,6677,1,0,0:0:0:0:
448,192,6805,1,0,0:0:0:0:
192,192,6805,128,0,6932:0:0:0:0:
320,192,6932,1,0,0:0:0:0:
64,192,6932,1,0,0:0:0:0:
448,192,6996,1,0,0:0:0:0:
64,192,7060,1,0,0:0:0:0:
320,192,7060,128,0,7188:0:0:0:0:
192,192,7188,1,0,0:0:0:0:
448,192,7188,1,0,0:0:0:0:
320,192,7315,1,0,0:0:0:0:
64,192,7315,1,0,0:0:0:0:
192,192,7443,1,0,0:0:0:0:
448,192,7443,1,0,0:0:0:0:
320,192,7506,1,0,0:0:0:0:
192,192,7570,1,0,0:0:0:0:
64,192,7570,128,0,7698:0:0:0:0:
192,192,7698,1,0,0:0:0:0:
320,192,7698,1,0,0:0:0:0:
320,192,7825,1,0,0:0:0:0:
448,192,7825,128,0,7953:0:0:0:0:
64,192,7953,1,0,0:0:0:0:
320,192,7953,1,0,0:0:0:0:
192,192,8017,1,0,0:0:0:0:
448,192,8080,1,0,0:0:0:0:
64,192,8080,128,0,8208:0:0:0:0:
192,192,8208,1,0,0:0:0:0:
448,192,8208,1,0,0:0:0:0:
64,192,8335,1,0,0:0:0:0:
320,192,8335,1,0,0:0:0:0:
448,192,8463,1,0,0:0:0:0:
192,192,8463,1,0,0:0:0:0:
64,192,8527,1,0,0:0:0:0:
192,192,8591,1,0,0:0:0:0:
448,192,8591,128,0,8846:0:0:0:0:
320,192,8718,1,0,0:0:0:0:
64,192,8718,1,0,0:0:0:0:
64,192,8846,128,0,9101:0:0:0:0:
192,192,8846,1,0,0:0:0:0:
448,192,8973,1,0,0:0:0:0:
192,192,9037,1,0,0:0:0:0:
320,192,9101,1,0,0:0:0:0:
448,192,9101,1,0,0:0:0:0:
192,192,9165,1,0,0:0:0:0:
320,192,9228,1,0,0:0:0:0:
448,192,9228,1,0,0:0:0:0:
64,192,9292,1,0,0:0:0:0:
320,192,9356,1,0,0:0:0:0:
192,192,9356,1,0,0:0:0:0:
448,192,9420,1,0,0:0:0:0:
320,192,9483,1,0,0:0:0:0:
64,192,9483,1,0,0:0:0:0:
192,192,9611,1,0,0:0:0:0:
448,192,9611,1,0,0:0:0:0:
320,192,9675,1,0,0:0:0:0:
64,192,9739,1,0,0:0:0:0:
448,192,9739,1,0,0:0:0:0:
192,192,9802,1,0,0:0:0:0:
320,192,9866,1,0,0:0:0:0:
448,192,9866,1,0,0:0:0:0:
192,192,9930,1,0,0:0:0:0:
64,192,9994,1,0,0:0:0:0:
320,192,9994,1,0,0:0:0:0:
192,192,10121,1,0,0:0:0:0:
448,192,10121,1,0,0:0:0:0:
320,192,10185,1,0,0:0:0:0:
192,192,10249,1,0,0:0:0:0:
448,192,10249,1,0,0:0:0:0:
320,192,10313,1,0,0:0:0:0:
64,192,10376,1,0,0:0:0:0:
192,192,10376,1,0,0:0:0:0:
448,192,10504,1,0,0:0:0:0:
320,192,10504,1,0,0:0:0:0:
64,192,10568,1,0,0:0:0:0:
448,192,10631,1,0,0:0:0:0:
192,192,10631,1,0,0:0:0:0:
320,192,10695,1,0,0:0:0:0:
192,192,10759,1,0,0:0:0:0:
448,192,10759,1,0,0:0:0:0:
320,192,10823,1,0,0:0:0:0:
192,192,10886,1,0,0:0:0:0:
64,192,10886,1,0,0:0:0:0:
320,192,11014,1,0,0:0:0:0:
448,192,11014,1,0,0:0:0:0:
64,192,11078,1,0,0:0:0:0:
320,192,11142,1,0,0:0:0:0:
192,192,11142,1,0,0:0:0:0:
448,192,11205,1,0,0:0:0:0:
192,192,11269,1,0,0:0:0:0:
64,192,11269,1,0,0:0:0:0:
448,192,11333,1,0,0:0:0:0:
320,192,11397,1,0,0:0:0:0:
192,192,11397,1,0,0:0:0:0:
320,192,11524,1,0,0:0:0:0:
64,192,11524,1,0,0:0:0:0:
192,192,11588,1,0,0:0:0:0:
320,192,11652,1,0,0:0:0:0:
448,192,11652,1,0,0:0:0:0:
64,192,11716,1,0,0:0:0:0:
192,192,11779,1,0,0:0:0:0:
448,192,11779,1,0,0:0:0:0:
320,192,11843,1,0,0:0:0:0:
64,192,11907,1,0,0:0:0:0:
192,192,11907,1,0,0:0:0:0:
64,192,12034,1,0,0:0:0:0:
448,192,12034,1,0,0:0:0:0:
192,192,12098,1,0,0:0:0:0:
320,192,12162,128,0,12290:0:0:0:0:
448,192,12162,128,0,12290:0:0:0:0:
192,192,12290,1,0,0:0:0:0:
64,192,12290,1,0,0:0:0:0:
320,192,12353,1,0,0:0:0:0:
448,192,12353,1,0,0:0:0:0:
192,192,12417,1,0,0:0:0:0:
64,192,12417,1,0,0:0:0:0:
320,192,12481,1,0,0:0:0:0:
448,192,12481,1,0,0:0:0:0:
192,192,12545,1,0,0:0:0:0:
64,192,12545,1,0,0:0:0:0:
320,192,12608,1,0,0:0:0:0:
448,192,12672,128,0,13182:0:0:0:0:
64,192,12672,128,0,13182:0:0:0:0:
192,192,13182,1,0,0:0:0:0:
320,192,13182,128,0,13310:0:0:0:0:
192,192,13310,1,0,0:0:0:0:
64,192,13374,1,0,0:0:0:0:
448,192,13438,1,0,0:0:0:0:
192,192,13438,128,0,13565:0:0:0:0:
320,192,13565,1,0,0:0:0:0:
448,192,13629,1,0,0:0:0:0:
192,192,13693,1,0,0:0:0:0:
64,192,13693,128,0,13948:0:0:0:0:
320,192,13820,1,0,0:0:0:0:
448,192,13820,1,0,0:0:0:0:
192,192,13948,1,0,0:0:0:0:
448,192,13948,1,0,0:0:0:0:
64,192,14075,1,0,0:0:0:0:
320,192,14075,128,0,14330:0:0:0:0:
192,192,14203,1,0,0:0:0:0:
448,192,14203,1,0,0:0:0:0:
64,192,14330,1,0,0:0:0:0:
192,192,14330,1,0,0:0:0:0:
64,192,14458,1,0,0:0:0:0:
448,192,14458,1,0,0:0:0:0:
192,192,14585,128,0,14841:0:0:0:0:
448,192,14585,1,0,0:0:0:0:
320,192,14713,1,0,0:0:0:0:
448,192,14713,1,0,0:0:0:0:
320,192,14841,1,0,0:0:0:0:
64,192,14841,128,0,14968:0:0:0:0:
320,192,14968,1,0,0:0:0:0:
448,192,14968,1,0,0:0:0:0:
192,192,15096,1,0,0:0:0:0:
320,192,15096,1,0,0:0:0:0:
64,192,15159,1,0,0:0:0:0:
192,192,15223,1,0,0:0:0:0:
448,192,15223,128,0,15351:0:0:0:0:
192,192,15351,1,0,0:0:0:0:
64,192,15351,1,0,0:0:0:0:
320,192,15415,1,0,0:0:0:0:
448,192,15478,1,0,0:0:0:0:
192,192,15478,128,0,15606:0:0:0:0:
64,192,15606,1,0,0:0:0:0:
448,192,15606,1,0,0:0:0:0:
320,192,15733,1,0,0:0:0:0:
448,192,15733,128,0,15989:0:0:0:0:
192,192,15861,1,0,0:0:0:0:
64,192,15861,1,0,0:0:0:0:
192,192,15989,1,0,0:0:0:0:
320,192,15989,1,0,0:0:0:0:
448,192,16116,1,0,0:0:0:0:
64,192,16116,128,0,16371:0:0:0:0:
448,192,16244,1,0,0:0:0:0:
192,192,16244,1,0,0:0:0:0:
320,192,16371,1,0,0:0:0:0:
448,192,16371,1,0,0:0:0:0:
320,192,16499,1,0,0:0:0:0:
192,192,16499,1,0,0:0:0:0:
192,192,16626,1,0,0:0:0:0:
64,192,16626,1,0,0:0:0:0:
192,192,16754,1,0,0:0:0:0:
320,192,16754,1,0,0:0:0:0:
320,192,16881,1,0,0:0:0:0:
448,192,16881,1,0,0:0:0:0:
64,192,17009,1,0,0:0:0:0:
192,192,17009,128,0,17136:0:0:0:0:
448,192,17136,1,0,0:0:0:0:
320,192,17136,1,0,0:0:0:0:
64,192,17200,1,0,0:0:0:0:
320,192,17264,128,0,17392:0:0:0:0:
448,192,17264,1,0,0:0:0:0:
64,192,17392,1,0,0:0:0:0:
192,192,17455,1,0,0:0:0:0:
320,192,17519,1,0,0:0:0:0:
448,192,17519,128,0,17647:0:0:0:0:
192,192,17647,1,0,0:0:0:0:
320,192,17710,1,0,0:0:0:0:
192,192,17774,1,0,0:0:0:0:
64,192,17774,128,0,18029:0:0:0:0:
320,192,17902,1,0,0:0:0:0:
448,192,17902,1,0,0:0:0:0:
192,192,18029,1,0,0:0:0:0:
448,192,18029,1,0,0:0:0:0:
320,192,18157,128,0,18412:0:0:0:0:
192,192,18157,1,0,0:0:0:0:
64,192,18284,1,0,0:0:0:0:
448,192,18284,1,0,0:0:0:0:
192,192,18412,1,0,0:0:0:0:
448,192,18412,1,0,0:0:0:0:
192,192,18540,1,0,0:0:0:0:
64,192,18540,1,0,0:0:0:0:
448,192,18667,1,0,0:0:0:0:
192,192,18667,128,0,18922:0:0:0:0:
320,192,18795,1,0,0:0:0:0:
448,192,18795,1,0,0:0:0:0:
320,192,18922,1,0,0:0:0:0:
64,192,18922,1,0,0:0:0:0:
64,192,19050,1,0,0:0:0:0:
448,192,19050,1,0,0:0:0:0:
192,192,19177,1,0,0:0:0:0:
448,192,19177,1,0,0:0:0:0:
320,192,19241,1,0,0:0:0:0:
448,192,19305,1,0,0:0:0:0:
64,192,19305,128,0,19432:0:0:0:0:
192,192,19432,1,0,0:0:0:0:
320,192,19496,1,0,0:0:0:0:
192,192,19560,1,0,0:0:0:0:
448,192,19560,128,0,19688:0:0:0:0:
320,192,19688,1,0,0:0:0:0:
64,192,19688,128,0,19943:0:0:0:0:
192,192,19815,1,0,0:0:0:0:
448,192,19815,1,0,0:0:0:0:
320,192,19943,1,0,0:0:0:0:
448,192,19943,1,0,0:0:0:0:
192,192,20070,1,0,0:0:0:0:
320,192,20070,1,0,0:0:0:0:
192,192,20198,128,0,20453:0:0:0:0:
448,192,20198,1,0,0:0:0:0:
320,192,20325,1,0,0:0:0:0:
64,192,20325,1,0,0:0:0:0:
64,192,20453,1,0,0:0:0:0:
448,192,20453,1,0,0:0:0:0:
320,192,20580,1,0,0:0:0:0:
448,192,20580,1,0,0:0:0:0:
64,192,20708,1,0,0:0:0:0:
320,192,20708,1,0,0:0:0:0:
64,192,20835,1,0,0:0:0:0:
448,192,20835,1,0,0:0:0:0:
448,192,20963,1,0,0:0:0:0:
320,192,20963,1,0,0:0:0:0:
320,192,21091,1,0,0:0:0:0:
64,192,21091,128,0,21346:0:0:0:0:
192,192,21218,1,0,0:0:0:0:
448,192,21218,1,0,0:0:0:0:
320,192,21346,1,0,0:0:0:0:
448,192,21346,1,0,0:0:0:0:
320,192,21473,1,0,0:0:0:0:
64,192,21601,1,0,0:0:0:0:
192,192,21601,1,0,0:0:0:0:
192,192,22111,1,0,0:0:0:0:
320,192,22111,1,0,0:0:0:0:
448,192,22366,1,0,0:0:0:0:
448,192,22494,1,0,0:0:0:0:
448,192,22621,1,0,0:0:0:0:
192,192,22621,1,0,0:0:0:0:
320,192,23131,1,0,0:0:0:0:
448,192,23131,1,0,0:0:0:0:
64,192,23386,1,0,0:0:0:0:
64,192,23514,1,0,0:0:0:0:
64,192,23642,1,0,0:0:0:0:
448,192,23642,1,0,0:0:0:0:
320,192,24152,1,0,0:0:0:0:
192,192,24152,1,0,0:0:0:0:
448,192,24407,1,0,0:0:0:0:
448,192,24534,1,0,0:0:0:0:
448,192,24662,1,0,0:0:0:0:
64,192,24662,1,0,0:0:0:0:
448,192,25172,1,0,0:0:0:0:
192,192,25172,1,0,0:0:0:0:
320,192,25427,1,0,0:0:0:0:
320,192,25555,1,0,0:0:0:0:
320,192,25682,1,0,0:0:0:0:
64,192,25682,1,0,0:0:0:0:
448,192,26193,1,0,0:0:0:0:
320,192,26193,1,0,0:0:0:0:
192,192,26448,1,0,0:0:0:0:
192,192,26575,1,0,0:0:0:0:
192,192,26703,1,0,0:0:0:0:
448,192,26703,1,0,0:0:0:0:
192,192,27213,1,0,0:0:0:0:
64,192,27213,1,0,0:0:0:0:
448,192,27468,1,0,0:0:0:0:
448,192,27596,1,0,0:0:0:0:
448,192,27723,1,0,0:0:0:0:
320,192,27723,1,0,0:0:0:0:
320,192,28233,1,0,0:0:0:0:
192,192,28233,1,0,0:0:0:0:
64,192,28489,1,0,0:0:0:0:
64,192,28616,1,0,0:0:0:0:
64,192,28744,1,0,0:0:0:0:
448,192,28744,1,0,0:0:0:0:
320,192,28999,1,0,0:0:0:0:
192,192,28999,1,0,0:0:0:0:
448,192,29126,1,0,0:0:0:0:
320,192,29126,1,0,0:0:0:0:
320,192,29254,1,0,0:0:0:0:
64,192,29254,1,0,0:0:0:0:
64,192,29381,1,0,0:0:0:0:
448,192,29381,1,0,0:0:0:0:
320,192,29509,1,0,0:0:0:0:
448,192,29509,128,0,29636:0:0:0:0:
192,192,29636,1,0,0:0:0:0:
320,192,29764,1,0,0:0:0:0:
64,192,29764,1,0,0:0:0:0:
192,192,29892,1,0,0:0:0:0:
192,192,30019,128,0,30147:0:0:0:0:
448,192,30019,1,0,0:0:0:0:
64,192,30147,1,0,0:0:0:0:
64,192,30274,1,0,0:0:0:0:
320,192,30274,1,0,0:0:0:0:
448,192,30402,1,0,0:0:0:0:
448,192,30529,128,0,30657:0:0:0:0:
192,192,30529,1,0,0:0:0:0:
320,192,30657,1,0,0:0:0:0:
320,192,30784,1,0,0:0:0:0:
64,192,30784,1,0,0:0:0:0:
192,192,30912,1,0,0:0:0:0:
192,192,31040,128,0,31167:0:0:0:0:
448,192,31167,1,0,0:0:0:0:
64,192,31295,1,0,0:0:0:0:
320,192,31295,1,0,0:0:0:0:
448,192,31422,1,0,0:0:0:0:
448,192,31550,128,0,31677:0:0:0:0:
192,192,31550,1,0,0:0:0:0:
64,192,31677,1,0,0:0:0:0:
320,192,31805,1,0,0:0:0:0:
448,192,31805,1,0,0:0:0:0:
192,192,31932,1,0,0:0:0:0:
192,192,32060,128,0,32188:0:0:0:0:
448,192,32188,1,0,0:0:0:0:
64,192,32315,1,0,0:0:0:0:
448,192,32315,1,0,0:0:0:0:
320,192,32443,1,0,0:0:0:0:
320,192,32570,128,0,32698:0:0:0:0:
64,192,32570,1,0,0:0:0:0:
448,192,32698,1,0,0:0:0:0:
192,192,32825,1,0,0:0:0:0:
448,192,32825,1,0,0:0:0:0:
64,192,32953,1,0,0:0:0:0:
64,192,33080,128,0,33208:0:0:0:0:
320,192,33080,1,0,0:0:0:0:
448,192,33208,1,0,0:0:0:0:
320,192,33335,1,0,0:0:0:0:
192,192,33335,1,0,0:0:0:0:
448,192,33463,1,0,0:0:0:0:
448,192,33591,128,0,33718:0:0:0:0:
64,192,33591,1,0,0:0:0:0:
192,192,33718,1,0,0:0:0:0:
320,192,33846,1,0,0:0:0:0:
448,192,33846,1,0,0:0:0:0:
192,192,33973,1,0,0:0:0:0:
192,192,34101,128,0,34228:0:0:0:0:
64,192,34101,1,0,0:0:0:0:
448,192,34228,1,0,0:0:0:0:
64,192,34356,1,0,0:0:0:0:
448,192,34356,1,0,0:0:0:0:
320,192,34483,1,0,0:0:0:0:
320,192,34611,128,0,34739:0:0:0:0:
192,192,34611,1,0,0:0:0:0:
64,192,34739,1,0,0:0:0:0:
448,192,34866,1,0,0:0:0:0:
64,192,34866,1,0,0:0:0:0:
192,192,34994,1,0,0:0:0:0:
192,192,35121,128,0,35249:0:0:0:0:
448,192,35121,1,0,0:0:0:0:
320,192,35249,1,0,0:0:0:0:
64,192,35376,1,0,0:0:0:0:
320,192,35376,1,0,0:0:0:0:
448,192,35504,1,0,0:0:0:0:
448,192,35631,128,0,35759:0:0:0:0:
192,192,35631,1,0,0:0:0:0:
64,192,35759,1,0,0:0:0:0:
192,192,35886,1,0,0:0:0:0:
320,192,35886,1,0,0:0:0:0:
64,192,36014,1,0,0:0:0:0:
64,192,36142,128,0,36269:0:0:0:0:
448,192,36142,1,0,0:0:0:0:
320,192,36269,1,0,0:0:0:0:
192,192,36397,1,0,0:0:0:0:
448,192,36397,1,0,0:0:0:0:
320,192,36524,1,0,0:0:0:0:
320,192,36652,128,0,36779:0:0:0:0:
64,192,36652,1,0,0:0:0:0:
448,192,36779,1,0,0:0:0:0:
64,192,36907,1,0,0:0:0:0:
448,192,36907,1,0,0:0:0:0:
192,192,37034,1,0,0:0:0:0:
192,192,37162,128,0,37290:0:0:0:0:
448,192,37162,1,0,0:0:0:0:
320,192,37226,1,0,0:0:0:0:
64,192,37290,1,0,0:0:0:0:
320,192,37353,1,0,0:0:0:0:
64,192,37417,1,0,0:0:0:0:
448,192,37417,128,0,37545:0:0:0:0:
192,192,37481,1,0,0:0:0:0:
64,192,37545,1,0,0:0:0:0:
320,192,37608,1,0,0:0:0:0:
448,192,37672,1,0,0:0:0:0:
64,192,37672,128,0,37800:0:0:0:0:
192,192,37672,128,0,37800:0:0:0:0:
320,192,37800,1,0,0:0:0:0:
448,192,37800,1,0,0:0:0:0:
320,192,37927,1,0,0:0:0:0:
192,192,37927,1,0,0:0:0:0:
448,192,38055,1,0,0:0:0:0:
64,192,38055,1,0,0:0:0:0:
192,192,38182,1,0,0:0:0:0:
64,192,38182,1,0,0:0:0:0:
192,192,38310,1,0,0:0:0:0:
448,192,38310,1,0,0:0:0:0:
64,192,38438,1,0,0:0:0:0:
448,192,38438,1,0,0:0:0:0:
320,192,38565,1,0,0:0:0:0:
64,192,38565,128,0,38693:0:0:0:0:
192,192,38693,1,0,0:0:0:0:
448,192,38820,128,0,38948:0:0:0:0:
320,192,38820,1,0,0:0:0:0:
192,192,38948,1,0,0:0:0:0:
64,192,39075,128,0,39203:0:0:0:0:
320,192,39075,1,0,0:0:0:0:
448,192,39203,1,0,0:0:0:0:
320,192,39330,128,0,39458:0:0:0:0:
192,192,39330,1,0,0:0:0:0:
448,192,39458,1,0,0:0:0:0:
64,192,39585,1,0,0:0:0:0:
448,192,39713,1,0,0:0:0:0:
64,192,39713,1,0,0:0:0:0:
192,192,39713,1,0,0:0:0:0:
320,192,39841,1,0,0:0:0:0:
448,192,39841,1,0,0:0:0:0:
320,192,39968,1,0,0:0:0:0:
192,192,39968,1,0,0:0:0:0:
64,192,40096,1,0,0:0:0:0:
448,192,40096,1,0,0:0:0:0:
320,192,40223,1,0,0:0:0:0:
192,192,40223,1,0,0:0:0:0:
448,192,40351,1,0,0:0:0:0:
64,192,40351,1,0,0:0:0:0:
320,192,40478,1,0,0:0:0:0:
192,192,40478,1,0,0:0:0:0:
192,192,40606,1,0,0:0:0:0:
448,192,40606,1,0,0:0:0:0:
320,192,40733,1,0,0:0:0:0:
320,192,40861,128,0,40989:0:0:0:0:
64,192,40861,1,0,0:0:0:0:
192,192,40989,128,0,41116:0:0:0:0:
64,192,41116,128,0,41244:0:0:0:0:
320,192,41244,128,0,41371:0:0:0:0:
192,192,41371,128,0,41499:0:0:0:0:
320,192,41499,128,0,41626:0:0:0:0:
448,192,41626,128,0,41754:0:0:0:0:
64,192,41754,1,0,0:0:0:0:
192,192,41754,1,0,0:0:0:0:
320,192,41881,1,0,0:0:0:0:
64,192,41881,1,0,0:0:0:0:
448,192,42009,1,0,0:0:0:0:
192,192,42009,1,0,0:0:0:0:
192,192,42136,1,0,0:0:0:0:
64,192,42136,1,0,0:0:0:0:
320,192,42264,1,0,0:0:0:0:
64,192,42264,1,0,0:0:0:0:
448,192,42392,1,0,0:0:0:0:
320,192,42392,1,0,0:0:0:0:
448,192,42519,1,0,0:0:0:0:
192,192,42519,1,0,0:0:0:0:
192,192,42647,1,0,0:0:0:0:
320,192,42647,1,0,0:0:0:0:
64,192,42774,1,0,0:0:0:0:
192,192,42902,128,0,43157:0:0:0:0:
448,192,42902,128,0,43029:0:0:0:0:
320,192,43029,1,0,0:0:0:0:
64,192,43157,1,0,0:0:0:0:
320,192,43157,1,0,0:0:0:0:
448,192,43284,1,0,0:0:0:0:
64,192,43284,1,0,0:0:0:0:
192,192,43412,1,0,0:0:0:0:
320,192,43412,1,0,0:0:0:0:
320,192,43540,1,0,0:0:0:0:
64,192,43540,1,0,0:0:0:0:
192,192,43667,1,0,0:0:0:0:
448,192,43667,1,0,0:0:0:0:
448,192,43795,1,0,0:0:0:0:
192,192,43795,1,0,0:0:0:0:
64,192,43795,128,0,43922:0:0:0:0:
448,192,43922,1,0,0:0:0:0:
320,192,43922,1,0,0:0:0:0:
320,192,44050,1,0,0:0:0:0:
64,192,44050,1,0,0:0:0:0:
64,192,44177,1,0,0:0:0:0:
448,192,44177,1,0,0:0:0:0:
448,192,44305,1,0,0:0:0:0:
192,192,44305,1,0,0:0:0:0:
192,192,44432,1,0,0:0:0:0:
320,192,44432,1,0,0:0:0:0:
64,192,44560,1,0,0:0:0:0:
448,192,44688,1,0,0:0:0:0:
320,192,44688,1,0,0:0:0:0:
320,192,44815,1,0,0:0:0:0:
192,192,44815,1,0,0:0:0:0:
192,192,44943,1,0,0:0:0:0:
64,192,44943,1,0,0:0:0:0:
64,192,45070,1,0,0:0:0:0:
448,192,45070,1,0,0:0:0:0:
448,192,45198,1,0,0:0:0:0:
192,192,45198,1,0,0:0:0:0:
192,192,45325,1,0,0:0:0:0:
448,192,45325,128,0,45517:0:0:0:0:
320,192,45325,1,0,0:0:0:0:
192,192,45580,128,0,45772:0:0:0:0:
64,192,45580,128,0,45772:0:0:0:0:
448,192,45835,5,0,0:0:0:0:
320,192,45835,1,0,0:0:0:0:
192,192,45878,1,0,0:0:0:0:
64,192,45920,1,0,0:0:0:0:
448,192,45963,1,0,0:0:0:0:
320,192,46006,1,0,0:0:0:0:
192,192,46048,1,0,0:0:0:0:
64,192,46091,1,0,0:0:0:0:
448,192,46091,1,0,0:0:0:0:
320,192,46133,1,0,0:0:0:0:
192,192,46176,1,0,0:0:0:0:
448,192,46218,1,0,0:0:0:0:
64,192,46261,1,0,0:0:0:0:
320,192,46303,1,0,0:0:0:0:
448,192,46346,1,0,0:0:0:0:
192,192,46346,1,0,0:0:0:0:
64,192,46388,1,0,0:0:0:0:
320,192,46431,1,0,0:0:0:0:
448,192,46473,1,0,0:0:0:0:
64,192,46516,1,0,0:0:0:0:
192,192,46558,1,0,0:0:0:0:
320,192,46601,1,0,0:0:0:0:
448,192,46601,1,0,0:0:0:0:
64,192,46643,1,0,0:0:0:0:
192,192,46686,1,0,0:0:0:0:
448,192,46728,1,0,0:0:0:0:
320,192,46771,1,0,0:0:0:0:
64,192,46813,1,0,0:0:0:0:
448,192,46856,1,0,0:0:0:0:
192,192,46856,1,0,0:0:0:0:
320,192,46898,1,0,0:0:0:0:
64,192,46941,1,0,0:0:0:0:
448,192,46983,1,0,0:0:0:0:
192,192,47026,1,0,0:0:0:0:
320,192,47068,1,0,0:0:0:0:
64,192,47111,1,0,0:0:0:0:
448,192,47111,1,0,0:0:0:0:
192,192,47153,1,0,0:0:0:0:
320,192,47196,1,0,0:0:0:0:
64,192,47239,1,0,0:0:0:0:
448,192,47281,1,0,0:0:0:0:
192,192,47324,1,0,0:0:0:0:
64,192,47366,1,0,0:0:0:0:
320,192,47409,1,0,0:0:0:0:
448,192,47451,1,0,0:0:0:0:
192,192,47494,1,0,0:0:0:0:
64,192,47494,1,0,0:0:0:0:
320,192,47536,1,0,0:0:0:0:
448,192,47579,1,0,0:0:0:0:
64,192,47621,1,0,0:0:0:0:
192,192,47621,1,0,0:0:0:0:
320,192,47685,1,0,0:0:0:0:
64,192,47749,1,0,0:0:0:0:
448,192,47749,1,0,0:0:0:0:
192,192,47813,1,0,0:0:0:0:
320,192,47876,1,0,0:0:0:0:
64,192,47876,1,0,0:0:0:0:
448,192,47876,1,0,0:0:0:0:
320,192,48004,1,0,0:0:0:0:
192,192,48004,1,0,0:0:0:0:
192,192,48131,1,0,0:0:0:0:
64,192,48131,1,0,0:0:0:0:
192,192,48259,1,0,0:0:0:0:
320,192,48259,1,0,0:0:0:0:
320,192,48386,1,0,0:0:0:0:
448,192,48386,1,0,0:0:0:0:
320,192,48514,1,0,0:0:0:0:
192,192,48514,1,0,0:0:0:0:
448,192,48642,1,0,0:0:0:0:
64,192,48642,1,0,0:0:0:0:
192,192,48769,1,0,0:0:0:0:
320,192,48769,1,0,0:0:0:0:
320,192,48897,1,0,0:0:0:0:
448,192,48897,1,0,0:0:0:0:
64,192,48897,1,0,0:0:0:0:
192,192,49024,1,0,0:0:0:0:
448,192,49024,1,0,0:0:0:0:
320,192,49152,1,0,0:0:0:0:
64,192,49152,1,0,0:0:0:0:
192,192,49279,1,0,0:0:0:0:
64,192,49279,1,0,0:0:0:0:
192,192,49407,1,0,0:0:0:0:
448,192,49407,1,0,0:0:0:0:
448,192,49534,1,0,0:0:0:0:
320,192,49534,1,0,0:0:0:0:
320,192,49662,1,0,0:0:0:0:
64,192,49662,1,0,0:0:0:0:
192,192,49790,1,0,0:0:0:0:
64,192,49790,1,0,0:0:0:0:
192,192,49917,1,0,0:0:0:0:
448,192,49917,1,0,0:0:0:0:
64,192,49917,1,0,0:0:0:0:
320,192,49981,1,0,0:0:0:0:
192,192,50045,1,0,0:0:0:0:
64,192,50108,1,0,0:0:0:0:
448,192,50172,1,0,0:0:0:0:
320,192,50172,1,0,0:0:0:0:
192,192,50236,1,0,0:0:0:0:
64,192,50300,1,0,0:0:0:0:
320,192,50364,1,0,0:0:0:0:
448,192,50427,1,0,0:0:0:0:
64,192,50427,1,0,0:0:0:0:
192,192,50491,1,0,0:0:0:0:
320,192,50555,1,0,0:0:0:0:
64,192,50619,1,0,0:0:0:0:
192,192,50682,1,0,0:0:0:0:
448,192,50682,1,0,0:0:0:0:
320,192,50746,1,0,0:0:0:0:
192,192,50810,1,0,0:0:0:0:
448,192,50874,1,0,0:0:0:0:
320,192,50938,1,0,0:0:0:0:
64,192,50938,1,0,0:0:0:0:
64,192,51065,1,0,0:0:0:0:
448,192,51065,1,0,0:0:0:0:
320,192,51193,1,0,0:0:0:0:
64,192,51193,1,0,0:0:0:0:
320,192,51320,1,0,0:0:0:0:
192,192,51320,1,0,0:0:0:0:
448,192,51448,1,0,0:0:0:0:
192,192,51448,1,0,0:0:0:0:
448,192,51575,1,0,0:0:0:0:
320,192,51575,1,0,0:0:0:0:
192,192,51703,1,0,0:0:0:0:
320,192,51703,1,0,0:0:0:0:
64,192,51767,1,0,0:0:0:0:
192,192,51830,1,0,0:0:0:0:
320,192,51894,1,0,0:0:0:0:
192,192,51958,1,0,0:0:0:0:
448,192,51958,1,0,0:0:0:0:
64,192,51958,1,0,0:0:0:0:
320,192,52022,1,0,0:0:0:0:
192,192,52085,1,0,0:0:0:0:
448,192,52149,1,0,0:0:0:0:
320,192,52213,1,0,0:0:0:0:
64,192,52213,1,0,0:0:0:0:
192,192,52277,1,0,0:0:0:0:
448,192,52341,1,0,0:0:0:0:
320,192,52404,1,0,0:0:0:0:
192,192,52468,1,0,0:0:0:0:
64,192,52468,1,0,0:0:0:0:
448,192,52532,1,0,0:0:0:0:
320,192,52596,1,0,0:0:0:0:
192,192,52659,1,0,0:0:0:0:
448,192,52723,1,0,0:0:0:0:
64,192,52723,1,0,0:0:0:0:
192,192,52787,1,0,0:0:0:0:
448,192,52851,1,0,0:0:0:0:
320,192,52915,1,0,0:0:0:0:
192,192,52978,1,0,0:0:0:0:
64,192,52978,1,0,0:0:0:0:
192,192,53106,1,0,0:0:0:0:
320,192,53106,1,0,0:0:0:0:
320,192,53233,1,0,0:0:0:0:
448,192,53233,1,0,0:0:0:0:
448,192,53361,1,0,0:0:0:0:
192,192,53361,1,0,0:0:0:0:
448,192,53489,1,0,0:0:0:0:
64,192,53489,1,0,0:0:0:0:
320,192,53489,1,0,0:0:0:0:
192,192,53616,1,0,0:0:0:0:
64,192,53616,1,0,0:0:0:0:
320,192,53680,1,0,0:0:0:0:
448,192,53680,1,0,0:0:0:0:
192,192,53744,1,0,0:0:0:0:
64,192,53744,1,0,0:0:0:0:
320,192,53807,1,0,0:0:0:0:
448,192,53807,1,0,0:0:0:0:
192,192,53871,1,0,0:0:0:0:
64,192,53871,1,0,0:0:0:0:
320,192,53935,1,0,0:0:0:0:
448,192,53935,1,0,0:0:0:0:
192,192,53999,1,0,0:0:0:0:
64,192,53999,1,0,0:0:0:0:
320,192,54041,1,0,0:0:0:0:
448,192,54084,1,0,0:0:0:0:
192,192,54126,1,0,0:0:0:0:
64,192,54169,1,0,0:0:0:0:
448,192,54211,1,0,0:0:0:0:
320,192,54254,1,0,0:0:0:0:
192,192,54254,1,0,0:0:0:0:
64,192,54296,1,0,0:0:0:0:
448,192,54339,1,0,0:0:0:0:
320,192,54381,1,0,0:0:0:0:
192,192,54424,1,0,0:0:0:0:
64,192,54466,1,0,0:0:0:0:
320,192,54509,1,0,0:0:0:0:
448,192,54509,1,0,0:0:0:0:
192,192,54551,1,0,0:0:0:0:
64,192,54594,1,0,0:0:0:0:
320,192,54636,1,0,0:0:0:0:
448,192,54679,1,0,0:0:0:0:
64,192,54722,1,0,0:0:0:0:
320,192,54764,1,0,0:0:0:0:
192,192,54764,1,0,0:0:0:0:
448,192,54807,1,0,0:0:0:0:
64,192,54849,1,0,0:0:0:0:
192,192,54892,1,0,0:0:0:0:
448,192,54934,1,0,0:0:0:0:
320,192,54977,1,0,0:0:0:0:
192,192,55019,1,0,0:0:0:0:
64,192,55019,1,0,0:0:0:0:
448,192,55062,1,0,0:0:0:0:
320,192,55104,1,0,0:0:0:0:
192,192,55147,1,0,0:0:0:0:
448,192,55189,1,0,0:0:0:0:
64,192,55232,1,0,0:0:0:0:
192,192,55274,1,0,0:0:0:0:
320,192,55274,1,0,0:0:0:0:
448,192,55317,1,0,0:0:0:0:
64,192,55359,1,0,0:0:0:0:
320,192,55402,1,0,0:0:0:0:
192,192,55444,1,0,0:0:0:0:
64,192,55487,1,0,0:0:0:0:
448,192,55529,1,0,0:0:0:0:
320,192,55529,1,0,0:0:0:0:
192,192,55572,1,0,0:0:0:0:
64,192,55614,1,0,0:0:0:0:
448,192,55657,1,0,0:0:0:0:
320,192,55699,1,0,0:0:0:0:
192,192,55742,1,0,0:0:0:0:
64,192,55784,1,0,0:0:0:0:
448,192,55784,1,0,0:0:0:0:
320,192,55848,1,0,0:0:0:0:
192,192,55912,1,0,0:0:0:0:
64,192,55912,1,0,0:0:0:0:
320,192,55976,1,0,0:0:0:0:
448,192,56040,1,0,0:0:0:0:
192,192,56040,1,0,0:0:0:0:
64,192,56040,1,0,0:0:0:0:
192,192,56167,1,0,0:0:0:0:
448,192,56167,1,0,0:0:0:0:
448,192,56295,1,0,0:0:0:0:
64,192,56295,1,0,0:0:0:0:
192,192,56422,1,0,0:0:0:0:
448,192,56422,1,0,0:0:0:0:
320,192,56550,1,0,0:0:0:0:
192,192,56550,1,0,0:0:0:0:
64,192,56677,1,0,0:0:0:0:
320,192,56677,1,0,0:0:0:0:
64,192,56805,1,0,0:0:0:0:
448,192,56805,1,0,0:0:0:0:
64,192,56932,1,0,0:0:0:0:
320,192,56932,1,0,0:0:0:0:
192,192,57060,1,0,0:0:0:0:
448,192,57060,1,0,0:0:0:0:
320,192,57060,1,0,0:0:0:0:
64,192,57188,1,0,0:0:0:0:
192,192,57188,1,0,0:0:0:0:
192,192,57315,1,0,0:0:0:0:
320,192,57315,1,0,0:0:0:0:
320,192,57443,1,0,0:0:0:0:
448,192,57443,1,0,0:0:0:0:
320,192,57570,1,0,0:0:0:0:
192,192,57570,1,0,0:0:0:0:
64,192,57698,1,0,0:0:0:0:
192,192,57698,1,0,0:0:0:0:
192,192,57825,1,0,0:0:0:0:
320,192,57825,1,0,0:0:0:0:
64,192,57889,1,0,0:0:0:0:
320,192,57953,1,0,0:0:0:0:
448,192,57953,1,0,0:0:0:0:
192,192,58017,1,0,0:0:0:0:
320,192,58080,1,0,0:0:0:0:
448,192,58080,1,0,0:0:0:0:
64,192,58080,1,0,0:0:0:0:
192,192,58144,1,0,0:0:0:0:
448,192,58208,1,0,0:0:0:0:
64,192,58272,1,0,0:0:0:0:
192,192,58335,1,0,0:0:0:0:
448,192,58335,1,0,0:0:0:0:
320,192,58399,1,0,0:0:0:0:
64,192,58463,1,0,0:0:0:0:
192,192,58527,1,0,0:0:0:0:
320,192,58591,1,0,0:0:0:0:
448,192,58591,1,0,0:0:0:0:
64,192,58654,1,0,0:0:0:0:
192,192,58718,1,0,0:0:0:0:
320,192,58782,1,0,0:0:0:0:
448,192,58846,1,0,0:0:0:0:
64,192,58846,1,0,0:0:0:0:
192,192,58909,1,0,0:0:0:0:
448,192,58973,1,0,0:0:0:0:
320,192,59037,1,0,0:0:0:0:
192,192,59101,1,0,0:0:0:0:
64,192,59101,1,0,0:0:0:0:
64,192,59228,1,0,0:0:0:0:
320,192,59228,1,0,0:0:0:0:
448,192,59356,1,0,0:0:0:0:
320,192,59356,1,0,0:0:0:0:
448,192,59483,1,0,0:0:0:0:
192,192,59483,1,0,0:0:0:0:
320,192,59611,1,0,0:0:0:0:
64,192,59611,1,0,0:0:0:0:
192,192,59739,1,0,0:0:0:0:
64,192,59739,1,0,0:0:0:0:
192,192,59866,1,0,0:0:0:0:
448,192,59866,1,0,0:0:0:0:
64,192,59930,1,0,0:0:0:0:
192,192,59994,1,0,0:0:0:0:
320,192,59994,1,0,0:0:0:0:
448,192,60057,1,0,0:0:0:0:
320,192,60121,1,0,0:0:0:0:
192,192,60121,1,0,0:0:0:0:
64,192,60121,1,0,0:0:0:0:
448,192,60185,1,0,0:0:0:0:
192,192,60249,1,0,0:0:0:0:
320,192,60313,1,0,0:0:0:0:
448,192,60376,1,0,0:0:0:0:
64,192,60376,1,0,0:0:0:0:
192,192,60440,1,0,0:0:0:0:
320,192,60504,1,0,0:0:0:0:
64,192,60568,1,0,0:0:0:0:
192,192,60631,1,0,0:0:0:0:
448,192,60631,1,0,0:0:0:0:
320,192,60695,1,0,0:0:0:0:
64,192,60759,1,0,0:0:0:0:
192,192,60823,1,0,0:0:0:0:
64,192,60886,1,0,0:0:0:0:
448,192,60886,1,0,0:0:0:0:
320,192,60950,1,0,0:0:0:0:
192,192,61014,1,0,0:0:0:0:
64,192,61078,1,0,0:0:0:0:
448,192,61142,1,0,0:0:0:0:
320,192,61142,1,0,0:0:0:0:
192,192,61269,1,0,0:0:0:0:
64,192,61269,1,0,0:0:0:0:
320,192,61333,1,0,0:0:0:0:
448,192,61333,1,0,0:0:0:0:
192,192,61397,1,0,0:0:0:0:
64,192,61397,1,0,0:0:0:0:
320,192,61460,1,0,0:0:0:0:
448,192,61460,1,0,0:0:0:0:
192,192,61524,1,0,0:0:0:0:
64,192,61524,1,0,0:0:0:0:
320,192,61588,1,0,0:0:0:0:
448,192,61588,1,0,0:0:0:0:
192,192,61652,1,0,0:0:0:0:
64,192,61652,1,0,0:0:0:0:
320,192,61716,1,0,0:0:0:0:
448,192,61779,1,0,0:0:0:0:
192,192,61779,1,0,0:0:0:0:
320,192,61843,1,0,0:0:0:0:
192,192,61907,1,0,0:0:0:0:
64,192,61907,1,0,0:0:0:0:
320,192,61971,1,0,0:0:0:0:
448,192,62034,1,0,0:0:0:0:
64,192,62034,1,0,0:0:0:0:
192,192,62098,1,0,0:0:0:0:
320,192,62162,1,0,0:0:0:0:
448,192,62162,1,0,0:0:0:0:
64,192,62162,128,0,62290:0:0:0:0:
192,192,62290,1,0,0:0:0:0:
448,192,62353,1,0,0:0:0:0:
64,192,62417,1,0,0:0:0:0:
320,192,62417,128,0,62545:0:0:0:0:
448,192,62545,1,0,0:0:0:0:
64,192,62608,1,0,0:0:0:0:
448,192,62672,1,0,0:0:0:0:
192,192,62672,128,0,62927:0:0:0:0:
320,192,62800,1,0,0:0:0:0:
64,192,62800,1,0,0:0:0:0:
448,192,62927,1,0,0:0:0:0:
320,192,62927,1,0,0:0:0:0:
64,192,63055,1,0,0:0:0:0:
448,192,63055,128,0,63310:0:0:0:0:
320,192,63182,1,0,0:0:0:0:
192,192,63182,1,0,0:0:0:0:
192,192,63310,1,0,0:0:0:0:
64,192,63310,1,0,0:0:0:0:
64,192,63438,1,0,0:0:0:0:
320,192,63438,1,0,0:0:0:0:
64,192,63565,128,0,63820:0:0:0:0:
320,192,63565,1,0,0:0:0:0:
192,192,63693,1,0,0:0:0:0:
448,192,63693,1,0,0:0:0:0:
192,192,63820,1,0,0:0:0:0:
320,192,63820,1,0,0:0:0:0:
320,192,63948,1,0,0:0:0:0:
448,192,63948,128,0,64203:0:0:0:0:
64,192,64075,1,0,0:0:0:0:
192,192,64139,1,0,0:0:0:0:
320,192,64203,1,0,0:0:0:0:
64,192,64203,128,0,64330:0:0:0:0:
192,192,64330,1,0,0:0:0:0:
448,192,64394,1,0,0:0:0:0:
320,192,64458,128,0,64585:0:0:0:0:
64,192,64458,1,0,0:0:0:0:
192,192,64585,1,0,0:0:0:0:
64,192,64713,1,0,0:0:0:0:
192,192,64713,128,0,64968:0:0:0:0:
448,192,64841,1,0,0:0:0:0:
320,192,64841,1,0,0:0:0:0:
64,192,64968,1,0,0:0:0:0:
448,192,64968,1,0,0:0:0:0:
64,192,65096,1,0,0:0:0:0:
320,192,65096,128,0,65351:0:0:0:0:
192,192,65223,1,0,0:0:0:0:
448,192,65223,1,0,0:0:0:0:
64,192,65351,1,0,0:0:0:0:
448,192,65351,1,0,0:0:0:0:
320,192,65478,1,0,0:0:0:0:
192,192,65478,1,0,0:0:0:0:
192,192,65606,1,0,0:0:0:0:
64,192,65606,1,0,0:0:0:0:
192,192,65733,1,0,0:0:0:0:
448,192,65733,1,0,0:0:0:0:
64,192,65861,1,0,0:0:0:0:
320,192,65861,1,0,0:0:0:0:
320,192,65989,1,0,0:0:0:0:
64,192,65989,128,0,66244:0:0:0:0:
192,192,66116,1,0,0:0:0:0:
448,192,66116,1,0,0:0:0:0:
320,192,66180,1,0,0:0:0:0:
192,192,66244,1,0,0:0:0:0:
448,192,66244,128,0,66371:0:0:0:0:
64,192,66371,1,0,0:0:0:0:
320,192,66435,1,0,0:0:0:0:
192,192,66499,128,0,66626:0:0:0:0:
448,192,66499,1,0,0:0:0:0:
320,192,66626,1,0,0:0:0:0:
448,192,66690,1,0,0:0:0:0:
64,192,66754,128,0,67009:0:0:0:0:
320,192,66754,1,0,0:0:0:0:
192,192,66881,1,0,0:0:0:0:
448,192,66881,1,0,0:0:0:0:
448,192,67009,1,0,0:0:0:0:
320,192,67009,1,0,0:0:0:0:
448,192,67136,128,0,67392:0:0:0:0:
192,192,67136,1,0,0:0:0:0:
320,192,67264,1,0,0:0:0:0:
192,192,67264,1,0,0:0:0:0:
320,192,67392,1,0,0:0:0:0:
64,192,67392,1,0,0:0:0:0:
192,192,67519,1,0,0:0:0:0:
64,192,67519,1,0,0:0:0:0:
192,192,67647,1,0,0:0:0:0:
448,192,67647,128,0,67902:0:0:0:0:
320,192,67774,1,0,0:0:0:0:
64,192,67774,1,0,0:0:0:0:
320,192,67902,1,0,0:0:0:0:
192,192,67902,1,0,0:0:0:0:
192,192,68029,1,0,0:0:0:0:
448,192,68029,1,0,0:0:0:0:
64,192,68157,1,0,0:0:0:0:
192,192,68157,1,0,0:0:0:0:
320,192,68221,1,0,0:0:0:0:
192,192,68284,1,0,0:0:0:0:
64,192,68284,1,0,0:0:0:0:
448,192,68284,128,0,68412:0:0:0:0:
320,192,68412,1,0,0:0:0:0:
192,192,68476,1,0,0:0:0:0:
64,192,68540,128,0,68667:0:0:0:0:
320,192,68540,1,0,0:0:0:0:
448,192,68667,1,0,0:0:0:0:
192,192,68667,1,0,0:0:0:0:
320,192,68795,128,0,69050:0:0:0:0:
64,192,68795,1,0,0:0:0:0:
192,192,68922,1,0,0:0:0:0:
448,192,68922,1,0,0:0:0:0:
64,192,69050,1,0,0:0:0:0:
448,192,69050,1,0,0:0:0:0:
320,192,69177,1,0,0:0:0:0:
192,192,69177,128,0,69432:0:0:0:0:
64,192,69305,1,0,0:0:0:0:
320,192,69305,1,0,0:0:0:0:
448,192,69432,1,0,0:0:0:0:
64,192,69432,1,0,0:0:0:0:
448,192,69560,1,0,0:0:0:0:
320,192,69560,1,0,0:0:0:0:
320,192,69688,1,0,0:0:0:0:
64,192,69688,1,0,0:0:0:0:
448,192,69815,1,0,0:0:0:0:
64,192,69815,1,0,0:0:0:0:
448,192,69943,1,0,0:0:0:0:
320,192,69943,1,0,0:0:0:0:
320,192,70070,1,0,0:0:0:0:
192,192,70070,1,0,0:0:0:0:
192,192,70198,1,0,0:0:0:0:
64,192,70198,1,0,0:0:0:0:
320,192,70325,1,0,0:0:0:0:
192,192,70325,1,0,0:0:0:0:
448,192,70325,128,0,70453:0:0:0:0:
64,192,70453,1,0,0:0:0:0:
64,192,70580,128,0,70708:0:0:0:0:
192,192,70580,1,0,0:0:0:0:
448,192,70708,1,0,0:0:0:0:
320,192,70835,128,0,70963:0:0:0:0:
192,192,70835,1,0,0:0:0:0:
64,192,70963,1,0,0:0:0:0:
192,192,71091,128,0,71218:0:0:0:0:
448,192,71091,1,0,0:0:0:0:
320,192,71218,1,0,0:0:0:0:
448,192,71346,128,0,71473:0:0:0:0:
64,192,71346,1,0,0:0:0:0:
192,192,71473,1,0,0:0:0:0:
320,192,71601,128,0,71728:0:0:0:0:
64,192,71601,1,0,0:0:0:0:
448,192,71728,1,0,0:0:0:0:
192,192,71856,128,0,71983:0:0:0:0:
64,192,71856,1,0,0:0:0:0:
448,192,71983,1,0,0:0:0:0:
64,192,72111,128,0,72239:0:0:0:0:
320,192,72111,1,0,0:0:0:0:
192,192,72239,1,0,0:0:0:0:
320,192,72366,128,0,72494:0:0:0:0:
448,192,72366,1,0,0:0:0:0:
64,192,72494,1,0,0:0:0:0:
448,192,72621,128,0,72749:0:0:0:0:
192,192,72621,1,0,0:0:0:0:
320,192,72749,1,0,0:0:0:0:
192,192,72876,128,0,73004:0:0:0:0:
64,192,72876,1,0,0:0:0:0:
448,192,73004,1,0,0:0:0:0:
64,192,73131,128,0,73259:0:0:0:0:
320,192,73131,1,0,0:0:0:0:
192,192,73259,1,0,0:0:0:0:
448,192,73386,128,0,73514:0:0:0:0:
320,192,73386,1,0,0:0:0:0:
64,192,73514,1,0,0:0:0:0:
320,192,73642,128,0,73769:0:0:0:0:
192,192,73642,1,0,0:0:0:0:
448,192,73769,1,0,0:0:0:0:
192,192,73897,128,0,74024:0:0:0:0:
64,192,73897,1,0,0:0:0:0:
448,192,74024,1,0,0:0:0:0:
64,192,74152,128,0,74279:0:0:0:0:
320,192,74152,1,0,0:0:0:0:
192,192,74279,1,0,0:0:0:0:
320,192,74407,128,0,74534:0:0:0:0:
448,192,74407,1,0,0:0:0:0:
192,192,74534,1,0,0:0:0:0:
64,192,74662,128,0,74790:0:0:0:0:
448,192,74662,1,0,0:0:0:0:
320,192,74790,1,0,0:0:0:0:
192,192,74917,128,0,75045:0:0:0:0:
64,192,74917,1,0,0:0:0:0:
320,192,75045,1,0,0:0:0:0:
448,192,75172,128,0,75300:0:0:0:0:
64,192,75172,1,0,0:0:0:0:
320,192,75300,1,0,0:0:0:0:
64,192,75427,128,0,75555:0:0:0:0:
192,192,75427,1,0,0:0:0:0:
448,192,75555,1,0,0:0:0:0:
192,192,75682,128,0,75810:0:0:0:0:
320,192,75682,1,0,0:0:0:0:
64,192,75810,1,0,0:0:0:0:
320,192,75938,128,0,76065:0:0:0:0:
448,192,75938,1,0,0:0:0:0:
192,192,76065,1,0,0:0:0:0:
448,192,76193,128,0,76320:0:0:0:0:
64,192,76193,1,0,0:0:0:0:
320,192,76320,1,0,0:0:0:0:
192,192,76448,128,0,76575:0:0:0:0:
64,192,76448,1,0,0:0:0:0:
320,192,76575,1,0,0:0:0:0:
448,192,76703,128,0,76830:0:0:0:0:
64,192,76703,1,0,0:0:0:0:
192,192,76830,1,0,0:0:0:0:
64,192,76958,128,0,77085:0:0:0:0:
320,192,76958,1,0,0:0:0:0:
448,192,77085,1,0,0:0:0:0:
320,192,77213,128,0,77341:0:0:0:0:
192,192,77213,1,0,0:0:0:0:
64,192,77341,1,0,0:0:0:0:
448,192,77468,128,0,77596:0:0:0:0:
192,192,77468,1,0,0:0:0:0:
320,192,77596,1,0,0:0:0:0:
64,192,77723,128,0,77851:0:0:0:0:
192,192,77723,1,0,0:0:0:0:
320,192,77851,1,0,0:0:0:0:
448,192,77978,128,0,78233:0:0:0:0:
192,192,77978,1,0,0:0:0:0:
192,192,78233,128,0,78489:0:0:0:0:
64,192,78233,1,0,0:0:0:0:
320,192,78489,128,0,78616:0:0:0:0:
448,192,78489,128,0,78616:0:0:0:0:
64,192,78616,1,0,0:0:0:0:
192,192,78616,1,0,0:0:0:0:
448,192,78744,1,0,0:0:0:0:
192,192,78744,1,0,0:0:0:0:
448,192,78871,1,0,0:0:0:0:
64,192,78871,1,0,0:0:0:0:
192,192,78999,128,0,79126:0:0:0:0:
320,192,78999,128,0,79126:0:0:0:0:
64,192,79126,1,0,0:0:0:0:
448,192,79126,1,0,0:0:0:0:
320,192,79254,1,0,0:0:0:0:
64,192,79254,1,0,0:0:0:0:
64,192,79381,128,0,79509:0:0:0:0:
320,192,79381,128,0,79509:0:0:0:0:
192,192,79509,128,0,79636:0:0:0:0:
448,192,79509,128,0,79636:0:0:0:0:
320,192,79636,1,0,0:0:0:0:
64,192,79636,1,0,0:0:0:0:
320,192,79764,1,0,0:0:0:0:
448,192,79764,1,0,0:0:0:0:
192,192,79892,1,0,0:0:0:0:
448,192,79892,1,0,0:0:0:0:
64,192,80019,128,0,80147:0:0:0:0:
192,192,80019,128,0,80147:0:0:0:0:
320,192,80147,1,0,0:0:0:0:
448,192,80147,1,0,0:0:0:0:
192,192,80274,1,0,0:0:0:0:
320,192,80274,1,0,0:0:0:0:
448,192,80402,128,0,80529:0:0:0:0:
192,192,80402,128,0,80529:0:0:0:0:
320,192,80529,128,0,80657:0:0:0:0:
64,192,80529,128,0,80657:0:0:0:0:
192,192,80657,1,0,0:0:0:0:
448,192,80657,1,0,0:0:0:0:
320,192,80784,1,0,0:0:0:0:
192,192,80784,1,0,0:0:0:0:
64,192,80912,1,0,0:0:0:0:
320,192,80912,1,0,0:0:0:0:
64,192,81040,128,0,81167:0:0:0:0:
448,192,81040,128,0,81167:0:0:0:0:
320,192,81167,1,0,0:0:0:0:
192,192,81167,1,0,0:0:0:0:
448,192,81295,1,0,0:0:0:0:
320,192,81295,1,0,0:0:0:0:
192,192,81422,128,0,81550:0:0:0:0:
320,192,81422,128,0,81550:0:0:0:0:
64,192,81550,128,0,81677:0:0:0:0:
448,192,81550,128,0,81677:0:0:0:0:
320,192,81677,1,0,0:0:0:0:
192,192,81677,1,0,0:0:0:0:
64,192,81805,1,0,0:0:0:0:
192,192,81805,1,0,0:0:0:0:
448,192,81932,1,0,0:0:0:0:
64,192,81932,1,0,0:0:0:0:
320,192,82060,128,0,82188:0:0:0:0:
448,192,82060,128,0,82188:0:0:0:0:
192,192,82188,1,0,0:0:0:0:
64,192,82188,1,0,0:0:0:0:
320,192,82315,1,0,0:0:0:0:
192,192,82315,1,0,0:0:0:0:
64,192,82443,1,0,0:0:0:0:
320,192,82443,1,0,0:0:0:0:
448,192,82506,1,0,0:0:0:0:
192,192,82570,128,0,82698:0:0:0:0:
64,192,82570,128,0,82698:0:0:0:0:
320,192,82698,1,0,0:0:0:0:
448,192,82698,1,0,0:0:0:0:
320,192,82825,1,0,0:0:0:0:
64,192,82825,1,0,0:0:0:0:
64,192,82953,1,0,0:0:0:0:
192,192,82953,1,0,0:0:0:0:
320,192,83017,1,0,0:0:0:0:
192,192,83080,128,0,83208:0:0:0:0:
448,192,83080,128,0,83208:0:0:0:0:
64,192,83208,1,0,0:0:0:0:
320,192,83208,1,0,0:0:0:0:
448,192,83335,1,0,0:0:0:0:
320,192,83335,1,0,0:0:0:0:
448,192,83463,1,0,0:0:0:0:
64,192,83463,1,0,0:0:0:0:
192,192,83527,1,0,0:0:0:0:
320,192,83591,128,0,83718:0:0:0:0:
448,192,83591,128,0,83718:0:0:0:0:
192,192,83718,1,0,0:0:0:0:
64,192,83718,1,0,0:0:0:0:
64,192,83846,1,0,0:0:0:0:
320,192,83846,1,0,0:0:0:0:
448,192,83973,1,0,0:0:0:0:
320,192,83973,1,0,0:0:0:0:
192,192,84037,1,0,0:0:0:0:
64,192,84101,128,0,84228:0:0:0:0:
448,192,84101,128,0,84228:0:0:0:0:
320,192,84228,1,0,0:0:0:0:
192,192,84228,1,0,0:0:0:0:
448,192,84356,1,0,0:0:0:0:
192,192,84356,1,0,0:0:0:0:
64,192,84483,1,0,0:0:0:0:
448,192,84483,1,0,0:0:0:0:
192,192,84547,1,0,0:0:0:0:
320,192,84611,128,0,84739:0:0:0:0:
448,192,84611,128,0,84739:0:0:0:0:
192,192,84739,1,0,0:0:0:0:
64,192,84739,1,0,0:0:0:0:
448,192,84866,1,0,0:0:0:0:
192,192,84866,1,0,0:0:0:0:
448,192,84994,1,0,0:0:0:0:
320,192,84994,1,0,0:0:0:0:
192,192,85057,1,0,0:0:0:0:
64,192,85121,128,0,85249:0:0:0:0:
320,192,85121,128,0,85249:0:0:0:0:
192,192,85249,1,0,0:0:0:0:
448,192,85249,1,0,0:0:0:0:
320,192,85376,1,0,0:0:0:0:
192,192,85376,1,0,0:0:0:0:
448,192,85504,1,0,0:0:0:0:
320,192,85504,1,0,0:0:0:0:
192,192,85568,1,0,0:0:0:0:
64,192,85631,128,0,85759:0:0:0:0:
448,192,85631,128,0,85759:0:0:0:0:
320,192,85759,1,0,0:0:0:0:
192,192,85759,1,0,0:0:0:0:
64,192,85886,1,0,0:0:0:0:
320,192,85886,1,0,0:0:0:0:
64,192,86014,1,0,0:0:0:0:
448,192,86014,1,0,0:0:0:0:
320,192,86078,1,0,0:0:0:0:
192,192,86142,128,0,86269:0:0:0:0:
64,192,86142,128,0,86269:0:0:0:0:
448,192,86269,1,0,0:0:0:0:
320,192,86333,1,0,0:0:0:0:
448,192,86397,128,0,86524:0:0:0:0:
192,192,86397,1,0,0:0:0:0:
64,192,86524,1,0,0:0:0:0:
192,192,86588,1,0,0:0:0:0:
448,192,86652,1,0,0:0:0:0:
320,192,86652,1,0,0:0:0:0:
64,192,86652,1,0,0:0:0:0:
320,192,86779,1,0,0:0:0:0:
192,192,86779,1,0,0:0:0:0:
64,192,86907,1,0,0:0:0:0:
192,192,86907,1,0,0:0:0:0:
448,192,87034,1,0,0:0:0:0:
192,192,87034,1,0,0:0:0:0:
448,192,87162,1,0,0:0:0:0:
320,192,87162,1,0,0:0:0:0:
320,192,87290,1,0,0:0:0:0:
64,192,87290,1,0,0:0:0:0:
448,192,87417,1,0,0:0:0:0:
64,192,87417,1,0,0:0:0:0:
192,192,87545,1,0,0:0:0:0:
448,192,87545,128,0,87672:0:0:0:0:
320,192,87672,1,0,0:0:0:0:
64,192,87800,128,0,87927:0:0:0:0:
192,192,87800,1,0,0:0:0:0:
320,192,87927,1,0,0:0:0:0:
448,192,88055,128,0,88182:0:0:0:0:
64,192,88182,1,0,0:0:0:0:
192,192,88310,128,0,88438:0:0:0:0:
320,192,88310,1,0,0:0:0:0:
448,192,88438,1,0,0:0:0:0:
320,192,88565,128,0,88693:0:0:0:0:
64,192,88565,1,0,0:0:0:0:
448,192,88693,1,0,0:0:0:0:
192,192,88693,1,0,0:0:0:0:
64,192,88820,1,0,0:0:0:0:
448,192,88820,1,0,0:0:0:0:
320,192,88948,1,0,0:0:0:0:
64,192,88948,1,0,0:0:0:0:
320,192,89075,1,0,0:0:0:0:
192,192,89075,1,0,0:0:0:0:
64,192,89203,1,0,0:0:0:0:
448,192,89203,1,0,0:0:0:0:
448,192,89330,1,0,0:0:0:0:
320,192,89330,1,0,0:0:0:0:
320,192,89458,1,0,0:0:0:0:
192,192,89458,1,0,0:0:0:0:
192,192,89585,1,0,0:0:0:0:
64,192,89585,1,0,0:0:0:0:
64,192,89713,1,0,0:0:0:0:
192,192,89841,128,0,89968:0:0:0:0:
320,192,89968,128,0,90096:0:0:0:0:
64,192,90096,128,0,90223:0:0:0:0:
192,192,90223,128,0,90351:0:0:0:0:
320,192,90351,128,0,90478:0:0:0:0:
448,192,90478,128,0,90606:0:0:0:0:
192,192,90606,128,0,90733:0:0:0:0:
448,192,90733,1,0,0:0:0:0:
320,192,90733,1,0,0:0:0:0:
320,192,90861,1,0,0:0:0:0:
64,192,90861,1,0,0:0:0:0:
448,192,90989,1,0,0:0:0:0:
64,192,90989,1,0,0:0:0:0:
448,192,91116,1,0,0:0:0:0:
320,192,91116,1,0,0:0:0:0:
64,192,91244,1,0,0:0:0:0:
320,192,91244,1,0,0:0:0:0:
64,192,91371,1,0,0:0:0:0:
192,192,91371,1,0,0:0:0:0:
448,192,91499,1,0,0:0:0:0:
192,192,91499,1,0,0:0:0:0:
448,192,91626,1,0,0:0:0:0:
320,192,91626,1,0,0:0:0:0:
320,192,91754,1,0,0:0:0:0:
64,192,91881,128,0,92200:0:0:0:0:
448,192,91881,128,0,92009:0:0:0:0:
320,192,92009,1,0,0:0:0:0:
192,192,92009,1,0,0:0:0:0:
448,192,92136,1,0,0:0:0:0:
320,192,92136,1,0,0:0:0:0:
320,192,92264,1,0,0:0:0:0:
192,192,92264,1,0,0:0:0:0:
192,192,92392,1,0,0:0:0:0:
64,192,92392,1,0,0:0:0:0:
192,192,92519,1,0,0:0:0:0:
320,192,92519,1,0,0:0:0:0:
448,192,92647,1,0,0:0:0:0:
320,192,92647,1,0,0:0:0:0:
448,192,92774,1,0,0:0:0:0:
192,192,92774,1,0,0:0:0:0:
64,192,92774,128,0,92902:0:0:0:0:
448,192,92902,1,0,0:0:0:0:
320,192,92902,1,0,0:0:0:0:
320,192,93029,1,0,0:0:0:0:
192,192,93029,1,0,0:0:0:0:
64,192,93157,1,0,0:0:0:0:
192,192,93157,1,0,0:0:0:0:
448,192,93284,1,0,0:0:0:0:
64,192,93284,1,0,0:0:0:0:
320,192,93412,128,0,93540:0:0:0:0:
448,192,93412,128,0,93540:0:0:0:0:
192,192,93540,1,0,0:0:0:0:
64,192,93540,1,0,0:0:0:0:
448,192,93667,1,0,0:0:0:0:
192,192,93667,1,0,0:0:0:0:
448,192,93795,1,0,0:0:0:0:
320,192,93795,1,0,0:0:0:0:
64,192,93922,1,0,0:0:0:0:
320,192,93922,1,0,0:0:0:0:
64,192,94050,1,0,0:0:0:0:
448,192,94050,1,0,0:0:0:0:
448,192,94177,1,0,0:0:0:0:
320,192,94177,1,0,0:0:0:0:
192,192,94305,128,0,94496:0:0:0:0:
320,192,94305,1,0,0:0:0:0:
64,192,94305,1,0,0:0:0:0:
64,192,94560,128,0,94751:0:0:0:0:
448,192,94560,128,0,94751:0:0:0:0:
192,192,94815,1,0,0:0:0:0:
320,192,94815,1,0,0:0:0:0:
64,192,94858,1,0,0:0:0:0:
448,192,94900,1,0,0:0:0:0:
320,192,94943,1,0,0:0:0:0:
64,192,94985,1,0,0:0:0:0:
192,192,95028,1,0,0:0:0:0:
320,192,95070,1,0,0:0:0:0:
448,192,95070,1,0,0:0:0:0:
64,192,95113,1,0,0:0:0:0:
192,192,95155,1,0,0:0:0:0:
320,192,95198,1,0,0:0:0:0:
448,192,95240,1,0,0:0:0:0:
192,192,95283,1,0,0:0:0:0:
320,192,95325,1,0,0:0:0:0:
64,192,95325,1,0,0:0:0:0:
448,192,95368,1,0,0:0:0:0:
192,192,95410,1,0,0:0:0:0:
64,192,95453,1,0,0:0:0:0:
320,192,95495,1,0,0:0:0:0:
192,192,95538,1,0,0:0:0:0:
448,192,95580,1,0,0:0:0:0:
64,192,95580,1,0,0:0:0:0:
320,192,95623,1,0,0:0:0:0:
192,192,95665,1,0,0:0:0:0:
64,192,95708,1,0,0:0:0:0:
448,192,95750,1,0,0:0:0:0:
320,192,95793,1,0,0:0:0:0:
192,192,95835,1,0,0:0:0:0:
64,192,95835,1,0,0:0:0:0:
448,192,95878,1,0,0:0:0:0:
320,192,95920,1,0,0:0:0:0:
64,192,95963,1,0,0:0:0:0:
192,192,96006,1,0,0:0:0:0:
320,192,96048,1,0,0:0:0:0:
448,192,96091,1,0,0:0:0:0:
64,192,96091,1,0,0:0:0:0:
192,192,96133,1,0,0:0:0:0:
320,192,96176,1,0,0:0:0:0:
64,192,96218,1,0,0:0:0:0:
192,192,96261,1,0,0:0:0:0:
448,192,96303,1,0,0:0:0:0:
320,192,96346,1,0,0:0:0:0:
64,192,96346,1,0,0:0:0:0:
192,192,96388,1,0,0:0:0:0:
448,192,96431,1,0,0:0:0:0:
320,192,96473,1,0,0:0:0:0:
192,192,96516,1,0,0:0:0:0:
64,192,96558,1,0,0:0:0:0:
448,192,96601,1,0,0:0:0:0:
320,192,96601,1,0,0:0:0:0:
192,192,96665,1,0,0:0:0:0:
64,192,96728,1,0,0:0:0:0:
448,192,96728,1,0,0:0:0:0:
320,192,96792,1,0,0:0:0:0:
192,192,96856,1,0,0:0:0:0:
64,192,96856,1,0,0:0:0:0:
448,192,96856,1,0,0:0:0:0:
320,192,96983,1,0,0:0:0:0:
192,192,96983,1,0,0:0:0:0:
192,192,97111,1,0,0:0:0:0:
64,192,97111,1,0,0:0:0:0:
448,192,97239,1,0,0:0:0:0:
320,192,97239,1,0,0:0:0:0:
320,192,97366,1,0,0:0:0:0:
192,192,97366,1,0,0:0:0:0:
448,192,97494,1,0,0:0:0:0:
320,192,97494,1,0,0:0:0:0:
64,192,97621,1,0,0:0:0:0:
192,192,97621,1,0,0:0:0:0:
448,192,97749,1,0,0:0:0:0:
192,192,97749,1,0,0:0:0:0:
320,192,97876,1,0,0:0:0:0:
64,192,97876,1,0,0:0:0:0:
448,192,97876,1,0,0:0:0:0:
448,192,98004,1,0,0:0:0:0:
320,192,98004,1,0,0:0:0:0:
64,192,98131,1,0,0:0:0:0:
192,192,98131,1,0,0:0:0:0:
192,192,98259,1,0,0:0:0:0:
64,192,98259,1,0,0:0:0:0:
448,192,98386,1,0,0:0:0:0:
192,192,98386,1,0,0:0:0:0:
320,192,98514,1,0,0:0:0:0:
448,192,98514,1,0,0:0:0:0:
320,192,98642,1,0,0:0:0:0:
64,192,98642,1,0,0:0:0:0:
192,192,98705,1,0,0:0:0:0:
64,192,98769,1,0,0:0:0:0:
448,192,98769,1,0,0:0:0:0:
320,192,98833,1,0,0:0:0:0:
448,192,98897,1,0,0:0:0:0:
192,192,98897,1,0,0:0:0:0:
64,192,98897,1,0,0:0:0:0:
320,192,98960,1,0,0:0:0:0:
192,192,99024,1,0,0:0:0:0:
448,192,99088,1,0,0:0:0:0:
64,192,99152,1,0,0:0:0:0:
320,192,99152,1,0,0:0:0:0:
192,192,99216,1,0,0:0:0:0:
448,192,99279,1,0,0:0:0:0:
320,192,99343,1,0,0:0:0:0:
192,192,99407,1,0,0:0:0:0:
64,192,99407,1,0,0:0:0:0:
448,192,99471,1,0,0:0:0:0:
320,192,99534,1,0,0:0:0:0:
64,192,99598,1,0,0:0:0:0:
448,192,99662,1,0,0:0:0:0:
192,192,99662,1,0,0:0:0:0:
320,192,99726,1,0,0:0:0:0:
192,192,99790,1,0,0:0:0:0:
64,192,99853,1,0,0:0:0:0:
320,192,99917,1,0,0:0:0:0:
448,192,99917,1,0,0:0:0:0:
320,192,100045,1,0,0:0:0:0:
192,192,100045,1,0,0:0:0:0:
448,192,100172,1,0,0:0:0:0:
192,192,100172,1,0,0:0:0:0:
448,192,100300,1,0,0:0:0:0:
320,192,100300,1,0,0:0:0:0:
320,192,100427,1,0,0:0:0:0:
64,192,100427,1,0,0:0:0:0:
192,192,100555,1,0,0:0:0:0:
64,192,100555,1,0,0:0:0:0:
448,192,100682,1,0,0:0:0:0:
192,192,100682,1,0,0:0:0:0:
320,192,100746,1,0,0:0:0:0:
448,192,100810,1,0,0:0:0:0:
64,192,100810,1,0,0:0:0:0:
192,192,100874,1,0,0:0:0:0:
448,192,100938,1,0,0:0:0:0:
320,192,100938,1,0,0:0:0:0:
64,192,100938,1,0,0:0:0:0:
192,192,101001,1,0,0:0:0:0:
320,192,101065,1,0,0:0:0:0:
64,192,101129,1,0,0:0:0:0:
320,192,101193,1,0,0:0:0:0:
448,192,101193,1,0,0:0:0:0:
192,192,101256,1,0,0:0:0:0:
64,192,101320,1,0,0:0:0:0:
192,192,101384,1,0,0:0:0:0:
448,192,101448,1,0,0:0:0:0:
320,192,101448,1,0,0:0:0:0:
64,192,101511,1,0,0:0:0:0:
192,192,101575,1,0,0:0:0:0:
320,192,101639,1,0,0:0:0:0:
448,192,101703,1,0,0:0:0:0:
64,192,101703,1,0,0:0:0:0:
192,192,101767,1,0,0:0:0:0:
448,192,101830,1,0,0:0:0:0:
320,192,101894,1,0,0:0:0:0:
192,192,101958,1,0,0:0:0:0:
64,192,101958,1,0,0:0:0:0:
320,192,102085,1,0,0:0:0:0:
192,192,102085,1,0,0:0:0:0:
448,192,102213,1,0,0:0:0:0:
320,192,102213,1,0,0:0:0:0:
320,192,102341,1,0,0:0:0:0:
64,192,102341,1,0,0:0:0:0:
448,192,102468,1,0,0:0:0:0:
64,192,102468,1,0,0:0:0:0:
192,192,102468,1,0,0:0:0:0:
448,192,102596,1,0,0:0:0:0:
320,192,102596,1,0,0:0:0:0:
64,192,102659,1,0,0:0:0:0:
192,192,102659,1,0,0:0:0:0:
320,192,102723,1,0,0:0:0:0:
448,192,102723,1,0,0:0:0:0:
192,192,102787,1,0,0:0:0:0:
64,192,102787,1,0,0:0:0:0:
320,192,102851,1,0,0:0:0:0:
448,192,102851,1,0,0:0:0:0:
192,192,102915,1,0,0:0:0:0:
64,192,102915,1,0,0:0:0:0:
448,192,102978,1,0,0:0:0:0:
320,192,102978,1,0,0:0:0:0:
192,192,103021,1,0,0:0:0:0:
64,192,103063,1,0,0:0:0:0:
320,192,103106,1,0,0:0:0:0:
448,192,103148,1,0,0:0:0:0:
64,192,103191,1,0,0:0:0:0:
192,192,103233,1,0,0:0:0:0:
320,192,103233,1,0,0:0:0:0:
448,192,103276,1,0,0:0:0:0:
64,192,103318,1,0,0:0:0:0:
192,192,103361,1,0,0:0:0:0:
448,192,103403,1,0,0:0:0:0:
320,192,103446,1,0,0:0:0:0:
64,192,103489,1,0,0:0:0:0:
192,192,103489,1,0,0:0:0:0:
448,192,103531,1,0,0:0:0:0:
320,192,103574,1,0,0:0:0:0:
192,192,103616,1,0,0:0:0:0:
64,192,103659,1,0,0:0:0:0:
320,192,103701,1,0,0:0:0:0:
192,192,103744,1,0,0:0:0:0:
448,192,103744,1,0,0:0:0:0:
64,192,103786,1,0,0:0:0:0:
320,192,103829,1,0,0:0:0:0:
448,192,103871,1,0,0:0:0:0:
192,192,103914,1,0,0:0:0:0:
320,192,103956,1,0,0:0:0:0:
448,192,103999,1,0,0:0:0:0:
64,192,103999,1,0,0:0:0:0:
192,192,104041,1,0,0:0:0:0:
320,192,104084,1,0,0:0:0:0:
64,192,104126,1,0,0:0:0:0:
192,192,104169,1,0,0:0:0:0:
448,192,104211,1,0,0:0:0:0:
320,192,104254,1,0,0:0:0:0:
64,192,104254,1,0,0:0:0:0:
192,192,104296,1,0,0:0:0:0:
448,192,104339,1,0,0:0:0:0:
320,192,104381,1,0,0:0:0:0:
192,192,104424,1,0,0:0:0:0:
64,192,104466,1,0,0:0:0:0:
448,192,104509,1,0,0:0:0:0:
320,192,104509,1,0,0:0:0:0:
192,192,104551,1,0,0:0:0:0:
64,192,104594,1,0,0:0:0:0:
320,192,104636,1,0,0:0:0:0:
448,192,104679,1,0,0:0:0:0:
192,192,104722,1,0,0:0:0:0:
64,192,104764,1,0,0:0:0:0:
320,192,104764,1,0,0:0:0:0:
448,192,104828,1,0,0:0:0:0:
192,192,104892,1,0,0:0:0:0:
320,192,104892,1,0,0:0:0:0:
64,192,104955,1,0,0:0:0:0:
192,192,105019,1,0,0:0:0:0:
448,192,105019,1,0,0:0:0:0:
320,192,105019,1,0,0:0:0:0:
320,192,105147,1,0,0:0:0:0:
64,192,105147,1,0,0:0:0:0:
448,192,105274,1,0,0:0:0:0:
320,192,105274,1,0,0:0:0:0:
448,192,105402,1,0,0:0:0:0:
192,192,105402,1,0,0:0:0:0:
192,192,105529,1,0,0:0:0:0:
64,192,105529,1,0,0:0:0:0:
320,192,105657,1,0,0:0:0:0:
192,192,105657,1,0,0:0:0:0:
320,192,105784,1,0,0:0:0:0:
64,192,105784,1,0,0:0:0:0:
448,192,105912,1,0,0:0:0:0:
64,192,105912,1,0,0:0:0:0:
448,192,106040,1,0,0:0:0:0:
320,192,106040,1,0,0:0:0:0:
320,192,106167,1,0,0:0:0:0:
192,192,106167,1,0,0:0:0:0:
192,192,106295,1,0,0:0:0:0:
64,192,106295,1,0,0:0:0:0:
448,192,106422,1,0,0:0:0:0:
64,192,106422,1,0,0:0:0:0:
192,192,106550,1,0,0:0:0:0:
64,192,106550,1,0,0:0:0:0:
192,192,106677,1,0,0:0:0:0:
320,192,106677,1,0,0:0:0:0:
448,192,106805,1,0,0:0:0:0:
320,192,106805,1,0,0:0:0:0:
320,192,106932,1,0,0:0:0:0:
192,192,106932,1,0,0:0:0:0:
192,192,107060,1,0,0:0:0:0:
64,192,107060,1,0,0:0:0:0:
448,192,107060,1,0,0:0:0:0:
320,192,107124,1,0,0:0:0:0:
192,192,107188,1,0,0:0:0:0:
448,192,107251,1,0,0:0:0:0:
320,192,107315,1,0,0:0:0:0:
64,192,107315,1,0,0:0:0:0:
192,192,107379,1,0,0:0:0:0:
448,192,107443,1,0,0:0:0:0:
320,192,107506,1,0,0:0:0:0:
192,192,107570,1,0,0:0:0:0:
448,192,107570,1,0,0:0:0:0:
64,192,107634,1,0,0:0:0:0:
192,192,107698,1,0,0:0:0:0:
320,192,107761,1,0,0:0:0:0:
448,192,107825,1,0,0:0:0:0:
64,192,107825,1,0,0:0:0:0:
320,192,107889,1,0,0:0:0:0:
192,192,107953,1,0,0:0:0:0:
64,192,108017,1,0,0:0:0:0:
448,192,108080,1,0,0:0:0:0:
192,192,108080,1,0,0:0:0:0:
320,192,108208,1,0,0:0:0:0:
192,192,108208,1,0,0:0:0:0:
448,192,108335,1,0,0:0:0:0:
320,192,108335,1,0,0:0:0:0:
448,192,108463,1,0,0:0:0:0:
64,192,108463,1,0,0:0:0:0:
192,192,108591,1,0,0:0:0:0:
64,192,108591,1,0,0:0:0:0:
320,192,108718,1,0,0:0:0:0:
192,192,108718,1,0,0:0:0:0:
448,192,108846,1,0,0:0:0:0:
320,192,108846,1,0,0:0:0:0:
64,192,108973,1,0,0:0:0:0:
448,192,108973,1,0,0:0:0:0:
448,192,109101,1,0,0:0:0:0:
192,192,109101,1,0,0:0:0:0:
64,192,109165,1,0,0:0:0:0:
192,192,109228,1,0,0:0:0:0:
320,192,109292,1,0,0:0:0:0:
448,192,109356,1,0,0:0:0:0:
192,192,109356,1,0,0:0:0:0:
320,192,109420,1,0,0:0:0:0:
192,192,109483,1,0,0:0:0:0:
64,192,109547,1,0,0:0:0:0:
448,192,109611,1,0,0:0:0:0:
320,192,109611,1,0,0:0:0:0:
192,192,109675,1,0,0:0:0:0:
64,192,109739,1,0,0:0:0:0:
192,192,109802,1,0,0:0:0:0:
448,192,109866,1,0,0:0:0:0:
320,192,109866,1,0,0:0:0:0:
64,192,109930,1,0,0:0:0:0:
448,192,109994,1,0,0:0:0:0:
192,192,109994,1,0,0:0:0:0:
320,192,110057,1,0,0:0:0:0:
448,192,110121,1,0,0:0:0:0:
64,192,110121,1,0,0:0:0:0:
64,192,110249,1,0,0:0:0:0:
320,192,110249,1,0,0:0:0:0:
192,192,110376,1,0,0:0:0:0:
448,192,110376,1,0,0:0:0:0:
192,192,110504,1,0,0:0:0:0:
320,192,110504,1,0,0:0:0:0:
192,192,110631,1,0,0:0:0:0:
64,192,110631,1,0,0:0:0:0:
320,192,110695,1,0,0:0:0:0:
192,192,110759,1,0,0:0:0:0:
448,192,110759,1,0,0:0:0:0:
320,192,110823,1,0,0:0:0:0:
448,192,110886,1,0,0:0:0:0:
64,192,110886,1,0,0:0:0:0:
192,192,110950,1,0,0:0:0:0:
64,192,111014,1,0,0:0:0:0:
320,192,111014,1,0,0:0:0:0:
192,192,111078,1,0,0:0:0:0:
448,192,111142,1,0,0:0:0:0:
64,192,111142,1,0,0:0:0:0:
320,192,111142,1,0,0:0:0:0:
192,192,111184,1,0,0:0:0:0:
64,192,111227,1,0,0:0:0:0:
448,192,111269,1,0,0:0:0:0:
320,192,111312,1,0,0:0:0:0:
192,192,111354,1,0,0:0:0:0:
64,192,111397,1,0,0:0:0:0:
448,192,111397,1,0,0:0:0:0:
320,192,111439,1,0,0:0:0:0:
192,192,111482,1,0,0:0:0:0:
64,192,111524,1,0,0:0:0:0:
448,192,111567,1,0,0:0:0:0:
320,192,111609,1,0,0:0:0:0:
192,192,111652,1,0,0:0:0:0:
64,192,111652,1,0,0:0:0:0:
448,192,111694,1,0,0:0:0:0:
320,192,111737,1,0,0:0:0:0:
192,192,111779,1,0,0:0:0:0:
64,192,111822,1,0,0:0:0:0:
448,192,111864,1,0,0:0:0:0:
320,192,111907,1,0,0:0:0:0:
192,192,111907,1,0,0:0:0:0:
64,192,111949,1,0,0:0:0:0:
448,192,111992,1,0,0:0:0:0:
320,192,112034,1,0,0:0:0:0:
64,192,112077,1,0,0:0:0:0:
192,192,112119,1,0,0:0:0:0:
448,192,112162,1,0,0:0:0:0:
320,192,112162,1,0,0:0:0:0:
64,192,112205,1,0,0:0:0:0:
192,192,112247,1,0,0:0:0:0:
320,192,112290,1,0,0:0:0:0:
448,192,112332,1,0,0:0:0:0:
64,192,112332,1,0,0:0:0:0:
192,192,112375,1,0,0:0:0:0:
320,192,112417,1,0,0:0:0:0:
448,192,112417,1,0,0:0:0:0:
64,192,112460,1,0,0:0:0:0:
192,192,112502,1,0,0:0:0:0:
320,192,112545,1,0,0:0:0:0:
448,192,112587,1,0,0:0:0:0:
64,192,112630,1,0,0:0:0:0:
192,192,112672,1,0,0:0:0:0:
320,192,112672,1,0,0:0:0:0:
448,192,112715,1,0,0:0:0:0:
64,192,112757,1,0,0:0:0:0:
192,192,112800,1,0,0:0:0:0:
448,192,112800,1,0,0:0:0:0:
320,192,112842,1,0,0:0:0:0:
64,192,112885,1,0,0:0:0:0:
192,192,112927,1,0,0:0:0:0:
448,192,112927,1,0,0:0:0:0:
320,192,112970,1,0,0:0:0:0:
64,192,113012,1,0,0:0:0:0:
448,192,113055,1,0,0:0:0:0:
192,192,113055,1,0,0:0:0:0:
320,192,113097,1,0,0:0:0:0:
64,192,113140,1,0,0:0:0:0:
192,192,113182,1,0,0:0:0:0:
448,192,113182,128,0,113310:0:0:0:0:
64,192,113246,1,0,0:0:0:0:
320,192,113310,1,0,0:0:0:0:
192,192,113438,1,0,0:0:0:0:
64,192,113438,128,0,113565:0:0:0:0:
320,192,113565,1,0,0:0:0:0:
448,192,113565,128,0,113693:0:0:0:0:
192,192,113693,128,0,113820:0:0:0:0:
64,192,113693,1,0,0:0:0:0:
320,192,113820,128,0,113948:0:0:0:0:
448,192,113820,1,0,0:0:0:0:
192,192,113948,1,0,0:0:0:0:
64,192,113948,128,0,114075:0:0:0:0:
192,192,114075,1,0,0:0:0:0:
320,192,114075,128,0,114203:0:0:0:0:
64,192,114203,1,0,0:0:0:0:
448,192,114203,128,0,114330:0:0:0:0:
192,192,114330,1,0,0:0:0:0:
320,192,114330,1,0,0:0:0:0:
192,192,114458,1,0,0:0:0:0:
64,192,114458,1,0,0:0:0:0:
64,192,114585,1,0,0:0:0:0:
320,192,114585,1,0,0:0:0:0:
448,192,114713,1,0,0:0:0:0:
320,192,114713,1,0,0:0:0:0:
448,192,114841,1,0,0:0:0:0:
192,192,114841,1,0,0:0:0:0:
192,192,114968,1,0,0:0:0:0:
64,192,114968,1,0,0:0:0:0:
320,192,115032,1,0,0:0:0:0:
192,192,115096,1,0,0:0:0:0:
448,192,115096,1,0,0:0:0:0:
320,192,115159,1,0,0:0:0:0:
192,192,115223,1,0,0:0:0:0:
64,192,115223,1,0,0:0:0:0:
448,192,115223,1,0,0:0:0:0:
320,192,115351,1,0,0:0:0:0:
64,192,115351,1,0,0:0:0:0:
192,192,115478,128,0,115606:0:0:0:0:
320,192,115478,1,0,0:0:0:0:
448,192,115606,1,0,0:0:0:0:
64,192,115606,1,0,0:0:0:0:
320,192,115733,128,0,115861:0:0:0:0:
448,192,115733,1,0,0:0:0:0:
192,192,115861,1,0,0:0:0:0:
64,192,115861,1,0,0:0:0:0:
448,192,115989,1,0,0:0:0:0:
320,192,115989,1,0,0:0:0:0:
192,192,116116,128,0,116371:0:0:0:0:
448,192,116116,1,0,0:0:0:0:
64,192,116244,1,0,0:0:0:0:
320,192,116244,1,0,0:0:0:0:
320,192,116371,1,0,0:0:0:0:
448,192,116371,1,0,0:0:0:0:
448,192,116499,1,0,0:0:0:0:
64,192,116499,1,0,0:0:0:0:
64,192,116626,128,0,116754:0:0:0:0:
320,192,116626,1,0,0:0:0:0:
192,192,116754,128,0,116881:0:0:0:0:
448,192,116754,1,0,0:0:0:0:
448,192,116881,128,0,117136:0:0:0:0:
320,192,116881,1,0,0:0:0:0:
320,192,117009,1,0,0:0:0:0:
64,192,117009,1,0,0:0:0:0:
192,192,117136,1,0,0:0:0:0:
64,192,117136,1,0,0:0:0:0:
320,192,117200,1,0,0:0:0:0:
192,192,117264,128,0,117519:0:0:0:0:
448,192,117264,1,0,0:0:0:0:
64,192,117264,1,0,0:0:0:0:
64,192,117392,1,0,0:0:0:0:
320,192,117392,1,0,0:0:0:0:
448,192,117519,1,0,0:0:0:0:
320,192,117583,1,0,0:0:0:0:
64,192,117647,128,0,117902:0:0:0:0:
192,192,117647,1,0,0:0:0:0:
448,192,117647,1,0,0:0:0:0:
192,192,117774,1,0,0:0:0:0:
320,192,117774,1,0,0:0:0:0:
320,192,117902,1,0,0:0:0:0:
448,192,117902,1,0,0:0:0:0:
192,192,117966,1,0,0:0:0:0:
320,192,118029,128,0,118157:0:0:0:0:
64,192,118029,1,0,0:0:0:0:
448,192,118029,1,0,0:0:0:0:
64,192,118157,1,0,0:0:0:0:
192,192,118221,1,0,0:0:0:0:
64,192,118284,128,0,118412:0:0:0:0:
448,192,118284,1,0,0:0:0:0:
320,192,118284,1,0,0:0:0:0:
320,192,118412,1,0,0:0:0:0:
192,192,118476,1,0,0:0:0:0:
448,192,118540,128,0,118667:0:0:0:0:
64,192,118540,1,0,0:0:0:0:
320,192,118540,1,0,0:0:0:0:
192,192,118667,1,0,0:0:0:0:
320,192,118731,1,0,0:0:0:0:
64,192,118795,128,0,118922:0:0:0:0:
448,192,118795,1,0,0:0:0:0:
192,192,118795,1,0,0:0:0:0:
320,192,118922,1,0,0:0:0:0:
448,192,118922,1,0,0:0:0:0:
192,192,118986,1,0,0:0:0:0:
64,192,118986,1,0,0:0:0:0:
448,192,119050,1,0,0:0:0:0:
320,192,119050,1,0,0:0:0:0:
192,192,119114,1,0,0:0:0:0:
64,192,119114,1,0,0:0:0:0:
448,192,119177,1,0,0:0:0:0:
320,192,119177,1,0,0:0:0:0:
192,192,119241,1,0,0:0:0:0:
64,192,119241,1,0,0:0:0:0:
448,192,119305,1,0,0:0:0:0:
320,192,119305,1,0,0:0:0:0:
64,192,119347,1,0,0:0:0:0:
192,192,119390,1,0,0:0:0:0:
448,192,119432,1,0,0:0:0:0:
320,192,119475,1,0,0:0:0:0:
192,192,119517,1,0,0:0:0:0:
64,192,119560,1,0,0:0:0:0:
448,192,119560,1,0,0:0:0:0:
192,192,119602,1,0,0:0:0:0:
320,192,119645,1,0,0:0:0:0:
448,192,119688,1,0,0:0:0:0:
64,192,119730,1,0,0:0:0:0:
192,192,119773,1,0,0:0:0:0:
448,192,119815,1,0,0:0:0:0:
320,192,119815,1,0,0:0:0:0:
64,192,119858,1,0,0:0:0:0:
192,192,119900,1,0,0:0:0:0:
320,192,119943,1,0,0:0:0:0:
448,192,119985,1,0,0:0:0:0:
64,192,120028,1,0,0:0:0:0:
320,192,120070,1,0,0:0:0:0:
192,192,120070,1,0,0:0:0:0:
448,192,120113,1,0,0:0:0:0:
64,192,120155,1,0,0:0:0:0:
192,192,120198,1,0,0:0:0:0:
448,192,120240,1,0,0:0:0:0:
320,192,120283,1,0,0:0:0:0:
192,192,120325,1,0,0:0:0:0:
64,192,120325,1,0,0:0:0:0:
448,192,120368,1,0,0:0:0:0:
320,192,120410,1,0,0:0:0:0:
192,192,120453,1,0,0:0:0:0:
448,192,120495,1,0,0:0:0:0:
64,192,120495,1,0,0:0:0:0:
320,192,120538,1,0,0:0:0:0:
64,192,120580,1,0,0:0:0:0:
192,192,120580,1,0,0:0:0:0:
448,192,120623,1,0,0:0:0:0:
320,192,120665,1,0,0:0:0:0:
192,192,120708,1,0,0:0:0:0:
64,192,120750,1,0,0:0:0:0:
448,192,120793,1,0,0:0:0:0:
192,192,120835,1,0,0:0:0:0:
320,192,120835,1,0,0:0:0:0:
448,192,120899,1,0,0:0:0:0:
64,192,120899,1,0,0:0:0:0:
192,192,120963,1,0,0:0:0:0:
320,192,120963,1,0,0:0:0:0:
448,192,121027,1,0,0:0:0:0:
64,192,121027,1,0,0:0:0:0:
192,192,121091,1,0,0:0:0:0:
320,192,121091,1,0,0:0:0:0:
448,192,121154,1,0,0:0:0:0:
64,192,121154,1,0,0:0:0:0:
192,192,121218,1,0,0:0:0:0:
320,192,121218,1,0,0:0:0:0:
64,192,121282,1,0,0:0:0:0:
448,192,121346,1,0,0:0:0:0:
320,192,121346,1,0,0:0:0:0:
192,192,121409,1,0,0:0:0:0:
448,192,121473,1,0,0:0:0:0:
320,192,121473,1,0,0:0:0:0:
64,192,121537,1,0,0:0:0:0:
320,192,121601,1,0,0:0:0:0:
192,192,121601,1,0,0:0:0:0:
448,192,121665,1,0,0:0:0:0:
192,192,121728,1,0,0:0:0:0:
64,192,121728,1,0,0:0:0:0:
320,192,121792,1,0,0:0:0:0:
192,192,121856,1,0,0:0:0:0:
64,192,121856,1,0,0:0:0:0:
448,192,121920,1,0,0:0:0:0:
320,192,121983,1,0,0:0:0:0:
192,192,121983,1,0,0:0:0:0:
64,192,122047,1,0,0:0:0:0:
192,192,122111,1,0,0:0:0:0:
320,192,122111,1,0,0:0:0:0:
448,192,122175,1,0,0:0:0:0:
192,192,122239,1,0,0:0:0:0:
64,192,122239,1,0,0:0:0:0:
320,192,122302,1,0,0:0:0:0:
448,192,122366,1,0,0:0:0:0:
192,192,122366,1,0,0:0:0:0:
320,192,122430,1,0,0:0:0:0:
448,192,122494,1,0,0:0:0:0:
64,192,122494,1,0,0:0:0:0:
192,192,122557,1,0,0:0:0:0:
320,192,122621,1,0,0:0:0:0:
64,192,122621,1,0,0:0:0:0:
192,192,122685,1,0,0:0:0:0:
448,192,122749,1,0,0:0:0:0:
64,192,122749,1,0,0:0:0:0:
320,192,122813,1,0,0:0:0:0:
192,192,122876,1,0,0:0:0:0:
448,192,122876,1,0,0:0:0:0:
320,192,122940,1,0,0:0:0:0:
64,192,123004,1,0,0:0:0:0:
448,192,123004,1,0,0:0:0:0:
192,192,123068,1,0,0:0:0:0:
320,192,123131,1,0,0:0:0:0:
448,192,123131,1,0,0:0:0:0:
192,192,123195,1,0,0:0:0:0:
64,192,123195,1,0,0:0:0:0:
320,192,123259,1,0,0:0:0:0:
448,192,123259,1,0,0:0:0:0:
192,192,123323,1,0,0:0:0:0:
64,192,123323,1,0,0:0:0:0:
448,192,123386,1,0,0:0:0:0:
320,192,123386,1,0,0:0:0:0:
192,192,123450,1,0,0:0:0:0:
64,192,123514,1,0,0:0:0:0:
448,192,123514,1,0,0:0:0:0:
192,192,123642,1,0,0:0:0:0:
448,192,123642,1,0,0:0:0:0:
64,192,123705,1,0,0:0:0:0:
320,192,123769,1,0,0:0:0:0:
192,192,123769,1,0,0:0:0:0:
320,192,123897,1,0,0:0:0:0:
64,192,123897,1,0,0:0:0:0:
448,192,123960,1,0,0:0:0:0:
192,192,124024,1,0,0:0:0:0:
64,192,124024,1,0,0:0:0:0:
320,192,124088,1,0,0:0:0:0:
448,192,124088,1,0,0:0:0:0:
192,192,124152,1,0,0:0:0:0:
64,192,124152,1,0,0:0:0:0:
320,192,124216,1,0,0:0:0:0:
448,192,124216,1,0,0:0:0:0:
192,192,124279,1,0,0:0:0:0:
64,192,124279,1,0,0:0:0:0:
320,192,124343,1,0,0:0:0:0:
448,192,124343,1,0,0:0:0:0:
192,192,124407,1,0,0:0:0:0:
64,192,124407,1,0,0:0:0:0:
320,192,124471,1,0,0:0:0:0:
448,192,124534,1,0,0:0:0:0:
192,192,124534,1,0,0:0:0:0:
320,192,124662,1,0,0:0:0:0:
64,192,124662,128,0,124790:0:0:0:0:
448,192,124790,128,0,124917:0:0:0:0:
192,192,124790,1,0,0:0:0:0:
320,192,124917,1,0,0:0:0:0:
64,192,124981,1,0,0:0:0:0:
448,192,125045,1,0,0:0:0:0:
320,192,125045,1,0,0:0:0:0:
192,192,125108,1,0,0:0:0:0:
64,192,125108,1,0,0:0:0:0:
448,192,125172,1,0,0:0:0:0:
320,192,125172,1,0,0:0:0:0:
192,192,125236,1,0,0:0:0:0:
64,192,125236,1,0,0:0:0:0:
320,192,125300,1,0,0:0:0:0:
448,192,125300,1,0,0:0:0:0:
192,192,125364,1,0,0:0:0:0:
64,192,125364,1,0,0:0:0:0:
320,192,125427,1,0,0:0:0:0:
448,192,125427,1,0,0:0:0:0:
64,192,125555,1,0,0:0:0:0:
320,192,125555,1,0,0:0:0:0:
192,192,125619,1,0,0:0:0:0:
320,192,125682,1,0,0:0:0:0:
448,192,125682,1,0,0:0:0:0:
64,192,125746,1,0,0:0:0:0:
192,192,125810,1,0,0:0:0:0:
448,192,125810,1,0,0:0:0:0:
320,192,125874,1,0,0:0:0:0:
64,192,125938,1,0,0:0:0:0:
192,192,125938,1,0,0:0:0:0:
320,192,126065,1,0,0:0:0:0:
192,192,126065,1,0,0:0:0:0:
64,192,126129,1,0,0:0:0:0:
448,192,126193,1,0,0:0:0:0:
192,192,126193,1,0,0:0:0:0:
320,192,126256,1,0,0:0:0:0:
64,192,126320,1,0,0:0:0:0:
448,192,126320,1,0,0:0:0:0:
192,192,126384,1,0,0:0:0:0:
320,192,126448,1,0,0:0:0:0:
64,192,126448,1,0,0:0:0:0:
448,192,126533,1,0,0:0:0:0:
448,192,126618,1,0,0:0:0:0:
192,192,126703,1,0,0:0:0:0:
64,192,126703,1,0,0:0:0:0:
64,192,126788,1,0,0:0:0:0:
320,192,126873,1,0,0:0:0:0:
192,192,126958,1,0,0:0:0:0:
448,192,126958,1,0,0:0:0:0:
448,192,127043,1,0,0:0:0:0:
64,192,127128,1,0,0:0:0:0:
192,192,127213,1,0,0:0:0:0:
320,192,127213,1,0,0:0:0:0:
448,192,127213,1,0,0:0:0:0:
192,192,127298,1,0,0:0:0:0:
64,192,127383,1,0,0:0:0:0:
64,192,127468,1,0,0:0:0:0:
320,192,127468,1,0,0:0:0:0:
448,192,127468,1,0,0:0:0:0:
192,192,127553,1,0,0:0:0:0:
448,192,127638,1,0,0:0:0:0:
320,192,127723,1,0,0:0:0:0:
64,192,127723,1,0,0:0:0:0:
192,192,127808,1,0,0:0:0:0:
320,192,127893,1,0,0:0:0:0:
448,192,127978,1,0,0:0:0:0:
64,192,127978,1,0,0:0:0:0:
192,192,128063,1,0,0:0:0:0:
320,192,128148,1,0,0:0:0:0:
448,192,128233,1,0,0:0:0:0:
192,192,128233,1,0,0:0:0:0:
64,192,128318,1,0,0:0:0:0:
320,192,128403,1,0,0:0:0:0:
192,192,128489,1,0,0:0:0:0:
64,192,128489,1,0,0:0:0:0:
448,192,128574,1,0,0:0:0:0:
192,192,128659,1,0,0:0:0:0:
320,192,128744,1,0,0:0:0:0:
448,192,128744,1,0,0:0:0:0:
64,192,128829,1,0,0:0:0:0:
320,192,128914,1,0,0:0:0:0:
448,192,128999,1,0,0:0:0:0:
192,192,128999,1,0,0:0:0:0:
64,192,129084,1,0,0:0:0:0:
192,192,129169,1,0,0:0:0:0:
320,192,129254,1,0,0:0:0:0:
448,192,129254,1,0,0:0:0:0:
448,192,129339,1,0,0:0:0:0:
320,192,129424,1,0,0:0:0:0:
192,192,129509,1,0,0:0:0:0:
448,192,129509,1,0,0:0:0:0:
64,192,129509,1,0,0:0:0:0:
64,192,129594,1,0,0:0:0:0:
192,192,129679,1,0,0:0:0:0:
320,192,129764,1,0,0:0:0:0:
448,192,129764,1,0,0:0:0:0:
320,192,129849,1,0,0:0:0:0:
448,192,129934,1,0,0:0:0:0:
192,192,130019,1,0,0:0:0:0:
64,192,130019,1,0,0:0:0:0:
64,192,130104,1,0,0:0:0:0:
320,192,130189,1,0,0:0:0:0:
448,192,130274,1,0,0:0:0:0:
192,192,130274,1,0,0:0:0:0:
64,192,130359,1,0,0:0:0:0:
320,192,130444,128,0,130699:0:0:0:0:
192,192,130529,1,0,0:0:0:0:
64,192,130529,1,0,0:0:0:0:
448,192,130614,1,0,0:0:0:0:
192,192,130699,1,0,0:0:0:0:
64,192,130784,1,0,0:0:0:0:
448,192,130784,1,0,0:0:0:0:
320,192,130869,1,0,0:0:0:0:
64,192,130955,1,0,0:0:0:0:
448,192,131040,1,0,0:0:0:0:
320,192,131040,1,0,0:0:0:0:
320,192,131125,1,0,0:0:0:0:
192,192,131210,1,0,0:0:0:0:
64,192,131295,1,0,0:0:0:0:
448,192,131295,1,0,0:0:0:0:
64,192,131380,1,0,0:0:0:0:
320,192,131465,1,0,0:0:0:0:
64,192,131550,1,0,0:0:0:0:
192,192,131550,1,0,0:0:0:0:
448,192,131550,128,0,132060:0:0:0:0:
320,192,131635,1,0,0:0:0:0:
192,192,131720,1,0,0:0:0:0:
64,192,131805,1,0,0:0:0:0:
320,192,131805,1,0,0:0:0:0:
192,192,131890,1,0,0:0:0:0:
320,192,131975,1,0,0:0:0:0:
192,192,132060,1,0,0:0:0:0:
64,192,132060,1,0,0:0:0:0:
320,192,132145,1,0,0:0:0:0:
448,192,132230,1,0,0:0:0:0:
64,192,132315,1,0,0:0:0:0:
320,192,132315,1,0,0:0:0:0:
448,192,132400,1,0,0:0:0:0:
192,192,132485,1,0,0:0:0:0:
320,192,132570,1,0,0:0:0:0:
64,192,132570,128,0,133080:0:0:0:0:
448,192,132655,1,0,0:0:0:0:
192,192,132740,1,0,0:0:0:0:
320,192,132825,1,0,0:0:0:0:
448,192,132825,1,0,0:0:0:0:
192,192,132910,1,0,0:0:0:0:
320,192,132995,1,0,0:0:0:0:
192,192,133080,1,0,0:0:0:0:
448,192,133080,1,0,0:0:0:0:
320,192,133165,1,0,0:0:0:0:
64,192,133165,1,0,0:0:0:0:
448,192,133250,1,0,0:0:0:0:
192,192,133250,1,0,0:0:0:0:
320,192,133335,1,0,0:0:0:0:
64,192,133335,1,0,0:0:0:0:
448,192,133420,1,0,0:0:0:0:
192,192,133420,1,0,0:0:0:0:
320,192,133506,1,0,0:0:0:0:
64,192,133506,1,0,0:0:0:0:
448,192,133591,1,0,0:0:0:0:
192,192,133591,1,0,0:0:0:0:
320,192,133760,1,0,0:0:0:0:
192,192,133760,1,0,0:0:0:0:
64,192,133760,1,0,0:0:0:0:
64,192,133929,1,0,0:0:0:0:
192,192,133929,1,0,0:0:0:0:
448,192,133929,1,0,0:0:0:0:
448,192,134099,1,0,0:0:0:0:
64,192,134099,1,0,0:0:0:0:
320,192,134099,1,0,0:0:0:0:
320,192,134254,1,0,0:0:0:0:
192,192,134254,1,0,0:0:0:0:
448,192,134254,1,0,0:0:0:0:
192,192,134410,1,0,0:0:0:0:
64,192,134410,1,0,0:0:0:0:
448,192,134410,1,0,0:0:0:0:
64,192,134566,1,0,0:0:0:0:
448,192,134566,1,0,0:0:0:0:
320,192,134566,1,0,0:0:0:0:
320,192,134731,1,0,0:0:0:0:
192,192,134731,1,0,0:0:0:0:
64,192,134731,1,0,0:0:0:0:
448,192,134896,1,0,0:0:0:0:
320,192,134896,1,0,0:0:0:0:
64,192,134896,1,0,0:0:0:0:
320,192,135062,1,0,0:0:0:0:
64,192,135062,1,0,0:0:0:0:
448,192,135062,1,0,0:0:0:0:
192,192,135151,1,0,0:0:0:0:
320,192,135240,1,0,0:0:0:0:
448,192,135240,1,0,0:0:0:0:
192,192,135329,1,0,0:0:0:0:
64,192,135418,1,0,0:0:0:0:
448,192,135418,1,0,0:0:0:0:
192,192,135507,1,0,0:0:0:0:
320,192,135596,1,0,0:0:0:0:
448,192,135596,128,0,136142:0:0:0:0:
64,192,135717,1,0,0:0:0:0:
192,192,135802,1,0,0:0:0:0:
320,192,135887,1,0,0:0:0:0:
64,192,135887,1,0,0:0:0:0:
192,192,135972,1,0,0:0:0:0:
320,192,136057,1,0,0:0:0:0:
64,192,136142,1,0,0:0:0:0:
192,192,136142,1,0,0:0:0:0:
320,192,136227,1,0,0:0:0:0:
192,192,136312,1,0,0:0:0:0:
64,192,136312,1,0,0:0:0:0:
448,192,136397,1,0,0:0:0:0:
320,192,136482,1,0,0:0:0:0:
192,192,136482,1,0,0:0:0:0:
64,192,136567,1,0,0:0:0:0:
448,192,136652,1,0,0:0:0:0:
320,192,136652,1,0,0:0:0:0:
192,192,136737,1,0,0:0:0:0:
64,192,136822,1,0,0:0:0:0:
448,192,136907,1,0,0:0:0:0:
192,192,136907,1,0,0:0:0:0:
64,192,136992,1,0,0:0:0:0:
192,192,137077,1,0,0:0:0:0:
320,192,137162,1,0,0:0:0:0:
192,192,137162,128,0,137332:0:0:0:0:
448,192,137247,1,0,0:0:0:0:
64,192,137332,1,0,0:0:0:0:
320,192,137417,1,0,0:0:0:0:
448,192,137417,1,0,0:0:0:0:
192,192,137502,1,0,0:0:0:0:
320,192,137587,1,0,0:0:0:0:
64,192,137672,1,0,0:0:0:0:
320,192,137672,128,0,137927:0:0:0:0:
192,192,137757,1,0,0:0:0:0:
448,192,137842,1,0,0:0:0:0:
192,192,137927,1,0,0:0:0:0:
64,192,137927,1,0,0:0:0:0:
448,192,138012,1,0,0:0:0:0:
192,192,138097,1,0,0:0:0:0:
448,192,138183,1,0,0:0:0:0:
320,192,138183,1,0,0:0:0:0:
448,192,138268,1,0,0:0:0:0:
320,192,138353,1,0,0:0:0:0:
192,192,138438,1,0,0:0:0:0:
64,192,138438,1,0,0:0:0:0:
64,192,138523,1,0,0:0:0:0:
320,192,138608,1,0,0:0:0:0:
192,192,138693,1,0,0:0:0:0:
448,192,138693,1,0,0:0:0:0:
320,192,138778,1,0,0:0:0:0:
64,192,138863,1,0,0:0:0:0:
192,192,138948,1,0,0:0:0:0:
448,192,138948,1,0,0:0:0:0:
320,192,139033,1,0,0:0:0:0:
192,192,139118,1,0,0:0:0:0:
448,192,139203,1,0,0:0:0:0:
320,192,139203,1,0,0:0:0:0:
192,192,139288,1,0,0:0:0:0:
64,192,139288,1,0,0:0:0:0:
448,192,139373,1,0,0:0:0:0:
320,192,139373,1,0,0:0:0:0:
192,192,139458,1,0,0:0:0:0:
64,192,139458,1,0,0:0:0:0:
320,192,139543,1,0,0:0:0:0:
448,192,139543,1,0,0:0:0:0:
192,192,139628,1,0,0:0:0:0:
64,192,139628,1,0,0:0:0:0:
320,192,139713,128,0,139883:0:0:0:0:
448,192,139713,128,0,139968:0:0:0:0:
192,192,139798,1,0,0:0:0:0:
64,192,139883,1,0,0:0:0:0:
192,192,139968,1,0,0:0:0:0:
320,192,140053,1,0,0:0:0:0:
448,192,140138,1,0,0:0:0:0:
320,192,140223,1,0,0:0:0:0:
192,192,140223,1,0,0:0:0:0:
448,192,140308,1,0,0:0:0:0:
64,192,140308,1,0,0:0:0:0:
192,192,140393,1,0,0:0:0:0:
320,192,140393,1,0,0:0:0:0:
448,192,140478,1,0,0:0:0:0:
64,192,140478,1,0,0:0:0:0:
192,192,140563,1,0,0:0:0:0:
320,192,140563,1,0,0:0:0:0:
448,192,140649,1,0,0:0:0:0:
64,192,140649,1,0,0:0:0:0:
192,192,140734,128,0,140989:0:0:0:0:
320,192,140734,128,0,140904:0:0:0:0:
448,192,140819,1,0,0:0:0:0:
64,192,140904,1,0,0:0:0:0:
448,192,140989,1,0,0:0:0:0:
320,192,141074,1,0,0:0:0:0:
192,192,141159,1,0,0:0:0:0:
320,192,141244,1,0,0:0:0:0:
64,192,141244,1,0,0:0:0:0:
192,192,141329,1,0,0:0:0:0:
448,192,141329,1,0,0:0:0:0:
320,192,141414,1,0,0:0:0:0:
64,192,141414,1,0,0:0:0:0:
192,192,141499,1,0,0:0:0:0:
448,192,141499,1,0,0:0:0:0:
320,192,141584,1,0,0:0:0:0:
64,192,141584,1,0,0:0:0:0:
192,192,141669,1,0,0:0:0:0:
448,192,141669,1,0,0:0:0:0:
64,192,141754,1,0,0:0:0:0:
320,192,141754,1,0,0:0:0:0:
192,192,141839,1,0,0:0:0:0:
320,192,141924,1,0,0:0:0:0:
64,192,141924,1,0,0:0:0:0:
192,192,142009,1,0,0:0:0:0:
448,192,142009,1,0,0:0:0:0:
320,192,142094,1,0,0:0:0:0:
192,192,142179,1,0,0:0:0:0:
64,192,142179,1,0,0:0:0:0:
320,192,142264,1,0,0:0:0:0:
448,192,142264,1,0,0:0:0:0:
192,192,142349,1,0,0:0:0:0:
64,192,142349,1,0,0:0:0:0:
320,192,142434,1,0,0:0:0:0:
192,192,142519,1,0,0:0:0:0:
448,192,142519,1,0,0:0:0:0:
320,192,142604,1,0,0:0:0:0:
64,192,142604,1,0,0:0:0:0:
192,192,142689,1,0,0:0:0:0:
448,192,142774,1,0,0:0:0:0:
64,192,142774,1,0,0:0:0:0:
320,192,142859,1,0,0:0:0:0:
192,192,142859,1,0,0:0:0:0:
448,192,142944,1,0,0:0:0:0:
64,192,142944,1,0,0:0:0:0:
192,192,143029,1,0,0:0:0:0:
320,192,143029,1,0,0:0:0:0:
448,192,143114,1,0,0:0:0:0:
64,192,143114,1,0,0:0:0:0:
192,192,143200,1,0,0:0:0:0:
320,192,143285,1,0,0:0:0:0:
448,192,143285,128,0,143795:0:0:0:0:
64,192,143285,1,0,0:0:0:0:
192,192,143540,128,0,143795:0:0:0:0:
320,192,143795,1,0,0:0:0:0:
64,192,143795,1,0,0:0:0:0:
64,192,144050,1,0,0:0:0:0:
192,192,144050,1,0,0:0:0:0:
192,192,144305,1,0,0:0:0:0:
64,192,144305,1,0,0:0:0:0:
448,192,144433,128,0,144560:0:0:0:0:
192,192,144560,1,0,0:0:0:0:
64,192,144560,1,0,0:0:0:0:
320,192,144688,128,0,144815:0:0:0:0:
192,192,144815,1,0,0:0:0:0:
64,192,144815,1,0,0:0:0:0:
192,192,145070,1,0,0:0:0:0:
64,192,145070,1,0,0:0:0:0:
192,192,145325,1,0,0:0:0:0:
64,192,145325,1,0,0:0:0:0:
320,192,145453,128,0,145580:0:0:0:0:
192,192,145580,1,0,0:0:0:0:
64,192,145580,1,0,0:0:0:0:
448,192,145708,128,0,145836:0:0:0:0:
192,192,145836,1,0,0:0:0:0:
64,192,145836,1,0,0:0:0:0:
192,192,146091,1,0,0:0:0:0:
64,192,146091,1,0,0:0:0:0:
448,192,146218,128,0,146346:0:0:0:0:
192,192,146346,1,0,0:0:0:0:
64,192,146346,1,0,0:0:0:0:
320,192,146473,128,0,146601:0:0:0:0:
192,192,146601,1,0,0:0:0:0:
64,192,146601,1,0,0:0:0:0:
448,192,146728,128,0,146856:0:0:0:0:
192,192,146856,1,0,0:0:0:0:
64,192,146856,1,0,0:0:0:0:
320,192,146984,128,0,147111:0:0:0:0:
192,192,147111,1,0,0:0:0:0:
64,192,147111,1,0,0:0:0:0:
448,192,147239,128,0,147366:0:0:0:0:
192,192,147366,1,0,0:0:0:0:
64,192,147366,1,0,0:0:0:0:
320,192,147494,128,0,147621:0:0:0:0:
192,192,147621,1,0,0:0:0:0:
64,192,147621,1,0,0:0:0:0:
448,192,147749,128,0,147876:0:0:0:0:
192,192,147876,1,0,0:0:0:0:
64,192,147876,1,0,0:0:0:0:
320,192,148004,128,0,148132:0:0:0:0:
192,192,148132,1,0,0:0:0:0:
64,192,148132,1,0,0:0:0:0:
448,192,148259,128,0,148387:0:0:0:0:
192,192,148387,1,0,0:0:0:0:
64,192,148387,1,0,0:0:0:0:
320,192,148514,128,0,148642:0:0:0:0:
192,192,148642,1,0,0:0:0:0:
64,192,148642,1,0,0:0:0:0:
448,192,148769,128,0,148897:0:0:0:0:
192,192,148897,1,0,0:0:0:0:
64,192,148897,1,0,0:0:0:0:
192,192,149152,1,0,0:0:0:0:
64,192,149152,1,0,0:0:0:0:
192,192,149407,1,0,0:0:0:0:
64,192,149407,1,0,0:0:0:0:
192,192,149662,1,0,0:0:0:0:
64,192,149662,1,0,0:0:0:0:
448,192,149790,128,0,149917:0:0:0:0:
64,192,149917,1,0,0:0:0:0:
192,192,149917,1,0,0:0:0:0:
320,192,150045,128,0,150172:0:0:0:0:
192,192,150172,1,0,0:0:0:0:
64,192,150172,1,0,0:0:0:0:
448,192,150300,128,0,150427:0:0:0:0:
192,192,150427,1,0,0:0:0:0:
64,192,150427,1,0,0:0:0:0:
320,192,150555,128,0,150683:0:0:0:0:
64,192,150683,1,0,0:0:0:0:
192,192,150683,1,0,0:0:0:0:
448,192,150810,128,0,150938:0:0:0:0:
192,192,150938,1,0,0:0:0:0:
64,192,150938,1,0,0:0:0:0:
320,192,151001,1,0,0:0:0:0:
448,192,151065,1,0,0:0:0:0:
192,192,151065,1,0,0:0:0:0:
320,192,151129,1,0,0:0:0:0:
64,192,151193,1,0,0:0:0:0:
448,192,151193,1,0,0:0:0:0:
192,192,151257,1,0,0:0:0:0:
64,192,151320,1,0,0:0:0:0:
320,192,151320,1,0,0:0:0:0:
192,192,151384,1,0,0:0:0:0:
320,192,151448,1,0,0:0:0:0:
64,192,151448,128,0,151703:0:0:0:0:
448,192,151448,128,0,151703:0:0:0:0:
320,192,151703,128,0,151958:0:0:0:0:
192,192,151703,128,0,151916:0:0:0:0:
448,192,151958,1,0,0:0:0:0:
64,192,151958,1,0,0:0:0:0:
192,192,152001,1,0,0:0:0:0:
320,192,152043,1,0,0:0:0:0:
64,192,152086,1,0,0:0:0:0:
192,192,152128,1,0,0:0:0:0:
448,192,152171,1,0,0:0:0:0:
320,192,152213,1,0,0:0:0:0:
64,192,152213,1,0,0:0:0:0:
192,192,152256,1,0,0:0:0:0:
448,192,152298,1,0,0:0:0:0:
320,192,152341,1,0,0:0:0:0:
192,192,152383,1,0,0:0:0:0:
448,192,152426,1,0,0:0:0:0:
64,192,152468,1,0,0:0:0:0:
320,192,152468,1,0,0:0:0:0:
192,192,152511,1,0,0:0:0:0:
448,192,152553,1,0,0:0:0:0:
320,192,152596,1,0,0:0:0:0:
64,192,152638,1,0,0:0:0:0:
192,192,152681,1,0,0:0:0:0:
320,192,152723,1,0,0:0:0:0:
448,192,152723,1,0,0:0:0:0:
64,192,152766,1,0,0:0:0:0:
192,192,152808,1,0,0:0:0:0:
448,192,152851,1,0,0:0:0:0:
320,192,152893,1,0,0:0:0:0:
64,192,152936,1,0,0:0:0:0:
448,192,152978,1,0,0:0:0:0:
192,192,152978,1,0,0:0:0:0:
320,192,153021,1,0,0:0:0:0:
64,192,153063,1,0,0:0:0:0:
192,192,153106,1,0,0:0:0:0:
448,192,153149,1,0,0:0:0:0:
320,192,153191,1,0,0:0:0:0:
192,192,153234,1,0,0:0:0:0:
64,192,153234,1,0,0:0:0:0:
448,192,153276,1,0,0:0:0:0:
320,192,153319,1,0,0:0:0:0:
64,192,153361,1,0,0:0:0:0:
192,192,153404,1,0,0:0:0:0:
320,192,153446,1,0,0:0:0:0:
448,192,153489,1,0,0:0:0:0:
64,192,153489,1,0,0:0:0:0:
192,192,153531,1,0,0:0:0:0:
320,192,153574,1,0,0:0:0:0:
448,192,153616,1,0,0:0:0:0:
192,192,153659,1,0,0:0:0:0:
64,192,153701,1,0,0:0:0:0:
320,192,153744,1,0,0:0:0:0:
448,192,153744,1,0,0:0:0:0:
192,192,153786,1,0,0:0:0:0:
64,192,153829,1,0,0:0:0:0:
448,192,153871,1,0,0:0:0:0:
320,192,153914,1,0,0:0:0:0:
64,192,153956,1,0,0:0:0:0:
448,192,153999,1,0,0:0:0:0:
192,192,153999,1,0,0:0:0:0:
320,192,154126,1,0,0:0:0:0:
64,192,154126,1,0,0:0:0:0:
448,192,154254,1,0,0:0:0:0:
320,192,154254,1,0,0:0:0:0:
192,192,154254,1,0,0:0:0:0:
448,192,154382,1,0,0:0:0:0:
64,192,154382,1,0,0:0:0:0:
192,192,154509,1,0,0:0:0:0:
64,192,154509,1,0,0:0:0:0:
448,192,154509,1,0,0:0:0:0:
320,192,154637,1,0,0:0:0:0:
192,192,154637,1,0,0:0:0:0:
448,192,154764,1,0,0:0:0:0:
320,192,154764,1,0,0:0:0:0:
64,192,154764,1,0,0:0:0:0:
448,192,154892,1,0,0:0:0:0:
192,192,154892,1,0,0:0:0:0:
320,192,155019,1,0,0:0:0:0:
192,192,155019,1,0,0:0:0:0:
64,192,155019,1,0,0:0:0:0:
64,192,155147,1,0,0:0:0:0:
320,192,155147,1,0,0:0:0:0:
448,192,155274,1,0,0:0:0:0:
320,192,155274,1,0,0:0:0:0:
192,192,155274,1,0,0:0:0:0:
192,192,155402,1,0,0:0:0:0:
448,192,155402,1,0,0:0:0:0:
64,192,155529,1,0,0:0:0:0:
320,192,155529,1,0,0:0:0:0:
192,192,155529,1,0,0:0:0:0:
64,192,155657,1,0,0:0:0:0:
320,192,155657,1,0,0:0:0:0:
448,192,155785,1,0,0:0:0:0:
320,192,155785,1,0,0:0:0:0:
192,192,155785,1,0,0:0:0:0:
192,192,155912,1,0,0:0:0:0:
320,192,155912,1,0,0:0:0:0:
448,192,156040,1,0,0:0:0:0:
192,192,156040,1,0,0:0:0:0:
64,192,156040,1,0,0:0:0:0:
320,192,156082,1,0,0:0:0:0:
192,192,156125,1,0,0:0:0:0:
64,192,156167,1,0,0:0:0:0:
320,192,156210,1,0,0:0:0:0:
192,192,156252,1,0,0:0:0:0:
448,192,156295,1,0,0:0:0:0:
64,192,156295,1,0,0:0:0:0:
320,192,156337,1,0,0:0:0:0:
192,192,156380,1,0,0:0:0:0:
448,192,156422,1,0,0:0:0:0:
64,192,156465,1,0,0:0:0:0:
192,192,156507,1,0,0:0:0:0:
320,192,156550,1,0,0:0:0:0:
448,192,156550,1,0,0:0:0:0:
64,192,156592,1,0,0:0:0:0:
192,192,156635,1,0,0:0:0:0:
320,192,156677,1,0,0:0:0:0:
448,192,156720,1,0,0:0:0:0:
64,192,156762,1,0,0:0:0:0:
320,192,156805,1,0,0:0:0:0:
192,192,156805,1,0,0:0:0:0:
448,192,156847,1,0,0:0:0:0:
64,192,156890,1,0,0:0:0:0:
320,192,156933,1,0,0:0:0:0:
192,192,156975,1,0,0:0:0:0:
320,192,157018,1,0,0:0:0:0:
64,192,157060,1,0,0:0:0:0:
448,192,157060,1,0,0:0:0:0:
192,192,157103,1,0,0:0:0:0:
448,192,157145,1,0,0:0:0:0:
320,192,157188,1,0,0:0:0:0:
64,192,157230,1,0,0:0:0:0:
192,192,157273,1,0,0:0:0:0:
448,192,157315,1,0,0:0:0:0:
320,192,157315,1,0,0:0:0:0:
64,192,157358,1,0,0:0:0:0:
192,192,157400,1,0,0:0:0:0:
448,192,157443,1,0,0:0:0:0:
320,192,157485,1,0,0:0:0:0:
64,192,157528,1,0,0:0:0:0:
192,192,157570,1,0,0:0:0:0:
448,192,157570,1,0,0:0:0:0:
320,192,157613,1,0,0:0:0:0:
64,192,157655,1,0,0:0:0:0:
192,192,157698,1,0,0:0:0:0:
448,192,157740,1,0,0:0:0:0:
320,192,157783,1,0,0:0:0:0:
64,192,157825,1,0,0:0:0:0:
192,192,157825,1,0,0:0:0:0:
448,192,157868,1,0,0:0:0:0:
320,192,157910,1,0,0:0:0:0:
64,192,157953,1,0,0:0:0:0:
192,192,157995,1,0,0:0:0:0:
448,192,158038,1,0,0:0:0:0:
320,192,158080,1,0,0:0:0:0:
64,192,158080,1,0,0:0:0:0:
192,192,158080,1,0,0:0:0:0:
320,192,158208,1,0,0:0:0:0:
192,192,158208,1,0,0:0:0:0:
448,192,158336,1,0,0:0:0:0:
64,192,158336,1,0,0:0:0:0:
192,192,158336,1,0,0:0:0:0:
64,192,158463,1,0,0:0:0:0:
320,192,158463,1,0,0:0:0:0:
448,192,158463,1,0,0:0:0:0:
64,192,158591,1,0,0:0:0:0:
192,192,158591,1,0,0:0:0:0:
448,192,158591,1,0,0:0:0:0:
448,192,158718,1,0,0:0:0:0:
320,192,158718,1,0,0:0:0:0:
192,192,158718,1,0,0:0:0:0:
320,192,158846,1,0,0:0:0:0:
192,192,158846,1,0,0:0:0:0:
448,192,158973,1,0,0:0:0:0:
320,192,158973,1,0,0:0:0:0:
64,192,158973,1,0,0:0:0:0:
192,192,159101,1,0,0:0:0:0:
64,192,159101,1,0,0:0:0:0:
448,192,159101,1,0,0:0:0:0:
320,192,159165,1,0,0:0:0:0:
192,192,159228,1,0,0:0:0:0:
64,192,159228,1,0,0:0:0:0:
320,192,159292,1,0,0:0:0:0:
448,192,159292,1,0,0:0:0:0:
192,192,159356,1,0,0:0:0:0:
64,192,159356,1,0,0:0:0:0:
320,192,159420,1,0,0:0:0:0:
448,192,159420,1,0,0:0:0:0:
192,192,159484,1,0,0:0:0:0:
64,192,159484,1,0,0:0:0:0:
320,192,159547,1,0,0:0:0:0:
448,192,159611,1,0,0:0:0:0:
64,192,159611,1,0,0:0:0:0:
192,192,159675,1,0,0:0:0:0:
320,192,159739,1,0,0:0:0:0:
64,192,159739,1,0,0:0:0:0:
192,192,159802,1,0,0:0:0:0:
448,192,159866,1,0,0:0:0:0:
320,192,159866,1,0,0:0:0:0:
192,192,159930,1,0,0:0:0:0:
64,192,159994,1,0,0:0:0:0:
448,192,159994,1,0,0:0:0:0:
320,192,160058,1,0,0:0:0:0:
192,192,160121,1,0,0:0:0:0:
64,192,160121,1,0,0:0:0:0:
448,192,160121,1,0,0:0:0:0:
320,192,160164,1,0,0:0:0:0:
192,192,160206,1,0,0:0:0:0:
64,192,160249,1,0,0:0:0:0:
448,192,160249,1,0,0:0:0:0:
320,192,160291,1,0,0:0:0:0:
192,192,160334,1,0,0:0:0:0:
64,192,160376,1,0,0:0:0:0:
448,192,160376,1,0,0:0:0:0:
320,192,160440,1,0,0:0:0:0:
192,192,160504,1,0,0:0:0:0:
64,192,160504,1,0,0:0:0:0:
448,192,160568,1,0,0:0:0:0:
320,192,160632,1,0,0:0:0:0:
192,192,160632,1,0,0:0:0:0:
64,192,160695,1,0,0:0:0:0:
320,192,160759,1,0,0:0:0:0:
448,192,160759,1,0,0:0:0:0:
64,192,160823,1,0,0:0:0:0:
192,192,160887,1,0,0:0:0:0:
448,192,160887,1,0,0:0:0:0:
320,192,160950,1,0,0:0:0:0:
64,192,161014,1,0,0:0:0:0:
192,192,161014,1,0,0:0:0:0:
320,192,161078,1,0,0:0:0:0:
448,192,161142,1,0,0:0:0:0:
64,192,161142,1,0,0:0:0:0:
192,192,161205,1,0,0:0:0:0:
320,192,161269,1,0,0:0:0:0:
64,192,161333,1,0,0:0:0:0:
448,192,161397,1,0,0:0:0:0:
192,192,161397,1,0,0:0:0:0:
320,192,161461,1,0,0:0:0:0:
64,192,161524,1,0,0:0:0:0:
192,192,161588,1,0,0:0:0:0:
448,192,161652,1,0,0:0:0:0:
320,192,161652,1,0,0:0:0:0:
192,192,161716,1,0,0:0:0:0:
64,192,161779,1,0,0:0:0:0:
320,192,161843,1,0,0:0:0:0:
192,192,161907,1,0,0:0:0:0:
64,192,161907,1,0,0:0:0:0:
448,192,161971,1,0,0:0:0:0:
320,192,162035,1,0,0:0:0:0:
192,192,162098,1,0,0:0:0:0:
64,192,162162,1,0,0:0:0:0:
448,192,162162,1,0,0:0:0:0:
320,192,162162,1,0,0:0:0:0:
192,192,162205,1,0,0:0:0:0:
320,192,162247,1,0,0:0:0:0:
448,192,162290,1,0,0:0:0:0:
64,192,162290,1,0,0:0:0:0:
192,192,162332,1,0,0:0:0:0:
320,192,162375,1,0,0:0:0:0:
448,192,162417,1,0,0:0:0:0:
64,192,162417,1,0,0:0:0:0:
192,192,162481,1,0,0:0:0:0:
320,192,162545,1,0,0:0:0:0:
64,192,162545,1,0,0:0:0:0:
192,192,162609,1,0,0:0:0:0:
448,192,162672,1,0,0:0:0:0:
320,192,162672,1,0,0:0:0:0:
64,192,162736,1,0,0:0:0:0:
192,192,162800,1,0,0:0:0:0:
448,192,162800,1,0,0:0:0:0:
320,192,162864,1,0,0:0:0:0:
64,192,162927,1,0,0:0:0:0:
192,192,162927,1,0,0:0:0:0:
448,192,162991,1,0,0:0:0:0:
320,192,163055,1,0,0:0:0:0:
64,192,163055,1,0,0:0:0:0:
192,192,163119,1,0,0:0:0:0:
448,192,163183,1,0,0:0:0:0:
320,192,163183,1,0,0:0:0:0:
64,192,163246,1,0,0:0:0:0:
192,192,163310,1,0,0:0:0:0:
448,192,163374,1,0,0:0:0:0:
320,192,163438,1,0,0:0:0:0:
64,192,163438,1,0,0:0:0:0:
192,192,163501,1,0,0:0:0:0:
448,192,163565,1,0,0:0:0:0:
320,192,163629,1,0,0:0:0:0:
192,192,163693,1,0,0:0:0:0:
64,192,163693,1,0,0:0:0:0:
448,192,163757,1,0,0:0:0:0:
320,192,163820,1,0,0:0:0:0:
192,192,163884,1,0,0:0:0:0:
448,192,163948,1,0,0:0:0:0:
64,192,163948,1,0,0:0:0:0:
320,192,164012,1,0,0:0:0:0:
192,192,164075,1,0,0:0:0:0:
448,192,164139,1,0,0:0:0:0:
192,192,164203,1,0,0:0:0:0:
64,192,164203,128,0,164458:0:0:0:0:
320,192,164203,1,0,0:0:0:0:
448,192,164267,1,0,0:0:0:0:
192,192,164330,128,0,164458:0:0:0:0:
320,192,164330,1,0,0:0:0:0:
448,192,164394,1,0,0:0:0:0:
320,192,164458,128,0,164713:0:0:0:0:
448,192,164586,128,0,164713:0:0:0:0:
192,192,164586,1,0,0:0:0:0:
64,192,164649,1,0,0:0:0:0:
192,192,164713,128,0,164968:0:0:0:0:
64,192,164841,128,0,164968:0:0:0:0:
448,192,164841,1,0,0:0:0:0:
320,192,164904,1,0,0:0:0:0:
448,192,164968,128,0,165223:0:0:0:0:
320,192,165096,128,0,165223:0:0:0:0:
64,192,165096,1,0,0:0:0:0:
192,192,165160,1,0,0:0:0:0:
64,192,165223,128,0,165478:0:0:0:0:
192,192,165351,128,0,165478:0:0:0:0:
448,192,165351,1,0,0:0:0:0:
320,192,165415,1,0,0:0:0:0:
448,192,165478,128,0,165734:0:0:0:0:
320,192,165606,128,0,165734:0:0:0:0:
192,192,165606,1,0,0:0:0:0:
64,192,165670,1,0,0:0:0:0:
192,192,165734,128,0,165989:0:0:0:0:
64,192,165861,128,0,165989:0:0:0:0:
320,192,165861,1,0,0:0:0:0:
448,192,165925,1,0,0:0:0:0:
320,192,165989,128,0,166244:0:0:0:0:
448,192,166116,128,0,166244:0:0:0:0:
64,192,166116,1,0,0:0:0:0:
192,192,166180,1,0,0:0:0:0:
64,192,166244,128,0,166499:0:0:0:0:
192,192,166308,1,0,0:0:0:0:
448,192,166371,128,0,166626:0:0:0:0:
320,192,166371,1,0,0:0:0:0:
192,192,166499,128,0,166754:0:0:0:0:
320,192,166499,1,0,0:0:0:0:
320,192,166626,128,0,166882:0:0:0:0:
64,192,166626,1,0,0:0:0:0:
64,192,166754,128,0,167009:0:0:0:0:
448,192,166754,1,0,0:0:0:0:
448,192,166882,128,0,167137:0:0:0:0:
192,192,166882,1,0,0:0:0:0:
192,192,167009,128,0,167264:0:0:0:0:
320,192,167009,1,0,0:0:0:0:
320,192,167137,128,0,167392:0:0:0:0:
64,192,167137,1,0,0:0:0:0:
64,192,167264,128,0,167519:0:0:0:0:
448,192,167264,1,0,0:0:0:0:
448,192,167392,128,0,167647:0:0:0:0:
192,192,167392,1,0,0:0:0:0:
320,192,167519,128,0,167774:0:0:0:0:
192,192,167519,1,0,0:0:0:0:
64,192,167647,1,0,0:0:0:0:
192,192,167711,1,0,0:0:0:0:
448,192,167774,128,0,168285:0:0:0:0:
64,192,167774,1,0,0:0:0:0:
64,192,167902,1,0,0:0:0:0:
320,192,167902,1,0,0:0:0:0:
192,192,167966,1,0,0:0:0:0:
64,192,168029,1,0,0:0:0:0:
320,192,168029,1,0,0:0:0:0:
192,192,168093,1,0,0:0:0:0:
64,192,168157,1,0,0:0:0:0:
320,192,168157,1,0,0:0:0:0:
192,192,168221,1,0,0:0:0:0:
64,192,168285,1,0,0:0:0:0:
320,192,168285,1,0,0:0:0:0:
192,192,168327,1,0,0:0:0:0:
320,192,168370,1,0,0:0:0:0:
448,192,168412,1,0,0:0:0:0:
64,192,168412,1,0,0:0:0:0:
192,192,168455,1,0,0:0:0:0:
320,192,168497,1,0,0:0:0:0:
448,192,168540,1,0,0:0:0:0:
64,192,168540,1,0,0:0:0:0:
192,192,168603,1,0,0:0:0:0:
320,192,168667,1,0,0:0:0:0:
64,192,168667,1,0,0:0:0:0:
448,192,168731,1,0,0:0:0:0:
192,192,168795,1,0,0:0:0:0:
320,192,168795,1,0,0:0:0:0:
64,192,168859,1,0,0:0:0:0:
448,192,168922,1,0,0:0:0:0:
192,192,168922,1,0,0:0:0:0:
320,192,168986,1,0,0:0:0:0:
64,192,169050,1,0,0:0:0:0:
192,192,169050,1,0,0:0:0:0:
448,192,169114,1,0,0:0:0:0:
320,192,169177,1,0,0:0:0:0:
64,192,169177,1,0,0:0:0:0:
192,192,169241,1,0,0:0:0:0:
448,192,169305,1,0,0:0:0:0:
320,192,169305,1,0,0:0:0:0:
64,192,169305,1,0,0:0:0:0:
192,192,169369,1,0,0:0:0:0:
320,192,169433,1,0,0:0:0:0:
448,192,169496,1,0,0:0:0:0:
192,192,169560,1,0,0:0:0:0:
64,192,169560,1,0,0:0:0:0:
320,192,169624,1,0,0:0:0:0:
64,192,169688,1,0,0:0:0:0:
192,192,169751,1,0,0:0:0:0:
64,192,169815,1,0,0:0:0:0:
448,192,169815,1,0,0:0:0:0:
320,192,169879,1,0,0:0:0:0:
192,192,169943,1,0,0:0:0:0:
448,192,170007,1,0,0:0:0:0:
320,192,170070,1,0,0:0:0:0:
64,192,170070,1,0,0:0:0:0:
192,192,170134,1,0,0:0:0:0:
64,192,170198,1,0,0:0:0:0:
448,192,170198,1,0,0:0:0:0:
320,192,170262,1,0,0:0:0:0:
448,192,170325,1,0,0:0:0:0:
192,192,170325,1,0,0:0:0:0:
64,192,170325,1,0,0:0:0:0:
320,192,170368,1,0,0:0:0:0:
192,192,170410,1,0,0:0:0:0:
64,192,170453,1,0,0:0:0:0:
448,192,170453,1,0,0:0:0:0:
320,192,170495,1,0,0:0:0:0:
192,192,170538,1,0,0:0:0:0:
64,192,170580,1,0,0:0:0:0:
448,192,170580,1,0,0:0:0:0:
320,192,170644,1,0,0:0:0:0:
192,192,170708,1,0,0:0:0:0:
64,192,170708,1,0,0:0:0:0:
448,192,170772,1,0,0:0:0:0:
320,192,170836,1,0,0:0:0:0:
192,192,170836,1,0,0:0:0:0:
448,192,170899,1,0,0:0:0:0:
64,192,170963,1,0,0:0:0:0:
320,192,170963,1,0,0:0:0:0:
192,192,171027,1,0,0:0:0:0:
448,192,171091,1,0,0:0:0:0:
64,192,171091,1,0,0:0:0:0:
320,192,171154,1,0,0:0:0:0:
192,192,171218,1,0,0:0:0:0:
448,192,171218,1,0,0:0:0:0:
64,192,171282,1,0,0:0:0:0:
192,192,171346,1,0,0:0:0:0:
320,192,171346,1,0,0:0:0:0:
448,192,171410,1,0,0:0:0:0:
64,192,171473,1,0,0:0:0:0:
320,192,171537,1,0,0:0:0:0:
192,192,171601,1,0,0:0:0:0:
64,192,171601,1,0,0:0:0:0:
448,192,171665,1,0,0:0:0:0:
320,192,171728,1,0,0:0:0:0:
64,192,171792,1,0,0:0:0:0:
192,192,171856,1,0,0:0:0:0:
448,192,171856,1,0,0:0:0:0:
320,192,171920,1,0,0:0:0:0:
192,192,171984,1,0,0:0:0:0:
64,192,172047,1,0,0:0:0:0:
448,192,172111,1,0,0:0:0:0:
320,192,172111,1,0,0:0:0:0:
192,192,172175,1,0,0:0:0:0:
64,192,172239,1,0,0:0:0:0:
320,192,172239,1,0,0:0:0:0:
192,192,172302,1,0,0:0:0:0:
320,192,172366,1,0,0:0:0:0:
448,192,172366,1,0,0:0:0:0:
64,192,172430,1,0,0:0:0:0:
192,192,172494,1,0,0:0:0:0:
448,192,172494,1,0,0:0:0:0:
320,192,172558,1,0,0:0:0:0:
64,192,172621,1,0,0:0:0:0:
192,192,172621,1,0,0:0:0:0:
448,192,172685,1,0,0:0:0:0:
320,192,172749,1,0,0:0:0:0:
64,192,172749,1,0,0:0:0:0:
192,192,172813,1,0,0:0:0:0:
320,192,172876,1,0,0:0:0:0:
448,192,172876,1,0,0:0:0:0:
64,192,172940,1,0,0:0:0:0:
192,192,173004,1,0,0:0:0:0:
448,192,173004,1,0,0:0:0:0:
320,192,173068,1,0,0:0:0:0:
64,192,173132,1,0,0:0:0:0:
192,192,173132,1,0,0:0:0:0:
448,192,173195,1,0,0:0:0:0:
320,192,173259,1,0,0:0:0:0:
64,192,173259,1,0,0:0:0:0:
192,192,173323,1,0,0:0:0:0:
320,192,173387,1,0,0:0:0:0:
64,192,173387,128,0,173514:0:0:0:0:
448,192,173387,128,0,173514:0:0:0:0:
320,192,173642,128,0,173833:0:0:0:0:
192,192,173897,128,0,174088:0:0:0:0:
320,192,174152,128,0,174407:0:0:0:0:
192,192,174407,1,0,0:0:0:0:
64,192,174407,1,0,0:0:0:0:
448,192,174407,128,0,174471:0:0:0:0:
192,192,174535,1,0,0:0:0:0:
320,192,174598,1,0,0:0:0:0:
448,192,174662,1,0,0:0:0:0:
192,192,174662,1,0,0:0:0:0:
64,192,174662,128,0,174726:0:0:0:0:
320,192,174790,1,0,0:0:0:0:
192,192,174853,1,0,0:0:0:0:
64,192,174917,1,0,0:0:0:0:
320,192,174917,1,0,0:0:0:0:
448,192,174917,128,0,175172:0:0:0:0:
192,192,175045,1,0,0:0:0:0:
320,192,175045,1,0,0:0:0:0:
192,192,175172,1,0,0:0:0:0:
64,192,175172,128,0,175236:0:0:0:0:
320,192,175300,1,0,0:0:0:0:
192,192,175300,128,0,175555:0:0:0:0:
448,192,175427,1,0,0:0:0:0:
320,192,175427,1,0,0:0:0:0:
64,192,175427,1,0,0:0:0:0:
448,192,175555,1,0,0:0:0:0:
64,192,175555,1,0,0:0:0:0:
320,192,175683,1,0,0:0:0:0:
192,192,175683,1,0,0:0:0:0:
192,192,175810,128,0,176065:0:0:0:0:
64,192,175810,128,0,176065:0:0:0:0:
320,192,175938,128,0,176001:0:0:0:0:
448,192,175938,128,0,176001:0:0:0:0:
320,192,176065,1,0,0:0:0:0:
448,192,176065,1,0,0:0:0:0:
192,192,176193,1,0,0:0:0:0:
64,192,176193,1,0,0:0:0:0:
192,192,176320,1,0,0:0:0:0:
448,192,176320,1,0,0:0:0:0:
64,192,176384,1,0,0:0:0:0:
448,192,176448,1,0,0:0:0:0:
320,192,176448,1,0,0:0:0:0:
192,192,176448,128,0,176512:0:0:0:0:
448,192,176575,1,0,0:0:0:0:
320,192,176639,1,0,0:0:0:0:
192,192,176703,1,0,0:0:0:0:
64,192,176703,1,0,0:0:0:0:
448,192,176703,128,0,176767:0:0:0:0:
64,192,176830,1,0,0:0:0:0:
192,192,176894,1,0,0:0:0:0:
448,192,176958,1,0,0:0:0:0:
320,192,176958,1,0,0:0:0:0:
64,192,176958,128,0,177213:0:0:0:0:
192,192,177086,1,0,0:0:0:0:
320,192,177086,1,0,0:0:0:0:
320,192,177213,1,0,0:0:0:0:
448,192,177213,1,0,0:0:0:0:
448,192,177341,128,0,177596:0:0:0:0:
192,192,177341,128,0,177596:0:0:0:0:
64,192,177341,1,0,0:0:0:0:
320,192,177468,1,0,0:0:0:0:
64,192,177468,1,0,0:0:0:0:
320,192,177596,1,0,0:0:0:0:
64,192,177723,1,0,0:0:0:0:
448,192,177723,128,0,177851:0:0:0:0:
192,192,177723,1,0,0:0:0:0:
320,192,177851,1,0,0:0:0:0:
64,192,177851,128,0,177978:0:0:0:0:
448,192,177978,1,0,0:0:0:0:
320,192,177978,128,0,178106:0:0:0:0:
448,192,178106,1,0,0:0:0:0:
192,192,178106,128,0,178234:0:0:0:0:
320,192,178234,1,0,0:0:0:0:
64,192,178234,128,0,178489:0:0:0:0:
448,192,178234,128,0,178489:0:0:0:0:
320,192,178361,128,0,178425:0:0:0:0:
192,192,178361,1,0,0:0:0:0:
192,192,178489,128,0,178552:0:0:0:0:
64,192,178616,1,0,0:0:0:0:
320,192,178680,1,0,0:0:0:0:
448,192,178744,1,0,0:0:0:0:
192,192,178744,1,0,0:0:0:0:
64,192,178744,128,0,178808:0:0:0:0:
448,192,178871,1,0,0:0:0:0:
192,192,178935,1,0,0:0:0:0:
64,192,178999,1,0,0:0:0:0:
448,192,178999,1,0,0:0:0:0:
320,192,178999,128,0,179254:0:0:0:0:
64,192,179126,1,0,0:0:0:0:
192,192,179126,1,0,0:0:0:0:
192,192,179254,1,0,0:0:0:0:
448,192,179254,1,0,0:0:0:0:
448,192,179382,128,0,179637:0:0:0:0:
192,192,179382,1,0,0:0:0:0:
64,192,179382,1,0,0:0:0:0:
320,192,179509,1,0,0:0:0:0:
192,192,179509,1,0,0:0:0:0:
64,192,179637,1,0,0:0:0:0:
320,192,179637,1,0,0:0:0:0:
448,192,179764,1,0,0:0:0:0:
192,192,179764,1,0,0:0:0:0:
448,192,179892,128,0,180147:0:0:0:0:
320,192,179892,128,0,180147:0:0:0:0:
192,192,180019,128,0,180083:0:0:0:0:
64,192,180019,128,0,180083:0:0:0:0:
192,192,180147,1,0,0:0:0:0:
64,192,180147,1,0,0:0:0:0:
320,192,180274,1,0,0:0:0:0:
192,192,180274,128,0,180338:0:0:0:0:
448,192,180402,1,0,0:0:0:0:
320,192,180466,1,0,0:0:0:0:
192,192,180529,1,0,0:0:0:0:
64,192,180529,1,0,0:0:0:0:
448,192,180529,128,0,180593:0:0:0:0:
64,192,180657,1,0,0:0:0:0:
448,192,180721,1,0,0:0:0:0:
192,192,180785,1,0,0:0:0:0:
320,192,180785,1,0,0:0:0:0:
64,192,180785,128,0,180848:0:0:0:0:
448,192,180912,1,0,0:0:0:0:
64,192,180976,1,0,0:0:0:0:
192,192,181040,1,0,0:0:0:0:
320,192,181040,1,0,0:0:0:0:
448,192,181040,128,0,181295:0:0:0:0:
320,192,181167,1,0,0:0:0:0:
64,192,181167,1,0,0:0:0:0:
192,192,181295,1,0,0:0:0:0:
64,192,181295,128,0,181422:0:0:0:0:
320,192,181422,128,0,181677:0:0:0:0:
192,192,181422,1,0,0:0:0:0:
448,192,181550,1,0,0:0:0:0:
64,192,181550,1,0,0:0:0:0:
192,192,181614,1,0,0:0:0:0:
448,192,181677,1,0,0:0:0:0:
64,192,181677,1,0,0:0:0:0:
192,192,181741,1,0,0:0:0:0:
448,192,181805,1,0,0:0:0:0:
320,192,181805,1,0,0:0:0:0:
192,192,181869,1,0,0:0:0:0:
64,192,181933,1,0,0:0:0:0:
320,192,181996,1,0,0:0:0:0:
448,192,182060,1,0,0:0:0:0:
192,192,182060,1,0,0:0:0:0:
64,192,182124,1,0,0:0:0:0:
320,192,182188,1,0,0:0:0:0:
448,192,182188,1,0,0:0:0:0:
192,192,182251,1,0,0:0:0:0:
64,192,182315,128,0,182507:0:0:0:0:
320,192,182315,128,0,182507:0:0:0:0:
192,192,182570,1,0,0:0:0:0:
320,192,182570,1,0,0:0:0:0:
448,192,182570,1,0,0:0:0:0:
448,192,182698,1,0,0:0:0:0:
320,192,182698,1,0,0:0:0:0:
192,192,182698,1,0,0:0:0:0:
192,192,182825,1,0,0:0:0:0:
320,192,182825,1,0,0:0:0:0:
448,192,182825,1,0,0:0:0:0:
320,192,182953,1,0,0:0:0:0:
192,192,182953,1,0,0:0:0:0:
64,192,182953,1,0,0:0:0:0:
192,192,183080,1,0,0:0:0:0:
64,192,183080,1,0,0:0:0:0:
320,192,183080,1,0,0:0:0:0:
320,192,183208,1,0,0:0:0:0:
192,192,183208,1,0,0:0:0:0:
64,192,183208,1,0,0:0:0:0:
64,192,183336,1,0,0:0:0:0:
448,192,183336,1,0,0:0:0:0:
192,192,183336,1,0,0:0:0:0:
448,192,183463,1,0,0:0:0:0:
192,192,183463,1,0,0:0:0:0:
64,192,183463,1,0,0:0:0:0:
448,192,183591,1,0,0:0:0:0:
192,192,183591,1,0,0:0:0:0:
64,192,183591,1,0,0:0:0:0:
448,192,183718,1,0,0:0:0:0:
320,192,183718,1,0,0:0:0:0:
64,192,183718,1,0,0:0:0:0:
64,192,183846,1,0,0:0:0:0:
320,192,183846,1,0,0:0:0:0:
448,192,183846,1,0,0:0:0:0:
64,192,183973,1,0,0:0:0:0:
320,192,183973,1,0,0:0:0:0:
448,192,183973,1,0,0:0:0:0:
192,192,184101,1,0,0:0:0:0:
320,192,184101,1,0,0:0:0:0:
64,192,184101,1,0,0:0:0:0:
320,192,184228,1,0,0:0:0:0:
192,192,184228,1,0,0:0:0:0:
64,192,184228,1,0,0:0:0:0:
64,192,184356,1,0,0:0:0:0:
192,192,184356,1,0,0:0:0:0:
320,192,184356,1,0,0:0:0:0:
448,192,184484,1,0,0:0:0:0:
192,192,184484,1,0,0:0:0:0:
320,192,184484,1,0,0:0:0:0:
192,192,184611,1,0,0:0:0:0:
320,192,184611,1,0,0:0:0:0:
448,192,184611,1,0,0:0:0:0:
448,192,184739,1,0,0:0:0:0:
320,192,184739,1,0,0:0:0:0:
192,192,184739,1,0,0:0:0:0:
320,192,184866,1,0,0:0:0:0:
448,192,184866,1,0,0:0:0:0:
64,192,184866,1,0,0:0:0:0:
64,192,184994,1,0,0:0:0:0:
320,192,184994,1,0,0:0:0:0:
448,192,184994,1,0,0:0:0:0:
448,192,185121,1,0,0:0:0:0:
320,192,185121,1,0,0:0:0:0:
64,192,185121,1,0,0:0:0:0:
64,192,185249,1,0,0:0:0:0:
192,192,185249,1,0,0:0:0:0:
448,192,185249,1,0,0:0:0:0:
448,192,185376,1,0,0:0:0:0:
192,192,185376,1,0,0:0:0:0:
64,192,185376,1,0,0:0:0:0:
64,192,185504,1,0,0:0:0:0:
192,192,185504,1,0,0:0:0:0:
448,192,185504,1,0,0:0:0:0:
320,192,185632,1,0,0:0:0:0:
448,192,185632,1,0,0:0:0:0:
64,192,185632,1,0,0:0:0:0:
64,192,185759,1,0,0:0:0:0:
320,192,185759,1,0,0:0:0:0:
448,192,185759,1,0,0:0:0:0:
448,192,185887,1,0,0:0:0:0:
320,192,185887,1,0,0:0:0:0:
64,192,185887,1,0,0:0:0:0:
320,192,186014,1,0,0:0:0:0:
192,192,186014,1,0,0:0:0:0:
64,192,186014,1,0,0:0:0:0:
320,192,186142,1,0,0:0:0:0:
192,192,186142,1,0,0:0:0:0:
64,192,186142,1,0,0:0:0:0:
64,192,186269,1,0,0:0:0:0:
192,192,186269,1,0,0:0:0:0:
320,192,186269,1,0,0:0:0:0:
448,192,186397,1,0,0:0:0:0:
192,192,186397,1,0,0:0:0:0:
64,192,186397,1,0,0:0:0:0:
64,192,186524,1,0,0:0:0:0:
192,192,186524,1,0,0:0:0:0:
448,192,186524,1,0,0:0:0:0:
448,192,186652,1,0,0:0:0:0:
192,192,186652,1,0,0:0:0:0:
64,192,186652,1,0,0:0:0:0:
448,192,186779,1,0,0:0:0:0:
320,192,186779,1,0,0:0:0:0:
192,192,186779,1,0,0:0:0:0:
192,192,186907,1,0,0:0:0:0:
320,192,186907,1,0,0:0:0:0:
448,192,186907,1,0,0:0:0:0:
448,192,187035,1,0,0:0:0:0:
320,192,187035,1,0,0:0:0:0:
192,192,187035,1,0,0:0:0:0:
64,192,187162,1,0,0:0:0:0:
192,192,187162,1,0,0:0:0:0:
320,192,187162,1,0,0:0:0:0:
320,192,187290,1,0,0:0:0:0:
192,192,187290,1,0,0:0:0:0:
64,192,187290,1,0,0:0:0:0:
64,192,187417,1,0,0:0:0:0:
192,192,187417,1,0,0:0:0:0:
320,192,187417,1,0,0:0:0:0:
448,192,187545,1,0,0:0:0:0:
192,192,187545,1,0,0:0:0:0:
64,192,187545,1,0,0:0:0:0:
64,192,187672,1,0,0:0:0:0:
192,192,187672,1,0,0:0:0:0:
448,192,187672,1,0,0:0:0:0:
448,192,187800,1,0,0:0:0:0:
192,192,187800,1,0,0:0:0:0:
64,192,187800,1,0,0:0:0:0:
448,192,187927,1,0,0:0:0:0:
320,192,187927,1,0,0:0:0:0:
192,192,187927,1,0,0:0:0:0:
192,192,188055,1,0,0:0:0:0:
320,192,188055,1,0,0:0:0:0:
448,192,188055,1,0,0:0:0:0:
448,192,188183,1,0,0:0:0:0:
320,192,188183,1,0,0:0:0:0:
192,192,188183,1,0,0:0:0:0:
64,192,188310,128,0,188438:0:0:0:0:
448,192,188310,128,0,188438:0:0:0:0:
192,192,188310,128,0,188438:0:0:0:0:
