osu file format v14

[General]
AudioFilename: audio.mp3
AudioLeadIn: 0
PreviewTime: 128581
Countdown: 1
SampleSet: None
StackLeniency: 0.7
Mode: 0
LetterboxInBreaks: 0
WidescreenStoryboard: 0

[Editor]
Bookmarks: 11356,12556,23356,42556,61756,71356,90556,109756,111556,119356,122956,128956,138556,148156,167356,176956,196156
DistanceSpacing: 1.1
BeatDivisor: 4
GridSize: 16
TimelineZoom: 2.750003

[Metadata]
Title:Heavy Rain
TitleUnicode:激しい雨
Artist:Bentham
ArtistUnicode:Bentham
Creator:Timu
Version:I miss you
Source:
Tags:J-Pop
BeatmapID:2099929
BeatmapSetID:1003340

[Difficulty]
HPDrainRate:6
CircleSize:3.5
OverallDifficulty:8
ApproachRate:9.7
SliderMultiplier:1.8
SliderTickRate:1

[Events]
//Background and Video events
0,0,"Konachan.com - 284676 sample.jpg",0,0
//Break Periods
//Storyboard Layer 0 (Background)
//Storyboard Layer 1 (Fail)
//Storyboard Layer 2 (Pass)
//Storyboard Layer 3 (Foreground)
//Storyboard Layer 4 (Overlay)
//Storyboard Sound Samples

[TimingPoints]
4156,300,4,2,0,100,1,0
4156,-1000,4,3,0,100,0,0
5056,-399.999999999997,4,3,0,100,0,0
7456,-200,4,3,0,100,0,0
8956,-133.333333333333,4,3,0,100,0,0
12556,-100,4,3,0,100,0,1
22156,-66.6666666666667,4,3,0,100,0,0
23356,-133.333333333333,4,3,0,100,0,0
41356,-100,4,3,0,100,0,0
60556,-79.9999999999999,4,3,0,100,0,0
61756,-133.333333333333,4,3,0,100,0,0
71356,-66.6666666666667,4,3,0,100,0,1
89956,-100,4,3,0,100,0,1
90556,-79.9999999999999,4,3,0,100,0,0
109756,-100,4,3,0,100,0,0
116956,-79.9999999999999,4,3,0,100,0,0
126556,-133.333333333333,4,3,0,100,0,0
128956,-66.6666666666667,4,3,0,100,0,1
148156,-100,4,3,0,100,0,0
152956,-66.6666666666667,4,3,0,100,0,0
167356,-57.1428571428571,4,3,0,100,0,1
176956,-100,4,3,0,100,0,0
180556,-133.333333333333,4,3,0,100,0,0
195856,-1000,4,3,0,5,0,0

[HitObjects]
166,303,4156,6,0,P|153:268|144:251,1,54
254,14,5206,2,0,P|242:44|232:128,1,112.5
349,194,6256,1,0,0:0:0:0:
216,307,6556,2,0,P|211:280|188:213,1,90
212,34,7456,2,0,P|205:62|192:91,1,45
356,171,8356,5,0,0:0:0:0:
218,211,8656,1,0,0:0:0:0:
368,264,8956,2,0,B|360:195|360:195|315:126,1,135.000005149842
190,272,9406,1,0,0:0:0:0:
371,122,9556,1,0,0:0:0:0:
110,158,9706,1,0,0:0:0:0:
209,65,9856,2,0,P|226:159|241:200,1,135.000005149842
359,104,10306,5,0,0:0:0:0:
221,217,10456,2,0,P|206:262|200:299,1,67.5000025749208
294,272,10756,2,0,P|279:317|273:354,1,67.5000025749208
370,320,11056,2,0,P|355:365|349:402,1,67.5000025749208
282,31,11356,5,2,0:0:0:0:
183,120,12556,5,2,0:0:0:0:
200,161,12631,1,2,0:0:0:0:
222,205,12706,1,2,0:0:0:0:
254,234,12781,1,0,0:0:0:0:
297,281,12856,2,0,P|299:233|290:202,1,45
256,74,13006,2,0,P|249:120|253:137,1,45
363,214,13156,2,0,P|355:166|341:137,1,45
142,118,13306,5,0,0:0:0:0:
326,293,13456,1,8,0:0:0:0:
368,307,13531,1,8,0:0:0:0:
411,296,13606,1,8,0:0:0:0:
442,265,13681,1,8,0:0:0:0:
452,221,13756,1,8,0:0:0:0:
281,108,13906,5,0,0:0:0:0:
183,169,14056,1,8,0:0:0:0:
340,174,14206,5,0,0:0:0:0:
120,95,14356,1,8,0:0:0:0:
323,257,14506,5,0,0:0:0:0:
220,31,14656,1,8,0:0:0:0:
145,262,14806,5,0,0:0:0:0:
336,17,14956,1,8,0:0:0:0:
246,353,15106,5,0,0:0:0:0:
156,38,15256,1,8,0:0:0:0:
382,251,15406,5,0,0:0:0:0:
209,26,15556,1,8,0:0:0:0:
283,321,15706,5,0,0:0:0:0:
178,11,15856,1,8,0:0:0:0:
337,283,16006,1,0,0:0:0:0:
76,284,16156,5,8,0:0:0:0:
155,179,16306,1,0,0:0:0:0:
158,345,16456,1,8,0:0:0:0:
55,129,16606,1,0,0:0:0:0:
255,258,16756,5,8,0:0:0:0:
2,293,16906,1,0,0:0:0:0:
240,118,17056,5,8,0:0:0:0:
98,379,17206,1,0,0:0:0:0:
126,31,17356,5,8,0:0:0:0:
197,336,17506,1,0,0:0:0:0:
27,41,17656,5,8,0:0:0:0:
241,304,17806,1,0,0:0:0:0:
428,153,17956,6,8,P|376:182|365:184,2,45
308,72,18256,1,0,0:0:0:0:
396,333,18556,5,8,0:0:0:0:
362,200,18706,1,0,0:0:0:0:
485,284,18856,1,8,0:0:0:0:
280,260,19006,1,0,0:0:0:0:
439,329,19156,5,8,0:0:0:0:
218,261,19306,1,0,0:0:0:0:
430,379,19456,1,8,0:0:0:0:
155,250,19606,1,0,0:0:0:0:
419,188,19756,5,8,0:0:0:0:
277,313,19906,1,0,0:0:0:0:
374,107,20056,1,8,0:0:0:0:
391,337,20206,5,0,0:0:0:0:
265,64,20356,1,8,0:0:0:0:
464,264,20506,5,0,0:0:0:0:
167,62,20656,1,8,0:0:0:0:
493,126,20806,1,0,0:0:0:0:
188,203,20956,5,8,0:0:0:0:
301,268,21106,1,0,0:0:0:0:
50,190,21256,1,8,0:0:0:0:
347,139,21406,5,0,0:0:0:0:
43,327,21556,1,8,0:0:0:0:
195,37,21706,1,0,0:0:0:0:
190,338,21856,1,8,0:0:0:0:
116,66,22006,1,0,0:0:0:0:
333,154,22156,5,2,0:0:0:0:
335,155,22231,1,2,0:0:0:0:
341,161,22306,1,2,0:0:0:0:
349,181,22381,1,2,0:0:0:0:
344,206,22456,1,2,0:0:0:0:
330,232,22531,1,2,0:0:0:0:
300,242,22606,1,2,0:0:0:0:
256,236,22681,1,2,3:0:0:0:
223,197,22756,5,2,3:0:0:0:
210,145,22831,1,2,3:0:0:0:
229,86,22906,1,2,3:0:0:0:
273,45,22981,1,0,0:0:0:0:
339,37,23056,1,0,0:0:0:0:
401,61,23131,1,0,0:0:0:0:
445,112,23206,1,0,0:0:0:0:
468,177,23281,1,0,0:0:0:0:
468,245,23356,5,4,0:0:0:0:
348,19,23656,1,2,0:0:0:0:
245,229,24556,5,0,0:0:0:0:
268,195,24856,1,0,0:0:0:0:
187,59,25756,5,0,0:0:0:0:
194,91,26056,1,0,0:0:0:0:
291,309,26956,6,0,P|308:258|315:215,1,67.5000025749208
280,102,27256,1,0,0:0:0:0:
406,275,27406,2,0,P|423:224|430:181,1,67.5000025749208
376,53,27706,1,0,0:0:0:0:
340,210,27856,1,0,0:0:0:0:
397,133,28006,1,0,0:0:0:0:
217,133,28156,5,0,0:0:0:0:
257,265,28306,1,0,0:0:0:0:
123,318,28456,2,0,P|161:262|177:247,1,67.5000025749208
139,86,28756,2,0,P|132:142|125:170,1,67.5000025749208
206,237,29056,1,0,0:0:0:0:
206,237,29206,1,0,0:0:0:0:
286,46,29356,6,0,P|267:103|264:139,1,67.5000025749208
408,27,29656,2,0,P|385:63|373:114,1,67.5000025749208
308,203,29956,1,0,0:0:0:0:
392,157,30106,1,0,0:0:0:0:
248,169,30256,1,0,0:0:0:0:
353,286,30406,1,0,0:0:0:0:
197,315,30556,6,0,P|210:278|208:240,1,67.5000025749208
329,85,30856,2,0,B|292:97|292:97|267:130,1,67.5000025749208
409,195,31156,1,0,0:0:0:0:
168,168,31306,1,0,0:0:0:0:
168,168,31456,1,0,0:0:0:0:
302,321,31606,6,0,P|295:280|300:231,1,67.5000025749208
363,165,31906,2,0,P|363:128|377:78,1,67.5000025749208
441,26,32206,1,0,0:0:0:0:
261,162,32356,1,0,0:0:0:0:
444,102,32506,1,0,0:0:0:0:
388,252,32656,5,0,0:0:0:0:
394,219,32731,1,0,0:0:0:0:
381,176,32806,5,0,0:0:0:0:
363,147,32881,1,0,0:0:0:0:
354,114,32956,1,0,0:0:0:0:
238,261,33256,1,0,0:0:0:0:
124,243,34156,5,0,0:0:0:0:
144,204,34456,1,0,0:0:0:0:
309,36,35356,5,0,0:0:0:0:
334,207,35656,1,0,0:0:0:0:
192,101,36556,5,0,0:0:0:0:
265,185,36856,1,0,0:0:0:0:
83,251,37006,1,0,0:0:0:0:
305,158,37306,1,0,0:0:0:0:
228,192,37456,1,0,0:0:0:0:
298,240,37606,1,0,0:0:0:0:
365,316,37756,6,0,P|354:268|338:222,1,67.5000025749208
339,64,38056,1,0,0:0:0:0:
248,98,38206,1,0,0:0:0:0:
122,278,38356,2,0,P|118:230|118:195,1,67.5000025749208
162,26,38656,2,0,P|166:74|166:109,1,67.5000025749208
357,234,38956,5,0,0:0:0:0:
278,250,39106,1,0,0:0:0:0:
299,149,39256,1,0,0:0:0:0:
389,225,39406,1,0,0:0:0:0:
232,192,39556,1,0,0:0:0:0:
409,148,39706,1,0,0:0:0:0:
298,263,39856,1,0,0:0:0:0:
261,142,40006,1,0,0:0:0:0:
103,248,40156,5,0,0:0:0:0:
176,189,40306,1,0,0:0:0:0:
174,303,40456,1,0,0:0:0:0:
86,177,40606,1,0,0:0:0:0:
219,236,40756,1,0,0:0:0:0:
44,328,40906,1,0,0:0:0:0:
199,139,41056,5,0,0:0:0:0:
227,107,41131,1,0,0:0:0:0:
265,87,41206,1,0,0:0:0:0:
368,276,41356,2,0,B|340:197|340:197|380:124,1,135
388,111,41656,2,0,B|403:62|403:62|345:43|286:42,1,135
293,49,41956,2,0,B|217:50|196:80|196:80|139:57,1,135
311,239,42256,5,0,0:0:0:0:
329,279,42331,1,0,0:0:0:0:
359,313,42406,1,0,0:0:0:0:
397,337,42481,1,0,0:0:0:0:
440,349,42556,1,0,0:0:0:0:
175,205,42856,5,0,0:0:0:0:
339,128,43006,1,0,0:0:0:0:
203,120,43156,1,0,0:0:0:0:
283,219,43306,1,0,0:0:0:0:
263,43,43456,1,0,0:0:0:0:
182,313,43606,1,0,0:0:0:0:
367,211,43756,6,0,P|383:150|383:89,1,90
147,218,44056,1,0,0:0:0:0:
363,284,44206,1,0,0:0:0:0:
204,208,44356,1,0,0:0:0:0:
64,264,44656,6,0,B|90:215|140:223|140:223|188:197|191:145,1,180
230,253,45256,1,0,0:0:0:0:
224,160,45406,1,0,0:0:0:0:
325,197,45556,1,0,0:0:0:0:
184,219,45706,1,0,0:0:0:0:
323,122,45856,1,0,0:0:0:0:
405,327,46156,6,0,B|369:232|369:232|459:216|430:157,1,180
155,36,46756,2,0,B|161:122|123:160|165:221,1,180
307,146,47356,5,0,0:0:0:0:
220,224,47506,1,0,0:0:0:0:
253,71,47656,1,0,0:0:0:0:
323,232,47806,1,0,0:0:0:0:
124,126,47956,1,0,0:0:0:0:
226,286,48106,1,0,0:0:0:0:
158,60,48256,5,0,0:0:0:0:
352,172,48406,1,0,0:0:0:0:
164,231,48556,1,0,0:0:0:0:
326,136,48706,1,0,0:0:0:0:
398,294,48856,6,0,B|343:276|328:231|328:231|282:230|249:169,1,180
76,189,49456,1,0,0:0:0:0:
213,221,49606,1,0,0:0:0:0:
134,332,49756,6,0,P|117:254|114:209,1,90
175,155,50056,2,0,L|167:103,1,45
321,187,50206,2,0,P|259:217|218:221,1,90
266,79,50506,1,0,0:0:0:0:
274,65,50656,1,0,0:0:0:0:
388,220,50806,6,0,P|394:163|389:108,1,90
255,344,51106,2,0,P|231:308|213:264,1,90
268,193,51406,2,0,P|259:150|260:102,1,90
368,271,51706,1,0,0:0:0:0:
213,251,51856,1,0,0:0:0:0:
309,172,52006,5,0,0:0:0:0:
269,384,52156,1,0,0:0:0:0:
130,230,52456,6,0,B|134:276|134:276|170:291|184:343|184:343,1,90
269,278,52756,2,0,B|227:235|227:235|261:220|234:192,1,90
173,125,53056,1,0,0:0:0:0:
46,183,53206,1,0,0:0:0:0:
401,161,53356,2,0,B|358:130|358:130|381:99|381:99|285:130,1,180
157,237,53806,5,0,0:0:0:0:
139,104,53956,1,0,0:0:0:0:
48,192,54106,1,0,0:0:0:0:
354,266,54256,1,0,0:0:0:0:
221,296,54406,1,0,0:0:0:0:
322,178,54556,1,0,0:0:0:0:
191,93,54856,6,0,P|179:167|188:203,1,90
289,138,55156,1,0,0:0:0:0:
128,250,55306,1,0,0:0:0:0:
254,315,55456,2,0,B|230:250|230:250|288:250,1,90
395,130,55756,2,0,B|378:187|378:187|424:186,1,90
162,134,56056,2,0,B|208:104|208:104|250:139,1,90
396,343,56356,2,0,B|435:294|435:294|393:283,1,90
318,40,56656,2,0,B|326:113|326:113|355:76,1,90
117,261,56956,5,0,0:0:0:0:
234,192,57106,1,0,0:0:0:0:
41,218,57256,1,0,0:0:0:0:
239,286,57406,1,0,0:0:0:0:
127,115,57556,1,0,0:0:0:0:
156,327,57706,1,0,0:0:0:0:
249,147,57856,1,0,0:0:0:0:
60,284,58006,1,0,0:0:0:0:
351,253,58156,5,0,0:0:0:0:
221,205,58306,1,0,0:0:0:0:
414,156,58456,5,0,0:0:0:0:
500,74,58606,1,0,0:0:0:0:
288,340,58756,5,0,0:0:0:0:
475,368,58906,1,0,0:0:0:0:
146,227,59056,5,0,0:0:0:0:
275,50,59206,2,0,B|258:96|258:96|272:170,1,90
355,94,59506,1,0,0:0:0:0:
319,215,59656,2,0,B|336:261|336:261|322:335,1,90
221,214,59956,1,0,0:0:0:0:
221,214,60106,1,0,0:0:0:0:
415,164,60256,6,0,B|359:150|359:150|319:132,1,90
337,344,60556,2,0,B|338:278|338:278|327:229,1,112.5
96,297,60856,2,0,B|160:283|160:283|205:261,1,112.5
73,86,61156,2,0,B|141:127|141:127|193:133,1,112.5
374,174,61456,5,0,0:0:0:0:
330,197,61531,1,0,0:0:0:0:
284,211,61606,1,0,0:0:0:0:
241,205,61681,1,0,0:0:0:0:
197,223,61756,1,0,0:0:0:0:
91,287,61906,6,0,P|92:247|102:192,1,67.5000025749208
198,125,62206,2,0,P|196:175|186:220,2,67.5000025749208
280,88,62656,6,0,P|285:46|286:-1,1,67.5000025749208
196,74,62956,2,0,P|209:119|230:167,1,67.5000025749208
286,70,63256,2,0,P|272:24|251:-23,1,67.5000025749208
195,88,63556,2,0,P|223:127|257:163,1,67.5000025749208
281,55,63856,2,0,P|253:16|227:-14,1,67.5000025749208
215,138,64156,1,0,0:0:0:0:
381,224,64306,1,0,0:0:0:0:
237,256,64456,5,0,0:0:0:0:
324,98,64606,1,0,0:0:0:0:
313,299,64756,1,0,0:0:0:0:
273,69,64906,1,0,0:0:0:0:
390,304,65056,6,0,B|383:261|379:243|379:243|388:218,1,67.5000025749208
427,152,65356,2,0,B|434:195|438:213|438:213|429:238,1,67.5000025749208
350,288,65656,2,0,B|361:242|364:222|364:222|384:201,1,67.5000025749208
451,152,65956,2,0,B|439:197|436:217|436:217|416:238,1,67.5000025749208
327,266,66256,2,0,B|359:226|366:204|366:204|388:205,1,67.5000025749208
414,7,66556,6,0,P|400:36|393:70,1,67.5000025749208
294,86,66856,1,0,0:0:0:0:
294,86,67006,1,0,0:0:0:0:
292,192,67156,2,0,B|295:231|295:231|307:271,1,67.5000025749208
206,241,67456,2,0,B|205:212|205:212|192:176,1,67.5000025749208
96,128,67756,2,0,B|99:167|99:167|111:207,1,67.5000025749208
200,61,68056,5,0,0:0:0:0:
182,270,68206,1,0,0:0:0:0:
241,187,68356,1,0,0:0:0:0:
281,267,68506,1,0,0:0:0:0:
335,202,68656,1,0,0:0:0:0:
386,249,68806,1,0,0:0:0:0:
101,81,68956,5,0,0:0:0:0:
466,14,69256,1,0,0:0:0:0:
239,321,69556,2,0,B|175:289|175:289|201:256|201:221|201:221,1,135.000005149842
272,95,70156,5,0,0:0:0:0:
272,95,70306,1,0,0:0:0:0:
90,286,70456,5,0,0:0:0:0:
376,202,70606,1,0,0:0:0:0:
50,55,70756,1,0,0:0:0:0:
314,302,71056,5,0,0:0:0:0:
188,54,71356,6,0,P|175:134|175:208,1,135.000005149842
382,224,71656,2,0,B|333:151|333:151|391:121|391:124,1,135.000005149842
85,282,71956,2,0,B|171:253|171:253|127:174,1,135.000005149842
249,77,72256,1,0,0:0:0:0:
342,343,72406,6,0,B|404:280|388:212|352:180|397:123|397:123|446:82|422:47|402:15|358:20|336:32|323:59|309:89,1,405.000015449525
261,202,73006,1,0,0:0:0:0:
344,121,73156,5,0,0:0:0:0:
170,191,73306,1,0,0:0:0:0:
369,211,73456,1,0,0:0:0:0:
215,17,73606,1,0,0:0:0:0:
302,288,73756,5,0,0:0:0:0:
356,32,73906,1,0,0:0:0:0:
213,280,74056,5,0,0:0:0:0:
448,132,74206,1,0,0:0:0:0:
107,304,74356,1,0,0:0:0:0:
201,195,74506,1,0,0:0:0:0:
441,86,74656,5,0,0:0:0:0:
292,50,74806,1,0,0:0:0:0:
314,329,74956,2,0,B|338:216|338:216|278:157,1,135.000005149842
428,275,75256,2,0,B|452:162|452:162|392:103,1,135.000005149842
359,126,75556,2,0,B|335:13|335:13|395:-46,1,135.000005149842
143,73,75856,6,0,B|202:118|202:118|198:178,1,135.000005149842
422,252,76156,2,0,B|350:251|350:251|411:202,1,135.000005149842
235,51,76456,2,0,P|251:116|303:170,1,135.000005149842
192,266,76756,1,0,0:0:0:0:
333,257,76906,1,0,0:0:0:0:
92,317,77056,6,0,P|133:186|240:88,1,270.000010299683
454,221,77506,1,0,0:0:0:0:
142,81,77656,1,0,0:0:0:0:
315,36,77806,5,0,0:0:0:0:
293,297,77956,1,0,0:0:0:0:
415,118,78106,1,0,0:0:0:0:
172,248,78256,5,8,0:0:0:0:
468,199,78406,1,0,0:0:0:0:
275,134,78556,1,10,0:0:0:0:
365,180,78706,1,2,0:0:0:0:
189,209,78856,1,10,0:0:0:0:
453,128,79006,1,0,0:0:0:0:
313,301,79156,5,8,0:0:0:0:
302,36,79306,1,0,0:0:0:0:
393,251,79456,1,8,0:0:0:0:
170,214,79606,1,2,0:0:0:0:
483,148,79756,1,8,0:0:0:0:
157,105,79906,5,0,0:0:0:0:
435,21,80056,1,8,0:0:0:0:
229,313,80206,1,0,0:0:0:0:
232,167,80356,1,10,0:0:0:0:
317,375,80506,1,0,0:0:0:0:
229,61,80656,5,0,0:0:0:0:
260,120,80731,1,0,0:0:0:0:
294,179,80806,1,0,0:0:0:0:
328,237,80881,1,0,0:0:0:0:
389,247,80956,1,0,0:0:0:0:
136,246,81106,5,0,0:0:0:0:
361,136,81256,1,0,0:0:0:0:
232,302,81406,1,0,0:0:0:0:
230,28,81556,5,0,0:0:0:0:
315,271,81706,1,0,0:0:0:0:
198,13,81856,1,0,0:0:0:0:
281,256,82006,1,0,0:0:0:0:
309,15,82156,5,0,0:0:0:0:
216,187,82306,1,0,0:0:0:0:
420,114,82456,1,0,0:0:0:0:
280,91,82606,1,0,0:0:0:0:
356,302,82756,5,0,0:0:0:0:
205,65,82906,1,0,0:0:0:0:
279,249,83056,1,0,0:0:0:0:
424,43,83206,5,0,0:0:0:0:
160,240,83356,1,0,0:0:0:0:
128,16,83506,1,0,0:0:0:0:
320,112,83656,1,0,0:0:0:0:
117,268,83806,1,0,0:0:0:0:
143,10,83956,1,0,0:0:0:0:
329,168,84106,1,0,0:0:0:0:
226,320,84256,5,0,0:0:0:0:
254,125,84406,1,0,0:0:0:0:
257,311,84556,1,0,0:0:0:0:
220,141,84706,1,0,0:0:0:0:
330,315,84856,1,0,0:0:0:0:
149,177,85006,1,0,0:0:0:0:
376,245,85156,1,0,0:0:0:0:
120,250,85306,1,0,0:0:0:0:
462,222,85456,5,0,0:0:0:0:
227,321,85606,1,0,0:0:0:0:
460,47,85756,2,0,P|389:108|380:182,1,135.000005149842
72,202,86056,2,0,B|139:151|139:151|115:68,1,135.000005149842
318,319,86356,2,0,B|246:249|246:249|289:197,1,135.000005149842
294,32,86656,2,0,B|294:105|294:105|340:56,1,135.000005149842
191,170,86956,2,0,B|207:101|207:101|229:182,1,135.000005149842
292,285,87256,2,0,P|315:270|293:283,1,135.000005149842
314,12,87556,6,0,P|311:103|288:139,1,135.000005149842
55,187,87856,2,0,B|130:117|130:117|166:141,1,135.000005149842
208,68,88156,5,8,0:0:0:0:
143,220,88306,1,0,0:0:0:0:
113,24,88456,5,8,0:0:0:0:
256,298,88606,1,0,0:0:0:0:
299,27,88756,5,8,0:0:0:0:
162,309,88906,1,0,0:0:0:0:
201,4,89056,5,8,0:0:0:0:
342,317,89206,1,0,0:0:0:0:
155,186,89356,5,0,0:0:0:0:
134,218,89431,1,0,0:0:0:0:
140,261,89506,1,0,0:0:0:0:
167,286,89581,1,0,0:0:0:0:
215,293,89656,1,0,0:0:0:0:
260,270,89731,1,0,0:0:0:0:
299,225,89806,1,0,0:0:0:0:
328,165,89881,1,0,0:0:0:0:
334,108,89956,6,0,L|345:64,3,45
410,79,90256,2,0,L|420:35,2,45
172,271,90556,6,0,P|158:201|156:135,1,112.5
317,185,90856,1,0,0:0:0:0:
214,25,91006,2,0,P|226:106|228:161,1,112.5
292,313,91306,1,0,0:0:0:0:
162,96,91456,1,0,0:0:0:0:
438,196,91606,6,0,B|370:179|370:179|388:110,1,112.5
142,208,91906,1,0,0:0:0:0:
273,141,92056,1,0,0:0:0:0:
397,276,92206,1,0,0:0:0:0:
240,270,92356,2,0,P|319:230|337:190,1,112.5
339,32,92656,2,0,B|339:123|339:123|405:90,1,112.5
81,264,92956,5,0,0:0:0:0:
221,41,93106,1,0,0:0:0:0:
295,239,93256,5,0,0:0:0:0:
138,121,93406,1,0,0:0:0:0:
194,352,93556,5,0,0:0:0:0:
302,120,93706,1,0,0:0:0:0:
426,271,93856,1,0,0:0:0:0:
221,272,94006,5,0,0:0:0:0:
427,172,94156,1,0,0:0:0:0:
193,248,94306,1,0,0:0:0:0:
409,207,94456,1,0,0:0:0:0:
137,217,94606,1,0,0:0:0:0:
371,242,94756,1,0,0:0:0:0:
51,226,94906,5,0,0:0:0:0:
413,308,95056,1,0,0:0:0:0:
144,144,95206,1,0,0:0:0:0:
298,304,95356,1,0,0:0:0:0:
366,93,95506,5,0,0:0:0:0:
190,231,95656,1,0,0:0:0:0:
453,104,95806,1,0,0:0:0:0:
101,224,95956,1,0,0:0:0:0:
318,326,96106,5,0,0:0:0:0:
238,117,96256,1,0,0:0:0:0:
441,293,96406,1,0,0:0:0:0:
290,57,96556,1,0,0:0:0:0:
228,321,96706,5,0,0:0:0:0:
381,99,96856,1,0,0:0:0:0:
128,260,97006,1,0,0:0:0:0:
475,188,97156,1,0,0:0:0:0:
70,177,97306,5,0,0:0:0:0:
322,253,97456,1,0,0:0:0:0:
187,77,97606,1,0,0:0:0:0:
187,77,97756,1,0,0:0:0:0:
279,350,97906,5,0,0:0:0:0:
364,61,98056,1,0,0:0:0:0:
168,339,98206,1,0,0:0:0:0:
168,339,98356,1,0,0:0:0:0:
441,162,98506,5,0,0:0:0:0:
96,241,98656,1,0,0:0:0:0:
402,237,98806,1,0,0:0:0:0:
196,144,98956,1,0,0:0:0:0:
287,301,99106,1,0,0:0:0:0:
282,99,99256,1,0,0:0:0:0:
386,339,99406,5,0,0:0:0:0:
107,78,99556,1,0,0:0:0:0:
197,330,99706,1,0,0:0:0:0:
303,2,99856,5,0,0:0:0:0:
317,27,99931,1,0,0:0:0:0:
324,56,100006,1,0,0:0:0:0:
330,86,100081,1,0,0:0:0:0:
343,119,100156,1,0,0:0:0:0:
288,300,100306,6,0,P|265:223|259:157,1,112.5
262,38,100606,1,0,0:0:0:0:
100,295,100756,2,0,P|133:192|136:148,1,112.5
178,59,101056,1,0,0:0:0:0:
216,306,101206,1,0,0:0:0:0:
380,215,101356,2,0,P|284:214|215:197,1,112.5
131,158,101656,1,0,0:0:0:0:
467,156,101806,1,0,0:0:0:0:
177,73,101956,5,0,0:0:0:0:
63,108,102106,1,0,0:0:0:0:
262,287,102256,1,0,0:0:0:0:
253,157,102406,1,0,0:0:0:0:
428,29,102556,6,0,P|391:118|372:176,1,112.5
431,282,102856,1,0,0:0:0:0:
278,16,103006,2,0,P|256:94|250:167,1,112.5
321,311,103306,1,0,0:0:0:0:
113,91,103456,2,0,P|123:176|127:233,1,112.5
183,307,103756,5,0,0:0:0:0:
377,51,103906,2,0,P|380:126|377:211,1,112.5
313,344,104206,1,0,0:0:0:0:
251,135,104356,1,0,0:0:0:0:
399,267,104506,1,0,0:0:0:0:
196,71,104656,1,0,0:0:0:0:
220,269,104806,1,0,0:0:0:0:
151,153,104956,5,0,0:0:0:0:
151,102,105031,1,0,0:0:0:0:
186,66,105106,1,0,0:0:0:0:
238,65,105181,1,0,0:0:0:0:
278,102,105256,1,0,0:0:0:0:
291,152,105331,1,0,0:0:0:0:
279,205,105406,1,0,0:0:0:0:
266,249,105481,5,0,0:0:0:0:
293,301,105556,1,0,0:0:0:0:
363,296,105631,1,0,0:0:0:0:
389,230,105706,1,0,0:0:0:0:
342,177,105781,1,0,0:0:0:0:
297,217,105856,5,0,0:0:0:0:
331,243,105931,1,0,0:0:0:0:
380,240,106006,1,0,0:0:0:0:
416,205,106081,1,0,0:0:0:0:
470,214,106156,1,0,0:0:0:0:
496,258,106231,1,0,0:0:0:0:
481,306,106306,1,0,0:0:0:0:
441,338,106381,1,0,0:0:0:0:
386,335,106456,1,0,0:0:0:0:
333,315,106531,5,0,0:0:0:0:
279,320,106606,1,0,0:0:0:0:
223,333,106681,1,0,0:0:0:0:
167,316,106756,1,0,0:0:0:0:
128,262,106831,1,0,0:0:0:0:
129,194,106906,1,0,0:0:0:0:
165,136,106981,1,0,0:0:0:0:
187,73,107056,1,0,0:0:0:0:
412,243,107206,1,0,0:0:0:0:
377,127,107356,6,0,P|363:217|373:271,1,112.5
107,171,107806,1,0,0:0:0:0:
201,301,107956,2,0,P|215:248|230:147,1,112.5
360,98,108256,1,0,0:0:0:0:
71,138,108406,1,0,0:0:0:0:
395,181,108556,1,0,0:0:0:0:
176,253,108706,5,0,0:0:0:0:
302,190,108856,1,0,0:0:0:0:
171,118,109006,1,0,0:0:0:0:
342,69,109156,1,0,0:0:0:0:
156,0,109306,1,0,0:0:0:0:
414,0,109456,1,0,0:0:0:0:
334,344,109756,5,0,0:0:0:0:
176,232,110056,5,0,0:0:0:0:
56,113,110206,1,0,0:0:0:0:
375,58,110356,1,0,0:0:0:0:
281,117,110506,1,0,0:0:0:0:
401,186,110656,1,0,0:0:0:0:
209,225,110956,6,0,P|181:171|174:131,1,90
185,2,111256,2,0,P|213:56|220:96,1,90
290,175,111556,2,0,P|274:116|277:75,1,90
321,0,111856,2,0,P|322:60|311:99,1,90
135,286,112156,5,0,0:0:0:0:
389,194,112306,1,0,0:0:0:0:
186,137,112456,5,0,0:0:0:0:
274,217,112606,1,0,0:0:0:0:
324,108,112756,5,0,0:0:0:0:
204,223,112906,1,0,0:0:0:0:
432,174,113056,1,0,0:0:0:0:
324,108,113356,6,0,P|312:167|293:203,1,90
205,298,113656,2,0,P|216:238|235:202,1,90
229,97,113956,2,0,P|204:152|177:183,1,90
97,216,114256,2,0,P|133:167|166:143,1,90
364,273,114556,5,0,0:0:0:0:
228,219,114706,1,0,0:0:0:0:
361,180,114856,5,0,0:0:0:0:
285,328,115006,1,0,0:0:0:0:
282,119,115156,1,0,0:0:0:0:
433,259,115306,5,0,0:0:0:0:
143,254,115456,1,0,0:0:0:0:
244,58,115756,6,0,P|304:59|343:72,1,90
450,145,116056,2,0,P|389:143|350:130,1,90
248,153,116356,2,0,P|306:168|341:189,1,90
386,265,116656,2,0,P|332:236|303:208,1,90
232,37,116956,5,0,0:0:0:0:
201,171,117106,1,0,0:0:0:0:
371,132,117256,5,0,0:0:0:0:
120,90,117406,1,0,0:0:0:0:
337,67,117556,1,0,0:0:0:0:
273,287,117706,5,0,0:0:0:0:
176,25,117856,1,0,0:0:0:0:
277,252,118156,6,0,P|211:266|166:262,1,112.5
30,213,118456,2,0,P|96:199|142:203,1,112.5
247,150,118756,2,0,P|179:149|136:135,1,112.5
67,66,119056,2,0,P|133:82|172:105,1,112.5
330,110,119356,5,0,0:0:0:0:
226,294,119506,1,0,0:0:0:0:
186,71,119656,5,0,0:0:0:0:
326,295,119806,1,0,0:0:0:0:
95,202,119956,5,0,0:0:0:0:
369,278,120106,1,0,0:0:0:0:
157,11,120256,6,0,P|153:73|171:130,1,112.5
194,229,120556,6,0,P|227:185|272:152,1,112.5
412,107,120855,2,0,P|379:151|319:177,1,112.5
281,288,121156,2,0,P|323:252|375:230,1,112.5
488,255,121456,2,0,P|438:280|382:290,1,112.5
261,32,121756,5,0,0:0:0:0:
221,248,121906,1,0,0:0:0:0:
405,127,122056,5,0,0:0:0:0:
103,175,122206,1,0,0:0:0:0:
385,231,122356,1,0,0:0:0:0:
185,45,122506,5,0,0:0:0:0:
315,327,122656,2,0,P|276:270|251:209,1,112.5
25,237,122956,6,0,P|44:172|70:135,1,112.5
179,40,123256,2,0,P|159:105|134:142,1,112.5
129,260,123556,2,0,P|155:210|195:171,1,112.5
316,136,123857,2,0,P|279:178|231:208,1,112.5
139,73,124156,5,0,0:0:0:0:
350,253,124306,1,0,0:0:0:0:
172,205,124456,5,0,0:0:0:0:
379,68,124606,1,0,0:0:0:0:
271,307,124756,5,0,0:0:0:0:
267,16,124906,1,0,0:0:0:0:
99,287,125056,2,0,P|110:211|140:153,1,112.5
301,15,125356,6,0,P|354:56|380:93,1,112.5
429,228,125656,2,0,P|375:186|349:149,1,112.5
242,103,125956,2,0,P|279:145|301:196,1,112.5
290,322,126257,2,0,P|264:272|253:216,1,112.5
104,30,126556,5,0,0:0:0:0:
445,25,126856,5,0,0:0:0:0:
146,298,127156,5,0,0:0:0:0:
246,243,127456,6,0,P|246:183|241:146,1,67.5000025749208
473,185,127756,5,0,0:0:0:0:
437,212,127856,1,0,0:0:0:0:
394,228,127956,1,0,0:0:0:0:
351,227,128056,1,0,0:0:0:0:
313,207,128156,1,0,0:0:0:0:
306,162,128256,1,0,0:0:0:0:
332,133,128356,1,0,0:0:0:0:
146,272,128956,6,0,B|197:212|197:212|279:248,1,135.000005149842
420,25,129256,2,0,B|380:90|380:90|323:38,1,135.000005149842
174,162,129556,2,0,B|178:84|178:84|154:29,1,135.000005149842
465,291,129856,2,0,B|356:279|356:279|407:212,1,135.000005149842
67,247,130156,2,0,B|162:218|162:218|171:258,1,135.000005149842
490,113,130456,2,0,B|403:138|403:138|439:206,1,135.000005149842
168,0,130756,2,0,B|194:94|194:94|270:74,1,135.000005149842
310,292,131056,2,0,B|293:222|278:214|278:214|330:184,1,135.000005149842
98,31,131356,5,0,0:0:0:0:
184,287,131506,1,0,0:0:0:0:
361,106,131656,1,0,0:0:0:0:
128,0,131806,5,0,0:0:0:0:
162,306,131956,1,0,0:0:0:0:
403,145,132106,1,0,0:0:0:0:
59,146,132256,1,0,0:0:0:0:
478,283,132406,1,0,0:0:0:0:
221,17,132556,5,0,0:0:0:0:
308,215,132706,1,0,0:0:0:0:
266,11,132856,1,0,0:0:0:0:
199,212,133006,1,0,0:0:0:0:
319,15,133156,1,0,0:0:0:0:
254,295,133306,1,0,0:0:0:0:
191,32,133456,1,0,0:0:0:0:
297,232,133606,1,0,0:0:0:0:
135,49,133756,1,0,0:0:0:0:
408,133,133906,5,0,0:0:0:0:
169,202,134056,1,0,0:0:0:0:
370,20,134206,5,0,0:0:0:0:
274,326,134356,1,0,0:0:0:0:
273,33,134506,5,0,0:0:0:0:
401,298,134656,1,0,0:0:0:0:
421,77,134806,5,0,0:0:0:0:
272,225,134956,1,0,0:0:0:0:
326,24,135106,1,0,0:0:0:0:
446,209,135256,1,0,0:0:0:0:
201,61,135406,5,0,0:0:0:0:
406,307,135556,1,0,0:0:0:0:
421,35,135706,5,0,0:0:0:0:
178,268,135856,1,0,0:0:0:0:
393,173,136006,1,0,0:0:0:0:
158,197,136156,5,8,0:0:0:0:
417,121,136306,1,0,0:0:0:0:
123,137,136456,1,8,0:0:0:0:
440,61,136606,1,0,0:0:0:0:
234,332,136756,5,8,0:0:0:0:
288,27,136906,1,0,0:0:0:0:
360,332,137056,1,8,0:0:0:0:
233,37,137206,1,0,0:0:0:0:
293,339,137356,1,8,0:0:0:0:
352,54,137506,5,0,0:0:0:0:
248,316,137656,1,8,0:0:0:0:
284,37,137806,1,0,0:0:0:0:
297,256,137956,1,8,0:0:0:0:
213,83,138106,1,0,0:0:0:0:
449,117,138256,1,8,0:0:0:0:
384,135,138331,1,0,0:0:0:0:
317,147,138406,1,0,0:0:0:0:
251,157,138481,1,0,0:0:0:0:
199,198,138556,1,0,0:0:0:0:
333,43,138706,5,0,0:0:0:0:
179,326,138856,1,0,0:0:0:0:
435,238,139006,5,0,0:0:0:0:
116,113,139156,1,0,0:0:0:0:
327,61,139306,1,0,0:0:0:0:
243,237,139456,2,0,B|320:236|320:236|349:174,1,135.000005149842
231,13,139756,6,0,B|236:88|236:88|179:68,1,135.000005149842
465,218,140056,2,0,B|391:214|391:214|475:164,1,135.000005149842
191,356,140356,2,0,B|241:278|241:278|160:283,1,135.000005149842
498,8,140656,2,0,B|425:66|425:66|518:102,1,135.000005149842
174,37,140956,5,0,0:0:0:0:
388,108,141106,1,0,0:0:0:0:
316,339,141256,1,0,0:0:0:0:
87,268,141406,1,0,0:0:0:0:
176,11,141556,5,0,0:0:0:0:
410,108,141706,1,0,0:0:0:0:
129,171,141856,1,0,0:0:0:0:
436,33,142006,1,0,0:0:0:0:
302,306,142156,6,0,P|288:220|273:157,1,135.000005149842
50,10,142456,2,0,P|74:101|101:182,1,135.000005149842
452,146,142756,2,0,B|354:128|354:128|393:77,1,135.000005149842
38,281,143056,2,0,B|112:215|112:215|177:243,1,135.000005149842
186,35,143356,5,0,0:0:0:0:
421,262,143506,1,0,0:0:0:0:
328,330,143656,5,0,0:0:0:0:
456,193,143806,1,0,0:0:0:0:
71,106,143956,5,0,0:0:0:0:
240,43,144106,1,0,0:0:0:0:
134,323,144256,5,0,0:0:0:0:
83,192,144406,1,0,0:0:0:0:
174,248,144556,5,0,0:0:0:0:
51,58,144706,1,0,0:0:0:0:
285,179,144856,1,0,0:0:0:0:
163,113,145006,5,0,0:0:0:0:
361,73,145156,1,0,0:0:0:0:
289,310,145306,5,0,0:0:0:0:
185,273,145456,1,0,0:0:0:0:
427,134,145606,5,0,0:0:0:0:
507,52,145756,1,0,0:0:0:0:
446,327,145906,5,0,0:0:0:0:
497,211,146056,1,0,0:0:0:0:
103,190,146206,5,0,0:0:0:0:
358,73,146356,1,0,0:0:0:0:
252,298,146506,5,0,0:0:0:0:
358,73,146656,1,0,0:0:0:0:
417,368,146806,5,0,0:0:0:0:
283,17,146956,1,0,0:0:0:0:
283,17,147031,1,0,0:0:0:0:
283,17,147106,1,0,0:0:0:0:
283,17,147181,1,0,0:0:0:0:
283,17,147256,1,0,0:0:0:0:
286,226,147406,5,0,0:0:0:0:
325,190,147556,1,0,0:0:0:0:
308,136,147706,1,0,0:0:0:0:
246,125,147856,1,0,0:0:0:0:
185,105,148006,1,0,0:0:0:0:
154,45,148156,1,0,0:0:0:0:
223,306,148456,6,0,P|191:242|176:199,1,90
346,253,148756,2,0,P|318:201|306:165,1,90
193,105,149056,1,0,0:0:0:0:
435,216,149206,1,0,0:0:0:0:
80,64,149656,6,0,P|94:120|115:171,1,90
248,248,149956,2,0,P|234:192|213:141,1,90
205,134,150181,1,0,0:0:0:0:
193,116,150256,1,0,0:0:0:0:
399,142,150406,1,0,0:0:0:0:
179,309,150556,2,0,B|231:272|231:272|278:295,1,90
250,37,150856,1,0,0:0:0:0:
382,330,151006,1,0,0:0:0:0:
136,167,151306,5,0,0:0:0:0:
307,144,151456,1,0,0:0:0:0:
240,298,151756,6,0,B|234:237|234:237|286:236,1,90
244,45,152056,2,0,B|250:100|262:154,1,90
382,173,152356,2,0,P|398:201|377:184,1,90
173,193,152656,5,0,0:0:0:0:
173,193,152731,1,0,0:0:0:0:
173,193,152806,1,0,0:0:0:0:
173,193,152881,1,0,0:0:0:0:
173,193,152956,1,0,0:0:0:0:
424,167,153106,6,0,B|349:148|349:148|289:170,1,135.000005149842
125,36,153406,2,0,B|154:104|154:104|204:62,1,135.000005149842
239,377,153706,2,0,P|252:261|249:224,1,135.000005149842
405,117,154006,2,0,B|328:94|328:94|343:152,1,135.000005149842
79,265,154306,2,0,B|134:277|134:277|112:201,1,135.000005149842
373,240,154606,5,0,0:0:0:0:
171,117,154756,1,0,0:0:0:0:
349,133,154906,5,0,0:0:0:0:
229,362,155056,1,0,0:0:0:0:
280,59,155206,1,0,0:0:0:0:
415,303,155356,5,0,0:0:0:0:
49,219,155506,1,0,0:0:0:0:
441,73,155656,5,0,0:0:0:0:
126,300,155806,1,0,0:0:0:0:
200,12,155956,5,0,0:0:0:0:
337,345,156106,1,0,0:0:0:0:
152,89,156256,5,0,0:0:0:0:
423,247,156406,1,0,0:0:0:0:
130,188,156556,5,0,0:0:0:0:
429,147,156706,1,0,0:0:0:0:
166,283,156856,5,0,0:0:0:0:
392,41,157006,1,0,0:0:0:0:
265,346,157156,5,0,0:0:0:0:
290,7,157306,1,0,0:0:0:0:
362,314,157456,5,0,0:0:0:0:
362,314,157531,1,0,0:0:0:0:
362,314,157606,1,0,0:0:0:0:
362,314,157681,1,0,0:0:0:0:
362,314,157756,1,0,0:0:0:0:
229,81,157906,6,0,B|243:178|243:178|324:145,1,135.000005149842
436,248,158206,2,0,B|442:172|442:172|400:224,1,135.000005149842
171,294,158506,2,0,B|226:235|226:235|266:276,1,135.000005149842
200,100,158806,1,0,0:0:0:0:
341,209,158956,1,0,0:0:0:0:
65,255,159106,6,0,B|132:202|132:202|59:120,1,135.000005149842
340,66,159406,1,0,0:0:0:0:
97,33,159556,1,0,0:0:0:0:
358,267,159706,1,0,0:0:0:0:
198,58,159856,2,0,B|207:133|207:133|160:183,1,135.000005149842
251,312,160156,1,0,0:0:0:0:
251,312,160306,1,0,0:0:0:0:
343,55,160456,6,0,B|334:151|326:186|326:186|317:204,1,135.000005149842
115,235,160756,1,0,0:0:0:0:
393,118,160906,1,0,0:0:0:0:
186,111,161056,1,0,0:0:0:0:
404,294,161206,2,0,P|357:234|330:171,1,135.000005149842
239,258,161506,5,0,0:0:0:0:
300,131,161656,1,0,0:0:0:0:
405,200,161806,1,0,0:0:0:0:
328,265,161956,1,0,0:0:0:0:
314,177,162106,1,0,0:0:0:0:
462,318,162256,1,0,0:0:0:0:
106,179,162556,6,0,B|201:223|201:223|221:152,1,135.000005149842
400,108,162856,1,0,0:0:0:0:
204,305,163006,1,0,0:0:0:0:
273,62,163156,1,0,0:0:0:0:
400,250,163306,1,0,0:0:0:0:
176,190,163456,1,0,0:0:0:0:
351,149,163606,5,0,0:0:0:0:
297,297,163756,2,0,B|292:207|292:207|230:222,1,135.000005149842
123,192,164056,2,0,B|205:110|205:110|260:150,1,135.000005149842
466,234,164356,2,0,B|361:204|361:204|321:168,1,135.000005149842
259,45,164656,5,0,0:0:0:0:
340,276,164806,1,0,0:0:0:0:
210,204,164956,1,0,0:0:0:0:
344,84,165106,1,0,0:0:0:0:
248,293,165256,1,0,0:0:0:0:
416,117,165406,5,0,0:0:0:0:
100,152,165556,1,0,0:0:0:0:
429,220,165706,5,0,0:0:0:0:
202,46,165856,1,0,0:0:0:0:
245,331,166006,2,0,B|286:253|286:253|238:199,1,135.000005149842
371,46,166306,2,0,P|295:92|271:129,1,135.000005149842
400,278,166606,1,0,0:0:0:0:
62,252,166756,2,0,B|135:160|135:160|176:205,1,135.000005149842
496,246,167056,2,0,B|412:159|412:159|363:218,1,135.000005149842
126,145,167356,5,8,0:0:0:0:
398,256,167506,1,0,0:0:0:0:
252,60,167656,5,8,0:0:0:0:
313,351,167806,1,0,0:0:0:0:
404,57,167956,5,8,0:0:0:0:
145,300,168106,1,0,0:0:0:0:
490,219,168256,5,8,0:0:0:0:
88,79,168406,1,0,0:0:0:0:
453,303,168556,5,8,0:0:0:0:
75,255,168706,1,0,0:0:0:0:
386,49,168856,5,8,0:0:0:0:
426,355,169006,1,0,0:0:0:0:
242,37,169156,1,8,0:0:0:0:
307,326,169306,1,0,0:0:0:0:
459,20,169456,1,8,0:0:0:0:
184,319,169606,1,0,0:0:0:0:
369,0,169756,5,8,0:0:0:0:
473,326,169906,1,0,0:0:0:0:
77,174,170056,5,8,0:0:0:0:
461,152,170206,1,0,0:0:0:0:
147,324,170356,1,8,0:0:0:0:
472,68,170506,1,0,0:0:0:0:
59,277,170656,5,8,0:0:0:0:
496,258,170806,1,0,0:0:0:0:
146,16,170956,5,8,0:0:0:0:
299,283,171106,1,0,0:0:0:0:
262,16,171256,1,8,0:0:0:0:
191,334,171406,5,0,0:0:0:0:
374,64,171556,1,8,0:0:0:0:
78,289,171706,1,0,0:0:0:0:
433,302,171856,5,8,0:0:0:0:
85,67,172006,1,0,0:0:0:0:
468,143,172156,5,8,0:0:0:0:
128,335,172306,1,0,0:0:0:0:
419,16,172456,5,8,0:0:0:0:
259,368,172606,1,0,0:0:0:0:
194,28,172756,1,8,0:0:0:0:
422,363,172906,5,0,0:0:0:0:
101,204,173056,1,8,0:0:0:0:
489,88,173206,5,0,0:0:0:0:
127,308,173356,1,8,0:0:0:0:
250,3,173506,5,0,0:0:0:0:
457,288,173656,1,8,0:0:0:0:
63,22,173806,5,0,0:0:0:0:
490,7,173956,1,8,0:0:0:0:
105,356,174106,5,0,0:0:0:0:
111,5,174256,1,8,0:0:0:0:
503,358,174406,5,0,0:0:0:0:
41,350,174556,1,8,0:0:0:0:
488,59,174706,5,0,0:0:0:0:
15,156,174856,1,8,0:0:0:0:
458,273,175006,1,0,0:0:0:0:
93,52,175156,1,8,0:0:0:0:
325,298,175306,1,0,0:0:0:0:
26,7,175456,5,8,0:0:0:0:
447,335,175606,1,0,0:0:0:0:
6,354,175756,5,8,0:0:0:0:
395,66,175906,1,0,0:0:0:0:
371,105,175981,1,0,0:0:0:0:
334,141,176056,1,0,0:0:0:0:
293,177,176131,1,0,0:0:0:0:
245,217,176206,1,0,0:0:0:0:
183,243,176281,1,0,0:0:0:0:
104,252,176356,1,0,0:0:0:0:
26,218,176431,5,0,0:0:0:0:
2,140,176506,1,0,0:0:0:0:
30,66,176581,1,0,0:0:0:0:
107,43,176656,1,0,0:0:0:0:
184,49,176731,1,0,0:0:0:0:
249,92,176806,1,0,0:0:0:0:
284,160,176881,1,0,0:0:0:0:
307,235,176956,5,0,0:0:0:0:
138,268,177256,5,0,0:0:0:0:
138,268,177406,1,0,0:0:0:0:
295,27,177556,2,0,P|273:125|271:158,1,90
330,306,177856,2,0,P|352:208|354:175,1,90
256,93,178306,5,0,0:0:0:0:
301,327,178456,1,0,0:0:0:0:
148,284,178756,6,0,P|208:221|249:214,1,90
310,193,179056,2,0,P|375:171|405:132,1,90
161,108,179356,1,0,0:0:0:0:
311,326,179656,5,0,0:0:0:0:
307,42,179806,1,0,0:0:0:0:
94,272,180106,5,0,0:0:0:0:
441,179,180256,1,0,0:0:0:0:
215,170,180556,5,0,0:0:0:0:
214,195,180631,1,0,0:0:0:0:
227,223,180706,1,0,0:0:0:0:
255,255,180781,1,0,0:0:0:0:
272,303,180856,1,0,0:0:0:0:
268,358,180931,1,0,0:0:0:0:
110,284,181006,6,0,P|107:300|108:317,3,33.7500012874604
148,123,181306,2,0,P|151:181|150:186,3,33.7500012874604
380,240,181756,5,0,0:0:0:0:
380,240,181906,1,0,0:0:0:0:
312,71,182056,5,0,0:0:0:0:
312,71,182206,1,0,0:0:0:0:
125,321,182356,5,0,0:0:0:0:
125,321,182506,1,0,0:0:0:0:
432,85,182656,5,0,0:0:0:0:
432,85,182806,1,0,0:0:0:0:
29,132,182956,5,0,0:0:0:0:
29,132,183106,1,0,0:0:0:0:
450,334,183256,5,0,0:0:0:0:
450,334,183406,1,0,0:0:0:0:
121,160,183556,5,0,0:0:0:0:
300,86,183706,1,0,0:0:0:0:
241,229,183856,5,0,0:0:0:0:
245,217,183931,1,0,0:0:0:0:
242,203,184006,1,0,0:0:0:0:
236,186,184081,1,0,0:0:0:0:
248,167,184156,1,0,0:0:0:0:
349,16,184456,2,0,P|339:72|338:108,1,67.5000025749208
191,315,184906,5,0,0:0:0:0:
407,116,185056,1,0,0:0:0:0:
256,192,185356,12,0,196156,0:0:0:0:
