osu file format v14

[General]
AudioFilename: audio.mp3
AudioLeadIn: 0
PreviewTime: 50893
Countdown: 0
SampleSet: Soft
StackLeniency: 0.2
Mode: 0
LetterboxInBreaks: 0
WidescreenStoryboard: 1

[Editor]
DistanceSpacing: 0.7
BeatDivisor: 8
GridSize: 16
TimelineZoom: 2.600002

[Metadata]
Title:Chicago
TitleUnicode:Chicago
Artist:Bentham
ArtistUnicode:Bentham
Creator:ponbot
Version:Re: Wonder
Source:
Tags:a_blue kimikamymommy hinamommy newton- kloyd japanese rock j-rock 小関竜矢 ozeki tatsuya
BeatmapID:2584895
BeatmapSetID:1243342

[Difficulty]
HPDrainRate:5
CircleSize:4
OverallDifficulty:9
ApproachRate:9.6
SliderMultiplier:1.6
SliderTickRate:1

[Events]
//Background and Video events
0,0,"68686407_p0.jpg",0,0
//Break Periods
2,136879,145312
//Storyboard Layer 0 (Background)
//Storyboard Layer 1 (Fail)
//Storyboard Layer 2 (Pass)
//Storyboard Layer 3 (Foreground)
//Storyboard Layer 4 (Overlay)
//Storyboard Sound Samples

[TimingPoints]
679,285.714285714286,4,2,1,60,1,0
9821,-83.3333333333333,4,2,1,60,0,0
18964,-83.3333333333333,4,2,2,60,0,0
21250,-83.3333333333333,4,2,2,70,0,0
23536,-83.3333333333333,4,2,2,60,0,0
25821,-83.3333333333333,4,2,2,70,0,0
28107,-125,4,2,2,60,0,0
31536,-125,4,2,2,50,0,0
32393,-125,4,2,1,50,0,0
32679,-83.3333333333333,4,2,2,60,0,0
34964,-83.3333333333333,4,2,2,70,0,0
37250,-83.3333333333333,4,2,2,60,0,0
39536,-83.3333333333333,4,2,2,70,0,0
41821,-83.3333333333333,4,2,2,60,0,0
46393,-200,4,2,2,60,0,0
47536,-83.3333333333333,4,2,2,60,0,0
48679,-133.333333333333,4,2,2,60,0,0
50964,-66.6666666666667,4,2,2,80,0,1
69250,-83.3333333333333,4,2,1,60,0,0
70964,-40,4,2,1,60,0,0
71250,-50,4,2,1,60,0,0
71536,-83.3333333333333,4,2,1,60,0,0
76107,-66.6666666666667,4,2,1,60,0,0
76250,-133.333333333333,4,2,1,60,0,0
76381,-133.333333333333,4,2,1,5,0,0
76679,-50,4,2,1,60,0,0
76821,-100,4,2,1,60,0,0
76952,-100,4,2,1,5,0,0
77107,-66.6666666666667,4,2,1,60,0,0
77536,-250,4,2,1,60,0,0
78393,-250,4,2,2,60,0,0
78679,-100,4,2,2,60,0,0
87107,-100,4,2,1,60,0,0
88107,-100,4,2,2,60,0,0
89536,-100,4,2,1,60,0,0
89821,-100,4,2,2,60,0,0
92107,-66.6666666666667,4,2,2,80,0,1
99964,-200,4,2,2,80,0,1
100964,-83.3333333333333,4,2,2,80,0,1
101250,-66.6666666666667,4,2,2,80,0,1
107393,-66.6666666666667,4,2,2,60,0,1
107536,-66.6666666666667,4,2,2,80,0,1
109250,-58.8235294117647,4,2,1,70,0,0
113821,-66.6666666666667,4,2,1,70,0,0
113964,-58.8235294117647,4,2,1,70,0,0
114250,-76.9230769230769,4,2,1,70,0,0
114393,-52.6315789473684,4,2,1,70,0,0
114536,-71.4285714285714,4,2,1,70,0,0
114679,-62.5,4,2,1,70,0,0
114821,-71.4285714285714,4,2,1,70,0,0
114964,-41.6666666666667,4,2,1,70,0,0
115024,-41.6666666666667,4,2,1,50,0,0
115107,-45.4545454545455,4,2,1,70,0,0
115167,-45.4545454545455,4,2,1,50,0,0
115250,-50,4,2,1,70,0,0
115309,-50,4,2,1,50,0,0
115393,-45.4545454545455,4,2,1,70,0,0
115452,-45.4545454545455,4,2,1,50,0,0
115536,-45.4545454545455,4,2,1,70,0,0
116107,-58.8235294117647,4,2,1,70,0,0
116393,-66.6666666666667,4,2,1,70,0,0
127536,-100,4,2,1,60,0,0
130393,-76.9230769230769,4,2,1,60,0,0
131536,-125,4,2,1,60,0,0
132107,-100,4,2,1,60,0,0
136679,-100,4,2,2,50,0,0
145821,-133.333333333333,4,2,2,50,0,0
148679,-285.714285714286,4,2,2,50,0,0
150393,-133.333333333333,4,2,2,50,0,0
150536,-133.333333333333,4,2,2,5,0,0
150679,-133.333333333333,4,2,2,50,0,0
150821,-133.333333333333,4,2,2,5,0,0
150964,-117.647058823529,4,2,2,50,0,0
151107,-117.647058823529,4,2,2,5,0,0
151250,-117.647058823529,4,2,2,50,0,0
151393,-117.647058823529,4,2,2,5,0,0
151536,-105.263157894737,4,2,2,50,0,0
151679,-105.263157894737,4,2,2,5,0,0
151821,-105.263157894737,4,2,2,50,0,0
151964,-105.263157894737,4,2,2,5,0,0
152107,-95.2380952380951,4,2,2,50,0,0
152393,-86.9565217391304,4,2,2,50,0,0
152679,-83.3333333333333,4,2,2,50,0,0
154964,-57.1428571428571,4,2,2,70,0,1
162821,-200,4,2,2,70,0,1
163250,-57.1428571428571,4,2,2,70,0,1
173250,-66.6666666666667,4,2,1,70,0,0
173536,-44.4444444444445,4,2,1,70,0,0
174393,-66.6666666666667,4,2,1,70,0,0
182393,-66.6666666666667,4,2,1,70,0,1
189821,-200,4,2,1,70,0,1
189964,-66.6666666666667,4,2,1,70,0,1
190250,-50,4,2,1,70,0,1
190679,-66.6666666666667,4,2,1,70,0,1
191536,-66.6666666666667,4,2,1,70,0,0

[Colours]
Combo1 : 255,159,255
Combo2 : 255,142,142
Combo3 : 172,172,215
Combo4 : 164,255,209

[HitObjects]
48,108,679,6,0,B|132:100|164:196|164:196|192:132|268:124,1,280,6|0,3:2|2:0,2:0:0:0:
255,125,1250,2,0,P|286:38|376:58,1,200.08,6|0,3:2|2:0,2:0:0:0:
375,56,1679,2,0,B|327:102|351:172|351:172|371:126|427:118|427:118|483:218|399:278,1,399.6,6|8,3:2|2:0,2:0:0:0:
416,292,2464,1,8,2:0:0:0:
416,312,2536,5,8,2:0:0:0:
320,256,2679,5,8,2:0:0:0:
232,364,2821,5,8,2:0:0:0:
103,231,2964,6,0,B|47:211|7:267|7:267|43:339|123:315|123:315|147:283,1,280,6|0,3:2|2:0,2:0:0:0:
140,291,3536,2,0,B|143:215|143:215|135:135|35:143,1,200.08,6|0,3:2|2:0,2:0:0:0:
58,142,3964,2,0,B|170:162|114:82|278:110,1,200.08,6|0,3:2|2:0,2:0:0:0:
280,116,4393,1,8,2:0:0:0:
236,260,4679,5,8,2:0:0:0:
244,220,4774,5,8,2:0:0:0:
256,256,4869,5,8,2:0:0:0:
264,216,4964,5,8,2:0:0:0:
276,252,5059,5,8,2:0:0:0:
284,212,5155,5,8,2:0:0:0:
296,248,5250,5,6,3:2:0:0:
468,44,5536,5,8,2:0:0:0:
364,28,5679,1,0,2:0:0:0:
344,164,5821,1,10,2:0:0:0:
435,271,5964,5,0,3:0:0:0:
343,258,6107,1,8,2:0:0:0:
251,246,6250,1,2,3:2:0:0:
147,133,6393,5,8,2:0:0:0:
71,334,6536,1,0,2:0:0:0:
138,279,6679,1,8,2:0:0:0:
76,187,6821,1,0,3:0:0:0:
193,367,6964,5,8,2:0:0:0:
239,355,7107,1,0,3:0:0:0:
285,342,7250,1,8,2:0:0:0:
331,330,7393,1,0,3:0:0:0:
189,208,7536,5,10,2:0:0:0:
76,187,7679,1,0,2:0:0:0:
240,92,7821,5,8,2:0:0:0:
332,76,7964,1,0,3:0:0:0:
412,163,8107,5,10,2:0:0:0:
320,130,8250,1,0,3:0:0:0:
228,96,8393,1,8,2:0:0:0:
76,187,8536,5,6,3:2:0:0:
272,267,8821,5,0,3:0:0:0:
209,217,8964,2,0,L|185:200,1,20,8|8,0:0|0:0,0:0:0:0:
197,296,9107,1,8,2:3:0:0:
281,187,9250,1,4,2:3:0:0:
392,376,9821,6,0,P|460:356|496:232,1,192.479994140625,6|10,3:2|2:0,2:0:0:0:
392,172,10250,2,0,B|384:128|384:128|376:116|376:116|368:60,1,96.5759970703127,2|2,3:2|2:0,2:0:0:0:
392,40,10536,1,2,3:2:0:0:
512,96,10679,1,10,2:0:0:0:
428,268,10821,1,2,3:2:0:0:
252,172,10964,5,2,2:0:0:0:
372,152,11107,1,2,3:2:0:0:
232,176,11250,1,10,2:0:0:0:
312,296,11393,5,2,2:0:0:0:
192,276,11536,1,2,3:2:0:0:
332,300,11679,1,2,3:2:0:0:
152,376,11821,6,0,B|112:368|112:368|48:388|48:388|8:380,1,144.191995605469,10|0,2:0|2:0,2:0:0:0:
0,380,12107,2,0,P|-16:332|8:296,1,96.5759970703127,2|2,3:2|2:0,2:0:0:0:
80,240,12393,5,10,2:0:0:0:
92,148,12536,1,2,3:2:0:0:
104,60,12679,1,2,2:0:0:0:
76,144,12821,5,2,3:2:0:0:
88,232,12964,1,10,2:0:0:0:
100,324,13107,1,2,3:2:0:0:
256,76,13250,5,2,2:0:0:0:
244,168,13393,1,2,3:2:0:0:
168,112,13536,1,10,2:0:0:0:
344,192,13679,5,2,2:0:0:0:
356,284,13821,1,2,3:2:0:0:
432,228,13964,1,2,3:2:0:0:
256,308,14107,6,0,B|204:288|160:312|160:312|148:332|128:344,1,144.191995605469,10|0,2:0|2:0,2:0:0:0:
108,348,14393,2,0,P|68:323|80:279,1,96.5759970703127,2|2,3:2|2:0,2:0:0:0:
184,200,14679,5,10,2:0:0:0:
276,212,14821,1,2,3:2:0:0:
368,224,14964,1,2,2:0:0:0:
268,228,15107,5,2,3:2:0:0:
440,176,15250,1,10,2:0:0:0:
368,236,15393,5,2,3:2:0:0:
464,84,15536,1,2,2:0:0:0:
448,180,15679,5,2,3:2:0:0:
412,4,15821,1,10,2:0:0:0:
464,84,15964,5,2,2:0:0:0:
304,0,16107,1,2,3:2:0:0:
220,160,16250,1,2,3:2:0:0:
372,80,16393,1,10,2:0:0:0:
124,120,16679,6,0,P|116:191|168:256,1,144.191995605469,2|0,3:2|2:0,2:0:0:0:
220,160,16964,2,0,B|236:112|212:68|212:68|244:80|256:108,1,144.191995605469,10|0,2:0|2:0,2:0:0:0:
232,184,17250,5,2,3:2:0:0:
380,248,17393,2,0,B|408:224|408:224|276:260,1,144.191995605469,2|0,3:2|2:0,2:0:0:0:
280,280,17679,1,6,3:2:0:0:
56,384,18107,6,0,B|48:364|48:364|52:348|52:348|44:300,1,48.2879985351563,8|0,2:0|2:0,2:0:0:0:
56,384,18393,2,0,B|28:376|32:364|0:356,1,48.2879985351563,8|0,3:2|2:0,2:0:0:0:
144,332,18536,1,8,2:3:0:0:
124,232,18679,1,4,2:3:0:0:
124,232,18964,5,6,3:2:0:0:
390,150,19250,1,10,2:0:0:0:
226,327,19536,5,2,3:2:0:0:
256,192,19679,1,2,2:0:0:0:
288,55,19821,1,10,2:0:0:0:
359,286,20107,5,2,3:2:0:0:
155,96,20393,1,10,2:0:0:0:
256,192,20536,1,2,3:2:0:0:
390,150,20964,5,2,2:3:0:0:
176,208,21250,6,0,B|176:224|184:236|184:236|196:244|204:260,1,48.2879985351563,6|0,3:2|2:0,2:0:0:0:
336,176,21393,2,0,B|336:160|328:148|328:148|316:140|308:124,1,48.2879985351563,2|0,2:0|2:0,2:0:0:0:
256,192,21536,5,10,2:0:0:0:
408,136,21679,1,2,2:0:0:0:
324,256,21821,5,2,3:2:0:0:
344,80,21964,1,0,2:0:0:0:
404,220,22107,5,10,2:0:0:0:
268,112,22250,1,2,2:0:0:0:
332,168,22393,5,2,3:2:0:0:
168,252,22536,1,2,2:0:0:0:
252,208,22679,5,10,2:0:0:0:
224,356,22821,1,2,2:0:0:0:
288,308,22964,5,0,3:2:0:0:
180,276,23107,1,0,2:0:0:0:
72,244,23250,1,8,2:0:0:0:
286,327,23536,5,6,3:2:0:0:
224,55,23821,1,10,2:0:0:0:
388,232,24107,5,2,3:2:0:0:
256,192,24250,1,2,2:0:0:0:
122,150,24393,1,10,2:0:0:0:
357,96,24679,5,2,3:2:0:0:
153,286,24964,1,10,2:0:0:0:
256,192,25107,1,2,3:2:0:0:
224,55,25393,5,2,2:0:0:0:
286,327,25536,1,2,2:3:0:0:
208,132,25821,6,0,B|193:135|188:150|188:150|187:162|179:172,1,48.2879985351563,6|0,3:2|2:0,2:0:0:0:
304,252,25964,2,0,B|318:248|323:233|323:233|324:221|332:211,1,48.2879985351563,2|0,2:0|2:0,2:0:0:0:
304,124,26107,2,0,L|272:172,1,48.2879985351563,10|0,2:0|2:0,2:0:0:0:
208,264,26250,2,0,L|234:224,1,48.2879985351563,2|0,2:0|2:0,2:0:0:0:
376,152,26393,5,2,3:2:0:0:
136,232,26536,1,2,2:0:0:0:
344,248,26679,5,10,2:0:0:0:
168,140,26821,1,2,2:0:0:0:
240,292,26964,5,2,3:2:0:0:
272,92,27107,1,2,2:0:0:0:
128,256,27250,5,10,2:0:0:0:
384,128,27393,1,2,2:0:0:0:
452,228,27536,1,0,3:0:0:0:
207,221,27679,5,8,2:0:0:0:
215,181,27750,1,8,2:0:0:0:
226,143,27821,1,8,3:2:0:0:
266,151,27893,1,8,2:0:0:0:
304,162,27964,1,8,2:0:0:0:
296,202,28036,1,8,2:0:0:0:
285,240,28107,6,0,B|195:259|195:259|157:325|157:325|67:344,1,256.192,4|2,3:2|2:0,2:0:0:0:
71,343,29250,6,0,B|122:308|210:349|169:374|260:414|333:366,1,256.192,6|2,3:2|2:0,2:0:0:0:
311,377,30393,6,0,B|287:316|347:278|347:278|386:313|373:346,1,192.256,6|0,3:2|2:0,2:0:0:0:
180,152,30964,6,0,B|203:212|143:250|143:250|104:215|117:182,1,192.256,6|0,3:2|2:0,2:0:0:0:
357,62,31536,5,10,2:0:0:0:
357,62,32107,5,8,2:0:0:0:
301,146,32250,1,0,3:0:0:0:
385,202,32393,1,8,3:0:0:0:
329,286,32536,1,4,3:0:0:0:
412,342,32679,6,0,P|316:330|222:334,1,192.479994140625,6|10,3:2|2:0,2:0:0:0:
146,91,33250,2,0,P|193:96|241:94,1,96.5759970703127,2|0,3:2|2:0,2:0:0:0:
104,159,33536,2,0,P|56:153|8:155,1,96.5759970703127,10|0,2:0|2:0,2:0:0:0:
182,174,33821,6,0,P|176:221|178:269,1,96.5759970703127,2|0,3:2|2:0,2:0:0:0:
115,319,34107,1,10,2:0:0:0:
314,252,34250,2,0,P|280:337|189:348,1,192.479994140625,2|0,3:2|2:0,2:0:0:0:
195,268,34679,1,2,2:3:0:0:
178,269,34964,5,6,3:2:0:0:
115,319,35107,1,10,2:0:0:0:
103,239,35250,1,2,3:2:0:0:
91,159,35393,1,10,2:0:0:0:
167,188,35536,5,2,3:2:0:0:
143,28,35679,1,8,2:0:0:0:
303,4,35821,1,2,3:2:0:0:
327,164,35964,1,8,2:0:0:0:
242,155,36107,5,2,3:2:0:0:
176,104,36250,1,8,2:0:0:0:
227,38,36393,1,2,3:2:0:0:
293,89,36536,1,8,2:0:0:0:
461,65,36679,6,0,L|358:54,1,96.5759970703127,2|8,3:2|2:0,2:0:0:0:
288,248,36964,2,0,L|391:237,1,96.5759970703127,0|8,3:2|2:0,2:0:0:0:
256,321,37250,6,0,B|176:312|176:312|150:291|150:291|73:282,1,192.479994140625,6|10,3:2|2:0,2:0:0:0:
72,281,37821,2,0,P|76:235|73:183,1,96.5759970703127,2|0,3:2|2:0,2:0:0:0:
158,121,38107,2,0,P|154:167|157:219,1,96.5759970703127,10|0,2:0|2:0,2:0:0:0:
78,105,38393,6,0,P|107:19|199:10,1,192.479994140625,2|10,3:2|2:0,2:0:0:0:
238,76,38821,2,0,P|266:162|358:171,1,192.479994140625,2|2,3:2|2:0,2:0:0:0:
435,175,39250,1,2,2:3:0:0:
435,175,39536,5,6,3:2:0:0:
398,314,39679,1,10,2:0:0:0:
291,214,39821,1,2,3:2:0:0:
326,71,39964,1,10,2:0:0:0:
374,237,40107,5,2,3:2:0:0:
208,286,40250,1,10,2:0:0:0:
160,120,40393,1,2,3:2:0:0:
326,71,40536,1,10,2:0:0:0:
243,143,40679,5,2,3:2:0:0:
160,120,40821,1,10,2:0:0:0:
125,309,40964,5,2,3:2:0:0:
42,332,41107,1,10,2:0:0:0:
208,286,41250,6,0,L|304:312,1,96.5759970703127,0|8,3:0|2:0,2:0:0:0:
194,207,41536,2,0,L|98:233,1,96.5759970703127,8|8,3:2|2:0,2:0:0:0:
0,58,41821,6,0,B|104:39|49:154|155:136,1,192.479994140625,6|10,3:2|2:0,2:0:0:0:
306,15,42250,1,2,2:0:0:0:
364,69,42393,2,0,P|360:164|367:260,1,192.479994140625,2|10,3:2|2:0,2:0:0:0:
223,336,42821,5,2,2:0:0:0:
198,264,42964,2,0,B|241:243|241:243|287:256,1,96.5759970703127,2|0,3:2|2:0,2:0:0:0:
148,322,43250,2,0,B|101:335|101:335|58:314,1,96.5759970703127,10|0,2:0|2:0,2:0:0:0:
30,242,43536,1,2,3:2:0:0:
0,84,43679,1,0,2:0:0:0:
158,54,43821,1,10,2:0:0:0:
104,205,43964,5,0,2:0:0:0:
36,158,44107,1,2,3:2:0:0:
83,90,44250,1,0,2:0:0:0:
151,137,44393,5,10,2:0:0:0:
119,286,44536,1,0,2:0:0:0:
268,318,44679,2,0,P|311:307|365:304,1,96.5759970703127,2|0,3:2|2:0,2:0:0:0:
384,213,44964,2,0,P|341:224|287:227,1,96.5759970703127,10|0,2:0|2:0,2:0:0:0:
436,273,45250,6,0,P|504:213|481:125,1,192.479994140625,2|8,3:2|3:2,2:0:0:0:
440,59,45679,1,8,2:0:0:0:
286,3,45821,1,8,3:2:0:0:
230,157,45964,1,8,2:0:0:0:
384,213,46107,1,8,3:2:0:0:
356,52,46250,1,8,2:0:0:0:
195,80,46393,2,0,B|111:108|177:165|95:191,1,160.12,4|2,3:2|2:0,2:0:0:0:
34,105,47536,6,0,B|253:180|49:298|273:381,1,384.28798828125,6|2,3:2|2:0,2:0:0:0:
375,150,48679,6,0,B|482:188|382:246|494:287,1,180.240006866455,6|2,3:2|2:0,2:0:0:0:
404,66,49250,2,0,B|297:104|396:162|284:203,1,180.240006866455,6|2,3:2|2:0,2:0:0:0:
473,112,49821,1,10,2:0:0:0:
216,296,50679,5,4,2:3:0:0:
216,296,50964,5,6,3:2:0:0:
300,328,51107,1,2,2:0:0:0:
180,68,51250,1,10,2:0:0:0:
136,148,51393,1,2,3:2:0:0:
376,120,51536,1,0,2:0:0:0:
300,160,51679,1,2,3:2:0:0:
224,200,51821,1,8,2:0:0:0:
440,304,51964,6,0,P|448:244|452:168,1,120.720004577637,2|0,3:2|2:0,2:0:0:0:
288,16,52250,1,0,3:0:0:0:
104,96,52393,1,10,2:0:0:0:
192,288,52536,1,0,2:0:0:0:
148,188,52679,1,2,3:2:0:0:
268,124,52821,1,0,3:0:0:0:
300,108,52893,1,0,3:0:0:0:
332,92,52964,1,10,2:0:0:0:
296,244,53107,1,2,2:0:0:0:
148,188,53250,6,0,P|72:176|8:164,1,120.720004577637,2|0,3:2|2:0,2:0:0:0:
332,92,53536,2,0,P|408:80|472:68,1,120.720004577637,10|0,2:0|3:0,2:0:0:0:
160,92,53821,1,2,2:0:0:0:
324,208,53964,1,2,3:2:0:0:
248,52,54107,1,8,2:0:0:0:
232,232,54250,6,0,P|224:312|216:380,1,120.720004577637,2|0,3:2|2:0,2:0:0:0:
232,376,54536,1,0,3:0:0:0:
220,208,54679,2,0,P|216:144|208:76,1,120.720004577637,8|0,2:0|2:0,2:0:0:0:
128,296,54964,5,0,3:0:0:0:
280,308,55107,1,0,3:0:0:0:
432,320,55250,1,8,2:0:0:0:
400,244,55536,5,2,3:2:0:0:
356,384,55679,1,2,2:0:0:0:
452,308,55821,1,10,2:0:0:0:
304,320,55964,1,2,3:2:0:0:
468,328,56107,5,0,2:0:0:0:
372,244,56250,1,2,3:2:0:0:
276,160,56393,1,8,2:0:0:0:
204,340,56536,2,0,P|140:348|48:360,1,120.720004577637,2|0,3:2|2:0,2:0:0:0:
20,300,56821,1,0,3:0:0:0:
292,364,56964,6,0,P|288:292|276:196,1,120.720004577637,10|0,2:0|2:0,2:0:0:0:
52,0,57250,2,0,P|56:72|68:168,1,120.720004577637,2|0,3:2|3:2,2:0:0:0:
207,255,57536,1,10,2:0:0:0:
136,116,57679,1,2,2:0:0:0:
130,205,57821,5,2,3:2:0:0:
209,164,57964,1,0,2:0:0:0:
289,126,58107,2,0,P|352:96|432:58,1,120.720004577637,10|0,2:0|2:0,2:0:0:0:
384,61,58393,5,2,3:2:0:0:
376,277,58536,1,2,3:2:0:0:
380,169,58679,1,8,2:0:0:0:
372,381,58821,1,6,3:2:0:0:
448,352,59107,5,0,3:0:0:0:
256,256,59250,1,8,2:0:0:0:
72,372,59393,1,0,2:0:0:0:
240,344,59536,1,0,3:0:0:0:
200,116,59679,1,0,3:0:0:0:
24,144,59821,1,8,2:0:0:0:
32,188,59893,1,8,2:0:0:0:
40,232,59964,1,8,2:0:0:0:
84,224,60036,1,8,2:0:0:0:
124,212,60107,6,0,P|188:200|252:188,1,120.720004577637,6|2,3:2|2:0,2:0:0:0:
88,304,60393,1,10,2:0:0:0:
304,132,60536,2,0,P|304:64|256:12,1,120.720004577637,2|0,2:0|3:0,2:0:0:0:
176,288,60821,2,0,P|234:322|303:306,1,120.720004577637,2|8,2:0|2:0,2:0:0:0:
160,73,61107,2,0,P|80:93|48:249,1,240.600009155274,2|0,2:0|2:0,2:0:0:0:
160,164,61536,5,10,2:0:0:0:
408,200,61679,1,0,2:0:0:0:
216,224,61821,1,2,3:2:0:0:
344,144,61964,1,0,2:0:0:0:
300,220,62107,1,10,2:0:0:0:
260,148,62250,1,2,2:0:0:0:
424,320,62393,6,0,P|488:304|528:252,1,120.720004577637,2|0,3:2|2:0,2:0:0:0:
216,224,62679,2,0,P|197:287|222:348,1,120.720004577637,10|0,2:0|2:0,2:0:0:0:
408,200,62964,1,2,3:2:0:0:
196,88,63107,2,0,P|132:92|80:124,1,120.720004577637,2|8,2:0|2:0,2:0:0:0:
304,172,63393,6,0,B|336:136|332:72|332:72|308:44|304:4,1,180.240006866455,2|0,2:0|2:0,2:0:0:0:
304,5,63679,1,2,2:0:0:0:
380,232,63821,1,8,2:0:0:0:
216,288,63964,1,0,2:0:0:0:
300,260,64107,1,0,3:0:0:0:
336,348,64250,1,0,2:0:0:0:
128,316,64393,1,8,2:0:0:0:
180,196,64536,1,0,2:0:0:0:
224,308,64679,5,2,3:2:0:0:
112,336,64821,1,2,2:0:0:0:
0,364,64964,1,10,2:0:0:0:
276,208,65107,2,0,P|308:260|336:332,1,120.720004577637,2|0,2:0|3:0,2:0:0:0:
80,180,65393,2,0,P|103:124|134:73,1,120.720004577637,2|8,2:0|2:0,2:0:0:0:
128,252,65679,1,2,2:0:0:0:
8,120,65821,5,0,3:0:0:0:
156,84,65964,1,0,2:0:0:0:
284,176,66107,1,10,2:0:0:0:
248,20,66250,1,0,3:0:0:0:
248,20,66321,1,0,3:0:0:0:
248,20,66393,1,2,3:2:0:0:
500,76,66536,1,0,2:0:0:0:
352,112,66679,1,10,2:0:0:0:
484,164,66821,1,0,2:0:0:0:
356,304,66964,6,0,B|312:216|380:224|340:128,1,180.240006866455,2|0,3:2|2:0,2:0:0:0:
268,184,67250,2,0,B|240:224|248:276|248:276|184:284|144:244,1,180.240006866455,10|0,2:0|2:0,2:0:0:0:
172,180,67536,2,0,P|188:124|208:84,1,60.3600022888185,2|0,3:2|2:0,2:0:0:0:
148,344,67679,2,0,B|52:312|116:252|24:224,1,180.240006866455,2|0,3:2|2:0,2:0:0:0:
0,220,67964,5,6,3:2:0:0:
140,364,68250,5,0,3:0:0:0:
152,184,68393,1,8,2:0:0:0:
268,356,68536,5,0,3:0:0:0:
284,124,68679,1,8,2:0:0:0:
392,348,68821,5,8,2:3:0:0:
416,52,68964,1,8,2:3:0:0:
46,53,69250,6,0,P|63:195|61:339,1,288.383991210938,6|0,3:2|2:0,2:0:0:0:
153,324,69821,2,0,P|141:228|143:132,1,192.479994140625,6|0,3:2|2:0,2:0:0:0:
215,88,70250,2,0,P|226:183|224:279,1,192.479994140625,6|0,3:2|2:0,2:0:0:0:
311,314,70679,1,8,2:0:0:0:
311,314,70964,2,0,P|306:264|308:214,1,100.6,8|0,2:0|2:0,2:0:0:0:
372,71,71107,2,0,P|367:120|369:170,1,100.6,8|0,2:3|2:0,2:0:0:0:
427,291,71250,2,0,P|425:212|440:133,1,160.96,4|0,3:0|3:0,2:0:0:0:
491,48,71536,6,0,P|489:191|506:334,1,288.383991210938,6|0,3:2|2:0,2:0:0:0:
438,370,72107,2,0,B|328:351|418:267|298:249,1,192.479994140625,6|0,3:2|2:0,2:0:0:0:
356,77,72536,2,0,B|246:96|336:180|216:198,1,192.479994140625,6|0,3:2|2:0,2:0:0:0:
185,264,72964,1,8,2:0:0:0:
49,210,73107,1,0,2:0:0:0:
103,74,73250,1,4,2:3:0:0:
149,47,73321,2,0,P|196:52|244:47,1,96.5759970703127,4|0,2:3|2:0,2:0:0:0:
242,18,73536,2,0,P|289:12|337:18,1,96.5759970703127,12|0,2:0|2:0,2:0:0:0:
406,50,73750,1,8,2:0:0:0:
480,28,73821,5,8,2:0:0:0:
408,294,73964,1,8,2:0:0:0:
356,234,75821,5,2,2:0:0:0:
356,234,76107,2,0,B|341:228|329:234|329:234|320:252|301:259,1,60.3600022888185,8|0,2:0|2:0,2:0:0:0:
212,297,76250,2,0,B|227:291|239:297|239:297|248:315|267:321,1,60.3600022888185,8|0,2:0|2:0,2:0:0:0:
331,383,76679,6,0,B|322:365|332:345|332:345|350:333|355:313,1,80.4800000000001,8|0,2:0|2:0,2:0:0:0:
218,152,76821,2,0,B|209:170|219:190|219:190|237:202|242:222,1,80.4800000000001,8|0,2:0|2:0,2:0:0:0:
492,54,77107,6,0,B|331:60|443:151|286:157,1,240.600009155274,6|2,3:2|2:0,2:0:0:0:
128,69,77536,6,0,L|125:102,1,32.192,8|0,2:0|2:0,2:0:0:0:
74,164,77821,5,8,2:0:0:0:
206,140,77964,1,8,2:0:0:0:
182,8,78107,1,8,2:0:0:0:
50,32,78250,1,8,2:0:0:0:
206,140,78393,5,6,3:2:0:0:
283,118,78536,1,2,2:0:0:0:
360,96,78679,2,0,L|453:71,1,80.4800000000001,10|2,2:0|2:0,2:0:0:0:
265,199,78964,2,0,P|265:242|324:293,1,120.16,2|0,3:2|2:0,2:0:0:0:
318,291,79250,2,0,P|262:304|226:312,1,80.4800000000001,10|0,2:0|2:0,2:0:0:0:
424,238,79536,5,2,3:2:0:0:
416,356,79679,1,2,2:0:0:0:
508,303,79821,1,10,2:0:0:0:
335,292,79964,1,2,3:2:0:0:
329,302,80250,5,0,3:0:0:0:
512,292,80393,1,8,2:0:0:0:
272,120,80679,5,2,3:2:0:0:
256,216,80821,1,2,2:0:0:0:
336,180,80964,1,10,2:0:0:0:
196,156,81107,1,2,2:0:0:0:
344,264,81250,5,2,3:2:0:0:
376,108,81393,1,2,2:0:0:0:
188,72,81536,1,10,2:0:0:0:
156,224,81679,1,2,2:0:0:0:
248,248,81821,5,2,3:2:0:0:
272,120,81964,1,2,2:0:0:0:
88,80,82107,1,10,2:0:0:0:
164,144,82250,1,2,3:2:0:0:
160,152,82536,5,0,3:0:0:0:
296,88,82679,1,8,2:0:0:0:
204,328,82964,6,0,P|148:320|100:308,1,80.4800000000001,2|2,3:2|2:0,2:0:0:0:
252,248,83250,2,0,P|196:240|148:228,1,80.4800000000001,10|0,2:0|2:0,2:0:0:0:
408,260,83536,6,0,P|464:252|512:240,1,80.4800000000001,2|0,3:2|2:0,2:0:0:0:
360,180,83821,2,0,P|416:172|464:160,1,80.4800000000001,10|2,2:0|2:0,2:0:0:0:
304,344,84107,6,0,B|283:358|297:391|348:382|344:347|328:310|325:298|325:298|322:325|311:337,1,160.4,2|10,3:2|2:0,2:0:0:0:
173,234,84536,2,0,B|189:218|213:226|213:226|197:226|177:238,1,80.4800000000001,2|0,3:2|2:0,2:0:0:0:
64,340,84821,1,0,3:0:0:0:
156,324,84964,1,10,2:0:0:0:
64,144,85250,5,2,3:2:0:0:
52,228,85393,1,2,2:0:0:0:
340,124,85536,1,10,2:0:0:0:
312,204,85679,1,2,2:0:0:0:
172,104,85821,1,2,3:2:0:0:
208,180,85964,1,2,2:0:0:0:
304,40,86107,1,10,2:0:0:0:
224,20,86250,1,2,2:0:0:0:
352,140,86393,5,2,3:2:0:0:
440,76,86536,1,2,2:0:0:0:
456,184,86679,1,10,2:0:0:0:
368,248,86821,1,10,2:0:0:0:
472,192,86964,5,0,3:0:0:0:
452,64,87107,1,8,3:0:0:0:
340,132,87250,1,4,3:0:0:0:
389,339,87536,6,0,B|449:371|521:331|433:255|337:323|365:367|261:359,1,280,4|0,3:2|2:0,2:0:0:0:
181,316,88107,6,0,L|159:314,1,20.4,10|8,2:0|2:0,2:0:0:0:
266,261,88250,1,8,2:0:0:0:
267,359,88393,1,8,2:0:0:0:
179,220,88536,1,10,2:0:0:0:
400,52,88679,6,0,B|368:72|332:88|332:88|340:140|340:188,1,160.4,6|10,3:2|2:0,2:0:0:0:
264,32,89250,1,10,2:0:0:0:
424,140,89393,1,0,3:0:0:0:
476,20,89536,1,4,3:0:0:0:
288,276,89821,6,0,B|324:292|352:256|352:256|300:268|224:252|184:200,1,240.32,6|0,3:2|2:0,2:0:0:0:
72,112,90393,2,0,B|41:40|172:26|181:166|73:189,1,240.32,6|0,3:2|2:0,2:0:0:0:
44,260,90964,5,2,3:2:0:0:
468,124,91250,1,12,2:0:0:0:
224,324,91536,5,12,3:2:0:0:
284,264,91631,5,8,2:0:0:0:
296,180,91726,5,8,2:0:0:0:
252,108,91821,5,8,2:0:0:0:
208,180,91917,5,8,2:0:0:0:
244,256,92012,5,8,2:0:0:0:
328,267,92107,6,0,L|438:212,1,120.720004577637,6|2,3:2|2:0,2:0:0:0:
512,220,92393,1,10,2:0:0:0:
464,37,92536,1,2,3:2:0:0:
281,85,92679,1,0,2:0:0:0:
437,197,92821,5,2,3:2:0:0:
429,118,92964,1,8,2:0:0:0:
273,72,93107,5,2,3:2:0:0:
197,54,93250,1,0,2:0:0:0:
121,36,93393,1,0,3:0:0:0:
26,202,93536,5,10,2:0:0:0:
143,112,93679,1,0,2:0:0:0:
77,262,93821,2,0,P|71:321|76:381,1,120.720004577637,2|0,3:2|3:0,2:0:0:0:
17,191,94107,2,0,P|22:131|17:71,1,120.720004577637,10|2,2:0|2:0,2:0:0:0:
77,262,94393,5,2,3:2:0:0:
212,165,94536,1,0,2:0:0:0:
309,299,94679,2,0,P|365:278|424:267,1,120.720004577637,10|0,2:0|3:0,2:0:0:0:
450,194,94964,1,2,2:0:0:0:
354,59,95107,2,0,P|297:79|238:90,1,120.720004577637,2|8,3:2|2:0,2:0:0:0:
119,329,95393,6,0,P|111:216|212:165,1,240.600009155274,2|0,3:2|3:0,2:0:0:0:
197,339,95821,2,0,P|253:319|312:308,1,120.720004577637,8|0,2:0|2:0,2:0:0:0:
382,345,96107,5,0,3:0:0:0:
450,194,96250,1,0,3:0:0:0:
299,126,96393,1,8,2:0:0:0:
296,143,96679,5,2,3:2:0:0:
221,173,96821,1,2,2:0:0:0:
251,248,96964,1,10,2:0:0:0:
145,146,97107,6,0,L|163:25,1,120.720004577637,2|0,3:2|2:0,2:0:0:0:
43,175,97393,2,0,L|60:293,1,120.720004577637,2|8,3:2|2:0,2:0:0:0:
373,275,97679,2,0,B|261:205|280:339|163:336,1,240.600009155274,2|0,3:2|3:0,2:0:0:0:
461,336,98107,2,0,P|465:279|481:217,1,120.720004577637,10|0,2:0|2:0,2:0:0:0:
395,60,98393,2,0,P|389:119|374:177,1,120.720004577637,2|0,3:2|3:0,2:0:0:0:
476,33,98679,5,10,2:0:0:0:
308,1,98821,1,2,2:0:0:0:
276,169,98964,2,0,P|218:153|158:148,1,120.720004577637,2|0,3:2|2:0,2:0:0:0:
203,63,99250,2,0,P|260:78|320:84,1,120.720004577637,10|0,2:0|2:0,2:0:0:0:
356,158,99536,5,2,3:2:0:0:
226,254,99679,1,2,3:2:0:0:
375,319,99821,1,8,2:0:0:0:
505,223,99964,2,0,P|465:219|426:209,1,80.2000000000001,6|0,3:2|3:0,2:0:0:0:
408,215,100393,5,8,2:0:0:0:
319,244,100536,1,0,2:0:0:0:
412,233,100679,1,0,3:0:0:0:
203,63,100821,5,0,3:0:0:0:
99,186,100964,1,8,0:0:0:0:
99,186,101036,1,8,0:0:0:0:
99,186,101107,1,8,0:0:0:0:
225,338,101250,6,0,B|160:308|208:283|144:253,1,120.720004577637,6|2,3:2|2:0,2:0:0:0:
70,278,101536,1,10,2:0:0:0:
29,104,101679,1,2,2:0:0:0:
203,63,101821,1,0,3:0:0:0:
244,237,101964,5,2,2:0:0:0:
182,187,102107,1,8,2:0:0:0:
281,84,102250,5,2,2:0:0:0:
419,118,102393,1,0,3:0:0:0:
321,220,102536,1,0,2:0:0:0:
182,187,102679,5,10,2:0:0:0:
340,140,102821,1,0,2:0:0:0:
386,299,102964,2,0,P|331:317|279:349,1,120.720004577637,2|0,3:2|2:0,2:0:0:0:
360,62,103250,2,0,P|415:44|467:12,1,120.720004577637,10|2,2:0|2:0,2:0:0:0:
512,76,103536,5,2,3:2:0:0:
400,195,103679,1,0,2:0:0:0:
281,84,103821,2,0,P|226:102|174:134,1,120.720004577637,10|0,2:0|2:0,2:0:0:0:
97,117,104107,1,2,3:2:0:0:
156,330,104250,2,0,P|206:361|263:380,1,120.720004577637,2|8,2:0|2:0,2:0:0:0:
398,143,104536,6,0,B|275:115|329:233|235:295,1,240.600009155274,2|0,2:0|2:0,2:0:0:0:
485,197,104964,2,0,L|474:77,1,120.720004577637,8|0,2:0|2:0,2:0:0:0:
409,33,105250,5,0,3:0:0:0:
380,222,105393,1,0,2:0:0:0:
191,193,105536,1,8,2:0:0:0:
197,177,105821,5,2,3:2:0:0:
177,99,105964,1,2,2:0:0:0:
254,79,106107,1,10,2:0:0:0:
120,156,106250,6,0,L|0:141,1,120.720004577637,2|0,2:0|3:0,2:0:0:0:
140,234,106536,2,0,L|259:219,1,120.720004577637,2|8,2:0|2:0,2:0:0:0:
39,242,106821,2,0,B|143:191|108:330|232:355,1,240.600009155274,2|0,2:0|2:0,2:0:0:0:
281,297,107250,5,10,2:0:0:0:
497,333,107393,1,8,2:0:0:0:
421,128,107536,5,8,2:0:0:0:
467,193,107631,1,8,2:0:0:0:
400,236,107726,1,8,2:0:0:0:
351,207,107821,5,8,2:0:0:0:
346,150,107917,1,8,2:0:0:0:
291,138,108012,1,8,2:0:0:0:
273,214,108107,5,8,3:2:0:0:
84,124,108964,5,8,3:0:0:0:
84,124,109250,6,0,B|152:116|196:40|196:40|216:44|216:44|216:72|228:96,1,204.272003890991,6|0,3:2|2:0,2:0:0:0:
172,244,109536,2,0,B|121:271|35:277|35:277|74:282|104:297,1,204.272003890991,10|0,2:0|2:0,2:0:0:0:
244,188,109821,6,0,B|316:196|368:264|368:264|400:252|400:252|448:264|488:256,2,272.204005187988,2|10|2,3:2|2:0|3:2,2:0:0:0:
364,356,110536,2,0,B|392:364|392:364|400:360|400:360|404:340|424:320,1,68.4080012969972,2|0,2:0|2:0,2:0:0:0:
332,140,110679,2,0,B|328:172|348:188|348:188|356:212,1,68.4080012969972,10|0,2:0|2:0,2:0:0:0:
504,252,110821,2,0,B|500:204|452:168|452:168|444:108|480:60,1,204.272003890991,2|0,3:2|2:0,2:0:0:0:
488,56,111107,6,0,P|464:80|420:80,1,68.4080012969972,2|0,3:2|2:0,2:0:0:0:
352,128,111250,2,0,P|318:128|286:96,1,68.4080012969972,10|0,2:0|2:0,2:0:0:0:
204,82,111393,2,0,P|179:57|179:13,1,68.4080012969972,2|0,2:0|2:0,2:0:0:0:
224,176,111536,2,0,B|210:222|175:234|175:234|156:240|156:240|155:265|155:265|132:303,1,136.816002593994,2|2,3:2|3:2,2:0:0:0:
74,325,111821,5,10,2:0:0:0:
147,159,111964,1,2,2:0:0:0:
53,174,112107,5,2,3:2:0:0:
168,310,112250,1,2,3:2:0:0:
258,143,112393,5,10,2:0:0:0:
372,279,112536,1,2,2:0:0:0:
278,294,112679,5,2,3:2:0:0:
352,128,112821,1,2,3:2:0:0:
214,224,112964,1,10,2:0:0:0:
435,334,113107,6,2,B|495:290|457:202|457:202|482:175|476:131,1,204.272003890991,2|0,3:2|2:0,2:0:0:0:
456,117,113393,1,0,3:0:0:0:
336,52,113536,1,10,2:0:0:0:
251,159,113679,1,2,2:0:0:0:
354,247,113821,6,2,L|441:240,1,60.3600022888185,2|0,3:2|2:0,2:0:0:0:
251,348,113964,2,2,L|338:341,1,68.4080012969972,2|0,2:0|2:0,2:0:0:0:
183,164,114107,2,2,L|270:157,1,68.4080012969972,10|0,2:0|2:0,2:0:0:0:
65,255,114250,2,2,L|152:248,1,52.3119976196291,2|0,2:0|2:0,2:0:0:0:
78,71,114393,6,2,L|165:64,1,76.4559979705812,2|0,3:2|2:0,2:0:0:0:
230,10,114536,2,2,L|317:3,1,56.3359982910158,2|0,3:2|2:0,2:0:0:0:
201,257,114679,2,2,L|288:250,1,64.3840000000001,10|0,2:0|2:0,2:0:0:0:
333,93,114821,2,2,L|420:86,1,56.3359982910158,2|0,2:0|2:0,2:0:0:0:
412,304,114964,6,2,L|366:201,1,96.5759970703127,2|0,3:2|2:0,2:0:0:0:
404,194,115107,6,2,L|393:286,1,88.000002685547,2|0,3:2|2:0,2:0:0:0:
354,274,115250,6,2,L|434:222,1,80.4800000000001,10|0,2:0|2:0,2:0:0:0:
448,261,115393,6,2,L|332:244,1,88.5280026855471,2|0,2:0|2:0,2:0:0:0:
280,328,115536,5,2,2:0:0:0:
144,280,115679,5,2,3:2:0:0:
80,140,115821,5,10,2:0:0:0:
32,288,115964,5,2,2:0:0:0:
196,200,116107,6,0,P|252:184|336:152,1,136.816002593994,2|0,3:2|2:0,2:0:0:0:
112,212,116393,2,0,B|208:238|271:308|271:308|333:314,1,240.600009155274,14|2,0:0|3:2,2:0:0:0:
322,313,116821,5,2,3:2:0:0:
324,156,116964,1,10,2:0:0:0:
384,240,117107,1,0,2:0:0:0:
260,236,117250,5,2,3:2:0:0:
464,241,117393,1,2,3:2:0:0:
467,37,117536,1,10,2:0:0:0:
263,36,117679,1,4,3:2:0:0:
408,164,117964,5,2,3:2:0:0:
256,48,118107,5,10,2:0:0:0:
192,36,118179,1,10,2:0:0:0:
132,60,118250,1,10,2:0:0:0:
88,108,118321,1,10,2:0:0:0:
80,172,118393,5,6,3:2:0:0:
37,22,118536,1,2,2:3:0:0:
192,36,118679,1,10,2:0:0:0:
238,184,118821,1,2,2:3:0:0:
80,172,118964,5,2,3:2:0:0:
187,118,119107,1,2,2:3:0:0:
179,238,119250,1,10,2:0:0:0:
73,295,119393,1,2,2:3:0:0:
80,172,119536,5,2,3:2:0:0:
179,238,119679,1,2,2:3:0:0:
298,231,119821,1,10,2:0:0:0:
386,150,119964,1,2,2:3:0:0:
400,252,120107,5,0,3:0:0:0:
305,238,120250,1,2,2:3:0:0:
298,140,120393,1,8,2:0:0:0:
393,157,120536,1,2,2:3:0:0:
408,263,120679,5,2,3:2:0:0:
461,121,120821,1,2,2:3:0:0:
340,22,120964,1,10,2:0:0:0:
210,109,121107,1,2,2:3:0:0:
298,140,121250,5,2,3:2:0:0:
239,35,121393,1,2,2:3:0:0:
119,48,121536,1,10,2:0:0:0:
93,165,121679,1,2,2:3:0:0:
167,120,121821,5,2,3:2:0:0:
234,219,121964,1,2,0:3:0:0:
351,244,122107,1,10,0:0:0:0:
455,184,122250,1,2,0:3:0:0:
433,309,122393,5,0,3:0:0:0:
355,252,122536,1,2,0:3:0:0:
380,138,122679,1,8,2:0:0:0:
459,192,122821,1,2,0:3:0:0:
436,319,122964,5,2,3:2:0:0:
282,343,123107,1,2,0:3:0:0:
240,192,123250,1,10,0:0:0:0:
85,169,123393,1,2,0:3:0:0:
38,279,123536,5,2,3:2:0:0:
155,254,123679,1,2,0:3:0:0:
187,139,123821,1,10,0:0:0:0:
305,116,123964,1,2,0:3:0:0:
384,205,124107,5,2,3:2:0:0:
264,221,124250,1,2,0:3:0:0:
176,138,124393,1,10,0:0:0:0:
197,20,124536,1,2,0:3:0:0:
281,117,124679,5,0,3:0:0:0:
187,139,124822,1,2,0:3:0:0:
114,43,124964,1,8,0:2:0:0:
208,21,125107,1,2,0:3:0:0:
291,119,125250,5,2,3:2:0:0:
372,30,125393,1,2,0:3:0:0:
252,188,125536,5,10,0:0:0:0:
405,154,125679,1,2,0:3:0:0:
179,222,125821,5,2,3:2:0:0:
362,280,125964,1,2,0:3:0:0:
105,206,126107,5,10,0:0:0:0:
260,373,126250,1,2,0:3:0:0:
326,148,126393,5,2,3:2:0:0:
120,36,126536,5,8,0:0:0:0:
72,72,126607,1,8,0:0:0:0:
56,128,126679,1,8,0:0:0:0:
68,188,126750,1,8,0:0:0:0:
116,224,126821,1,8,0:0:0:0:
176,232,126893,1,8,0:0:0:0:
232,208,126964,5,8,0:3:0:0:
271,213,127036,1,8,0:3:0:0:
308,233,127107,1,8,0:3:0:0:
328,271,127179,1,8,0:3:0:0:
324,308,127250,5,4,0:3:0:0:
304,340,127321,1,4,0:3:0:0:
268,344,127393,1,4,0:3:0:0:
236,328,127464,1,4,0:3:0:0:
236,292,127536,6,0,B|316:204|408:284|408:284|396:344|464:364,1,280,6|0,3:2|0:0,0:0:0:0:
472,356,128107,2,0,L|496:347,1,20,8|8,0:0|0:0,0:0:0:0:
508,268,128250,1,8,0:0:0:0:
484,176,128393,1,10,0:0:0:0:
404,124,128536,1,8,0:0:0:0:
308,136,128679,6,0,B|219:185|116:80|192:-24|295:4|272:71,1,280,6|0,3:2|0:0,0:0:0:0:
272,68,129250,2,0,L|267:98,1,20,8|8,0:0|0:0,0:0:0:0:
208,148,129393,1,8,0:3:0:0:
112,144,129536,1,4,0:3:0:0:
56,64,129821,6,0,P|136:112|128:272,1,240,6|0,3:2|3:0,0:0:0:0:
80,304,130393,6,0,P|164:288|304:272,2,207.999990478516,10|10|10,0:0|0:0|0:0,0:0:0:0:
148,380,131107,1,8,0:3:0:0:
172,384,131393,1,4,0:3:0:0:
344,204,131536,6,0,P|312:256|432:272,1,224,12|0,0:0|0:0,0:0:0:0:
492,192,132107,6,0,P|436:200|288:32,1,280,6|0,3:2|0:0,0:0:0:0:
476,0,132679,6,0,P|488:52|484:104,1,80,10|0,0:0|0:0,0:0:0:0:
392,12,132964,2,0,P|393:51|403:90,1,80,10|0,0:0|0:0,0:0:0:0:
200,208,133250,6,0,B|284:242|329:171|329:171|272:204|201:196,1,280,6|0,3:2|0:0,0:0:0:0:
112,160,133821,1,8,0:3:0:0:
84,128,134107,1,4,0:3:0:0:
260,28,134393,6,0,B|268:104|212:124|212:124|172:184|236:260|300:204|284:160,1,280,6|0,3:2|0:0,0:0:0:0:
280,176,134964,1,10,0:0:0:0:
208,240,135250,1,2,3:2:0:0:
432,332,135536,5,10,3:2:0:0:
464,264,135631,5,8,0:0:0:0:
424,200,135726,5,8,0:3:0:0:
384,264,135821,5,8,0:3:0:0:
308,268,135917,5,4,0:3:0:0:
256,212,136012,5,4,0:3:0:0:
300,152,136107,5,4,3:2:0:0:
300,152,136679,5,6,3:2:0:0:
142,202,145821,5,2,0:0:0:0:
375,171,146393,6,0,P|288:195|211:241,1,180.000006866455,8|0,3:0|0:0,0:0:0:0:
142,202,146964,1,2,0:0:0:0:
260,57,147536,6,0,P|213:93|201:150,1,120.000004577637,8|0,3:0|0:0,0:0:0:0:
142,202,148107,1,2,0:0:0:0:
106,50,148679,6,0,P|98:90|121:124,1,83.9999974365235,8|0,0:3|0:0,0:0:0:0:
142,202,149250,1,2,0:0:0:0:
142,202,149821,5,8,3:0:0:0:
102,372,150107,1,0,3:0:0:0:
145,307,150393,6,0,P|116:297|86:294,1,60.0000022888184,8|0,3:0|0:0,0:0:0:0:
204,253,150679,2,0,P|232:262|262:265,1,60.0000022888184,0|0,3:0|0:0,0:0:0:0:
187,138,150964,6,0,B|158:120|158:120|124:126,1,68.0000012969971,0|0,3:0|0:0,0:0:0:0:
246,84,151250,2,0,B|275:102|275:102|308:95,1,68.0000012969971,0|0,3:0|0:0,0:0:0:0:
367,150,151536,6,0,L|357:225,1,75.9999979705811,8|0,3:0|0:0,0:0:0:0:
429,100,151821,2,0,L|419:24,1,75.9999979705811,0|0,3:0|0:0,0:0:0:0:
492,0,152107,5,0,3:0:0:0:
442,178,152393,1,0,3:0:0:0:
442,178,152536,1,2,0:0:0:0:
488,242,152679,2,0,B|451:271|451:271|435:316,1,95.9999970703126,2|0,3:2|0:0,0:0:0:0:
383,231,152964,2,0,L|288:216,1,95.9999970703126,2|0,3:2|0:0,0:0:0:0:
235,274,153250,5,10,0:0:0:0:
198,93,153393,1,10,0:0:0:0:
17,130,153536,1,8,0:0:0:0:
54,311,153679,1,6,3:2:0:0:
85,241,153964,5,0,3:0:0:0:
235,274,154107,2,0,B|278:253|278:253|325:264,1,95.9999970703126,12|0,0:0|0:0,0:0:0:0:
435,357,154393,5,8,3:2:0:0:
462,321,154464,1,8,0:0:0:0:
457,297,154536,1,8,0:0:0:0:
429,272,154607,1,8,0:0:0:0:
415,222,154679,5,8,3:2:0:0:
456,155,154750,1,8,0:0:0:0:
415,88,154821,1,8,0:0:0:0:
471,33,154893,1,8,0:0:0:0:
512,101,154964,6,0,L|348:129,1,140.000001335144,6|2,3:2|0:0,0:0:0:0:
310,76,155250,1,10,0:0:0:0:
291,284,155393,2,0,B|268:218|268:218|299:155,1,140.000001335144,2|0,3:2|0:0,0:0:0:0:
111,4,155679,6,0,B|134:70|134:70|102:132,1,140.000001335144,2|8,3:2|0:0,0:0:0:0:
77,357,155964,2,0,P|102:228|232:213,1,280.000002670288,2|0,3:2|0:0,0:0:0:0:
273,281,156393,5,10,0:0:0:0:
310,76,156536,1,0,0:0:0:0:
512,113,156679,2,0,L|370:129,1,140.000001335144,2|0,3:2|0:0,0:0:0:0:
245,33,156964,2,0,L|387:49,1,140.000001335144,10|2,0:0|0:0,0:0:0:0:
463,37,157250,5,2,3:2:0:0:
294,117,157393,1,0,0:0:0:0:
374,286,157536,2,0,B|302:293|302:293|265:350,1,140.000001335144,10|0,0:0|3:0,0:0:0:0:
187,348,157821,1,2,0:0:0:0:
34,235,157964,2,0,P|35:165|29:95,1,140.000001335144,2|8,3:2|0:0,0:0:0:0:
112,215,158250,6,0,B|237:245|161:76|290:36,1,280.000002670288,2|0,3:2|3:0,0:0:0:0:
464,63,158679,2,0,B|411:107|411:107|341:94,1,140.000001335144,8|0,0:0|0:0,0:0:0:0:
285,147,158964,5,0,3:0:0:0:
442,214,159107,1,0,3:0:0:0:
375,371,159250,1,8,0:0:0:0:
368,356,159536,5,2,3:2:0:0:
333,284,159679,1,2,0:0:0:0:
261,319,159821,1,10,0:0:0:0:
365,211,159964,6,0,L|516:185,1,140.000001335144,2|0,3:2|0:0,0:0:0:0:
211,381,160250,2,0,L|60:355,1,140.000001335144,2|8,3:2|0:0,0:0:0:0:
66,72,160536,2,0,B|209:133|41:233|190:298,1,280.000002670288,2|0,3:2|3:0,0:0:0:0:
326,84,160964,2,0,B|255:74|255:74|206:124,1,140.000001335144,10|0,0:0|0:0,0:0:0:0:
392,40,161250,2,0,B|463:50|463:50|511:0,1,140.000001335144,2|0,3:2|0:0,0:0:0:0:
321,4,161536,1,10,0:0:0:0:
399,119,161679,1,2,0:0:0:0:
322,379,161821,6,0,P|326:274|317:99,1,280.000002670288,2|10,3:2|0:0,0:0:0:0:
300,102,162250,1,0,0:0:0:0:
315,23,162393,1,2,3:2:0:0:
126,105,162536,1,2,3:2:0:0:
103,310,162679,1,8,0:0:0:0:
291,227,162821,2,0,P|257:209|213:210,1,80,6|0,3:2|3:0,0:0:0:0:
158,30,163250,6,0,P|113:83|46:98,1,140.000001335144,8|0,0:0|0:0,0:0:0:0:
12,170,163536,1,0,3:0:0:0:
12,170,163679,1,0,3:0:0:0:
103,310,163821,1,8,0:0:0:0:
117,292,163893,1,8,0:0:0:0:
116,271,163964,1,8,0:0:0:0:
241,384,164107,6,0,B|282:372|326:364|326:364|358:322|348:279|284:280,1,210.000002002716,6|0,3:2|0:0,0:0:0:0:
217,301,164393,1,10,0:0:0:0:
452,191,164536,2,0,L|310:171,1,140.000001335144,2|0,0:0|3:0,0:0:0:0:
109,226,164821,2,0,B|153:192|205:231|205:231|229:291|311:277,1,210.000002002716,2|0,0:0|0:0,0:0:0:0:
350,230,165107,1,2,0:0:0:0:
107,92,165250,5,2,3:2:0:0:
293,167,165393,1,2,0:0:0:0:
78,115,165536,1,10,0:0:0:0:
303,38,165679,2,0,B|356:33|380:67|380:67|295:42|220:68,1,210.000002002716,2|0,0:0|0:0,0:0:0:0:
59,221,165964,2,0,B|104:214|104:214|143:246|143:246|218:238,1,140.000001335144,2|8,0:0|0:0,0:0:0:0:
289,279,166250,1,2,0:0:0:0:
431,140,166393,6,0,B|456:192|428:234|428:234|412:243|412:243|388:293|408:333,1,210.000002002716,2|0,3:2|0:0,0:0:0:0:
440,346,166679,1,10,0:0:0:0:
227,178,166821,2,0,B|219:161|219:161|162:151|162:151|144:166|144:166|115:229|45:218,1,210.000002002716,2|0,0:0|0:0,0:0:0:0:
25,211,167107,1,2,0:0:0:0:
205,300,167250,1,8,0:0:0:0:
65,136,167393,1,2,0:0:0:0:
209,323,167536,6,0,B|291:329|332:254|332:254|329:303|382:336,1,210.000002002716,2|0,3:2|0:0,0:0:0:0:
414,348,167821,1,10,0:0:0:0:
240,227,167964,2,0,B|214:188|214:188|230:145|239:83,1,140.000001335144,2|0,0:0|3:0,0:0:0:0:
460,63,168250,1,2,0:0:0:0:
311,167,168393,1,8,0:0:0:0:
463,36,168536,1,2,0:0:0:0:
239,24,168679,6,0,B|183:4|146:46|146:46|123:121|39:109,1,210.000002002716,2|0,3:2|0:0,0:0:0:0:
0,82,168964,1,10,0:0:0:0:
219,109,169107,2,0,B|249:143|238:194|238:194|259:262|336:256,1,210.000002002716,2|0,0:0|0:0,0:0:0:0:
400,233,169393,1,2,0:0:0:0:
158,166,169536,1,8,0:0:0:0:
329,169,169679,1,2,0:0:0:0:
209,323,169821,5,0,3:0:0:0:
209,323,170107,6,0,P|272:336|371:323,1,140.000001335144,10|0,0:0|0:0,0:0:0:0:
158,154,170393,2,0,P|95:141|-4:154,1,140.000001335144,2|0,3:2|0:0,0:0:0:0:
278,80,170679,2,0,P|284:149|271:217,1,140.000001335144,10|2,0:0|0:0,0:0:0:0:
97,384,170964,6,0,B|60:329|94:271|94:271|125:253|159:237|159:237|178:201|156:151,2,280.000002670288,0|10|2,3:2|0:0|3:2,0:0:0:0:
335,208,171679,6,0,B|319:199|301:202|301:202|288:216|268:217,1,70.000000667572,2|0,3:2|0:0,0:0:0:0:
295,373,171821,2,0,B|310:381|328:378|328:378|341:364|361:363,1,70.000000667572,8|0,0:0|0:0,0:0:0:0:
316,292,171964,5,6,3:2:0:0:
316,292,172250,5,0,3:0:0:0:
131,213,172393,1,12,0:0:0:0:
56,384,172536,5,0,3:0:0:0:
241,262,172679,1,12,0:0:0:0:
87,142,172821,5,0,3:0:0:0:
174,279,172964,2,0,B|207:273|207:273|214:267|214:267|240:262,1,70.000000667572,8|8,0:0|0:0,0:0:0:0:
304,179,173107,2,0,B|337:185|337:185|344:191|344:191|370:195,1,70.000000667572,8|8,0:0|0:0,0:0:0:0:
338,340,173250,6,0,B|411:325|411:325|439:340|439:340|510:325,1,180.000006866455,6|0,3:2|0:0,0:0:0:0:
511,340,173536,2,0,B|439:325|439:325|410:339|410:339|337:324,1,180.000006866455,14|0,3:2|0:0,0:0:0:0:
267,362,173821,1,2,3:2:0:0:
203,317,173964,1,0,0:0:0:0:
117,384,174107,1,10,0:0:0:0:
71,277,174250,1,0,0:0:0:0:
22,343,174393,6,0,B|35:284|35:284|0:236,1,120.000004577637,2|0,3:2|0:0,0:0:0:0:
125,136,174679,2,0,B|112:195|112:195|147:242,1,120.000004577637,10|0,0:0|0:0,0:0:0:0:
170,52,174964,2,0,L|50:64,1,120.000004577637,2|0,3:2|0:0,0:0:0:0:
204,124,175250,2,0,L|323:136,1,120.000004577637,10|0,0:0|0:0,0:0:0:0:
370,210,175536,6,0,B|238:222|311:326|186:341,1,240.000009155274,2|10,3:2|0:0,0:0:0:0:
111,359,175964,1,0,0:0:0:0:
20,255,176107,1,2,3:2:0:0:
35,339,176250,1,2,3:2:0:0:
97,222,176393,2,0,B|159:240|159:240|215:201,1,120.000004577637,8|2,0:0|0:0,0:0:0:0:
393,168,176679,5,0,3:0:0:0:
353,37,176821,1,0,3:0:0:0:
318,200,176964,2,0,B|380:182|380:182|436:221,1,120.000004577637,8|2,0:0|0:0,0:0:0:0:
365,270,177250,5,0,3:0:0:0:
144,153,177393,1,0,3:0:0:0:
215,116,177536,2,0,B|183:70|183:70|201:8,1,120.000004577637,8|2,0:0|0:0,0:0:0:0:
213,195,177821,6,0,B|73:185|137:290|2:282,2,240.000009155274,2|10|0,3:2|0:0|3:0,0:0:0:0:
263,257,178536,1,0,3:0:0:0:
376,124,178679,2,0,P|319:132|291:183,1,120.000004577637,10|0,0:0|0:0,0:0:0:0:
282,336,178964,2,0,P|224:337|189:292,1,120.000004577637,2|0,3:2|0:0,0:0:0:0:
420,267,179250,2,0,P|449:317|428:371,1,120.000004577637,10|0,0:0|0:0,0:0:0:0:
330,261,179536,5,8,0:0:0:0:
302,214,179631,1,8,0:0:0:0:
322,163,179726,1,8,0:0:0:0:
387,116,179821,5,8,0:0:0:0:
354,45,179917,1,8,0:0:0:0:
289,90,180012,1,8,0:0:0:0:
370,91,180107,6,0,B|488:69|416:183|502:256,1,240.000009155274,6|2,3:2|0:0,0:0:0:0:
295,50,180679,2,0,P|135:98|137:266,1,360.000013732911,6|2,3:2|0:0,0:0:0:0:
367,10,181250,5,6,3:2:0:0:
367,10,182107,1,8,3:0:0:0:
367,10,182393,5,14,3:2:0:0:
407,79,182536,1,2,0:2:0:0:
337,118,182679,1,10,0:2:0:0:
295,50,182822,1,2,3:2:0:0:
450,6,182964,5,10,0:2:0:0:
494,161,183107,1,2,3:2:0:0:
339,205,183250,1,10,0:2:0:0:
418,130,183393,1,2,3:2:0:0:
495,299,183536,5,10,0:2:0:0:
268,250,183679,1,2,0:2:0:0:
95,371,183821,5,10,0:2:0:0:
342,288,183964,1,2,3:2:0:0:
183,210,184107,5,10,0:2:0:0:
177,288,184250,1,2,3:2:0:0:
200,206,184393,1,10,0:2:0:0:
194,284,184536,1,0,3:0:0:0:
98,104,184679,5,10,3:2:0:0:
61,286,184821,1,2,0:2:0:0:
237,354,184964,1,10,0:2:0:0:
272,169,185106,1,2,0:2:0:0:
115,211,185250,5,10,0:2:0:0:
158,368,185393,1,2,3:2:0:0:
314,325,185536,1,10,0:2:0:0:
272,169,185679,1,2,3:2:0:0:
203,219,185821,5,10,0:2:0:0:
156,285,185964,1,2,0:2:0:0:
221,324,186107,1,10,0:2:0:0:
269,260,186250,1,2,3:2:0:0:
385,175,186393,5,10,0:2:0:0:
394,258,186536,1,2,3:2:0:0:
399,167,186679,1,10,0:2:0:0:
409,251,186822,1,0,3:0:0:0:
491,114,186964,5,14,3:2:0:0:
354,32,187107,1,2,0:2:0:0:
272,169,187250,1,10,0:2:0:0:
415,86,187393,1,2,3:2:0:0:
272,4,187536,5,10,0:2:0:0:
129,87,187679,1,2,3:2:0:0:
212,230,187821,1,10,0:2:0:0:
290,86,187964,1,2,3:2:0:0:
209,110,188107,5,10,0:2:0:0:
443,211,188250,1,2,0:2:0:0:
272,169,188393,5,10,0:2:0:0:
50,272,188536,1,2,3:2:0:0:
293,250,188679,5,10,0:2:0:0:
319,327,188821,1,2,3:2:0:0:
310,241,188964,1,10,0:2:0:0:
336,318,189106,1,0,3:0:0:0:
25,251,189250,6,0,B|159:212|103:346|244:309,1,240.000009155274,10|10,0:2|0:0,0:0:0:0:
234,235,189679,1,0,3:0:0:0:
94,127,189821,2,0,L|99:107,1,20,10|0,0:2|0:0,0:0:0:0:
176,126,189964,2,0,P|164:179|153:261,1,120.000004577637,2|8,3:2|0:0,0:0:0:0:
154,50,190250,2,0,P|302:36|354:176,1,320,6|0,3:2|3:0,0:0:0:0:
272,349,190679,2,0,B|231:302|231:302|247:246,1,120.000004577637,8|0,0:0|0:0,0:0:0:0:
498,35,190964,5,8,3:2:0:0:
470,71,191036,1,8,0:0:0:0:
486,113,191107,1,8,0:0:0:0:
454,154,191179,1,8,0:0:0:0:
485,200,191250,1,8,3:2:0:0:
443,237,191321,1,8,0:0:0:0:
481,282,191393,1,8,0:0:0:0:
458,329,191464,1,8,0:0:0:0:
458,329,191536,1,6,3:2:0:0:
