osu file format v14

[General]
AudioFilename: audio.mp3
AudioLeadIn: 0
PreviewTime: 50893
Countdown: 0
SampleSet: Soft
StackLeniency: 0.2
Mode: 0
LetterboxInBreaks: 0
WidescreenStoryboard: 1

[Editor]
DistanceSpacing: 1
BeatDivisor: 4
GridSize: 16
TimelineZoom: 1.300002

[Metadata]
Title:Chicago
TitleUnicode:Chicago
Artist:Bentham
ArtistUnicode:Bentham
Creator:ponbot
Version:Normal
Source:
Tags:a_blue kimikamymommy hinamommy newton- kloyd japanese rock j-rock 小関竜矢 ozeki tatsuya
BeatmapID:2800661
BeatmapSetID:1243342

[Difficulty]
HPDrainRate:4
CircleSize:3
OverallDifficulty:5
ApproachRate:6
SliderMultiplier:1
SliderTickRate:1

[Events]
//Background and Video events
0,0,"68686407_p0.jpg",0,0
//Break Periods
2,136879,144771
//Storyboard Layer 0 (Background)
//Storyboard Layer 1 (Fail)
//Storyboard Layer 2 (Pass)
//Storyboard Layer 3 (Foreground)
//Storyboard Layer 4 (Overlay)
//Storyboard Sound Samples

[TimingPoints]
679,285.714285714286,4,2,1,60,1,0
9821,-100,4,2,1,60,0,0
18964,-100,4,2,2,60,0,0
21250,-100,4,2,2,70,0,0
23536,-100,4,2,2,60,0,0
25821,-100,4,2,2,70,0,0
28107,-100,4,2,2,60,0,0
31536,-100,4,2,2,50,0,0
32393,-100,4,2,1,50,0,0
32679,-100,4,2,2,60,0,0
34964,-100,4,2,2,70,0,0
37250,-100,4,2,2,60,0,0
39536,-100,4,2,2,70,0,0
41821,-100,4,2,2,60,0,0
46393,-100,4,2,2,60,0,0
47536,-100,4,2,2,60,0,0
48679,-100,4,2,2,60,0,0
50964,-100,4,2,2,80,0,1
69250,-100,4,2,1,60,0,0
70964,-100,4,2,1,60,0,0
71250,-100,4,2,1,60,0,0
71536,-100,4,2,1,60,0,0
76107,-100,4,2,1,60,0,0
76679,-100,4,2,1,60,0,0
76821,-100,4,2,1,60,0,0
76952,-100,4,2,1,5,0,0
77107,-100,4,2,1,60,0,0
77536,-100,4,2,1,60,0,0
78393,-100,4,2,2,60,0,0
78679,-100,4,2,2,60,0,0
87107,-100,4,2,1,60,0,0
88107,-100,4,2,2,60,0,0
89536,-100,4,2,1,60,0,0
89821,-100,4,2,2,60,0,0
92107,-100,4,2,2,80,0,1
99964,-100,4,2,2,80,0,1
100964,-100,4,2,2,80,0,1
101250,-100,4,2,2,80,0,1
109250,-100,4,2,1,70,0,0
113821,-100,4,2,1,70,0,0
113964,-100,4,2,1,70,0,0
114250,-100,4,2,1,70,0,0
114393,-100,4,2,1,70,0,0
114536,-100,4,2,1,70,0,0
114679,-100,4,2,1,70,0,0
114821,-100,4,2,1,70,0,0
114964,-100,4,2,1,70,0,0
115024,-100,4,2,1,50,0,0
115107,-100,4,2,1,70,0,0
115167,-100,4,2,1,50,0,0
115250,-100,4,2,1,70,0,0
115309,-100,4,2,1,50,0,0
115393,-100,4,2,1,70,0,0
115452,-100,4,2,1,50,0,0
115536,-100,4,2,1,70,0,0
116107,-100,4,2,1,70,0,0
116393,-100,4,2,1,70,0,0
127536,-100,4,2,1,60,0,0
130393,-100,4,2,1,60,0,0
131536,-100,4,2,1,60,0,0
132107,-100,4,2,1,60,0,0
136679,-100,4,2,2,50,0,0
145821,-100,4,2,2,50,0,0
148679,-100,4,2,2,50,0,0
150393,-100,4,2,2,50,0,0
150536,-100,4,2,2,5,0,0
150679,-100,4,2,2,50,0,0
150821,-100,4,2,2,5,0,0
150964,-100,4,2,2,50,0,0
151107,-100,4,2,2,5,0,0
151250,-100,4,2,2,50,0,0
151393,-100,4,2,2,5,0,0
151536,-100,4,2,2,50,0,0
151679,-100,4,2,2,5,0,0
151821,-100,4,2,2,50,0,0
151964,-100,4,2,2,5,0,0
152107,-100,4,2,2,50,0,0
152393,-100,4,2,2,50,0,0
152679,-100,4,2,2,50,0,0
154964,-100,4,2,2,70,0,1
162821,-100,4,2,2,70,0,1
163250,-100,4,2,2,70,0,1
173250,-100,4,2,1,70,0,0
173536,-100,4,2,1,70,0,0
174393,-100,4,2,1,70,0,0
182393,-100,4,2,1,70,0,1
189821,-100,4,2,1,70,0,1
189964,-100,4,2,1,70,0,1
190250,-100,4,2,1,70,0,1
190679,-100,4,2,1,70,0,1
191536,-100,4,2,1,70,0,0

[Colours]
Combo1 : 255,159,255
Combo2 : 255,142,142
Combo3 : 172,172,215
Combo4 : 164,255,209

[HitObjects]
202,121,679,6,0,B|291:75|291:75|364:142,1,200,6|6,3:2|3:2,2:0:0:0:
510,105,1679,2,0,B|484:304|484:304|439:333,1,250,6|8,3:2|2:0,2:0:0:0:
365,267,2679,1,8,2:0:0:0:
307,348,2964,6,0,P|205:330|101:317,1,200,6|6,3:2|3:2,2:0:0:0:
0,214,3964,2,0,B|48:174|39:98|39:98|68:167|127:176,1,250,6|8,3:2|2:0,2:0:0:0:
141,77,4964,1,8,2:0:0:0:
218,140,5250,6,0,L|232:245,1,100,6|8,3:2|2:0,0:0:0:0:
207,336,5821,2,0,L|306:347,1,100,10|8,2:0|2:0,0:0:0:0:
369,268,6393,1,8,2:0:0:0:
430,346,6679,1,8,2:0:0:0:
492,266,6965,2,0,L|478:161,1,100,8|8,2:0|2:0,0:0:0:0:
494,119,7393,1,0,3:0:0:0:
509,71,7536,6,0,L|410:60,1,100,10|8,2:0|2:0,0:0:0:0:
321,15,8107,2,0,P|284:49|279:102,1,100,10|8,2:0|2:0,0:0:0:0:
301,140,8536,1,6,3:2:0:0:
234,214,8821,2,0,L|244:271,2,50,0|8|8,3:0|2:0|2:3,0:0:0:0:
185,200,9250,1,4,2:3:0:0:
14,95,9821,6,0,L|32:193,1,100,6|10,3:2|2:0,2:0:0:0:
83,195,10250,2,0,L|64:293,1,100,2|2,3:2|3:2,2:0:0:0:
55,342,10679,1,10,2:0:0:0:
145,383,10964,2,0,L|253:363,1,100,2|10,2:0|2:0,0:0:0:0:
274,326,11393,1,2,2:0:0:0:
274,326,11536,2,0,L|382:306,1,100,2|10,3:2|2:0,0:0:0:0:
470,286,12107,6,0,P|487:216|470:166,1,100,2|10,3:2|2:0,2:0:0:0:
511,149,12536,2,0,L|403:129,1,100,2|2,3:2|3:2,0:0:0:0:
374,98,12964,1,10,2:0:0:0:
317,180,13250,2,0,L|209:200,1,100,2|10,2:0|2:0,0:0:0:0:
188,237,13679,1,2,2:0:0:0:
188,237,13822,2,0,L|80:257,1,100,2|10,3:2|2:0,0:0:0:0:
8,197,14393,6,0,P|-11:152|1:104,1,100,2|10,3:2|2:0,2:0:0:0:
0,54,14821,2,0,P|36:21|85:19,1,100,2|2,3:2|3:2,0:0:0:0:
133,2,15250,1,10,2:0:0:0:
216,56,15536,2,0,L|236:164,1,100,2|10,2:0|2:0,0:0:0:0:
273,185,15965,1,2,2:0:0:0:
273,185,16108,2,0,L|293:293,1,100,2|10,3:2|2:0,0:0:0:0:
226,359,16679,6,0,P|177:369|129:384,1,100,2|10,3:2|2:0,2:0:0:0:
42,346,17250,1,2,3:2:0:0:
42,346,17393,2,0,P|23:299|28:250,1,100,2|6,3:2|3:2,2:0:0:0:
166,191,18107,1,8,2:0:0:0:
82,135,18393,2,0,L|96:14,1,100,8|4,3:2|2:3,2:0:0:0:
183,79,18964,6,0,P|240:91|289:89,1,100,6|10,3:2|2:0,0:0:0:0:
379,69,19536,2,0,L|367:168,1,100,2|10,3:2|2:0,0:0:0:0:
462,199,20107,1,2,3:2:0:0:
425,294,20393,1,10,2:0:0:0:
425,294,20536,2,0,P|350:304|277:320,1,150,2|2,3:2|2:3,0:0:0:0:
193,266,21250,6,0,L|175:376,2,100,6|10|2,3:2|2:0|3:2,2:0:0:0:
283,222,22107,1,10,2:0:0:0:
209,154,22393,2,0,P|207:104|200:54,1,100,2|10,3:2|2:0,0:0:0:0:
154,35,22821,2,0,L|48:19,1,100,2|0,2:0|2:0,0:0:0:0:
6,5,23250,1,8,2:0:0:0:
41,98,23536,6,0,L|55:217,1,100,6|10,3:2|2:0,0:0:0:0:
22,292,24107,2,0,P|57:323|119:325,1,100,2|10,3:2|2:0,0:0:0:0:
160,351,24536,1,0,0:0:0:0:
160,351,24679,2,0,B|237:334|237:334|247:315,1,100,2|10,3:2|2:0,0:0:0:0:
269,270,25107,2,0,L|249:110,1,150,2|2,3:2|2:3,0:0:0:0:
193,39,25821,6,0,L|94:29,2,100,6|10|2,3:2|2:0|3:2,2:0:0:0:
285,0,26679,1,10,2:0:0:0:
369,63,26964,1,2,3:2:0:0:
369,63,27107,2,0,P|354:121|349:188,1,100,2|2,2:0|2:0,0:0:0:0:
414,237,27679,2,0,L|461:251,2,50,8|8|8,2:0|3:2|2:0,0:0:0:0:
373,266,28107,5,4,3:2:0:0:
109,171,29250,1,6,3:2:0:0:
329,0,30393,5,6,3:2:0:0:
273,128,30964,1,6,3:2:0:0:
190,14,31536,1,10,2:0:0:0:
329,0,32107,2,0,L|401:-7,2,50,8|0|8,2:0|3:0|3:0,0:0:0:0:
270,81,32679,6,0,L|257:192,1,100,6|10,3:2|2:0,2:0:0:0:
192,255,33250,2,0,P|232:284|269:317,1,100,2|10,3:2|2:0,2:0:0:0:
367,296,33821,1,2,3:2:0:0:
457,351,34107,1,10,2:0:0:0:
457,351,34250,2,0,P|475:304|486:255,1,100,2|0,3:2|2:0,2:0:0:0:
511,212,34679,1,2,2:3:0:0:
451,131,34964,6,0,L|351:117,1,100,6|2,3:2|3:2,0:0:0:0:
326,214,35536,2,0,L|226:227,1,100,2|2,3:2|3:2,0:0:0:0:
165,148,36107,1,2,3:2:0:0:
92,216,36393,1,2,3:2:0:0:
27,139,36679,2,0,L|-3:16,1,100,2|0,3:2|3:2,2:0:0:0:
94,0,37250,6,0,L|117:97,1,100,6|10,3:2|2:0,2:0:0:0:
207,142,37821,2,0,L|183:239,1,100,2|10,3:2|2:0,2:0:0:0:
101,296,38393,1,2,3:2:0:0:
178,359,38679,1,10,2:0:0:0:
177,359,38821,2,0,P|227:351|277:345,1,100,2|2,3:2|2:0,2:0:0:0:
327,343,39250,1,2,2:3:0:0:
423,369,39536,6,0,L|439:250,1,100,6|2,3:2|3:2,0:0:0:0:
479,179,40107,1,2,3:2:0:0:
389,133,40393,1,2,3:2:0:0:
346,223,40679,2,0,L|215:207,1,100,2|2,3:2|3:2,0:0:0:0:
198,224,41107,2,0,P|186:175|169:128,1,100,10|8,2:0|2:0,0:0:0:0:
139,87,41536,2,0,L|77:79,2,50,8|8|6,3:2|2:0|3:2,2:0:0:0:
215,22,42107,6,0,L|289:31,1,50,10|2,2:0|2:0,0:0:0:0:
312,13,42393,2,0,P|318:62|333:110,1,100,2|10,3:2|2:0,2:0:0:0:
367,154,42821,1,2,2:0:0:0:
367,154,42964,2,0,L|347:262,1,100,2|10,3:2|2:0,2:0:0:0:
267,311,43536,2,0,P|218:321|170:335,1,100,2|10,3:2|2:0,0:0:0:0:
78,294,44107,6,0,L|37:195,2,100,2|10|2,3:2|2:0|3:2,0:0:0:0:
71,347,44821,1,0,2:0:0:0:
71,347,44964,1,10,2:0:0:0:
170,335,45250,2,0,L|302:345,1,100,2|8,3:2|3:2,2:0:0:0:
310,312,45679,1,8,2:0:0:0:
353,287,45821,2,0,L|437:296,1,50,8|8,3:2|2:0,0:0:0:0:
452,296,46107,2,0,L|465:346,2,50,8|8|4,3:2|2:0|3:2,0:0:0:0:
496,208,47536,5,6,3:2:0:0:
284,94,48679,1,6,3:2:0:0:
292,213,49250,1,6,3:2:0:0:
392,148,49821,5,10,2:0:0:0:
252,34,50679,1,4,2:3:0:0:
165,83,50964,6,0,P|158:135|144:180,1,100,6|10,3:2|2:0,0:0:0:0:
152,230,51393,2,0,L|52:243,1,100,2|2,3:2|3:2,0:0:0:0:
0,328,51964,2,0,P|68:345|160:381,1,150,2|10,3:2|2:0,2:0:0:0:
227,319,52679,1,2,3:2:0:0:
305,379,52964,2,0,L|364:367,1,50,10|2,2:0|2:0,0:0:0:0:
402,356,53250,6,0,P|408:298|424:231,1,100,2|10,3:2|2:0,2:0:0:0:
505,208,53821,1,2,2:0:0:0:
505,208,53964,1,2,3:2:0:0:
452,122,54250,2,0,B|383:87|383:87|317:118,1,150,2|8,3:2|2:0,2:0:0:0:
292,214,54964,2,0,L|179:200,1,100,0|8,3:0|2:0,0:0:0:0:
93,213,55536,6,0,P|67:171|78:123,1,100,2|10,3:2|2:0,0:0:0:0:
118,93,55964,2,0,L|128:-7,2,100,2|2|2,3:2|3:2|3:2,0:0:0:0:
215,61,56821,1,0,3:0:0:0:
215,61,56964,2,0,L|338:68,1,100,10|2,2:0|3:2,2:0:0:0:
398,10,57536,1,10,2:0:0:0:
485,58,57821,6,0,P|491:107|482:156,1,100,2|10,3:2|2:0,0:0:0:0:
386,154,58393,1,2,3:2:0:0:
386,154,58536,1,2,3:2:0:0:
424,245,58821,2,0,L|266:234,1,150,6|8,3:2|2:0,0:0:0:0:
318,325,59536,1,0,3:0:0:0:
218,322,59821,2,0,L|191:363,1,50,8|8,2:0|2:0,0:0:0:0:
140,374,60107,6,0,P|103:343|91:295,1,100,6|10,3:2|2:0,2:0:0:0:
97,245,60536,2,0,L|-20:233,1,100,2|2,2:0|2:0,2:0:0:0:
53,151,61107,2,0,L|65:0,1,150,2|10,2:0|2:0,2:0:0:0:
152,50,61821,1,2,3:2:0:0:
245,12,62107,2,0,L|239:86,1,50,10|2,2:0|2:0,0:0:0:0:
269,103,62393,6,0,P|318:93|369:90,1,100,2|10,3:2|2:0,2:0:0:0:
465,131,62964,1,2,3:2:0:0:
465,131,63107,1,2,2:0:0:0:
402,209,63393,2,0,B|376:283|419:283|396:356,1,150,2|8,2:0|2:0,2:0:0:0:
304,315,64107,2,0,L|178:305,1,100,0|8,3:0|2:0,0:0:0:0:
126,369,64679,5,2,3:2:0:0:
126,369,64821,1,2,2:0:0:0:
33,330,65107,2,0,P|21:281|7:233,2,100,2|2|2,2:0|2:0|2:0,2:0:0:0:
148,233,66107,2,0,P|195:220|245:209,1,100,10|2,2:0|3:2,0:0:0:0:
180,131,66679,1,10,2:0:0:0:
254,64,66964,6,0,P|302:77|351:88,1,100,2|10,3:2|2:0,2:0:0:0:
429,159,67536,1,2,3:2:0:0:
429,159,67679,2,0,P|420:215|380:254,1,100,2|6,3:2|3:2,2:0:0:0:
244,270,68393,1,8,2:0:0:0:
184,189,68679,2,0,L|135:176,2,50,8|8|8,2:0|2:3|2:3,0:0:0:0:
265,129,69250,6,0,P|357:118|393:204,1,200,6|6,3:2|3:2,2:0:0:0:
449,343,70250,2,0,B|351:362|351:362|303:336|303:336|207:354,1,250,6|8,3:2|2:0,2:0:0:0:
166,340,71107,1,8,2:3:0:0:
166,340,71250,1,4,3:0:0:0:
80,288,71536,6,0,P|56:186|141:129,1,200,6|6,3:2|3:2,2:0:0:0:
213,249,72536,2,0,L|403:226,1,150,6|8,3:2|2:0,2:0:0:0:
449,182,73250,2,0,L|470:56,1,100,4|12,2:3|2:0,0:0:0:0:
413,4,73821,5,8,2:0:0:0:
413,4,73964,1,8,2:0:0:0:
256,31,76107,6,0,L|269:166,1,100,8|0,2:0|2:0,2:0:0:0:
341,195,76679,1,8,2:0:0:0:
341,195,76821,1,8,2:0:0:0:
272,267,77107,2,0,P|164:250|107:255,1,150,6|8,3:2|2:0,2:0:0:0:
26,273,77821,2,0,L|-4:162,1,100,8|8,2:0|2:0,0:0:0:0:
35,81,78393,6,0,P|80:65|126:82,1,100,6|10,3:2|2:0,0:0:0:0:
222,54,78964,2,0,L|237:152,2,100,2|10|2,3:2|2:0|3:2,2:0:0:0:
321,87,79821,1,10,2:0:0:0:
321,87,79964,2,0,B|440:66|440:66|458:66|471:81,1,150,2|8,3:2|2:0,0:0:0:0:
512,165,80679,6,0,L|490:274,1,100,2|10,3:2|2:0,0:0:0:0:
428,340,81250,2,0,P|378:342|328:334,1,100,2|10,3:2|2:0,0:0:0:0:
261,261,81821,1,2,3:2:0:0:
335,194,82107,1,10,2:0:0:0:
335,194,82250,2,0,L|352:41,1,150,2|8,3:2|2:0,0:0:0:0:
261,0,82964,6,0,P|211:-2|167:18,1,100,2|10,3:2|2:0,2:0:0:0:
72,53,83536,2,0,P|54:99|60:148,1,100,2|10,3:2|2:0,2:0:0:0:
149,193,84107,2,0,L|129:300,1,100,2|10,3:2|2:0,2:0:0:0:
95,327,84536,2,0,B|144:320|144:320|187:347|187:347|239:340,1,150,2|10,3:2|2:0,2:0:0:0:
322,288,85250,5,2,3:2:0:0:
396,355,85536,1,10,2:0:0:0:
479,299,85821,2,0,L|490:185,1,100,2|10,3:2|2:0,0:0:0:0:
432,116,86393,2,0,P|381:128|353:174,1,100,2|10,3:2|2:0,0:0:0:0:
315,196,86821,2,0,P|305:127|288:61,1,100,10|8,2:0|3:0,0:0:0:0:
262,62,87250,1,4,3:0:0:0:
168,96,87536,5,4,3:2:0:0:
310,288,88679,1,6,3:2:0:0:
70,302,89821,5,6,3:2:0:0:
169,234,90393,1,6,3:2:0:0:
179,353,90964,2,0,L|282:340,1,100,2|12,3:2|2:0,0:0:0:0:
351,272,91536,1,12,3:2:0:0:
410,352,91821,1,8,2:0:0:0:
486,287,92107,6,0,P|501:237|495:186,1,100,6|10,3:2|2:0,2:0:0:0:
512,142,92536,2,0,L|410:124,1,100,2|2,3:2|3:2,0:0:0:0:
374,32,93107,2,0,P|326:63|318:165,1,150,2|10,3:2|2:0,0:0:0:0:
386,215,93821,1,2,3:2:0:0:
319,289,94107,2,0,L|268:280,1,50,10|2,2:0|2:0,2:0:0:0:
234,315,94393,6,0,P|190:290|143:277,1,100,2|10,3:2|2:0,0:0:0:0:
54,319,94964,1,2,2:0:0:0:
54,319,95107,1,2,3:2:0:0:
0,235,95393,2,0,P|0:169|53:107,1,150,2|8,3:2|2:0,2:0:0:0:
137,159,96107,2,0,L|269:150,1,100,0|8,3:0|2:0,0:0:0:0:
324,103,96679,6,0,P|337:150|324:198,1,100,2|10,3:2|2:0,0:0:0:0:
325,248,97107,2,0,L|225:256,2,100,2|2|2,3:2|3:2|3:2,2:0:0:0:
401,321,97964,1,0,3:0:0:0:
401,321,98107,1,10,2:0:0:0:
492,280,98393,2,0,P|498:227|479:171,1,100,2|10,3:2|2:0,2:0:0:0:
415,111,98964,6,0,L|305:102,1,100,2|10,3:2|2:0,2:0:0:0:
244,39,99536,1,2,3:2:0:0:
244,39,99679,1,2,3:2:0:0:
160,92,99964,2,0,P|141:151|181:234,1,150,6|8,3:2|2:0,2:0:0:0:
274,240,100679,1,0,3:0:0:0:
229,329,100964,2,0,L|171:337,1,50,8|8,2:0|2:0,2:0:0:0:
147,374,101250,6,0,P|114:337|67:322,1,100,6|10,3:2|2:0,2:0:0:0:
23,296,101679,2,0,L|6:184,1,100,2|2,2:0|2:0,0:0:0:0:
72,121,102250,2,0,P|127:169|201:168,1,150,2|10,2:0|2:0,0:0:0:0:
161,76,102964,1,2,3:2:0:0:
249,29,103250,2,0,L|267:83,1,50,10|2,2:0|2:0,2:0:0:0:
314,83,103536,6,0,L|353:191,1,100,2|10,3:2|2:0,0:0:0:0:
442,223,104107,1,2,3:2:0:0:
442,223,104250,1,2,2:0:0:0:
383,304,104536,2,0,P|310:323|247:363,1,150,2|8,2:0|2:0,2:0:0:0:
149,344,105250,2,0,P|109:305|121:255,1,100,0|8,3:0|2:0,0:0:0:0:
197,208,105821,5,2,3:2:0:0:
197,208,105964,1,2,2:0:0:0:
272,273,106250,2,0,L|377:257,1,100,2|2,2:0|2:0,2:0:0:0:
417,169,106821,2,0,P|339:160|251:151,1,150,2|10,2:0|2:0,2:0:0:0:
174,114,107536,2,0,P|159:63|152:10,2,100,8|8|8,2:0|2:0|3:2,0:0:0:0:
464,48,108964,1,8,3:0:0:0:
427,141,109250,6,0,P|358:127|308:123,1,100,6|10,3:2|2:0,2:0:0:0:
259,51,109821,2,0,P|209:51|159:56,1,100,2|10,3:2|2:0,2:0:0:0:
75,111,110393,2,0,P|73:165|67:210,1,100,2|10,3:2|2:0,0:0:0:0:
27,240,110821,2,0,P|100:235|166:271,1,150,2|10,3:2|2:0,2:0:0:0:
251,217,111536,5,2,3:2:0:0:
259,316,111821,1,10,2:0:0:0:
342,261,112107,2,0,L|471:246,1,100,2|10,3:2|2:0,0:0:0:0:
492,162,112679,2,0,L|383:143,1,100,2|10,3:2|2:0,0:0:0:0:
365,103,113107,2,2,P|292:103|243:158,1,150,2|10,3:2|2:0,2:0:0:0:
204,250,113821,6,2,B|157:256|157:256|154:262|154:262|103:278,2,100,2|10|2,3:2|2:0|3:2,2:0:0:0:
272,323,114679,1,10,2:0:0:0:
365,288,114964,2,2,B|373:248|373:248|383:244|383:244|377:183,1,100,2|10,3:2|2:0,2:0:0:0:
436,113,115536,2,0,B|414:86|414:86|378:71|378:71|333:85,1,100,2|10,2:0|2:0,0:0:0:0:
258,44,116107,5,2,3:2:0:0:
229,139,116393,2,0,P|105:129|48:175,1,200,14|10,0:0|2:0,2:0:0:0:
118,245,117250,2,0,L|100:349,1,100,2|10,3:2|2:0,0:0:0:0:
137,377,117679,2,0,P|200:341|295:362,1,150,4|10,3:2|2:0,0:0:0:0:
347,281,118393,5,6,3:2:0:0:
264,224,118679,1,10,2:0:0:0:
339,158,118964,2,0,L|449:144,1,100,2|10,3:2|2:0,0:0:0:0:
494,62,119536,1,2,3:2:0:0:
410,17,119821,1,10,2:0:0:0:
410,17,119964,2,0,B|333:12|337:42|260:36,1,150,2|8,2:3|2:0,0:0:0:0:
168,0,120679,6,0,L|150:103,1,100,2|10,3:2|2:0,0:0:0:0:
51,106,121250,2,0,L|77:213,1,100,2|10,3:2|2:0,0:0:0:0:
15,283,121821,1,2,3:2:0:0:
95,352,122107,1,10,0:0:0:0:
95,352,122250,2,0,P|167:325|263:335,1,150,2|8,0:3|0:0,0:0:0:0:
317,266,122964,6,0,L|338:151,1,100,2|10,3:2|0:0,0:0:0:0:
253,109,123536,2,0,L|231:226,1,100,2|10,3:2|0:0,0:0:0:0:
144,250,124107,1,2,3:2:0:0:
62,201,124393,1,10,0:0:0:0:
62,201,124536,2,0,P|55:123|45:45,1,150,2|8,0:3|0:0,0:0:0:0:
140,85,125250,6,0,L|256:70,1,100,2|10,3:2|0:0,0:0:0:0:
329,28,125821,2,0,P|370:59|385:104,1,100,2|10,3:2|0:0,0:0:0:0:
473,152,126393,1,2,3:2:0:0:
418,236,126679,2,0,L|353:225,1,50,8|8,0:0|0:0,0:0:0:0:
329,258,126964,2,0,L|338:306,2,50,8|8|4,0:3|0:3|0:3,0:0:0:0:
283,254,127393,1,4,0:3:0:0:
283,254,127536,6,0,P|162:216|105:251,1,200,6|8,3:2|0:0,0:0:0:0:
11,73,128679,2,0,P|132:111|189:76,1,200,6|8,3:2|0:0,0:0:0:0:
372,1,129821,2,0,L|351:218,1,200,6|10,3:2|0:0,0:0:0:0:
426,267,130679,1,10,0:0:0:0:
356,338,130964,2,0,P|255:316|138:327,1,200,10|12,0:0|0:0,0:0:0:0:
14,184,132107,6,0,B|106:223|106:223|214:169,1,200,6|10,3:2|0:0,0:0:0:0:
257,256,132964,1,10,0:0:0:0:
302,166,133250,2,0,B|391:121|391:121|483:160,1,200,6|8,3:2|0:3,0:0:0:0:
490,260,134107,1,4,0:3:0:0:
397,221,134393,2,0,P|390:115|385:5,2,200,6|10|10,3:2|0:0|3:2,0:0:0:0:
234,337,136107,1,4,3:2:0:0:
105,183,136679,1,6,3:2:0:0:
105,183,145821,6,0,P|119:283|132:381,1,200,2|8,0:0|3:0,0:0:0:0:
331,361,146964,2,0,P|345:262|358:163,1,200,2|8,0:0|3:0,0:0:0:0:
236,4,148107,6,0,P|207:67|272:190,1,200,2|8,0:0|0:3,0:0:0:0:
455,200,149250,2,0,P|504:284|475:376,1,200,2|8,0:0|3:0,0:0:0:0:
288,301,150393,6,0,L|170:291,1,100,8|0,3:0|3:0,0:0:0:0:
105,348,150964,2,0,L|96:248,1,100,0|0,3:0|3:0,0:0:0:0:
48,160,151536,2,0,L|166:170,1,100,8|0,3:0|3:0,0:0:0:0:
239,207,152107,2,0,L|230:107,1,100,0|0,3:0|3:0,0:0:0:0:
170,27,152679,6,0,L|270:19,1,100,2|2,3:2|3:2,0:0:0:0:
365,48,153250,2,0,L|374:-1,2,50,10|10|8,0:0|0:0|0:0,0:0:0:0:
400,84,153679,2,0,P|433:145|398:219,1,150,6|12,3:2|0:0,0:0:0:0:
322,273,154393,2,0,L|343:321,2,50,8|8|8,3:2|0:0|3:2,0:0:0:0:
278,262,154821,1,8,0:0:0:0:
278,262,154964,6,0,L|156:276,1,100,6|10,3:2|0:0,0:0:0:0:
132,293,155393,2,0,P|114:246|93:201,1,100,2|2,3:2|3:2,0:0:0:0:
19,132,155964,2,0,P|59:72|131:69,1,150,2|10,3:2|0:0,0:0:0:0:
218,20,156679,1,2,3:2:0:0:
290,88,156964,2,0,L|274:146,1,50,10|2,0:0|0:0,0:0:0:0:
233,161,157250,6,0,L|248:260,1,100,2|10,3:2|0:0,0:0:0:0:
175,328,157821,1,2,0:0:0:0:
175,328,157964,1,2,3:2:0:0:
258,384,158250,2,0,P|320:368|422:355,1,150,2|8,3:2|0:0,0:0:0:0:
474,283,158964,2,0,L|496:161,1,100,0|8,3:0|0:0,0:0:0:0:
423,110,159536,6,0,P|376:128|325:129,1,100,2|10,3:2|0:0,0:0:0:0:
281,150,159964,2,0,L|257:51,2,100,2|2|2,3:2|3:2|3:2,0:0:0:0:
334,240,160821,1,0,3:0:0:0:
334,240,160964,2,0,P|285:247|238:265,1,100,10|2,0:0|3:2,0:0:0:0:
144,230,161536,2,0,L|130:296,1,50,10|2,0:0|0:0,0:0:0:0:
95,310,161821,6,0,P|83:260|65:215,1,100,2|10,3:2|0:0,0:0:0:0:
9,138,162393,1,2,3:2:0:0:
9,138,162536,1,2,3:2:0:0:
76,64,162821,2,0,B|155:44|137:87|224:66,1,150,6|8,3:2|0:0,0:0:0:0:
306,9,163536,1,0,3:0:0:0:
383,71,163821,2,0,L|367:126,1,50,8|8,0:0|0:0,0:0:0:0:
373,169,164107,6,0,P|324:175|279:197,1,100,6|10,3:2|0:0,0:0:0:0:
246,235,164536,2,0,P|197:225|147:218,2,100,2|2|2,0:0|0:0|0:0,0:0:0:0:
271,278,165250,1,2,3:2:0:0:
367,251,165536,1,10,0:0:0:0:
398,212,165679,2,0,P|447:222|497:229,2,100,2|2|2,0:0|0:0|0:0,0:0:0:0:
373,169,166393,6,0,L|358:44,1,100,2|10,3:2|0:0,0:0:0:0:
311,62,166821,2,0,P|274:29|225:23,2,100,2|2|2,0:0|0:0|0:0,0:0:0:0:
276,98,167536,1,2,3:2:0:0:
287,197,167821,1,10,0:0:0:0:
338,205,167964,2,0,P|375:238|424:244,2,100,2|2|2,0:0|0:0|0:0,0:0:0:0:
287,197,168679,6,0,L|165:186,1,100,2|10,3:2|0:0,0:0:0:0:
141,167,169107,2,0,L|132:67,2,100,2|2|2,0:0|0:0|0:0,0:0:0:0:
102,198,169821,1,0,3:0:0:0:
27,264,170107,2,0,P|70:288|119:297,1,100,10|2,0:0|3:2,0:0:0:0:
192,365,170679,2,0,L|260:353,1,50,10|2,0:0|0:0,0:0:0:0:
278,322,170964,6,0,L|287:222,1,100,0|10,3:2|0:0,0:0:0:0:
391,221,171536,1,2,3:2:0:0:
391,221,171679,2,0,L|400:121,1,100,2|6,3:2|3:2,0:0:0:0:
299,10,172393,2,0,P|229:16|171:24,1,100,12|12,0:0|0:0,0:0:0:0:
102,42,172964,2,0,L|93:107,1,50,8|8,0:0|0:0,0:0:0:0:
59,127,173250,6,0,P|108:135|150:162,1,100,6|14,3:2|3:2,0:0:0:0:
239,118,173821,2,0,P|247:167|234:215,1,100,2|10,3:2|0:0,0:0:0:0:
223,314,174393,2,0,P|272:306|314:279,1,100,2|10,3:2|0:0,0:0:0:0:
403,323,174964,2,0,P|411:274|398:226,1,100,2|10,3:2|0:0,0:0:0:0:
439,134,175536,6,0,L|321:115,1,100,2|10,3:2|0:0,0:0:0:0:
271,53,176107,1,2,3:2:0:0:
271,53,176250,1,2,3:2:0:0:
183,102,176536,2,0,P|170:175|201:242,1,150,2|8,0:0|0:0,0:0:0:0:
289,288,177250,2,0,P|256:325|210:342,1,100,0|8,3:0|0:0,0:0:0:0:
119,297,177821,5,2,3:2:0:0:
31,345,178107,2,0,L|0:134,1,200,10|10,0:0|0:0,0:0:0:0:
70,74,178964,2,0,P|119:76|152:112,1,100,2|10,3:2|0:0,0:0:0:0:
106,202,179536,1,8,0:0:0:0:
188,258,179821,1,8,0:0:0:0:
258,187,180107,6,0,P|256:108|187:0,2,200,6|6|6,3:2|3:2|3:2,0:0:0:0:
497,368,182107,1,8,3:0:0:0:
399,344,182393,6,0,L|383:228,1,100,14|10,3:2|0:2,0:0:0:0:
469,190,182964,2,0,L|453:74,1,100,10|10,0:2|0:2,0:0:0:0:
418,56,183393,1,0,3:0:0:0:
380,23,183536,2,0,L|264:7,1,100,10|10,0:2|0:2,0:0:0:0:
226,93,184107,2,0,L|110:77,1,100,10|10,0:2|0:2,0:0:0:0:
40,130,184679,6,0,L|13:12,2,100,10|10|10,3:2|0:2|0:2,0:0:0:0:
126,180,185536,1,10,0:2:0:0:
42,233,185821,2,0,P|93:285|123:333,1,100,10|10,0:2|0:2,0:0:0:0:
202,273,186393,1,10,0:2:0:0:
227,369,186679,1,10,0:2:0:0:
321,338,186964,6,0,P|338:290|361:245,1,100,14|10,3:2|0:2,0:0:0:0:
460,255,187536,2,0,P|477:207|500:162,1,100,10|10,0:2|0:2,0:0:0:0:
481,116,187964,1,0,3:0:0:0:
454,73,188107,2,0,P|408:51|360:36,1,100,10|10,0:2|0:2,0:0:0:0:
297,113,188679,2,0,P|251:91|203:76,1,100,10|10,0:2|0:2,0:0:0:0:
129,10,189250,6,0,P|107:45|113:117,1,100,10|10,0:2|0:0,0:0:0:0:
44,181,189821,1,10,0:0:0:0:
44,181,189964,1,2,3:2:0:0:
130,231,190250,2,0,P|217:211|296:224,1,150,6|8,3:2|0:0,0:0:0:0:
363,268,190964,2,0,L|369:330,1,50,8|8,3:2|0:0,0:0:0:0:
417,324,191250,2,0,L|423:262,1,50,8|8,3:2|0:0,0:0:0:0:
471,280,191536,5,6,3:2:0:0:
