osu file format v14

[General]
AudioFilename: audio.mp3
AudioLeadIn: 0
PreviewTime: 50893
Countdown: 0
SampleSet: Soft
StackLeniency: 0.8
Mode: 0
LetterboxInBreaks: 0
WidescreenStoryboard: 1

[Editor]
DistanceSpacing: 1.6
BeatDivisor: 4
GridSize: 4
TimelineZoom: 1.700003

[Metadata]
Title:Chicago
TitleUnicode:Chicago
Artist:Bentham
ArtistUnicode:Bentham
Creator:ponbot
Version:KimikaMyMommy's Extra
Source:
Tags:a_blue kimikamymommy hinamommy newton- kloyd japanese rock j-rock 小関竜矢 ozeki tatsuya
BeatmapID:2829645
BeatmapSetID:1243342

[Difficulty]
HPDrainRate:7
CircleSize:4
OverallDifficulty:8.5
ApproachRate:9
SliderMultiplier:1.5
SliderTickRate:1

[Events]
//Background and Video events
0,0,"68686407_p0.jpg",0,0
//Break Periods
2,136879,145107
//Storyboard Layer 0 (Background)
//Storyboard Layer 1 (Fail)
//Storyboard Layer 2 (Pass)
//Storyboard Layer 3 (Foreground)
//Storyboard Layer 4 (Overlay)
//Storyboard Sound Samples

[TimingPoints]
679,285.714285714286,4,2,1,60,1,0
679,-133.333333333333,4,2,1,60,0,0
5250,-100,4,2,1,60,0,0
5536,-76.9230769230769,4,2,1,60,0,0
8536,-57.1428571428571,4,2,1,60,0,0
9536,-100,4,2,1,60,0,0
9821,-68.9655172413793,4,2,1,60,0,0
11821,-133.333333333333,4,2,1,60,0,0
12107,-68.9655172413793,4,2,1,60,0,0
14107,-133.333333333333,4,2,1,60,0,0
14393,-68.9655172413793,4,2,1,60,0,0
16393,-55.5555555555556,4,2,1,60,0,0
16679,-68.9655172413793,4,2,1,60,0,0
17679,-90.9090909090909,4,2,1,60,0,0
18964,-111.111111111111,4,2,2,60,0,0
21250,-111.111111111111,4,2,2,70,0,0
21821,-80,4,2,2,70,0,0
23536,-111.111111111111,4,2,2,60,0,0
25821,-111.111111111111,4,2,2,70,0,0
26393,-80,4,2,2,70,0,0
28107,-200,4,2,2,60,0,0
30393,-133.333333333333,4,2,2,60,0,0
31536,-133.333333333333,4,2,2,50,0,0
32393,-133.333333333333,4,2,1,50,0,0
32679,-100,4,2,2,60,0,0
34964,-80,4,2,2,70,0,0
37250,-100,4,2,2,60,0,0
39536,-80,4,2,2,70,0,0
41821,-90.9090909090909,4,2,2,60,0,0
46393,-76.9230769230769,4,2,2,60,0,0
50679,-181.818181818181,4,2,2,60,0,0
50893,-181.818181818181,4,2,2,60,0,0
50964,-66.6666666666667,4,2,2,80,0,1
58821,-60.6060606060606,4,2,2,80,0,1
60107,-66.6666666666667,4,2,2,80,0,1
67964,-60.6060606060606,4,2,2,80,0,1
69250,-285.714285714286,4,2,1,60,0,0
73536,-57.1428571428571,4,2,1,60,0,0
73821,-133.333333333333,4,2,1,60,0,0
76381,-133.333333333333,4,2,1,5,0,0
76679,-133.333333333333,4,2,1,60,0,0
76952,-133.333333333333,4,2,1,5,0,0
77107,-50,4,2,1,60,0,0
78393,-95.2380952380952,4,2,2,60,0,0
86393,-83.3333333333333,4,2,2,60,0,0
87107,-83.3333333333333,4,2,1,60,0,0
87536,-74.0740740740741,4,2,1,60,0,0
88107,-74.0740740740741,4,2,2,60,0,0
89536,-74.0740740740741,4,2,1,60,0,0
89821,-74.0740740740741,4,2,2,60,0,0
90107,-100,4,2,2,60,0,0
90393,-74.0740740740741,4,2,2,60,0,0
90679,-100,4,2,2,60,0,0
92107,-66.6666666666667,4,2,2,80,0,1
99964,-60.6060606060606,4,2,2,80,0,1
101250,-66.6666666666667,4,2,2,80,0,1
107393,-66.6666666666667,4,2,2,60,0,1
107536,-66.6666666666667,4,2,2,80,0,1
108107,-100,4,2,2,80,0,0
108964,-181.818181818181,4,2,2,80,0,0
109250,-58.8235294117647,4,2,1,70,0,0
113536,-133.333333333333,4,2,1,70,0,0
113821,-58.8235294117647,4,2,1,70,0,0
115024,-58.8235294117647,4,2,1,50,0,0
115107,-58.8235294117647,4,2,1,70,0,0
115167,-58.8235294117647,4,2,1,50,0,0
115250,-58.8235294117647,4,2,1,70,0,0
115309,-58.8235294117647,4,2,1,50,0,0
115393,-58.8235294117647,4,2,1,70,0,0
115452,-58.8235294117647,4,2,1,50,0,0
115536,-58.8235294117647,4,2,1,70,0,0
115821,-133.333333333333,4,2,1,70,0,0
116393,-58.8235294117647,4,2,1,70,0,0
118393,-62.5,4,2,1,70,0,0
127536,-500,4,2,1,60,0,0
130393,-50,4,2,1,60,0,0
130964,-100,4,2,1,60,0,0
131536,-133.333333333333,4,2,1,60,0,0
132107,-500,4,2,1,60,0,0
134964,-66.6666666666667,4,2,1,60,0,0
136679,-285.714285714286,4,2,2,50,0,0
150536,-285.714285714286,4,2,2,5,0,0
150679,-285.714285714286,4,2,2,50,0,0
150821,-285.714285714286,4,2,2,5,0,0
150964,-285.714285714286,4,2,2,50,0,0
151107,-285.714285714286,4,2,2,5,0,0
151250,-285.714285714286,4,2,2,50,0,0
151393,-285.714285714286,4,2,2,5,0,0
151536,-285.714285714286,4,2,2,50,0,0
151679,-285.714285714286,4,2,2,5,0,0
151821,-285.714285714286,4,2,2,50,0,0
151964,-285.714285714286,4,2,2,5,0,0
152107,-285.714285714286,4,2,2,50,0,0
152679,-86.9565217391304,4,2,2,50,0,0
153679,-76.9230769230769,4,2,2,50,0,0
154107,-60.6060606060606,4,2,2,50,0,0
154964,-66.6666666666667,4,2,2,70,0,1
162821,-60.6060606060606,4,2,2,70,0,1
164107,-66.6666666666667,4,2,2,70,0,1
171964,-60.6060606060606,4,2,2,70,0,1
173250,-74.0740740740741,4,2,1,70,0,0
175250,-133.333333333333,4,2,1,70,0,0
175536,-74.0740740740741,4,2,1,70,0,0
177536,-133.333333333333,4,2,1,70,0,0
177821,-74.0740740740741,4,2,1,70,0,0
180107,-95.2380952380952,4,2,1,70,0,0
181250,-181.818181818181,4,2,1,70,0,0
182393,-60.6060606060606,4,2,1,70,0,1
190250,-55.5555555555556,4,2,1,70,0,1
191536,-100,4,2,1,70,0,0

[Colours]
Combo1 : 255,159,255
Combo2 : 255,142,142
Combo3 : 172,172,215
Combo4 : 164,255,209

[HitObjects]
68,368,679,6,0,P|85:331|77:251,1,112.500004291535,6|0,3:2|0:0,2:0:0:0:
164,317,1250,2,0,P|218:294|280:292,1,112.500004291535,6|0,3:2|0:0,2:0:0:0:
348,356,1679,2,0,B|323:244|392:146|392:146|368:72,1,281.250010728836,6|8,3:2|2:0,2:0:0:0:
373,89,2464,1,8,2:0:0:0:
373,89,2536,1,8,2:0:0:0:
296,136,2679,1,8,2:0:0:0:
296,48,2821,1,8,2:0:0:0:
192,108,2964,6,0,P|140:96|72:120,1,112.500004291535,6|0,3:2|0:0,2:0:0:0:
84,200,3536,2,0,P|119:192|146:167,2,56.2500021457673,6|0|0,3:2|0:0|0:0,2:0:0:0:
48,292,3964,2,0,B|84:308|100:356|100:356|96:304|132:260,1,168.750006437302,6|8,3:2|2:0,2:0:0:0:
280,176,4679,5,8,2:0:0:0:
284,186,4774,1,8,2:0:0:0:
288,196,4869,1,8,2:0:0:0:
364,232,4964,5,8,2:0:0:0:
384,156,5059,1,8,2:0:0:0:
400,80,5155,1,8,2:0:0:0:
420,156,5250,6,0,L|300:132,1,112.5,6|0,3:2|0:0,0:0:0:0:
308,92,5536,2,0,P|256:104|209:169,1,97.4999955368044,8|0,2:0|2:0,0:0:0:0:
112,44,5821,2,0,P|105:96|150:163,1,97.4999955368044,10|0,2:0|3:0,0:0:0:0:
204,220,6107,1,8,2:0:0:0:
140,296,6250,1,2,3:2:0:0:
348,368,6393,5,8,2:0:0:0:
296,304,6536,1,0,2:0:0:0:
372,332,6679,1,8,2:0:0:0:
276,340,6821,1,0,3:0:0:0:
448,276,6964,2,0,P|468:228|456:160,1,97.4999955368044,8|0,2:0|3:0,0:0:0:0:
380,76,7250,1,8,2:0:0:0:
468,100,7393,1,0,3:0:0:0:
288,172,7536,1,10,2:0:0:0:
288,172,7821,2,0,P|272:120|300:52,1,97.4999955368044,8|0,2:0|3:0,0:0:0:0:
388,232,8107,2,0,L|176:272,1,194.999991073609,10|8,2:0|2:0,0:0:0:0:
84,364,8536,6,0,B|0:308|44:188|44:188|56:248|132:264,1,262.500002503395,6|0,3:2|3:0,0:0:0:0:
284,52,8964,1,8,2:0:0:0:
196,92,9107,1,8,0:3:0:0:
324,72,9250,1,4,2:3:0:0:
324,72,9536,6,0,B|352:56|352:56|360:60|360:60|360:52|360:52|368:56|368:56|368:48|368:48|376:52|376:52|376:44|376:44|412:24,1,112.5
396,88,9821,6,0,P|447:105|471:186,1,108.750003318787,6|0,3:2|0:0,2:0:0:0:
360,224,10107,1,10,2:0:0:0:
460,284,10250,2,0,B|384:256|304:300|304:300|236:268,1,217.500006637573,2|2,3:2|3:2,2:0:0:0:
148,324,10679,1,10,2:0:0:0:
212,188,10821,1,2,3:2:0:0:
60,240,10964,5,2,2:0:0:0:
32,148,11107,1,2,3:2:0:0:
120,124,11250,1,10,2:0:0:0:
32,148,11393,1,2,2:0:0:0:
184,220,11536,2,0,L|316:192,1,108.750003318787,2|2,3:2|3:2,0:0:0:0:
452,76,11821,2,0,B|444:96|428:112|428:112|444:100|468:96,1,84.3750032186509,10|0,2:0|2:0,2:0:0:0:
372,52,12107,6,0,P|348:120|396:184,1,108.750003318787,2|2,3:2|2:0,2:0:0:0:
260,312,12393,1,10,2:0:0:0:
136,220,12536,2,0,L|380:244,1,217.500006637573,2|2,3:2|3:2,0:0:0:0:
452,188,12964,1,10,2:0:0:0:
312,140,13107,1,2,3:2:0:0:
200,68,13250,5,2,2:0:0:0:
284,48,13393,1,2,3:2:0:0:
172,32,13536,5,10,2:0:0:0:
228,180,13679,1,2,2:0:0:0:
100,128,13821,2,0,P|68:192|88:264,1,108.750003318787,2|2,3:2|3:2,0:0:0:0:
156,372,14107,2,0,P|180:348|148:352,1,84.3750032186509,10|0,2:0|2:0,2:0:0:0:
196,308,14393,6,0,P|252:276|368:308,1,163.12500497818,2|0,3:2|0:0,2:0:0:0:
412,340,14679,2,0,P|448:332|472:288,1,54.3750016593934,10|0,2:0|0:0,0:0:0:0:
380,188,14821,2,0,B|440:160|428:72|428:72|380:128|324:116,1,217.500006637573,2|2,3:2|3:2,0:0:0:0:
200,36,15250,2,0,L|216:120,1,54.3750016593934,10|0,2:0|0:0,0:0:0:0:
160,152,15393,2,0,B|32:88|32:88|60:128|40:184,1,217.500006637573,2|2,3:2|3:2,0:0:0:0:
256,228,15821,1,10,2:0:0:0:
172,264,15964,1,2,2:0:0:0:
360,364,16107,5,2,3:2:0:0:
328,276,16250,1,2,3:2:0:0:
424,208,16393,2,0,B|332:208|328:120|328:120|368:92|360:12,1,202.499993820191,10|0,2:0|0:0,0:0:0:0:
292,124,16679,6,0,P|240:84|132:108,1,163.12500497818,2|0,3:2|2:0,2:0:0:0:
96,156,16964,1,10,2:0:0:0:
220,52,17107,1,0,0:0:0:0:
60,80,17250,5,2,3:2:0:0:
184,144,17393,1,2,3:2:0:0:
116,280,17536,1,8,0:0:0:0:
380,148,17679,2,0,B|336:188|348:252|348:252|296:280,1,165.000005035401,6|0,3:2|0:0,0:0:0:0:
248,348,18107,1,8,2:0:0:0:
248,348,18393,5,8,3:2:0:0:
196,116,18536,1,8,2:3:0:0:
148,180,18679,5,4,2:3:0:0:
284,272,18821,1,0,0:0:0:0:
212,232,18964,6,0,P|200:184|236:92,1,134.999995880127,6|10,3:2|2:0,0:0:0:0:
308,176,19536,2,0,P|320:224|284:316,1,134.999995880127,2|10,3:2|2:0,0:0:0:0:
360,252,20107,2,0,P|348:212|364:160,1,67.4999979400635,2|0,3:2|0:0,0:0:0:0:
416,140,20393,1,10,2:0:0:0:
184,76,20536,2,0,P|204:112|212:220,1,134.999995880127,2|0,3:2|0:0,0:0:0:0:
215,203,20893,1,2,0:0:0:0:
215,203,20964,1,2,2:3:0:0:
84,356,21250,5,6,3:2:0:0:
244,316,21393,1,2,2:0:0:0:
116,268,21536,1,10,2:0:0:0:
168,348,21679,1,2,2:0:0:0:
204,264,21821,2,0,B|160:252|160:252|200:204|168:132,1,140.625,2|0,3:2|0:0,0:0:0:0:
124,108,22107,1,10,2:0:0:0:
300,212,22250,1,2,2:0:0:0:
372,92,22393,5,2,3:2:0:0:
260,124,22536,1,2,2:0:0:0:
228,48,22679,1,10,2:0:0:0:
412,164,22821,1,2,2:0:0:0:
292,256,22964,2,0,B|392:280|392:280|364:288|348:324,1,140.625,0|0,3:0|0:0,0:0:0:0:
332,328,23250,2,0,L|316:204,1,93.75,8|0,2:0|0:0,0:0:0:0:
392,48,23536,6,0,P|324:60|252:44,1,134.999995880127,6|10,3:2|2:0,0:0:0:0:
120,128,24107,2,0,P|188:116|260:132,1,134.999995880127,2|10,3:2|2:0,0:0:0:0:
200,280,24679,2,0,P|204:240|184:192,1,67.4999979400635,2|0,3:2|0:0,0:0:0:0:
140,160,24964,1,10,2:0:0:0:
68,348,25107,2,0,P|44:292|60:216,1,134.999995880127,2|2,3:2|2:0,0:0:0:0:
57,221,25464,1,2,0:0:0:0:
57,221,25536,1,2,2:3:0:0:
296,364,25821,5,6,3:2:0:0:
380,240,25964,1,2,2:0:0:0:
228,228,26107,1,10,2:0:0:0:
300,284,26250,1,2,2:0:0:0:
372,340,26393,2,0,P|404:328|484:324,1,93.75,2|2,3:2|2:0,0:0:0:0:
420,196,26679,2,0,P|388:208|308:212,1,93.75,10|2,2:0|2:0,0:0:0:0:
280,152,26964,1,2,3:2:0:0:
384,100,27107,1,2,2:0:0:0:
208,76,27250,1,10,2:0:0:0:
116,196,27393,6,0,P|84:148|108:20,1,187.5,2|8,2:0|2:0,0:0:0:0:
164,76,27750,1,8,2:0:0:0:
164,76,27821,2,0,P|184:108|184:160,1,46.875,8|8,3:2|2:0,0:0:0:0:
244,164,27964,2,0,P|238:201|205:241,1,46.875,8|8,2:0|2:0,0:0:0:0:
168,248,28107,6,0,B|108:270|108:270|156:258|208:278,1,150,4|2,3:2|2:0,2:0:0:0:
352,156,29250,2,0,B|412:134|412:134|364:146|312:126,1,150,6|2,3:2|2:0,2:0:0:0:
276,344,30393,5,6,3:2:0:0:
228,84,30679,1,0,0:0:0:0:
261,266,30964,1,6,3:2:0:0:
242,162,31250,1,0,0:0:0:0:
252,212,31536,1,10,2:0:0:0:
328,104,32107,5,8,2:0:0:0:
228,84,32250,1,0,3:0:0:0:
188,300,32393,1,8,3:0:0:0:
288,320,32536,1,4,3:0:0:0:
76,380,32679,5,6,3:2:0:0:
76,380,32964,1,10,2:0:0:0:
40,288,33250,2,0,P|84:260|116:156,1,150,2|10,3:2|2:0,2:0:0:0:
68,108,33679,1,0,2:0:0:0:
256,180,33821,1,2,3:2:0:0:
196,112,34107,1,10,2:0:0:0:
348,48,34250,2,0,P|368:80|336:196,1,150,2|0,3:2|2:0,2:0:0:0:
460,148,34679,2,0,P|448:120|472:64,1,75,2|0,2:3|0:0,0:0:0:0:
412,272,34964,5,6,3:2:0:0:
464,348,35107,1,10,2:0:0:0:
308,308,35250,5,2,3:2:0:0:
252,384,35393,1,10,2:0:0:0:
216,260,35536,6,0,L|88:292,1,93.75,2|8,3:2|2:0,0:0:0:0:
344,228,35821,1,2,3:2:0:0:
452,204,35964,1,8,2:0:0:0:
340,60,36107,5,2,3:2:0:0:
300,144,36250,1,8,2:0:0:0:
380,84,36393,5,2,3:2:0:0:
172,148,36536,1,8,2:0:0:0:
224,64,36679,2,0,P|176:56|108:80,1,93.75,2|8,3:2|2:0,2:0:0:0:
68,308,36964,2,0,P|116:316|184:292,1,93.75,0|8,3:2|2:0,2:0:0:0:
396,188,37250,5,6,3:2:0:0:
396,188,37536,1,10,2:0:0:0:
464,244,37821,2,0,P|484:192|444:88,1,150,2|10,3:2|2:0,2:0:0:0:
352,44,38250,1,0,2:0:0:0:
380,212,38393,1,2,3:2:0:0:
308,156,38679,1,10,2:0:0:0:
272,336,38822,2,0,P|228:356|100:324,1,150,2|2,3:2|2:0,2:0:0:0:
80,252,39250,2,0,P|120:244|180:276,1,75,2|0,2:3|0:0,0:0:0:0:
68,120,39536,5,6,3:2:0:0:
224,76,39679,1,10,2:0:0:0:
108,48,39821,5,2,3:2:0:0:
276,140,39964,1,10,2:0:0:0:
388,52,40107,6,0,L|360:180,1,93.75,2|10,3:2|2:0,0:0:0:0:
404,324,40393,1,2,3:2:0:0:
332,268,40536,1,10,2:0:0:0:
108,360,40679,2,0,P|80:312|172:196,1,187.5,2|2,3:2|3:2,0:0:0:0:
208,236,41107,1,10,2:0:0:0:
220,68,41250,5,0,3:0:0:0:
272,344,41393,1,8,2:0:0:0:
288,112,41536,1,8,3:2:0:0:
216,284,41679,1,8,2:0:0:0:
252,204,41821,6,0,P|300:172|376:176,1,123.75000377655,6|0,3:2|0:0,2:0:0:0:
412,236,42107,2,0,P|364:252|316:236,1,82.5000025177003,10|2,2:0|2:0,0:0:0:0:
448,344,42393,1,2,3:2:0:0:
448,344,42536,1,0,0:0:0:0:
356,364,42679,2,0,L|244:388,1,82.5000025177003,10|2,2:0|2:0,0:0:0:0:
128,312,42964,2,0,B|112:244|160:192|160:192|136:144,3,165.000005035401,2|10|2|10,3:2|2:0|3:2|2:0,2:0:0:0:
224,96,43964,1,0,2:0:0:0:
116,48,44107,5,2,3:2:0:0:
116,48,44393,2,0,P|104:88|124:156,1,82.5000025177003,10|0,2:0|2:0,0:0:0:0:
188,92,44679,2,0,P|200:132|180:200,1,82.5000025177003,2|0,3:2|2:0,2:0:0:0:
40,280,44964,2,0,P|80:256|152:260,1,82.5000025177003,10|0,2:0|2:0,2:0:0:0:
264,352,45250,2,0,P|332:332|336:272,1,123.75000377655,2|0,3:2|0:0,2:0:0:0:
284,236,45536,1,8,3:2:0:0:
320,164,45679,1,8,2:0:0:0:
400,160,45821,1,8,3:2:0:0:
324,132,45964,1,8,2:0:0:0:
260,180,46107,1,8,3:2:0:0:
56,88,46250,1,8,2:0:0:0:
140,92,46393,6,0,B|164:92|184:76|184:76|192:200|116:260|116:260|108:228|76:204,1,292.499986610413,4|0,3:2|0:0,2:0:0:0:
84,148,46964,1,2,2:0:0:0:
340,276,47393,1,2,0:0:0:0:
376,192,47536,2,0,B|340:172|340:172|236:236|236:236|244:280,1,194.999991073609,6|2,3:2|0:0,2:0:0:0:
444,368,48107,2,0,P|464:316|424:244,1,97.4999955368044,2|0,2:0|0:0,0:0:0:0:
350,367,48393,2,0,P|330:315|370:243,1,97.4999955368044,2|0,0:0|0:0,0:0:0:0:
464,172,48679,5,6,3:2:0:0:
56,236,49250,1,6,3:2:0:0:
464,172,49821,1,10,2:0:0:0:
464,172,50679,6,0,P|460:156|496:164,1,61.8750018882752,4|0,2:3|0:0,0:0:0:0:
500,244,50964,5,6,3:2:0:0:
404,320,51107,1,2,2:0:0:0:
368,208,51250,1,10,2:0:0:0:
252,312,51393,2,0,B|236:296|200:288|200:288|236:272|244:224,1,112.500004291535,2|0,3:2|2:0,0:0:0:0:
264,152,51679,1,2,3:2:0:0:
196,56,51821,1,8,2:0:0:0:
108,132,51964,2,0,P|204:72|356:96,1,225.000008583069,2|0,3:2|3:0,2:0:0:0:
420,176,52393,5,10,2:0:0:0:
396,44,52536,1,0,2:0:0:0:
340,228,52679,1,2,3:2:0:0:
460,100,52821,1,0,3:0:0:0:
252,228,52964,2,0,L|124:244,1,112.500004291535,10|2,2:0|2:0,0:0:0:0:
64,364,53250,6,0,B|88:348|88:348|40:260|40:260|88:220|64:148,1,225.000008583069,2|10,3:2|2:0,2:0:0:0:
172,268,53679,1,0,3:0:0:0:
264,140,53821,1,2,2:0:0:0:
172,176,53964,1,2,3:2:0:0:
172,176,54036,1,0,3:0:0:0:
172,176,54107,1,8,2:0:0:0:
240,36,54250,2,0,B|316:76|404:55|404:55|428:120,1,225.000008583069,2|0,3:2|3:0,2:0:0:0:
364,200,54679,6,0,P|324:184|232:204,1,112.500004291535,8|0,2:0|2:0,2:0:0:0:
132,280,54964,2,0,P|172:296|264:276,1,112.500004291535,0|0,3:0|3:0,0:0:0:0:
124,108,55250,2,0,B|84:96|56:56|56:56|68:100|52:144,1,168.750006437302,8|0,2:0|0:0,0:0:0:0:
96,204,55536,6,0,P|156:192|232:228,1,112.500004291535,2|2,3:2|2:0,0:0:0:0:
316,336,55821,1,10,2:0:0:0:
396,292,55964,2,0,B|456:264|456:264|392:184|412:96,1,225.000008583069,2|2,3:2|3:2,0:0:0:0:
292,52,56393,1,8,2:0:0:0:
256,156,56536,1,2,3:2:0:0:
256,156,56607,1,0,3:0:0:0:
256,156,56679,1,0,2:0:0:0:
192,68,56821,1,0,3:0:0:0:
76,220,56964,6,0,P|44:168|68:92,1,112.500004291535,10|0,2:0|2:0,2:0:0:0:
273,234,57250,2,0,P|305:286|281:362,1,112.500004291535,2|0,3:2|3:2,2:0:0:0:
192,372,57536,2,0,B|112:340|112:340|224:352,1,168.750006437302,10|0,2:0|0:0,0:0:0:0:
280,372,57821,6,0,P|260:296|324:188,1,168.750006437302,2|0,3:2|0:0,0:0:0:0:
372,204,58107,2,0,B|404:156|404:156|360:116,1,112.500004291535,10|0,2:0|2:0,2:0:0:0:
168,180,58393,1,2,3:2:0:0:
284,72,58536,1,2,3:2:0:0:
200,100,58679,1,8,2:0:0:0:
36,48,58821,6,0,B|4:132|52:192|52:192|100:156|172:168,1,247.500002360344,6|0,3:2|3:0,0:0:0:0:
268,292,59250,2,0,P|212:312|140:296,1,123.750001180172,8|0,2:0|2:0,0:0:0:0:
216,200,59536,1,0,3:0:0:0:
336,244,59679,1,0,3:0:0:0:
292,156,59821,1,8,2:0:0:0:
320,119,59892,1,8,2:0:0:0:
360,96,59963,1,8,2:0:0:0:
406,91,60035,1,8,2:0:0:0:
450,104,60107,6,0,P|412:60|332:60,1,112.500004291535,6|2,3:2|2:0,2:0:0:0:
180,160,60393,2,0,P|196:124|188:80,1,56.2500021457673,10|0,2:0|0:0,0:0:0:0:
120,80,60536,2,0,B|124:160|196:200|196:200|180:284,1,225.000008583069,2|2,2:0|2:0,2:0:0:0:
112,352,60964,1,8,2:0:0:0:
284,296,61107,1,2,2:0:0:0:
392,360,61250,2,0,P|404:308|372:244,1,112.500004291535,0|0,0:0|2:0,0:0:0:0:
460,132,61536,2,0,B|296:168|296:168|328:140|316:100,1,225.000008583069,10|2,2:0|3:2,0:0:0:0:
368,56,61964,1,0,2:0:0:0:
124,124,62107,1,10,2:0:0:0:
244,60,62250,1,2,2:0:0:0:
192,208,62393,6,0,L|12:248,1,168.750006437302,2|0,3:2|0:0,2:0:0:0:
36,288,62679,2,0,P|80:256|96:172,1,112.500004291535,10|0,2:0|2:0,2:0:0:0:
220,92,62964,1,2,3:2:0:0:
308,208,63107,1,2,2:0:0:0:
184,164,63250,1,8,2:0:0:0:
324,128,63393,1,2,2:0:0:0:
252,276,63536,2,0,B|284:304|324:296|324:296|364:348,1,112.500004291535,0|0,0:0|2:0,0:0:0:0:
460,208,63821,2,0,B|452:168|484:140|484:140|376:108|376:108|380:76|344:48,1,225.000008583069,8|0,2:0|3:0,0:0:0:0:
296,172,64250,1,0,2:0:0:0:
368,224,64393,1,8,2:0:0:0:
476,88,64536,1,0,2:0:0:0:
260,36,64679,5,2,3:2:0:0:
224,128,64821,1,2,2:0:0:0:
100,164,64964,1,10,2:0:0:0:
148,88,65107,2,0,B|208:80|260:120|260:120|196:148|200:220,1,225.000008583069,2|2,2:0|2:0,2:0:0:0:
212,308,65536,1,8,2:0:0:0:
300,356,65679,1,2,2:0:0:0:
172,372,65821,2,0,L|60:332,1,112.500004291535,0|0,3:0|2:0,0:0:0:0:
176,276,66107,2,0,P|140:240|136:172,1,112.500004291535,10|0,2:0|3:0,0:0:0:0:
272,208,66393,2,0,L|400:184,1,112.500004291535,2|0,3:2|2:0,0:0:0:0:
356,300,66679,2,0,P|424:312|476:376,1,112.500004291535,10|0,2:0|2:0,0:0:0:0:
340,332,66964,6,0,P|412:316|424:208,1,168.750006437302,2|0,3:2|2:0,2:0:0:0:
382,187,67250,1,10,2:0:0:0:
382,187,67321,1,0,0:0:0:0:
382,187,67393,1,0,0:0:0:0:
416,48,67536,1,2,3:2:0:0:
268,112,67679,1,2,3:2:0:0:
468,200,67821,1,8,0:0:0:0:
252,268,67964,6,0,B|172:248|172:248|136:268|136:268|52:236|76:140,1,247.500002360344,6|0,3:2|3:0,0:0:0:0:
160,52,68393,2,0,P|168:112|132:196,1,123.750001180172,8|0,2:0|3:0,0:0:0:0:
360,356,68679,2,0,P|352:296|388:212,1,123.750001180172,8|8,2:0|2:3,0:0:0:0:
468,200,68964,1,8,2:3:0:0:
348,110,69250,6,0,L|432:66,1,91.8749971961976,6|0,3:2|0:0,2:0:0:0:
379,53,69821,6,0,L|347:113,1,65.624997997284,6|0,3:2|0:0,2:0:0:0:
389,131,70250,6,0,L|378:46,1,78.7499975967408,6|8,3:2|2:0,2:0:0:0:
378,52,70821,1,0,0:0:0:0:
288,144,70964,1,8,2:0:0:0:
184,72,71107,1,8,2:3:0:0:
216,172,71250,1,4,3:0:0:0:
248,28,71393,1,0,3:0:0:0:
107,171,71536,6,0,L|19:131,1,91.8749971961976,6|0,3:2|0:0,2:0:0:0:
94,107,72107,6,0,L|108:173,1,65.624997997284,6|0,3:2|0:0,2:0:0:0:
78,157,72536,6,0,L|94:105,1,52.4999983978272,6|0,3:2|2:0,2:0:0:0:
205,43,72964,1,8,2:0:0:0:
260,108,73107,1,0,2:0:0:0:
180,128,73250,1,4,2:3:0:0:
180,128,73321,1,4,2:3:0:0:
444,60,73536,2,0,B|420:86|420:86|428:124|404:156|404:156|424:172|424:172|452:140|448:96,1,196.875001877546,12|8,2:0|2:0,2:0:0:0:
340,104,73821,5,8,2:0:0:0:
276,204,73964,1,8,2:0:0:0:
348,28,74107,1,0,3:0:0:0:
348,28,74393,1,0,3:0:0:0:
348,28,74679,1,0,3:0:0:0:
348,28,74964,1,0,3:0:0:0:
348,28,75250,1,0,3:0:0:0:
348,28,75536,1,0,3:0:0:0:
348,28,75821,2,0,L|256:40,1,84.3750032186509,2|0,2:0|0:0,0:0:0:0:
216,100,76107,5,8,2:0:0:0:
40,196,76250,1,8,2:0:0:0:
136,284,76679,5,8,2:0:0:0:
163,170,76821,1,8,2:0:0:0:
163,170,77107,6,0,B|139:146|111:142|111:142|251:90|323:246,1,300,6|2,3:2|2:0,2:0:0:0:
388,292,77536,2,0,B|400:281|426:279|426:279|396:273|383:249,2,75,8|0|0,2:0|0:0|2:0,2:0:0:0:
308,372,77821,1,8,2:0:0:0:
68,292,77964,1,8,2:0:0:0:
160,304,78107,1,8,2:0:0:0:
312,223,78250,1,8,2:0:0:0:
228,252,78393,6,0,P|208:204|220:148,1,78.7499975967408,6|2,3:2|2:0,0:0:0:0:
312,223,78679,2,0,P|360:203|416:215,1,78.7499975967408,10|2,2:0|2:0,2:0:0:0:
280,140,78964,2,0,P|278:100|260:66,1,78.7499975967408,2|0,3:2|0:0,2:0:0:0:
188,36,79250,1,10,2:0:0:0:
52,200,79536,1,2,3:2:0:0:
136,160,79679,1,2,2:0:0:0:
56,116,79821,1,10,2:0:0:0:
124,248,79964,2,0,B|104:276|104:276|180:292|220:208,1,157.499995193482,2|0,3:2|3:0,0:0:0:0:
228,152,80393,1,8,2:0:0:0:
408,344,80679,5,2,3:2:0:0:
472,256,80821,1,2,2:0:0:0:
372,272,80964,1,10,2:0:0:0:
372,272,81107,1,2,2:0:0:0:
416,180,81250,5,2,3:2:0:0:
272,284,81393,1,2,2:0:0:0:
252,108,81536,1,10,2:0:0:0:
312,196,81679,1,2,2:0:0:0:
376,64,81821,2,0,P|340:44|272:60,1,78.7499975967408,2|2,3:2|2:0,0:0:0:0:
172,124,82107,1,10,2:0:0:0:
252,140,82250,2,0,P|180:164|88:128,1,157.499995193482,2|0,3:2|3:0,0:0:0:0:
36,276,82679,2,0,P|68:240|100:228,1,78.7499975967408,8|0,2:0|0:0,0:0:0:0:
220,332,82964,5,2,3:2:0:0:
220,332,83107,1,2,2:0:0:0:
236,244,83250,2,0,L|256:132,1,78.7499975967408,10|0,2:0|2:0,2:0:0:0:
348,160,83536,5,2,3:2:0:0:
348,160,83679,1,0,2:0:0:0:
266,214,83822,2,0,L|172:279,1,78.7499975967408,10|2,2:0|2:0,2:0:0:0:
232,192,84107,2,0,L|416:228,1,157.499995193482,2|10,3:2|2:0,2:0:0:0:
456,324,84536,2,0,P|480:284|468:164,1,157.499995193482,2|0,3:2|3:0,2:0:0:0:
404,148,84964,1,10,2:0:0:0:
95,228,85250,5,2,3:2:0:0:
188,208,85393,1,2,2:0:0:0:
152,296,85536,1,10,2:0:0:0:
95,228,85679,1,2,2:0:0:0:
63,308,85821,5,2,3:2:0:0:
128,144,85964,1,2,2:0:0:0:
244,280,86107,1,10,2:0:0:0:
145,240,86250,1,2,2:0:0:0:
268,128,86393,2,0,B|288:88|288:88|232:108|236:184,1,134.999995880127,2|0,3:2|0:0,0:0:0:0:
304,196,86679,2,0,P|356:212|412:196,1,89.9999972534181,10|10,2:0|2:0,0:0:0:0:
444,124,86964,2,0,P|392:108|336:124,1,89.9999972534181,0|8,3:0|3:0,0:0:0:0:
484,292,87250,2,0,P|500:240|484:184,1,89.9999972534181,4|0,3:0|0:0,0:0:0:0:
340,32,87536,5,4,3:2:0:0:
160,124,88107,5,10,2:0:0:0:
160,124,88179,1,8,0:0:0:0:
160,124,88250,1,8,2:0:0:0:
132,32,88393,1,8,2:0:0:0:
228,64,88536,1,10,2:0:0:0:
56,188,88679,5,6,3:2:0:0:
56,188,88964,1,10,2:0:0:0:
172,284,89250,5,10,2:0:0:0:
268,252,89393,1,0,3:0:0:0:
168,208,89536,1,4,3:0:0:0:
212,316,89679,1,0,0:0:0:0:
244,164,89821,6,0,P|312:140|400:160,1,151.875000579357,6|0,3:2|0:0,2:0:0:0:
412,180,90107,2,0,P|456:168|480:124,1,75,2|0,0:0|2:0,0:0:0:0:
260,276,90393,2,0,P|197:240|107:244,1,151.875000579357,6|0,3:2|0:0,2:0:0:0:
91,262,90679,2,0,P|49:242|33:195,1,75,2|0,0:0|2:0,0:0:0:0:
168,124,90964,2,0,B|192:84|184:32|184:32|164:60|156:108,1,150,2|12,3:2|2:0,0:0:0:0:
161,81,91536,5,12,3:2:0:0:
238,68,91631,1,8,2:0:0:0:
316,56,91726,1,8,2:0:0:0:
364,150,91821,5,8,2:0:0:0:
306,203,91916,1,8,2:0:0:0:
250,258,92011,1,8,2:0:0:0:
320,344,92107,6,0,P|348:296|304:212,1,112.500004291535,6|2,3:2|2:0,2:0:0:0:
140,316,92393,1,10,2:0:0:0:
40,220,92536,2,0,P|109:209|173:251,1,112.500004291535,2|0,3:2|2:0,0:0:0:0:
267,86,92821,2,0,P|197:96|133:54,1,112.500004291535,2|8,3:2|2:0,0:0:0:0:
284,164,93107,2,0,B|304:76|408:60|408:60|380:84|396:128,1,225.000008583069,2|0,3:2|3:0,0:0:0:0:
412,228,93536,1,10,2:0:0:0:
476,156,93679,1,0,2:0:0:0:
440,352,93821,5,2,3:2:0:0:
492,276,93964,1,0,3:0:0:0:
328,320,94107,1,10,2:0:0:0:
384,216,94250,1,2,2:0:0:0:
220,356,94393,6,0,B|168:316|104:340|104:340|80:264,1,168.750006437302,2|0,3:2|0:0,0:0:0:0:
132,232,94679,1,10,2:0:0:0:
32,124,94821,1,0,3:0:0:0:
180,148,94964,2,0,P|228:128|264:60,1,112.500004291535,2|2,2:0|3:2,0:0:0:0:
260,78,95179,1,0,3:0:0:0:
260,78,95250,1,8,2:0:0:0:
356,200,95393,2,0,B|385:189|385:189|444:248|518:220|518:220|476:216|476:156,1,225.000008583069,2|0,3:2|3:0,2:0:0:0:
384,96,95821,1,8,2:0:0:0:
276,248,95964,1,0,2:0:0:0:
180,148,96107,5,0,3:0:0:0:
304,128,96250,1,0,3:0:0:0:
84,76,96393,2,0,B|64:68|64:68|20:148|96:236,1,168.750006437302,8|0,2:0|0:0,0:0:0:0:
152,224,96679,5,2,3:2:0:0:
92,312,96821,1,2,2:0:0:0:
200,316,96964,1,10,2:0:0:0:
276,204,97107,2,0,B|348:280|428:236|428:236|388:224|380:172,1,225.000008583069,2|2,3:2|3:2,2:0:0:0:
404,52,97536,2,0,P|356:76|328:168,1,112.500004291535,8|2,2:0|3:2,0:0:0:0:
327,125,97750,1,0,3:0:0:0:
327,125,97821,1,0,3:0:0:0:
492,72,97964,1,0,3:0:0:0:
252,36,98107,5,10,2:0:0:0:
252,36,98393,1,2,3:2:0:0:
212,116,98536,1,0,3:0:0:0:
124,28,98679,2,0,P|115:94|176:185,1,168.750006437302,10|0,2:0|0:0,0:0:0:0:
244,188,98964,6,0,B|220:288|140:324|140:324|136:280|92:252,2,225.000008583069,2|10|2,3:2|2:0|3:2,2:0:0:0:
424,100,99679,1,2,3:2:0:0:
260,60,99821,1,8,2:0:0:0:
424,20,99964,6,0,P|384:84|420:288,1,247.500002360344,6|0,3:2|3:0,2:0:0:0:
308,360,100393,2,0,B|236:336|236:336|248:300|208:256,1,123.750001180172,8|0,2:0|2:0,0:0:0:0:
48,212,100679,2,0,P|28:236|20:300,1,61.875000590086,0|0,3:0|0:0,0:0:0:0:
86,304,100821,2,0,P|105:280|115:251,1,61.875000590086,0|0,3:0|0:0,0:0:0:0:
84,180,100964,1,8,2:0:0:0:
79,165,101035,1,8,2:0:0:0:
79,149,101106,1,8,2:0:0:0:
82,134,101178,1,8,0:0:0:0:
88,120,101250,5,6,3:2:0:0:
312,67,101393,1,2,2:0:0:0:
224,172,101536,2,0,L|160:128,1,56.2500021457673,10|0,2:0|0:0,0:0:0:0:
208,68,101679,2,0,B|284:23|364:64|364:64|292:127,1,225.000008583069,2|2,2:0|2:0,0:0:0:0:
384,284,102107,2,0,L|416:172,1,112.500004291535,8|2,2:0|2:0,0:0:0:0:
460,344,102393,1,0,3:0:0:0:
296,379,102536,1,0,2:0:0:0:
460,344,102679,2,0,P|476:292|412:224,1,112.500004291535,10|0,2:0|2:0,0:0:0:0:
317,104,102964,2,0,P|301:156|365:224,1,112.500004291535,2|0,3:2|2:0,2:0:0:0:
452,143,103250,1,10,2:0:0:0:
372,39,103393,1,2,2:0:0:0:
180,199,103536,6,0,B|233:155|214:71|214:71|177:115,1,168.750006437302,2|0,3:2|0:0,0:0:0:0:
176,119,103821,2,0,L|320:91,1,112.500004291535,10|0,2:0|2:0,2:0:0:0:
56,143,104107,1,2,3:2:0:0:
100,63,104250,1,2,2:0:0:0:
144,295,104393,1,8,2:0:0:0:
68,255,104536,1,2,2:0:0:0:
248,275,104679,2,0,P|276:227|260:151,1,112.500004291535,0|0,3:0|2:0,0:0:0:0:
480,103,104964,2,0,B|456:171|384:187|384:187|460:271,1,225.000008583069,8|0,2:0|3:0,2:0:0:0:
244,316,105393,1,0,3:0:0:0:
320,371,105536,2,0,L|180:343,1,112.500004291535,8|0,2:0|0:0,0:0:0:0:
84,383,105821,6,0,P|68:335|116:243,1,112.500004291535,2|2,3:2|2:0,0:0:0:0:
260,215,106107,1,10,2:0:0:0:
164,287,106250,2,0,B|200:207|140:131|140:131|177:28,1,225.000008583069,2|2,2:0|2:0,2:0:0:0:
308,131,106679,2,0,L|428:95,1,112.500004291535,8|2,2:0|2:0,0:0:0:0:
500,75,106964,1,0,3:0:0:0:
500,75,107107,1,0,2:0:0:0:
424,279,107250,6,0,L|388:215,1,56.2500021457673,10|0,2:0|0:0,0:0:0:0:
440,225,107393,6,0,L|420:289,1,56.2500021457673,8|0,2:0|0:0,0:0:0:0:
372,339,107536,5,8,2:0:0:0:
327,316,107631,1,8,2:0:0:0:
278,320,107726,1,8,2:0:0:0:
262,242,107821,5,8,2:0:0:0:
206,188,107916,1,8,2:0:0:0:
210,112,108011,1,8,2:0:0:0:
137,76,108107,5,8,3:2:0:0:
137,76,108964,6,0,P|109:84|77:60,1,61.8750018882752,8|0,3:0|0:0,0:0:0:0:
37,144,109250,6,0,B|33:232|113:280|113:280|77:224|125:168,1,255.000004863739,6|10,3:2|2:0,2:0:0:0:
281,124,109679,1,0,0:0:0:0:
201,232,109821,2,0,B|241:243|241:243|265:296|349:292,1,127.50000243187,2|0,3:2|0:0,2:0:0:0:
421,376,110107,2,0,P|453:272|385:192,1,191.250003647804,10|0,2:0|0:0,0:0:0:0:
341,192,110393,1,2,3:2:0:0:
485,112,110536,1,2,2:0:0:0:
341,192,110679,1,10,2:0:0:0:
389,96,110821,2,0,B|369:80|365:48|365:48|297:64|253:144|253:144|241:120|209:116,1,255.000004863739,2|2,3:2|3:2,2:0:0:0:
89,212,111250,2,0,P|57:156|77:80,1,127.50000243187,10|2,2:0|2:0,2:0:0:0:
185,252,111536,5,2,3:2:0:0:
185,252,111607,1,0,3:0:0:0:
185,252,111679,1,2,3:2:0:0:
145,344,111821,1,10,2:0:0:0:
245,376,111964,1,2,2:0:0:0:
409,300,112107,5,2,3:2:0:0:
409,300,112179,1,0,3:0:0:0:
409,300,112250,1,2,3:2:0:0:
349,208,112393,1,10,2:0:0:0:
269,268,112536,1,2,2:0:0:0:
329,328,112679,5,2,3:2:0:0:
261,160,112821,1,2,3:2:0:0:
437,216,112964,1,10,2:0:0:0:
397,140,113107,2,2,B|405:124|425:116|425:116|349:24|201:84,1,255.000004863739,2|0,3:2|3:0,2:0:0:0:
153,224,113536,2,0,P|129:240|57:236,1,84.3750032186509,10|0,2:0|0:0,0:0:0:0:
37,176,113821,6,2,P|73:168|129:184,1,63.7500012159348,2|0,3:2|2:0,2:0:0:0:
141,324,113964,2,2,P|177:332|233:316,1,63.7500012159348,2|0,2:0|2:0,2:0:0:0:
285,256,114107,6,2,B|273:228|273:228|293:248|325:240,3,63.7500012159348,10|0|2|0,2:0|2:0|2:0|2:0,2:0:0:0:
373,280,114393,6,2,P|413:264|485:264,1,63.7500012159348,2|0,3:2|2:0,2:0:0:0:
429,112,114536,2,2,P|397:141|367:206,1,63.7500012159348,2|0,3:2|2:0,2:0:0:0:
457,352,114679,6,2,B|469:352|485:364|485:364|469:352|469:320,3,63.7500012159348,10|0|2|0,2:0|2:0|2:0|2:0,2:0:0:0:
421,280,114964,6,2,P|377:256|365:200,1,63.7500012159348,2|0,3:2|2:0,2:0:0:0:
261,132,115107,2,2,P|217:156|205:212,1,63.7500012159348,2|0,3:2|2:0,2:0:0:0:
153,276,115250,6,2,B|161:308|161:308|105:276|41:280|41:280|73:244,1,191.250003647804,10|0,2:0|2:0,2:0:0:0:
121,200,115536,2,0,P|133:144|89:56,1,127.50000243187,2|2,2:0|3:2,0:0:0:0:
361,104,115821,2,0,L|273:124,1,84.3750032186509,10|0,2:0|0:0,0:0:0:0:
278,85,116107,6,0,L|366:105,1,84.3750032186509,2|0,3:2|0:0,2:0:0:0:
429,64,116393,6,0,P|461:84|493:152,1,63.7500012159348,14|0,0:0|0:0,2:0:0:0:
421,176,116536,2,0,P|409:212|352:260,1,63.7500012159348,2|0,0:0|0:0,0:0:0:0:
389,312,116679,2,0,P|329:264|181:280,1,191.250003647804,2|0,3:2|0:0,0:0:0:0:
145,232,116964,2,0,B|97:80|97:80|121:160|181:148,1,255.000004863739,10|2,2:0|3:2,0:0:0:0:
37,288,117393,1,2,3:2:0:0:
77,144,117536,1,10,2:0:0:0:
125,364,117679,2,0,B|141:360|153:344|153:344|313:376|313:376|289:348|296:319,1,255.000004863739,4|2,3:2|3:2,0:0:0:0:
413,292,118107,1,10,2:0:0:0:
424,245,118178,1,10,2:0:0:0:
435,199,118249,1,10,2:0:0:0:
447,152,118321,1,10,2:0:0:0:
457,104,118393,5,6,3:2:0:0:
375,73,118536,1,2,2:3:0:0:
287,78,118679,1,10,2:0:0:0:
210,118,118821,1,2,2:3:0:0:
116,172,118964,5,2,3:2:0:0:
198,203,119107,1,2,2:3:0:0:
286,198,119250,1,10,2:0:0:0:
363,158,119392,1,2,2:3:0:0:
432,284,119536,5,2,3:2:0:0:
352,344,119679,1,2,2:3:0:0:
336,256,119821,1,10,2:0:0:0:
445,168,119964,2,0,P|421:92|269:64,1,240,2|2,2:3|2:3,0:0:0:0:
175,195,120393,2,0,P|161:168|185:48,1,120,8|2,2:0|2:3,0:0:0:0:
33,124,120679,5,2,3:2:0:0:
85,194,120821,1,2,2:3:0:0:
108,278,120964,1,10,2:0:0:0:
101,365,121107,1,2,2:3:0:0:
197,372,121250,5,2,3:2:0:0:
190,285,121393,1,2,2:3:0:0:
213,201,121536,1,10,2:0:0:0:
265,131,121678,1,2,2:3:0:0:
425,200,121821,5,2,3:2:0:0:
477,64,121964,1,2,0:3:0:0:
349,120,122107,1,10,0:0:0:0:
497,240,122250,2,0,B|405:228|365:332|365:332|405:304|469:344,1,240,2|2,0:3|0:3,0:0:0:0:
317,236,122679,2,0,P|265:220|237:124,1,120,8|2,0:0|0:3,0:0:0:0:
21,124,122964,5,2,3:2:0:0:
92,74,123107,1,2,0:3:0:0:
178,58,123250,1,10,0:0:0:0:
262,81,123393,1,2,0:3:0:0:
348,71,123536,5,2,3:2:0:0:
312,150,123679,1,2,0:3:0:0:
317,236,123821,1,10,0:0:0:0:
363,310,123964,1,2,0:3:0:0:
453,264,124107,5,2,3:2:0:0:
217,228,124250,1,2,0:3:0:0:
401,204,124393,1,10,0:0:0:0:
261,296,124536,2,0,B|241:316|241:348|241:348|131:367|131:367|133:332|107:298,1,240,2|2,0:3|0:3,0:0:0:0:
137,188,124964,1,8,0:0:0:0:
61,88,125107,1,2,0:3:0:0:
197,136,125250,6,0,P|153:104|37:112,1,120,2|2,3:2|0:3,0:0:0:0:
385,304,125536,2,0,P|433:327|546:299,1,120,10|2,0:0|0:3,0:0:0:0:
137,304,125821,2,0,P|88:327|-24:299,1,120,2|2,3:2|0:3,0:0:0:0:
325,140,126107,2,0,P|369:108|485:116,1,120,10|2,0:0|0:3,0:0:0:0:
485,172,126393,1,2,3:2:0:0:
377,256,126536,5,8,0:0:0:0:
329,244,126607,1,8,0:0:0:0:
297,272,126679,1,8,0:0:0:0:
249,260,126750,1,8,0:0:0:0:
217,288,126822,1,8,0:0:0:0:
169,276,126893,1,8,0:0:0:0:
133,304,126964,5,8,0:3:0:0:
123,291,127035,1,8,0:3:0:0:
114,279,127106,1,8,0:3:0:0:
106,267,127178,1,8,0:3:0:0:
45,224,127250,5,4,0:3:0:0:
55,211,127321,1,4,0:3:0:0:
64,199,127392,1,4,0:3:0:0:
72,187,127464,1,4,0:3:0:0:
145,184,127536,6,0,L|133:120,1,60,6|8,3:2|0:0,0:0:0:0:
341,104,128250,5,8,0:0:0:0:
233,80,128393,1,10,0:0:0:0:
397,40,128536,1,8,0:0:0:0:
449,192,128679,6,0,L|401:184,1,45,6|0,3:2|0:0,0:0:0:0:
333,232,129250,5,8,0:0:0:0:
377,304,129393,1,8,0:3:0:0:
285,304,129536,5,4,0:3:0:0:
281,328,129679,1,0,0:0:0:0:
185,256,129821,6,0,L|229:244,1,45,6|0,3:2|3:0,0:0:0:0:
141,336,130393,6,0,P|104:252|153:136,1,225,10|0,0:0|0:0,0:0:0:0:
197,55,130679,2,0,P|234:139|185:255,1,225,10|0,0:0|0:0,0:0:0:0:
128,200,130964,5,10,0:0:0:0:
352,160,131107,1,8,0:3:0:0:
272,124,131250,1,4,0:3:0:0:
376,272,131393,1,4,0:3:0:0:
452,236,131536,2,0,P|464:188|432:120,1,112.500004291535,12|0,0:0|0:0,0:0:0:0:
261,64,132107,6,0,L|253:124,1,60,6|10,3:2|0:0,0:0:0:0:
253,123,132964,1,10,0:0:0:0:
141,336,133250,6,0,L|93:324,1,45,6|0,3:2|0:0,0:0:0:0:
56,244,133821,1,8,0:3:0:0:
449,192,134107,1,4,0:3:0:0:
288,328,134393,6,0,L|281:284,1,45,6|0,3:2|0:0,0:0:0:0:
429,352,134964,2,0,P|385:308|445:140,1,225.000008583069,10|2,0:0|3:2,0:0:0:0:
410,160,135536,5,10,3:2:0:0:
410,160,135631,1,8,0:0:0:0:
410,160,135726,1,8,0:3:0:0:
441,88,135821,5,8,0:3:0:0:
441,88,135917,1,4,0:3:0:0:
441,88,136012,1,4,0:3:0:0:
357,108,136107,5,4,3:2:0:0:
508,48,136679,1,6,3:2:0:0:
376,264,145821,6,0,P|324:280|268:264,1,104.999996795654,2|8,0:0|3:0,0:0:0:0:
179,219,146964,2,0,P|168:270|184:320,1,104.999996795654,2|8,0:0|3:0,0:0:0:0:
128,136,148107,2,0,P|180:120|236:136,1,104.999996795654,2|8,0:0|0:3,0:0:0:0:
324,180,149250,2,0,P|335:129|320:80,1,104.999996795654,2|8,0:0|3:0,0:0:0:0:
256,208,150393,5,8,3:0:0:0:
256,208,150679,1,0,3:0:0:0:
176,224,150964,5,0,3:0:0:0:
336,192,151250,1,0,3:0:0:0:
108,164,151536,5,8,3:0:0:0:
404,252,151821,1,0,3:0:0:0:
64,272,152107,5,0,3:0:0:0:
444,144,152393,1,0,3:0:0:0:
224,60,152679,6,0,L|244:204,1,129.375002467632,2|0,3:2|0:0,0:0:0:0:
272,200,152964,2,0,P|284:164|248:96,1,86.2500016450882,2|0,3:2|0:0,0:0:0:0:
84,316,153250,1,10,0:0:0:0:
16,184,153393,1,10,0:0:0:0:
144,124,153536,1,8,0:0:0:0:
104,224,153679,2,0,B|176:256|244:212|244:212|292:268,1,194.999991073609,6|0,3:2|3:0,0:0:0:0:
360,364,154107,6,0,B|425:414|472:344|444:279|356:300,1,185.625001770258,12|0,0:0|0:0,0:0:0:0:
332,312,154393,1,8,3:2:0:0:
292,277,154464,1,8,0:0:0:0:
300,224,154536,1,8,0:0:0:0:
349,203,154607,1,8,0:0:0:0:
390,178,154679,1,8,3:2:0:0:
394,130,154750,1,8,0:0:0:0:
358,99,154822,1,8,0:0:0:0:
311,109,154893,1,8,0:0:0:0:
291,152,154965,5,6,3:2:0:0:
136,92,155107,1,2,0:0:0:0:
176,172,155250,1,10,0:0:0:0:
240,52,155393,2,0,B|272:52|296:36|296:36|304:64|328:80,1,112.500004291535,2|0,3:2|0:0,0:0:0:0:
390,178,155679,1,2,3:2:0:0:
336,284,155821,1,8,0:0:0:0:
448,328,155964,2,0,B|340:404|344:264|196:376,1,225.000008583069,2|0,3:2|0:0,0:0:0:0:
88,272,156393,5,10,0:0:0:0:
192,156,156536,1,0,0:0:0:0:
44,200,156679,1,2,3:2:0:0:
188,248,156821,1,0,0:0:0:0:
280,144,156964,2,0,P|256:88|180:52,1,112.500004291535,10|2,0:0|0:0,0:0:0:0:
32,228,157250,6,0,B|51:207|52:167|52:167|71:285|71:285|96:284|124:304,1,225.000008583069,2|10,3:2|0:0,0:0:0:0:
252,356,157679,1,0,3:0:0:0:
388,288,157821,1,2,0:0:0:0:
352,380,157964,1,2,3:2:0:0:
352,380,158036,1,0,3:0:0:0:
352,380,158107,1,8,0:0:0:0:
288,232,158250,2,0,P|324:172|488:152,1,225.000008583069,2|0,3:2|3:0,0:0:0:0:
312,56,158679,6,0,P|256:76|164:44,1,112.500004291535,8|0,0:0|0:0,0:0:0:0:
24,152,158964,2,0,P|80:132|172:164,1,112.500004291535,0|0,3:0|3:0,0:0:0:0:
212,256,159250,2,0,P|180:288|176:212,1,168.750006437302,8|0,0:0|0:0,0:0:0:0:
240,184,159536,5,2,3:2:0:0:
444,244,159679,1,2,0:0:0:0:
340,140,159821,2,0,L|424:104,1,56.2500021457673,10|0,0:0|0:0,0:0:0:0:
464,144,159964,2,0,L|224:100,1,225.000008583069,2|2,3:2|3:2,0:0:0:0:
120,172,160393,2,0,P|108:112|168:48,1,112.500004291535,8|2,0:0|3:2,0:0:0:0:
131,68,160607,1,0,3:0:0:0:
131,68,160679,1,0,0:0:0:0:
232,212,160821,1,0,3:0:0:0:
56,312,160964,6,0,B|96:268|96:268|156:300,1,112.500004291535,10|0,0:0|0:0,0:0:0:0:
320,348,161250,2,0,B|265:370|265:370|224:316,1,112.500004291535,2|0,3:2|0:0,0:0:0:0:
328,260,161536,2,0,B|420:180|420:180|396:140|432:96,1,168.750006437302,10|0,0:0|0:0,0:0:0:0:
336,104,161821,6,0,P|276:64|168:100,1,168.750006437302,2|0,3:2|0:0,0:0:0:0:
176,160,162107,2,0,B|202:210|202:210|204:143,1,112.500004291535,10|0,0:0|0:0,0:0:0:0:
53,121,162393,1,2,3:2:0:0:
45,305,162536,1,2,3:2:0:0:
12,185,162679,1,8,0:0:0:0:
117,328,162821,6,0,B|152:309|152:309|186:330|186:330|271:290|271:290|244:252|272:200,1,247.500002360344,6|0,3:2|3:0,0:0:0:0:
412,280,163250,2,0,P|452:232|448:144,1,123.750001180172,8|0,0:0|0:0,0:0:0:0:
272,76,163536,1,0,3:0:0:0:
432,96,163679,1,0,3:0:0:0:
368,48,163821,1,8,0:0:0:0:
359,61,163892,1,8,0:0:0:0:
351,74,163963,1,8,0:0:0:0:
108,198,164107,6,0,B|56:154|76:54|192:84|176:184,1,225.000008583069,6|10,3:2|0:0,0:0:0:0:
92,308,164536,1,2,0:0:0:0:
200,364,164679,2,0,P|264:332|400:360,1,168.750006437302,0|0,3:0|0:0,0:0:0:0:
380,368,164964,2,0,P|428:328|388:252,1,112.500004291535,8|2,0:0|0:0,0:0:0:0:
288,200,165250,5,2,3:2:0:0:
484,136,165393,1,2,0:0:0:0:
308,84,165536,1,10,0:0:0:0:
392,44,165679,1,2,3:2:0:0:
392,44,165750,1,0,3:2:0:0:
392,44,165821,2,0,L|356:216,1,168.750006437302,0|0,3:0|0:0,0:0:0:0:
316,208,166107,2,0,L|296:92,1,112.500004291535,8|2,0:0|0:0,0:0:0:0:
64,168,166393,6,0,P|96:108|192:88,1,168.750006437302,2|0,3:2|0:0,0:0:0:0:
208,160,166679,1,10,0:0:0:0:
52,88,166821,1,2,0:0:0:0:
139,248,166964,2,0,B|136:286|111:304|111:304|231:332,1,168.750006437302,0|0,3:0|0:0,0:0:0:0:
244,358,167250,2,0,B|288:318|288:318|248:246,1,112.500004291535,8|2,0:0|0:0,0:0:0:0:
172,166,167536,5,2,3:2:0:0:
392,106,167679,1,0,0:0:0:0:
224,110,167821,1,10,0:0:0:0:
444,174,167964,1,2,3:2:0:0:
444,174,168036,1,0,3:2:0:0:
444,174,168107,2,0,B|296:198|296:198|320:230,1,168.750006437302,0|0,3:0|0:0,0:0:0:0:
332,234,168393,2,0,L|356:114,1,112.500004291535,8|2,0:0|0:0,0:0:0:0:
448,326,168679,6,0,P|400:358|304:354,1,112.500004291535,2|0,3:2|0:0,0:0:0:0:
168,338,168964,2,0,P|216:306|312:310,1,112.500004291535,10|2,0:0|0:0,0:0:0:0:
104,254,169250,2,0,P|124:190|84:62,1,168.750006437302,0|0,3:0|0:0,0:0:0:0:
80,66,169536,2,0,P|28:78|60:142,1,112.500004291535,8|2,0:0|0:0,0:0:0:0:
236,198,169821,2,0,B|276:162|340:166|340:166|280:134|272:70,2,225.000008583069,0|10|2,3:0|0:0|3:2,0:0:0:0:
184,70,170536,1,0,0:0:0:0:
412,122,170679,1,10,0:0:0:0:
356,34,170821,1,2,0:0:0:0:
392,234,170964,5,0,3:2:0:0:
392,234,171250,2,0,P|340:242|264:198,1,112.500004291535,10|0,0:0|0:0,0:0:0:0:
112,258,171536,2,0,P|159:234|196:155,1,112.500004291535,2|2,3:2|3:2,0:0:0:0:
212,38,171821,1,8,0:0:0:0:
124,111,171964,6,0,B|200:175|176:271|176:271|138:245|108:259,1,247.500002360344,6|0,3:2|3:0,0:0:0:0:
156,362,172393,2,0,P|232:346|256:282,1,123.750001180172,12|0,0:0|3:0,0:0:0:0:
196,174,172679,2,0,P|233:127|293:122,1,123.750001180172,12|0,0:0|3:0,0:0:0:0:
388,174,172964,1,8,0:0:0:0:
403,172,173035,1,8,0:0:0:0:
417,166,173106,1,8,0:0:0:0:
429,156,173178,1,8,0:0:0:0:
435,141,173250,6,0,L|444:251,1,101.250000386238,6|0,3:2|0:0,0:0:0:0:
356,361,173536,2,0,B|296:312|296:312|244:372,1,151.875000579357,14|0,3:2|0:0,0:0:0:0:
204,352,173821,1,2,3:2:0:0:
376,276,173964,1,0,0:0:0:0:
180,240,174107,2,0,P|136:224|108:136,1,101.250000386238,10|0,0:0|0:0,0:0:0:0:
260,112,174393,2,0,B|188:160|188:160|228:48,1,202.500000772476,2|10,3:2|0:0,0:0:0:0:
404,152,174821,1,0,0:0:0:0:
456,68,174964,2,0,L|336:88,1,101.250000386238,2|0,3:2|0:0,0:0:0:0:
222,287,175250,6,0,L|250:379,1,84.3750032186509,10|0,0:0|0:0,0:0:0:0:
128,288,175536,6,0,P|140:236|204:204,1,101.250000386238,2|0,3:2|0:0,0:0:0:0:
384,128,175821,2,0,P|372:180|308:212,1,101.250000386238,10|0,0:0|0:0,0:0:0:0:
120,112,176107,1,2,3:2:0:0:
200,72,176250,1,2,3:2:0:0:
128,288,176393,1,8,0:0:0:0:
88,208,176536,1,2,0:0:0:0:
128,288,176679,2,0,L|152:176,1,101.250000386238,0|0,3:0|3:0,0:0:0:0:
360,244,176964,2,0,P|353:142|258:97,1,202.500000772476,8|0,0:0|3:0,0:0:0:0:
132,140,177393,1,0,3:0:0:0:
208,316,177536,6,0,L|296:344,1,84.3750032186509,8|0,0:0|0:0,0:0:0:0:
364,328,177821,5,2,3:2:0:0:
260,372,177964,1,0,0:0:0:0:
196,280,178107,2,0,B|72:320|72:320|124:292|120:236,1,202.500000772476,10|0,0:0|3:0,0:0:0:0:
168,168,178536,1,0,3:0:0:0:
56,108,178679,2,0,P|104:160|172:156,1,101.250000386238,10|0,0:0|0:0,0:0:0:0:
244,48,178964,2,0,P|241:118|292:163,1,101.250000386238,2|0,3:2|0:0,0:0:0:0:
424,104,179250,2,0,P|372:151|376:219,1,101.250000386238,10|0,0:0|0:0,0:0:0:0:
424,348,179536,5,8,0:0:0:0:
451,329,179631,1,8,0:0:0:0:
459,297,179726,1,8,0:0:0:0:
388,252,179821,5,8,0:0:0:0:
360,270,179916,1,8,0:0:0:0:
352,302,180011,1,8,0:0:0:0:
299,361,180107,6,0,B|139:413|199:213|3:277,1,314.999990386963,6|6,3:2|3:2,0:0:0:0:
23,271,181250,2,0,B|42:339|126:348|126:348|72:300|129:242,1,247.500007553101,6|8,3:2|3:0,0:0:0:0:
452,204,182393,6,0,B|432:164|432:164|448:128|424:84,1,123.750001180172,14|2,3:2|0:2,0:0:0:0:
60,52,182679,2,0,B|80:92|80:92|64:128|88:172,1,123.750001180172,10|2,0:2|3:2,0:0:0:0:
364,212,182964,2,0,L|256:140,1,123.750001180172,10|2,0:2|3:2,0:0:0:0:
156,200,183250,2,0,L|264:272,1,123.750001180172,10|2,0:2|3:2,0:0:0:0:
400,364,183536,2,0,B|446:332|446:332|344:284|272:372,2,247.500002360344,10|10|10,0:2|0:2|0:2,0:0:0:0:
300,292,184250,1,2,3:2:0:0:
392,232,184393,2,0,P|416:180|392:88,1,123.750001180172,10|0,0:2|3:0,0:0:0:0:
296,68,184679,5,10,3:2:0:0:
248,188,184821,1,2,0:2:0:0:
208,68,184964,5,10,0:2:0:0:
244,220,185107,1,2,0:2:0:0:
144,132,185250,5,10,0:2:0:0:
240,252,185393,1,2,3:2:0:0:
120,228,185536,5,10,0:2:0:0:
236,284,185679,1,2,3:2:0:0:
344,208,185821,2,0,B|392:271|392:271|424:260|459:283,1,123.750001180172,10|2,0:2|0:2,0:0:0:0:
192,152,186107,2,0,B|143:88|143:88|111:99|76:76,1,123.750001180172,10|2,0:2|3:2,0:0:0:0:
320,116,186393,2,0,B|398:99|398:99|401:65|437:43,1,123.750001180172,10|2,0:2|3:2,0:0:0:0:
144,260,186679,2,0,B|65:276|65:276|62:310|26:332,1,123.750001180172,10|0,0:2|3:0,0:0:0:0:
152,336,186964,6,0,P|192:276|164:200,1,123.750001180172,14|2,3:2|0:2,0:0:0:0:
336,88,187250,2,0,P|296:148|324:224,1,123.750001180172,10|2,0:2|3:2,0:0:0:0:
360,316,187536,2,0,L|496:332,1,123.750001180172,10|2,0:2|3:2,0:0:0:0:
148,104,187821,2,0,L|12:88,1,123.750001180172,10|2,0:2|3:2,0:0:0:0:
72,216,188107,2,0,B|220:152|220:152|168:176|184:232,2,247.500002360344,10|10|10,0:2|0:2|0:2,0:0:0:0:
124,308,188821,1,2,3:2:0:0:
56,380,188964,2,0,P|116:348|208:384,1,123.750001180172,10|0,0:2|3:0,0:0:0:0:
396,192,189250,6,0,B|416:144|320:140|312:236|364:292,1,185.625001770258,10|0,0:2|0:0,0:0:0:0:
408,336,189536,2,0,P|460:332|416:304,1,123.750001180172,10|0,0:0|3:0,0:0:0:0:
264,340,189821,2,0,P|232:320|208:256,1,61.875000590086,10|0,0:0|0:0,0:0:0:0:
144,276,189964,2,0,P|148:208|212:148,1,123.750001180172,2|8,3:2|0:0,0:0:0:0:
436,92,190250,6,0,B|408:84|396:60|396:60|368:152|414:220|414:220|380:220|360:268,1,269.999991760254,6|0,3:2|3:0,0:0:0:0:
260,128,190679,2,0,P|290:102|302:51,2,67.4999979400635,8|0|0,0:0|3:0|3:0,0:0:0:0:
93,222,190964,1,8,3:2:0:0:
55,252,191035,1,8,0:0:0:0:
65,299,191106,1,8,0:0:0:0:
111,312,191178,1,8,0:0:0:0:
144,276,191249,1,8,3:2:0:0:
177,240,191321,1,8,0:0:0:0:
223,253,191393,1,8,0:0:0:0:
233,300,191464,1,8,0:0:0:0:
196,331,191535,1,6,3:2:0:0:
