osu file format v14

[General]
AudioFilename: audio.mp3
AudioLeadIn: 0
PreviewTime: 50893
Countdown: 0
SampleSet: Soft
StackLeniency: 0.2
Mode: 0
LetterboxInBreaks: 0
WidescreenStoryboard: 1

[Editor]
Bookmarks: 18964,32679,50964,60107,69250,78393,92107,101250,109250,118393,127536,136679,154964,173250
DistanceSpacing: 1.3
BeatDivisor: 4
GridSize: 16
TimelineZoom: 2.600002

[Metadata]
Title:Chicago
TitleUnicode:Chicago
Artist:Bentham
ArtistUnicode:Bentham
Creator:ponbot
Version:Collab Hard
Source:
Tags:a_blue kimikamymommy hinamommy newton- kloyd japanese rock j-rock 小関竜矢 ozeki tatsuya
BeatmapID:2803494
BeatmapSetID:1243342

[Difficulty]
HPDrainRate:4
CircleSize:3.8
OverallDifficulty:6
ApproachRate:8
SliderMultiplier:1.2
SliderTickRate:1

[Events]
//Background and Video events
0,0,"68686407_p0.jpg",0,0
//Break Periods
2,136879,145071
//Storyboard Layer 0 (Background)
//Storyboard Layer 1 (Fail)
//Storyboard Layer 2 (Pass)
//Storyboard Layer 3 (Foreground)
//Storyboard Layer 4 (Overlay)
//Storyboard Sound Samples

[TimingPoints]
679,285.714285714286,4,2,1,60,1,0
9821,-100,4,2,1,60,0,0
18964,-100,4,2,2,60,0,0
21250,-100,4,2,2,70,0,0
23536,-100,4,2,2,60,0,0
25821,-100,4,2,2,70,0,0
28107,-100,4,2,2,60,0,0
31536,-100,4,2,2,50,0,0
32393,-100,4,2,1,50,0,0
32679,-100,4,2,2,60,0,0
34964,-100,4,2,2,70,0,0
37250,-100,4,2,2,60,0,0
39536,-100,4,2,2,70,0,0
41821,-100,4,2,2,60,0,0
46393,-100,4,2,2,60,0,0
47536,-100,4,2,2,60,0,0
48679,-100,4,2,2,60,0,0
50964,-100,4,2,2,80,0,1
69250,-100,4,2,1,60,0,0
70964,-100,4,2,1,60,0,0
71250,-100,4,2,1,60,0,0
71536,-100,4,2,1,60,0,0
76107,-100,4,2,1,60,0,0
76250,-100,4,2,1,60,0,0
76381,-100,4,2,1,5,0,0
76679,-100,4,2,1,60,0,0
76821,-100,4,2,1,60,0,0
76952,-100,4,2,1,5,0,0
77107,-100,4,2,1,60,0,0
77536,-100,4,2,1,60,0,0
78393,-100,4,2,2,60,0,0
78679,-100,4,2,2,60,0,0
87107,-100,4,2,1,60,0,0
88107,-100,4,2,2,60,0,0
89536,-100,4,2,1,60,0,0
89821,-100,4,2,2,60,0,0
92107,-100,4,2,2,80,0,1
99964,-100,4,2,2,80,0,1
100964,-100,4,2,2,80,0,1
101250,-100,4,2,2,80,0,1
107393,-100,4,2,2,60,0,1
107536,-100,4,2,2,80,0,1
109250,-100,4,2,1,70,0,0
113821,-100,4,2,1,70,0,0
113964,-100,4,2,1,70,0,0
114250,-100,4,2,1,70,0,0
114393,-100,4,2,1,70,0,0
114536,-100,4,2,1,70,0,0
114679,-100,4,2,1,70,0,0
114821,-100,4,2,1,70,0,0
114964,-100,4,2,1,70,0,0
115024,-100,4,2,1,50,0,0
115107,-100,4,2,1,70,0,0
115167,-100,4,2,1,50,0,0
115250,-100,4,2,1,70,0,0
115309,-100,4,2,1,50,0,0
115393,-100,4,2,1,70,0,0
115452,-100,4,2,1,50,0,0
115536,-100,4,2,1,70,0,0
116107,-100,4,2,1,70,0,0
116393,-100,4,2,1,70,0,0
127536,-100,4,2,1,60,0,0
130393,-100,4,2,1,60,0,0
131536,-100,4,2,1,60,0,0
132107,-100,4,2,1,60,0,0
136679,-100,4,2,2,50,0,0
145821,-100,4,2,2,50,0,0
148679,-100,4,2,2,50,0,0
150393,-100,4,2,2,50,0,0
150536,-100,4,2,2,5,0,0
150679,-100,4,2,2,50,0,0
150821,-100,4,2,2,5,0,0
150964,-100,4,2,2,50,0,0
151107,-100,4,2,2,5,0,0
151250,-100,4,2,2,50,0,0
151393,-100,4,2,2,5,0,0
151536,-100,4,2,2,50,0,0
151679,-100,4,2,2,5,0,0
151821,-100,4,2,2,50,0,0
151964,-100,4,2,2,5,0,0
152107,-100,4,2,2,50,0,0
152393,-100,4,2,2,50,0,0
152679,-100,4,2,2,50,0,0
154964,-100,4,2,2,70,0,1
162821,-100,4,2,2,70,0,1
163250,-100,4,2,2,70,0,1
173250,-100,4,2,1,70,0,0
173536,-100,4,2,1,70,0,0
174393,-100,4,2,1,70,0,0
182393,-100,4,2,1,70,0,1
189821,-100,4,2,1,70,0,1
189964,-100,4,2,1,70,0,1
190250,-100,4,2,1,70,0,1
190679,-100,4,2,1,70,0,1
191536,-100,4,2,1,70,0,0

[Colours]
Combo1 : 255,159,255
Combo2 : 255,142,142
Combo3 : 172,172,215
Combo4 : 164,255,209

[HitObjects]
62,128,679,6,0,L|257:153,1,180,6|0,3:2|0:0,2:0:0:0:
307,110,1250,2,0,P|373:142|389:201,1,120,6|0,3:2|0:0,2:0:0:0:
464,204,1679,2,0,P|414:317|291:328,1,240,6|0,3:2|0:0,2:0:0:0:
304,256,2393,2,0,L|221:246,1,60,8|8,2:0|2:0,0:0:0:0:
170,240,2679,1,8,2:0:0:0:
170,240,2821,1,8,2:0:0:0:
128,305,2964,6,0,P|114:212|90:117,1,180,6|0,3:2|0:0,2:0:0:0:
128,57,3536,2,0,P|173:42|236:82,1,120,6|0,3:2|0:0,2:0:0:0:
306,51,3964,2,0,P|334:89|315:161,1,120,6|0,3:2|0:0,2:0:0:0:
366,218,4393,1,8,2:0:0:0:
235,303,4679,2,0,L|177:290,2,40,8|8|8,2:0|2:0|2:0,0:0:0:0:
272,339,4964,2,0,L|311:330,2,40,8|8|8,2:0|2:0|2:0,0:0:0:0:
242,382,5250,5,6,3:2:0:0:
90,342,5536,2,0,P|77:283|59:225,1,120,8|10,2:0|2:0,0:0:0:0:
120,177,5964,1,0,3:0:0:0:
120,177,6107,2,0,L|128:109,1,60,8|2,2:0|3:2,0:0:0:0:
198,84,6393,2,0,B|257:74|257:74|296:122,1,120,8|8,2:0|2:0,0:0:0:0:
214,254,6964,2,0,L|227:317,1,60,8|0,2:0|3:0,0:0:0:0:
304,320,7250,2,0,L|291:261,1,60,8|0,2:0|3:0,0:0:0:0:
361,224,7536,6,0,P|424:230|474:209,2,120,10|8|10,2:0|2:0|2:0,0:0:0:0:
332,156,8250,1,0,3:0:0:0:
332,156,8393,1,8,2:0:0:0:
254,166,8536,2,0,L|223:34,1,120,6|0,3:2|3:0,0:0:0:0:
154,19,8964,2,0,L|141:90,1,60,8|8,2:0|0:3,0:0:0:0:
71,111,9250,1,4,2:3:0:0:
48,336,9821,6,0,P|105:350|161:332,1,120,6|10,3:2|2:0,2:0:0:0:
146,255,10250,2,0,L|264:239,1,120,2|2,3:2|3:2,2:0:0:0:
329,193,10679,1,10,2:0:0:0:
329,193,10821,1,2,3:2:0:0:
340,270,10964,2,0,L|328:334,2,60,2|2|10,2:0|3:2|2:0,0:0:0:0:
418,272,11393,2,0,L|406:336,2,60,2|2|2,2:0|3:2|3:2,0:0:0:0:
496,274,11821,1,10,2:0:0:0:
480,118,12107,6,0,P|428:91|368:94,1,120,2|10,3:2|2:0,2:0:0:0:
322,29,12536,2,0,P|266:46|225:91,1,120,2|2,3:2|3:2,0:0:0:0:
153,78,12964,1,10,2:0:0:0:
153,78,13107,1,2,3:2:0:0:
120,148,13250,6,0,L|42:136,2,60,2|2|10,2:0|3:2|2:0,0:0:0:0:
175,204,13679,2,0,L|234:194,2,60,2|2|2,2:0|3:2|3:2,0:0:0:0:
125,264,14107,1,10,2:0:0:0:
3,166,14393,6,0,P|-2:106|39:64,1,120,2|10,3:2|2:0,2:0:0:0:
86,4,14821,2,0,L|207:14,1,120,2|2,3:2|3:2,0:0:0:0:
266,71,15250,1,10,2:0:0:0:
266,71,15393,1,2,3:2:0:0:
319,127,15536,6,0,L|397:116,2,60,2|2|10,2:0|3:2|2:0,0:0:0:0:
279,194,15964,2,0,L|219:185,2,60,2|2|2,2:0|3:2|3:2,0:0:0:0:
332,251,16393,1,10,2:0:0:0:
238,376,16679,5,2,3:2:0:0:
87,334,16964,1,10,2:0:0:0:
89,181,17250,1,2,3:2:0:0:
89,181,17393,1,2,3:2:0:0:
240,222,17679,6,0,P|303:163|295:77,1,180,6|8,3:2|2:0,0:0:0:0:
140,56,18393,2,0,L|132:121,1,60,8|8,3:2|2:3,2:0:0:0:
89,181,18679,1,4,2:3:0:0:
68,26,18964,5,6,3:2:0:0:
140,56,19250,1,10,2:0:0:0:
202,9,19536,5,2,3:2:0:0:
140,56,19822,1,10,2:0:0:0:
150,134,20107,5,2,3:2:0:0:
140,56,20393,1,10,2:0:0:0:
140,56,20536,2,0,B|248:37|190:118|319:94,1,180,2|2,3:2|2:3,0:0:0:0:
306,96,21250,6,0,P|326:74|355:67,1,60,6|2,3:2|2:0,2:0:0:0:
430,48,21536,2,0,P|458:54|478:76,1,60,10|2,2:0|2:0,0:0:0:0:
509,148,21821,2,0,P|517:176|508:204,1,60,2|0,3:2|2:0,0:0:0:0:
441,245,22107,1,10,2:0:0:0:
365,226,22250,1,2,2:0:0:0:
306,277,22393,2,0,P|303:306|317:335,2,60,2|2|10,3:2|2:0|2:0,0:0:0:0:
365,226,22821,2,0,P|302:243|252:206,1,120,2|0,2:0|2:0,0:0:0:0:
208,155,23250,1,8,2:0:0:0:
129,289,23536,5,6,3:2:0:0:
206,299,23821,1,10,2:0:0:0:
236,371,24107,5,2,3:2:0:0:
206,299,24392,1,10,2:0:0:0:
254,238,24679,5,2,3:2:0:0:
206,299,24964,1,10,2:0:0:0:
206,299,25107,2,0,P|116:286|60:351,1,180,2|2,3:2|2:3,0:0:0:0:
61,346,25821,6,0,L|52:281,1,60,6|2,3:2|2:0,2:0:0:0:
125,257,26107,2,0,L|134:192,1,60,10|2,2:0|2:0,2:0:0:0:
71,149,26393,2,0,L|-7:182,2,60,2|2|10,3:2|2:0|2:0,0:0:0:0:
92,73,26821,1,2,2:0:0:0:
154,119,26964,5,2,3:2:0:0:
226,89,27107,2,0,L|281:65,1,60,2|10,2:0|2:0,0:0:0:0:
355,38,27393,2,0,P|326:80|333:127,1,90,2|0,2:0|0:0,0:0:0:0:
339,131,27679,6,0,L|382:152,5,30,8|8|8|8|8|8,2:0|2:0|3:2|2:0|2:0|2:0,0:0:0:0:
382,152,28107,5,4,3:2:0:0:
98,102,29250,1,6,3:2:0:0:
243,348,30393,2,0,B|299:268|258:197|258:197|228:233|170:224,2,240,6|6|10,3:2|3:2|2:0,2:0:0:0:
362,60,32107,1,8,2:0:0:0:
397,53,32250,1,0,3:0:0:0:
426,31,32393,1,8,3:0:0:0:
433,66,32536,1,4,3:0:0:0:
460,89,32679,5,6,3:2:0:0:
402,141,32964,1,10,2:0:0:0:
419,218,33250,5,2,3:2:0:0:
402,141,33535,1,10,2:0:0:0:
327,118,33821,5,2,3:2:0:0:
402,141,34106,1,10,2:0:0:0:
402,141,34250,2,0,B|341:214|415:229|354:308,1,180,2|2,3:2|2:3,2:0:0:0:
216,381,34964,6,0,L|197:312,1,60,6|10,3:2|2:0,0:0:0:0:
121,318,35250,2,0,L|140:249,1,60,2|10,3:2|2:0,0:0:0:0:
212,236,35536,2,0,L|193:167,1,60,2|8,3:2|2:0,0:0:0:0:
130,136,35821,1,2,3:2:0:0:
63,176,35964,1,8,2:0:0:0:
14,114,36107,2,0,L|-2:52,2,60,2|8|2,3:2|2:0|3:2,0:0:0:0:
63,176,36536,2,0,P|127:177|161:222,1,120,8|8,2:0|2:0,0:0:0:0:
149,294,36964,1,0,3:2:0:0:
278,206,37250,5,6,3:2:0:0:
349,174,37536,1,10,2:0:0:0:
412,220,37821,5,2,3:2:0:0:
349,174,38107,1,10,2:0:0:0:
358,97,38393,5,2,3:2:0:0:
349,174,38679,1,10,2:0:0:0:
349,174,38821,2,0,B|249:158|296:100|199:88,1,180,2|2,3:2|2:3,2:0:0:0:
198,87,39536,6,0,L|178:157,1,60,6|10,3:2|2:0,0:0:0:0:
103,151,39821,2,0,L|123:221,1,60,2|10,3:2|2:0,0:0:0:0:
184,252,40107,2,0,L|263:245,2,60,2|10|2,3:2|2:0|3:2,0:0:0:0:
129,308,40536,1,10,2:0:0:0:
50,310,40679,6,0,B|118:331|82:346|153:367,1,120,2|2,3:2|3:2,0:0:0:0:
223,333,41107,2,0,L|347:324,1,120,10|8,2:0|2:0,0:0:0:0:
404,275,41536,1,8,3:2:0:0:
344,224,41679,1,8,2:0:0:0:
409,181,41821,6,0,P|404:122|392:63,1,120,6|10,3:2|2:0,2:0:0:0:
331,22,42250,1,2,2:0:0:0:
331,22,42393,2,0,P|277:25|254:85,1,120,2|10,3:2|2:0,2:0:0:0:
297,144,42821,1,2,2:0:0:0:
233,190,42964,6,0,L|159:177,1,60,2|0,3:2|2:0,2:0:0:0:
127,115,43250,2,0,L|53:128,1,60,10|0,2:0|2:0,2:0:0:0:
35,197,43536,2,0,L|109:210,1,60,2|0,3:2|2:0,0:0:0:0:
141,272,43822,2,0,L|215:259,1,60,10|0,2:0|2:0,0:0:0:0:
290,261,44107,6,0,P|305:310|298:380,2,120,2|10|2,3:2|2:0|3:2,2:0:0:0:
215,266,44821,1,0,3:0:0:0:
215,266,44964,2,0,L|150:257,1,60,10|0,0:0|0:0,0:0:0:0:
233,189,45250,6,0,P|274:148|337:149,1,120,2|8,3:2|3:2,2:0:0:0:
409,120,45679,1,8,2:0:0:0:
409,120,45821,2,0,L|429:179,1,60,8|8,3:2|2:0,0:0:0:0:
494,218,46107,2,0,L|474:277,1,60,8|8,3:2|2:0,0:0:0:0:
418,329,46393,5,4,3:2:0:0:
248,96,47536,1,6,3:2:0:0:
98,342,48679,2,0,B|142:312|131:252|131:252|83:230|84:172|84:172|126:134,2,240,6|6|10,3:2|3:2|2:0,2:0:0:0:
256,192,50679,1,4,2:3:0:0:
256,192,50964,6,0,P|275:214|304:221,1,60,6|2,3:2|2:0,0:0:0:0:
377,192,51250,1,10,2:0:0:0:
384,269,51393,2,0,P|439:254|460:200,1,120,2|2,3:2|3:2,0:0:0:0:
431,127,51821,1,8,2:0:0:0:
479,65,51964,6,0,P|434:77|381:17,1,120,2|0,3:2|3:0,2:0:0:0:
305,22,52393,2,0,P|306:54|289:78,1,60,10|0,2:0|2:0,0:0:0:0:
227,122,52679,2,0,P|199:138|169:136,1,60,2|0,3:2|3:0,0:0:0:0:
98,113,52964,1,10,2:0:0:0:
65,41,53107,1,2,2:0:0:0:
65,41,53250,6,0,L|39:158,1,120,2|10,3:2|2:0,2:0:0:0:
52,235,53679,1,0,3:0:0:0:
19,305,53821,2,0,B|3:334|3:334|22:352,2,60,2|2|8,2:0|3:2|2:0,0:0:0:0:
96,319,54250,2,0,B|151:309|151:309|171:271|171:271|250:255,1,180,2|8,3:2|2:0,2:0:0:0:
327,268,54821,1,0,2:0:0:0:
327,268,54964,5,0,3:0:0:0:
308,343,55107,1,0,3:0:0:0:
382,364,55250,1,8,2:0:0:0:
412,210,55536,6,0,L|484:189,2,60,2|2|10,3:2|2:0|2:0,0:0:0:0:
337,233,55964,2,0,P|385:235|437:308,1,120,2|2,3:2|3:2,0:0:0:0:
462,357,56393,1,8,2:0:0:0:
462,357,56536,6,0,L|265:377,1,180,2|10,3:2|2:0,2:0:0:0:
216,334,57107,1,0,2:0:0:0:
146,296,57250,2,0,P|117:304|95:324,1,60,2|0,3:2|3:2,2:0:0:0:
25,361,57536,2,0,P|32:332|26:303,1,60,10|2,2:0|2:0,0:0:0:0:
4,228,57821,5,2,3:2:0:0:
17,72,58107,2,0,P|37:93|44:122,1,60,10|0,2:0|2:0,2:0:0:0:
120,101,58393,2,0,P|126:130|118:158,2,60,2|2|8,3:2|3:2|2:0,0:0:0:0:
86,30,58821,6,0,P|135:62|193:55,1,120,6|0,3:2|3:0,0:0:0:0:
264,21,59250,1,8,2:0:0:0:
339,42,59393,1,0,2:0:0:0:
325,118,59536,1,0,3:0:0:0:
400,139,59679,1,0,3:0:0:0:
458,88,59821,2,0,L|449:39,3,30,8|8|8|8,2:0|2:0|2:0|2:0,0:0:0:0:
494,115,60107,6,0,L|481:184,1,60,6|2,3:2|2:0,2:0:0:0:
417,217,60393,1,10,2:0:0:0:
477,266,60536,2,0,P|417:257|358:272,1,120,2|2,2:0|2:0,2:0:0:0:
297,318,60964,1,8,2:0:0:0:
224,288,61107,2,0,B|213:233|213:233|214:227|214:227|203:169,1,120,2|0,2:0|2:0,2:0:0:0:
236,98,61536,6,0,P|262:114|281:148,1,60,10|0,2:0|2:0,0:0:0:0:
287,215,61821,2,0,P|279:244|253:273,1,60,2|0,3:2|2:0,0:0:0:0:
191,299,62107,1,10,2:0:0:0:
133,254,62250,1,2,2:0:0:0:
133,254,62393,6,0,L|13:236,1,120,2|10,3:2|2:0,2:0:0:0:
76,92,62964,1,2,3:2:0:0:
76,92,63107,2,0,L|165:81,1,60,2|8,2:0|2:0,2:0:0:0:
191,29,63393,2,0,B|307:45|242:83|353:99,1,180,2|8,2:0|2:0,2:0:0:0:
411,47,63964,1,0,2:0:0:0:
411,47,64107,5,0,3:0:0:0:
483,76,64250,1,0,2:0:0:0:
468,152,64393,1,8,2:0:0:0:
322,202,64679,5,2,3:2:0:0:
322,202,64821,2,0,L|334:274,1,60,2|8,2:0|2:0,0:0:0:0:
402,295,65107,2,0,B|372:280|372:280|279:302,1,120,2|2,2:0|2:0,2:0:0:0:
211,281,65536,1,8,2:0:0:0:
231,356,65679,6,0,B|180:373|139:343|160:328|115:296|67:317,1,180,2|10,2:0|2:0,0:0:0:0:
18,168,66393,2,0,P|21:201|35:230,1,60,2|0,3:2|2:0,0:0:0:0:
105,198,66679,2,0,P|93:170|91:140,1,60,10|0,2:0|2:0,0:0:0:0:
138,78,66964,6,0,B|191:50|191:50|251:79,1,120,2|10,3:2|2:0,2:0:0:0:
313,222,67536,1,2,3:2:0:0:
313,222,67679,1,2,3:2:0:0:
203,332,67964,6,0,B|150:293|150:215|217:173,1,180,6|8,3:2|2:0,0:0:0:0:
353,120,68679,1,8,2:0:0:0:
298,72,68821,1,8,2:3:0:0:
298,72,68964,2,0,L|220:63,1,60,8|0,2:3|0:0,0:0:0:0:
165,35,69250,6,0,B|171:83|139:121|139:121|88:107|66:70,1,180,6|0,3:2|2:0,2:0:0:0:
7,101,69821,2,0,B|1:68|19:42|19:42|49:50|66:71,1,120,6|0,3:2|2:0,2:0:0:0:
91,178,70250,6,0,L|214:150,1,120,6|0,3:2|2:0,2:0:0:0:
283,128,70679,1,8,2:0:0:0:
177,242,70964,1,8,2:0:0:0:
101,222,71107,1,8,2:3:0:0:
55,285,71250,1,4,3:0:0:0:
196,348,71536,2,0,P|257:286|342:303,1,180,6|0,3:2|2:0,2:0:0:0:
427,366,72107,2,0,P|370:354|342:302,1,120,6|0,3:2|2:0,2:0:0:0:
363,227,72536,5,6,3:2:0:0:
506,166,72821,1,0,2:0:0:0:
429,181,72964,2,0,L|437:121,1,60,8|0,2:0|2:0,0:0:0:0:
436,121,73250,1,4,2:3:0:0:
410,275,73536,2,0,P|375:300|324:294,1,90,12|8,2:0|2:0,2:0:0:0:
301,270,73821,5,8,2:0:0:0:
301,270,73964,1,8,2:0:0:0:
136,38,76107,5,8,2:0:0:0:
136,38,76250,1,8,2:0:0:0:
372,68,76679,5,8,2:0:0:0:
372,68,76822,1,8,2:0:0:0:
274,189,77107,6,0,B|204:192|216:227|143:218,1,120,6|2,3:2|2:0,2:0:0:0:
86,190,77536,2,0,P|52:193|24:225,1,60,8|0,2:0|2:0,2:0:0:0:
22,289,77821,1,8,2:0:0:0:
22,289,77964,1,8,2:0:0:0:
69,357,78107,1,8,2:0:0:0:
69,357,78250,1,8,2:0:0:0:
137,319,78393,6,0,L|205:326,1,60,6|2,3:2|2:0,0:0:0:0:
199,246,78679,2,0,L|139:239,1,60,10|2,2:0|2:0,2:0:0:0:
99,171,78964,2,0,P|41:173|-3:136,2,120,2|10|2,3:2|2:0|3:2,2:0:0:0:
130,98,79679,5,2,2:0:0:0:
200,140,79821,1,10,2:0:0:0:
200,140,79964,2,0,L|325:129,1,120,2|0,3:2|3:0,0:0:0:0:
397,121,80393,1,8,2:0:0:0:
397,121,80679,6,0,P|411:148|417:177,1,60,2|2,3:2|2:0,0:0:0:0:
444,249,80964,2,0,P|423:270|397:284,1,60,10|2,2:0|2:0,0:0:0:0:
336,333,81250,1,2,3:2:0:0:
305,260,81393,1,2,2:0:0:0:
239,302,81536,2,0,L|167:307,1,60,10|2,2:0|2:0,0:0:0:0:
101,310,81821,6,0,L|89:368,2,60,2|2|10,3:2|2:0|2:0,0:0:0:0:
35,265,82250,2,0,P|28:178|63:146,1,120,2|0,3:2|3:0,0:0:0:0:
121,137,82679,1,8,2:0:0:0:
176,282,82964,6,0,L|239:289,1,60,2|2,3:2|2:0,2:0:0:0:
295,338,83250,2,0,P|310:311|312:282,1,60,10|0,2:0|2:0,2:0:0:0:
269,222,83536,1,2,3:2:0:0:
269,222,83679,1,0,2:0:0:0:
331,175,83821,2,0,L|413:181,1,60,10|2,2:0|2:0,2:0:0:0:
469,184,84107,6,0,P|484:124|447:71,1,120,2|10,3:2|2:0,2:0:0:0:
438,0,84536,2,0,L|317:0,1,120,2|0,3:2|3:0,2:0:0:0:
239,0,84964,1,10,2:0:0:0:
106,82,85250,6,0,L|119:145,1,60,2|2,3:2|2:0,0:0:0:0:
191,169,85536,2,0,L|178:232,1,60,10|2,2:0|2:0,0:0:0:0:
124,284,85821,1,2,3:2:0:0:
124,284,85964,1,2,2:0:0:0:
186,330,86107,2,0,L|249:317,1,60,10|2,2:0|2:0,0:0:0:0:
321,301,86393,6,0,P|323:330|321:360,2,60,2|2|10,3:2|2:0|2:0,0:0:0:0:
283,238,86821,1,10,2:0:0:0:
283,238,86964,1,0,3:0:0:0:
332,177,87107,1,8,3:0:0:0:
402,210,87250,1,4,3:0:0:0:
312,81,87536,5,4,3:2:0:0:
279,270,88107,2,0,L|360:257,2,60,10|8|8,2:0|2:0|2:0,2:0:0:0:
226,328,88536,1,10,2:0:0:0:
159,287,88679,5,6,3:2:0:0:
248,159,88964,1,10,2:0:0:0:
93,139,89250,2,0,L|75:71,2,60,10|0|4,2:0|3:0|3:0,0:0:0:0:
0,264,89821,5,6,3:2:0:0:
235,214,90393,1,6,3:2:0:0:
469,165,90964,5,2,3:2:0:0:
352,134,91250,1,12,2:0:0:0:
236,102,91536,2,0,L|227:49,2,40,12|8|8,3:2|2:0|2:0,0:0:0:0:
196,95,91821,2,0,L|189:55,2,40,8|8|8,2:0|2:0|2:0,0:0:0:0:
165,121,92107,6,0,P|138:108|94:113,1,60,6|2,3:2|2:0,2:0:0:0:
120,185,92393,1,10,2:0:0:0:
84,253,92536,2,0,P|128:215|187:206,1,120,2|2,3:2|3:2,0:0:0:0:
261,229,92964,1,8,2:0:0:0:
329,190,93107,6,0,P|300:223|313:299,1,120,2|0,3:2|3:0,0:0:0:0:
361,353,93536,2,0,P|374:371|422:377,1,60,10|0,2:0|2:0,0:0:0:0:
422,303,93821,2,0,P|444:300|473:262,1,60,2|0,3:2|3:0,2:0:0:0:
412,222,94107,1,10,2:0:0:0:
460,160,94250,1,2,2:0:0:0:
460,160,94393,6,0,L|444:28,1,120,2|10,3:2|2:0,0:0:0:0:
372,13,94821,1,0,3:0:0:0:
312,63,94964,2,0,P|313:88|332:118,2,60,2|2|8,2:0|3:2|2:0,0:0:0:0:
372,13,95393,6,0,B|304:21|304:21|270:58|270:58|200:68,1,180,2|8,3:2|2:0,2:0:0:0:
136,38,95964,1,0,2:0:0:0:
94,103,96107,1,0,3:0:0:0:
94,103,96250,1,0,3:0:0:0:
27,61,96393,1,8,2:0:0:0:
20,217,96679,6,0,L|91:197,1,60,2|2,3:2|2:0,0:0:0:0:
153,180,96964,1,10,2:0:0:0:
147,257,97107,2,0,B|232:234|232:234|266:257,1,120,2|2,3:2|3:2,2:0:0:0:
321,298,97536,1,8,2:0:0:0:
268,355,97679,6,0,P|199:363|161:325,1,120,2|0,3:2|3:0,2:0:0:0:
147,257,98107,2,0,L|99:212,1,60,10|0,2:0|2:0,2:0:0:0:
61,282,98393,2,0,L|-3:267,1,60,2|0,3:2|3:0,2:0:0:0:
16,345,98679,1,10,2:0:0:0:
85,378,98821,1,2,2:0:0:0:
156,346,98964,5,2,3:2:0:0:
124,193,99250,2,0,L|181:210,1,60,10|0,2:0|2:0,2:0:0:0:
243,162,99536,2,0,P|260:188|263:224,2,60,2|2|8,3:2|3:2|2:0,0:0:0:0:
192,102,99964,6,0,B|249:88|249:88|267:41|267:41|344:24,1,180,6|8,3:2|2:0,2:0:0:0:
413,11,100536,1,0,2:0:0:0:
397,87,100679,1,0,3:0:0:0:
473,103,100821,1,0,3:0:0:0:
490,26,100964,2,0,L|498:-6,2,30,8|8|8,2:0|2:0|2:0,2:0:0:0:
413,11,101250,6,0,P|381:9|349:26,1,60,6|2,3:2|2:0,2:0:0:0:
397,87,101536,1,10,2:0:0:0:
324,115,101679,2,0,P|389:124|431:171,1,120,2|2,2:0|2:0,0:0:0:0:
479,217,102107,1,8,2:0:0:0:
412,257,102250,6,0,B|389:273|389:273|358:333|358:333|336:348,1,120,2|0,2:0|2:0,0:0:0:0:
262,368,102679,2,0,P|242:336|252:297,1,60,10|0,2:0|2:0,0:0:0:0:
220,240,102964,2,0,L|141:220,1,60,2|0,3:2|2:0,2:0:0:0:
86,246,103250,1,10,2:0:0:0:
52,181,103393,1,2,2:0:0:0:
52,181,103536,6,0,B|71:120|52:129|71:62,1,120,2|10,3:2|2:0,0:0:0:0:
140,28,103964,1,0,2:0:0:0:
211,58,104107,2,0,P|247:47|290:32,2,60,2|2|8,3:2|2:0|2:0,0:0:0:0:
180,130,104536,6,0,B|175:191|236:230|236:230|226:262|242:292,1,180,2|8,2:0|2:0,2:0:0:0:
310,255,105107,1,0,2:0:0:0:
351,327,105250,1,0,3:0:0:0:
351,327,105393,1,0,2:0:0:0:
424,301,105536,1,8,2:0:0:0:
495,165,105821,5,2,3:2:0:0:
495,165,105964,2,0,L|431:155,1,60,2|10,2:0|2:0,0:0:0:0:
415,79,106250,2,0,L|275:100,1,120,2|2,2:0|2:0,2:0:0:0:
252,161,106679,1,8,2:0:0:0:
329,168,106821,6,0,P|275:140|216:130,1,120,2|0,2:0|2:0,2:0:0:0:
155,80,107250,2,0,P|140:106|137:136,1,60,10|8,2:0|2:0,0:0:0:0:
69,176,107536,2,0,P|89:199|114:213,2,40,8|8|8,2:0|2:0|2:0,0:0:0:0:
90,223,107821,2,0,P|120:225|147:217,2,40,8|8|8,2:0|2:0|2:0,0:0:0:0:
133,252,108107,5,8,3:2:0:0:
358,159,108964,1,8,3:0:0:0:
271,329,109250,6,0,P|250:309|244:280,1,60,6|0,3:2|0:0,2:0:0:0:
168,297,109536,2,0,P|188:276|217:269,1,60,10|0,2:0|0:0,2:0:0:0:
200,193,109821,2,0,P|220:213|227:242,1,60,2|0,3:2|0:0,2:0:0:0:
304,225,110107,2,0,P|283:245|254:252,1,60,10|0,2:0|0:0,0:0:0:0:
200,193,110393,5,2,3:2:0:0:
138,239,110536,1,2,2:0:0:0:
65,226,110679,1,10,2:0:0:0:
65,226,110821,2,0,B|27:227|1:204|1:204|20:227|20:263,1,120,2|2,3:2|3:2,2:0:0:0:
31,328,111250,2,0,P|55:313|93:310,1,60,10|2,2:0|2:0,2:0:0:0:
162,328,111536,5,2,3:2:0:0:
162,328,111679,1,2,3:2:0:0:
234,367,111821,5,10,2:0:0:0:
234,367,111964,1,2,2:0:0:0:
268,296,112107,5,2,3:2:0:0:
345,304,112250,1,2,3:2:0:0:
398,361,112393,1,10,2:0:0:0:
387,283,112536,1,2,2:0:0:0:
419,211,112679,2,0,L|490:198,2,60,2|2|10,3:2|3:2|2:0,0:0:0:0:
387,283,113107,2,2,P|444:293|476:342,1,120,2|0,3:2|3:0,2:0:0:0:
398,361,113536,1,10,2:0:0:0:
345,176,113821,5,2,3:2:0:0:
283,127,113964,1,2,2:0:0:0:
234,189,114107,2,2,L|212:223,2,30,10|0|2,2:0|2:0|2:0,2:0:0:0:
174,137,114393,6,2,L|140:115,2,30,2|0|2,3:2|2:0|3:2,2:0:0:0:
223,75,114679,1,10,2:0:0:0:
283,127,114821,1,2,2:0:0:0:
234,189,114964,2,2,L|244:257,2,60,2|2|10,3:2|3:2|2:0,2:0:0:0:
174,137,115393,2,2,B|99:130|127:97|66:89,1,120,2|2,2:0|3:2,2:0:0:0:
14,30,115821,2,0,P|39:14|68:9,1,60,10|2,2:0|2:0,0:0:0:0:
145,25,116107,5,2,3:2:0:0:
49,191,116393,1,14,0:0:0:0:
49,191,116536,1,0,0:0:0:0:
128,174,116679,1,2,3:2:0:0:
128,174,116822,1,2,3:2:0:0:
103,250,116964,1,10,2:0:0:0:
103,250,117107,1,0,2:0:0:0:
74,322,117250,2,0,L|0:307,1,60,2|2,3:2|3:2,0:0:0:0:
15,310,117536,1,10,2:0:0:0:
93,365,117679,6,0,P|141:336|210:335,1,120,4|2,3:2|3:2,0:0:0:0:
280,347,118107,2,0,L|292:379,3,30,10|10|10|10,2:0|2:0|2:0|2:0,0:0:0:0:
328,383,118393,6,0,L|336:319,1,60,6|2,3:2|2:3,0:0:0:0:
409,296,118679,2,0,L|401:232,1,60,10|2,2:0|2:3,0:0:0:0:
353,175,118964,2,0,L|227:156,1,120,2|10,3:2|2:0,0:0:0:0:
170,202,119393,1,2,2:3:0:0:
109,152,119536,6,0,P|99:106|106:77,1,60,2|2,3:2|2:3,0:0:0:0:
152,35,119821,1,10,2:0:0:0:
152,35,119964,2,0,B|209:47|209:47|270:28,1,120,2|2,2:3|2:3,0:0:0:0:
341,0,120393,2,0,B|351:34|351:34|336:69,1,60,8|2,2:0|2:3,0:0:0:0:
396,112,120679,6,0,L|335:147,1,60,2|2,3:2|2:3,0:0:0:0:
353,219,120964,2,0,L|282:209,1,60,10|2,2:0|2:3,0:0:0:0:
230,163,121250,2,0,P|249:219|263:285,1,120,2|10,3:2|2:0,0:0:0:0:
223,347,121679,1,2,2:3:0:0:
159,302,121821,6,0,L|84:296,1,60,2|2,3:2|0:3,0:0:0:0:
25,314,122107,1,10,0:0:0:0:
25,314,122250,2,0,P|1:255|34:195,1,120,2|2,0:3|0:3,0:0:0:0:
0,130,122679,2,0,L|72:114,1,60,8|2,0:0|0:3,0:0:0:0:
116,64,122964,6,0,L|140:122,1,60,2|2,3:2|0:3,0:0:0:0:
217,111,123250,2,0,L|211:179,1,60,10|2,0:0|0:3,0:0:0:0:
148,217,123536,2,0,P|207:221|258:254,1,120,2|10,3:2|0:0,0:0:0:0:
324,213,123964,1,2,0:3:0:0:
353,285,124107,6,0,L|429:273,1,60,2|2,3:2|0:3,0:0:0:0:
483,239,124393,1,10,0:0:0:0:
483,239,124536,2,0,P|509:174|496:126,1,120,2|2,0:3|0:3,0:0:0:0:
493,49,124964,2,0,L|433:40,1,60,8|2,0:0|0:3,0:0:0:0:
366,81,125250,5,2,3:2:0:0:
327,13,125393,1,2,0:3:0:0:
262,56,125536,2,0,L|190:68,1,60,10|2,0:0|0:3,0:0:0:0:
138,110,125821,5,2,3:2:0:0:
138,110,125964,1,2,0:3:0:0:
176,178,126107,2,0,L|255:193,1,60,10|2,0:0|0:3,0:0:0:0:
307,159,126393,5,2,3:2:0:0:
354,220,126536,2,0,L|337:270,1,30,8|8,0:0|0:0,0:0:0:0:
312,271,126679,6,0,L|322:316,3,30,8|8|8|8,0:0|0:0|0:0|0:0,0:0:0:0:
302,335,126964,2,0,L|266:349,3,30,8|8|8|8,0:3|0:3|0:3|0:3,0:0:0:0:
238,329,127250,2,0,L|202:315,3,30,4|4|4|4,0:3|0:3|0:3|0:3,0:0:0:0:
180,343,127536,5,6,3:2:0:0:
17,77,128107,2,0,P|23:104|25:136,1,60,8|8,0:0|0:0,0:0:0:0:
94,62,128393,2,0,P|96:92|103:122,1,60,10|8,0:0|0:0,0:0:0:0:
102,121,128679,1,6,3:2:0:0:
317,30,129107,5,0,0:0:0:0:
317,30,129250,2,0,P|346:27|376:21,1,60,8|8,0:0|0:3,0:0:0:0:
376,20,129536,1,4,0:3:0:0:
508,7,129821,5,6,3:2:0:0:
468,316,130393,2,0,P|462:289|459:256,1,60,10|0,0:0|0:0,0:0:0:0:
391,330,130679,2,0,P|388:300|382:270,1,60,10|0,0:0|0:0,0:0:0:0:
354,197,130964,5,10,0:0:0:0:
354,197,131107,1,8,0:3:0:0:
279,174,131250,1,4,0:3:0:0:
279,174,131393,1,4,0:3:0:0:
221,227,131536,6,0,L|138:314,1,120,12|0,0:0|0:0,0:0:0:0:
0,255,132107,5,6,3:2:0:0:
0,255,132536,1,0,0:0:0:0:
20,179,132679,2,0,P|52:173|93:160,1,60,10|0,0:0|0:0,0:0:0:0:
64,89,132964,2,0,P|34:93|5:102,1,60,10|0,0:0|0:0,0:0:0:0:
5,101,133250,5,6,3:2:0:0:
222,189,133679,1,0,0:0:0:0:
241,113,133821,1,8,0:3:0:0:
328,242,134107,1,4,0:3:0:0:
336,86,134393,5,6,3:2:0:0:
336,86,134821,1,0,0:0:0:0:
412,68,134964,2,0,L|438:126,1,60,10|0,0:0|0:0,0:0:0:0:
394,188,135250,2,0,L|330:175,1,60,2|0,3:2|0:0,0:0:0:0:
261,149,135536,6,0,L|240:109,2,40,10|8|8,3:2|0:0|0:3,0:0:0:0:
221,114,135821,2,0,L|200:154,2,40,8|4|4,0:3|0:3|0:3,0:0:0:0:
176,141,136107,1,4,3:2:0:0:
176,141,136679,5,6,3:2:0:0:
16,300,145821,6,0,B|60:234|145:263|145:263|151:318|203:336,1,240,2|8,0:0|3:0,0:0:0:0:
496,300,146964,2,0,B|452:234|367:263|367:263|361:318|309:336,1,240,2|8,0:0|3:0,0:0:0:0:
136,156,148107,6,0,B|180:222|180:222|198:334|198:334|216:268,1,240,2|8,0:0|0:3,0:0:0:0:
376,156,149250,2,0,B|332:222|332:222|314:334|314:334|296:268,1,240,2|8,0:0|3:0,0:0:0:0:
256,96,150393,6,0,L|256:216,1,120,8|0,3:0|3:0,0:0:0:0:
212,116,150964,2,0,L|296:200,1,120,0|0,3:0|3:0,0:0:0:0:
300,116,151536,2,0,L|215:200,1,120,8|0,3:0|3:0,0:0:0:0:
256,40,152107,2,0,L|256:160,1,120,0|0,3:0|3:0,0:0:0:0:
256,244,152536,1,2,0:0:0:0:
256,244,152679,6,0,P|332:272|380:312,2,120,2|2|10,3:2|3:2|0:0,0:0:0:0:
192,292,153393,1,10,0:0:0:0:
124,252,153536,1,8,0:0:0:0:
124,252,153679,2,0,P|96:212|120:144,1,120,6|0,3:2|3:0,0:0:0:0:
120,72,154107,2,0,L|196:56,1,60,12|0,0:0|0:0,0:0:0:0:
248,24,154393,6,0,L|288:32,3,30,8|8|8|8,3:2|0:0|0:0|0:0,0:0:0:0:
316,24,154679,2,0,L|336:60,3,30,8|8|8|8,3:2|0:0|0:0|0:0,0:0:0:0:
331,88,154964,6,0,P|360:88|387:101,1,60,6|2,3:2|0:0,0:0:0:0:
464,83,155250,1,10,0:0:0:0:
492,155,155393,2,0,P|437:174|399:220,1,120,2|2,3:2|3:2,0:0:0:0:
391,298,155821,1,8,0:0:0:0:
335,353,155964,6,0,P|278:366|230:333,1,120,2|0,3:2|0:0,0:0:0:0:
153,315,156393,2,0,P|158:286|180:266,1,60,10|0,0:0|0:0,0:0:0:0:
207,193,156678,2,0,P|185:190|156:152,1,60,2|0,3:2|0:0,0:0:0:0:
141,87,156964,1,10,0:0:0:0:
152,13,157107,1,2,0:0:0:0:
152,13,157250,6,0,L|22:40,1,120,2|10,3:2|0:0,0:0:0:0:
8,110,157678,1,0,3:0:0:0:
5,188,157821,2,0,P|30:187|60:168,2,60,2|2|8,0:0|3:2|0:0,0:0:0:0:
8,110,158250,6,0,B|16:178|16:178|53:212|53:212|63:282,1,180,2|8,3:2|0:0,0:0:0:0:
174,380,158964,1,0,3:0:0:0:
96,369,159107,1,0,3:0:0:0:
170,344,159250,1,8,0:0:0:0:
71,222,159536,6,0,P|77:251|79:285,1,60,2|2,3:2|0:0,0:0:0:0:
153,241,159821,1,10,0:0:0:0:
123,149,159964,2,0,P|178:142|243:107,1,120,2|2,3:2|3:2,0:0:0:0:
290,57,160393,1,8,0:0:0:0:
328,124,160536,6,0,P|323:84|389:77,1,120,2|0,3:2|3:0,0:0:0:0:
452,32,160964,2,0,L|472:88,1,60,10|0,0:0|0:0,0:0:0:0:
441,160,161250,2,0,L|461:216,1,60,2|0,3:2|0:0,0:0:0:0:
453,294,161536,1,10,0:0:0:0:
423,365,161678,1,2,0:0:0:0:
351,334,161821,5,2,3:2:0:0:
307,184,162107,2,0,L|290:241,1,60,10|0,0:0|0:0,0:0:0:0:
261,314,162393,1,2,3:2:0:0:
261,314,162536,1,2,3:2:0:0:
261,314,162679,1,8,0:0:0:0:
198,360,162821,6,0,B|141:346|141:346|123:299|123:299|53:283,1,180,6|8,3:2|0:0,0:0:0:0:
53,283,163536,1,0,3:0:0:0:
131,274,163679,1,0,3:0:0:0:
209,265,163821,2,0,L|217:233,2,30,8|8|8,0:0|0:0|0:0,0:0:0:0:
214,158,164107,6,0,P|172:149|131:145,1,60,6|0,3:2|0:0,0:0:0:0:
80,124,164393,1,10,0:0:0:0:
122,58,164536,2,0,P|150:48|179:51,1,60,2|0,0:0|3:0,0:0:0:0:
254,29,164821,2,0,L|270:109,1,60,2|8,0:0|0:0,0:0:0:0:
330,131,165107,1,2,0:0:0:0:
404,154,165250,6,0,L|392:212,1,60,2|2,3:2|0:0,0:0:0:0:
321,246,165536,1,10,0:0:0:0:
372,305,165679,2,0,P|344:328|310:341,1,60,2|0,0:0|3:0,0:0:0:0:
258,382,165964,2,0,L|217:326,1,60,2|8,0:0|0:0,0:0:0:0:
144,320,166250,1,2,0:0:0:0:
183,251,166393,6,0,L|181:188,1,60,2|2,3:2|0:0,0:0:0:0:
132,128,166679,1,10,0:0:0:0:
56,144,166821,2,0,B|40:170|40:170|46:201,1,60,2|0,0:0|3:0,0:0:0:0:
19,273,167107,2,0,B|38:296|38:296|70:300,1,60,2|8,0:0|0:0,0:0:0:0:
144,320,167393,1,2,0:0:0:0:
183,251,167536,6,0,L|256:242,1,60,2|0,3:2|0:0,0:0:0:0:
307,286,167821,1,10,0:0:0:0:
365,234,167964,2,0,L|376:167,1,60,2|0,0:0|3:0,0:0:0:0:
308,132,168250,2,0,L|297:65,1,60,2|8,0:0|0:0,0:0:0:0:
344,9,168536,1,2,0:0:0:0:
405,57,168679,6,0,P|440:62|478:76,1,60,2|0,3:2|0:0,0:0:0:0:
499,138,168964,1,10,0:0:0:0:
478,213,169107,2,0,L|422:239,1,60,2|0,0:0|3:0,0:0:0:0:
371,297,169393,2,0,L|313:275,1,60,2|8,0:0|0:0,0:0:0:0:
236,267,169679,1,2,0:0:0:0:
305,232,169821,6,0,P|316:290|302:348,1,120,0|10,3:0|0:0,0:0:0:0:
232,383,170250,1,0,0:0:0:0:
164,343,170393,2,0,P|152:284|166:226,1,120,2|10,3:2|0:0,0:0:0:0:
122,167,170821,1,2,0:0:0:0:
122,167,170964,6,0,B|66:157|66:157|61:154|61:154|-3:143,2,120,0|10|2,3:2|0:0|3:2,0:0:0:0:
165,226,171679,1,2,3:2:0:0:
264,106,171964,6,0,P|290:158|280:216,1,120,6|0,3:2|3:0,0:0:0:0:
229,276,172393,2,0,L|281:311,1,60,12|0,0:0|3:0,0:0:0:0:
357,311,172679,2,0,L|409:268,1,60,12|0,0:0|3:0,0:0:0:0:
430,199,172964,2,0,L|470:210,3,30,8|8|8|8,0:0|0:0|0:0|0:0,0:0:0:0:
492,188,173250,6,0,P|466:136|482:80,2,120,6|14|2,3:2|3:2|3:2,0:0:0:0:
469,263,173964,1,0,0:0:0:0:
396,234,174107,2,0,P|372:218|362:186,1,60,10|0,0:0|0:0,0:0:0:0:
302,266,174393,6,0,P|328:318|312:374,2,120,2|10|2,3:2|0:0|3:2,0:0:0:0:
251,325,175107,1,0,0:0:0:0:
171,330,175250,2,0,P|174:300|190:275,1,60,10|0,0:0|0:0,0:0:0:0:
242,216,175536,5,2,3:2:0:0:
97,273,175821,2,0,L|29:255,1,60,10|0,0:0|0:0,0:0:0:0:
108,190,176107,1,2,3:2:0:0:
108,190,176250,2,0,L|4:119,1,120,2|2,3:2|0:0,0:0:0:0:
32,46,176679,6,0,P|54:27|83:19,2,60,0|0|8,3:0|3:0|0:0,0:0:0:0:
94,94,177107,2,0,P|123:100|152:95,2,60,2|0|0,0:0|3:0|3:0,0:0:0:0:
55,163,177536,2,0,P|78:181|107:189,1,60,8|2,0:0|0:0,0:0:0:0:
202,179,177821,6,0,B|240:175|240:175|221:195,1,60,2|0,3:2|0:0,0:0:0:0:
184,257,178107,2,0,B|168:339|168:339|132:364,2,120,10|0|10,0:0|3:0|0:0,0:0:0:0:
202,179,178821,1,0,0:0:0:0:
213,101,178964,6,0,B|229:19|229:19|265:-6,1,120,2|10,3:2|0:0,0:0:0:0:
333,19,179393,1,0,0:0:0:0:
411,15,179536,2,0,P|433:19|467:40,2,40,8|8|8,0:0|0:0|0:0,0:0:0:0:
430,63,179821,2,0,P|437:84|436:123,2,40,8|8|8,0:0|0:0|0:0,0:0:0:0:
415,113,180107,6,0,P|338:107|334:19,1,180,6|0,3:2|0:0,0:0:0:0:
333,19,180679,6,0,P|336:101|254:115,1,180,6|2,3:2|0:0,0:0:0:0:
254,115,181250,6,0,B|196:101|198:40|198:40|262:65|203:246,1,300,6|0,3:2|0:0,0:0:0:0:
210,221,182107,1,8,3:0:0:0:
69,289,182393,6,0,B|38:248|38:248|32:222|32:222|7:187,2,120,14|10|10,3:2|0:2|0:2,0:0:0:0:
140,258,183107,1,2,3:2:0:0:
161,333,183250,2,0,L|233:359,1,60,10|2,0:2|3:2,0:0:0:0:
292,328,183536,2,0,P|298:265|311:188,1,120,10|10,0:2|0:2,0:0:0:0:
383,240,183964,1,2,3:2:0:0:
383,240,184107,2,0,L|450:220,1,60,10|2,0:2|3:2,0:0:0:0:
479,154,184393,2,0,L|403:136,1,60,10|0,0:2|3:0,0:0:0:0:
384,70,184679,6,0,B|331:84|331:84|330:87|330:87|271:104,1,120,10|10,3:2|0:2,0:0:0:0:
214,50,185107,1,2,0:2:0:0:
159,106,185250,2,0,L|174:174,1,60,10|2,0:2|3:2,0:0:0:0:
239,204,185536,2,0,L|222:278,1,60,10|2,0:2|3:2,0:0:0:0:
152,279,185821,5,10,0:2:0:0:
152,279,185964,1,2,0:2:0:0:
123,351,186107,2,0,L|41:344,1,60,10|2,0:2|3:2,0:0:0:0:
8,289,186393,2,0,L|-1:229,2,60,10|2|10,0:2|3:2|0:2,0:0:0:0:
151,225,186964,6,0,L|159:95,1,120,14|10,3:2|0:2,0:0:0:0:
113,40,187393,1,2,3:2:0:0:
47,82,187536,2,0,P|53:110|73:132,1,60,10|2,0:2|3:2,0:0:0:0:
124,191,187821,2,0,L|182:176,1,60,10|2,0:2|3:2,0:0:0:0:
257,155,188107,6,0,L|265:25,2,120,10|10|10,0:2|0:2|0:2,0:0:0:0:
332,189,188821,1,2,3:2:0:0:
332,189,188964,2,0,L|397:211,1,60,10|0,0:2|3:0,0:0:0:0:
460,240,189250,6,0,P|395:261|340:294,1,120,10|10,0:2|0:0,0:0:0:0:
208,220,189821,1,10,0:0:0:0:
208,220,189964,1,2,3:2:0:0:
309,101,190250,6,0,P|277:51|235:9,1,120,6|0,3:2|3:0,0:0:0:0:
157,19,190679,2,0,L|148:90,1,60,8|0,0:0|0:0,0:0:0:0:
124,151,190964,2,0,L|169:171,3,30,8|8|8|8,3:2|0:0|0:0|0:0,0:0:0:0:
155,202,191250,2,0,L|202:184,3,30,8|8|8|8,3:2|0:0|0:0|0:0,0:0:0:0:
208,220,191536,5,6,3:2:0:0:
