osu file format v14

[General]
AudioFilename: audio.mp3
AudioLeadIn: 0
PreviewTime: 60745
Countdown: 0
SampleSet: Soft
StackLeniency: 0.7
Mode: 0
LetterboxInBreaks: 0
WidescreenStoryboard: 1

[Editor]
DistanceSpacing: 1.4
BeatDivisor: 4
GridSize: 32
TimelineZoom: 2.4

[Metadata]
Title:Chicago
TitleUnicode:Chicago
Artist:Bentham
ArtistUnicode:Bentham
Creator:Nymphe
Version:Entry's Hard
Source:
Tags:Japanese J-rock Rock Male Vocal Reform Kujinn OnlyBiscuit Biskit Brotarks Entry Kiyoshi Guarden Pyrolized Basensorex my_angel_ram my angel ram cut short ver version
BeatmapID:2577690
BeatmapSetID:1187933

[Difficulty]
HPDrainRate:4.6
CircleSize:3.5
OverallDifficulty:7
ApproachRate:8
SliderMultiplier:1.4
SliderTickRate:1

[Events]
//Background and Video events
0,0,"bg.jpg",0,0
//Break Periods
//Storyboard Layer 0 (Background)
//Storyboard Layer 1 (Fail)
//Storyboard Layer 2 (Pass)
//Storyboard Layer 3 (Foreground)
//Storyboard Layer 4 (Overlay)
//Storyboard Sound Samples

[TimingPoints]
174,285.714285714286,4,2,22,72,1,0
9745,-100,4,2,22,72,0,0
10459,-125,4,2,22,72,0,0
10959,-125,4,2,22,5,0,0
11031,-125,4,2,22,72,0,0
11388,-125,4,2,22,5,0,0
11459,-125,4,2,22,82,0,0
12174,-125,4,2,22,72,0,0
13245,-125,4,2,22,5,0,0
13316,-125,4,2,22,72,0,0
13674,-125,4,2,22,5,0,0
13745,-125,4,2,22,72,0,0
14102,-125,4,2,22,5,0,0
14174,-125,4,2,22,72,0,0
15031,-111.111111111111,4,2,22,82,0,0
18102,-111.111111111111,4,2,22,5,0,0
18174,-111.111111111111,4,2,22,82,0,0
18316,-111.111111111111,4,2,22,72,0,0
19316,-125,4,2,22,52,0,0
19531,-125,4,2,22,5,0,0
19602,-100,4,2,22,82,0,0
26459,-100,4,2,22,72,0,0
27459,-100,4,2,22,82,0,0
27888,-100,4,2,22,72,0,0
28316,-100,4,2,22,62,0,0
28459,-100,4,2,22,52,0,0
28745,-125,4,2,22,72,0,0
31031,-111.111111111111,4,2,22,82,0,0
33316,-125,4,2,22,72,0,0
35602,-111.111111111111,4,2,22,82,0,0
37888,-111.111111111111,4,2,22,52,0,0
39531,-111.111111111111,4,2,22,5,0,0
39602,-111.111111111111,4,2,22,52,0,0
40174,-111.111111111111,4,2,22,62,0,0
41245,-111.111111111111,4,2,22,5,0,0
41316,-111.111111111111,4,2,22,62,0,0
42031,-125,4,2,22,62,0,0
42459,-125,4,2,22,72,0,0
44745,-100,4,2,22,82,0,0
47031,-125,4,2,22,72,0,0
49316,-100,4,2,22,82,0,0
51602,-111.111111111111,4,2,22,72,0,0
55316,-111.111111111111,4,2,22,82,0,0
55602,-111.111111111111,4,2,22,87,0,0
55888,-111.111111111111,4,2,22,92,0,0
56174,-111.111111111111,4,2,22,52,0,0
57816,-111.111111111111,4,2,22,5,0,0
57888,-111.111111111111,4,2,22,52,0,0
58459,-111.111111111111,4,2,22,62,0,0
59531,-111.111111111111,4,2,22,5,0,0
59602,-111.111111111111,4,2,22,62,0,0
60745,-100,4,2,22,92,0,1
79031,-100,4,2,22,82,0,0
79245,-100,4,2,22,5,0,0
79316,-100,4,2,22,82,0,0
79816,-100,4,2,22,5,0,0
79887,-100,4,2,22,82,0,0
80388,-100,4,2,22,5,0,0
80459,-100,4,2,22,82,0,0
80959,-100,4,2,22,5,0,0
81030,-100,4,2,22,82,0,0
85888,-100,4,2,22,52,0,0
87031,-166.666666666667,4,2,22,52,0,0
88174,-100,4,2,22,92,0,0
95031,-100,4,2,22,82,0,0
96031,-100,4,2,22,92,0,0
97316,-166.666666666667,4,2,22,52,0,0
99602,-125,4,2,22,62,0,0
99816,-125,4,2,22,5,0,0
99888,-125,4,2,22,62,0,0
100102,-125,4,2,22,5,0,0
100174,-125,4,2,22,62,0,0
100388,-125,4,2,22,5,0,0
100459,-125,4,2,22,62,0,0
100673,-125,4,2,22,5,0,0
100745,-125,4,2,22,62,0,0
100959,-125,4,2,22,5,0,0
101031,-125,4,2,22,62,0,0
101245,-125,4,2,22,5,0,0
101316,-125,4,2,22,62,0,0
101530,-125,4,2,22,5,0,0
101602,-125,4,2,22,92,0,0

[Colours]
Combo1 : 0,0,221
Combo2 : 0,102,151
Combo3 : 167,162,63
Combo4 : 129,115,196

[HitObjects]
256,192,7031,12,0,9745,0:2:0:0:
511,137,10459,6,0,P|476:127|363:57,1,168,6|0,1:2|0:2,0:0:0:0:
298,5,11031,2,0,L|221:98,1,112,6|0,1:2|0:2,0:0:0:0:
151,181,11459,1,6,1:2:0:0:
151,181,12174,5,8,0:2:0:0:
151,181,12316,1,8,0:2:0:0:
241,234,12459,1,8,0:2:0:0:
241,234,12602,1,8,0:2:0:0:
154,313,12745,6,0,B|94:333|31:328|31:328|10:274,1,168,6|0,1:2|0:2,0:0:0:0:
14,201,13316,2,0,P|65:156|94:105,1,112,6|0,1:2|0:2,0:0:0:0:
126,0,13745,1,6,1:2:0:0:
298,15,14031,5,0,1:2:0:0:
298,15,14174,1,8,0:2:0:0:
340,177,14459,6,0,L|387:169,2,37.3333333333333,8|8|8,0:2|0:2|0:2,0:0:0:0:
351,221,14745,2,0,L|398:213,2,37.3333333333333,8|8|8,0:2|0:2|0:2,0:0:0:0:
310,234,15031,6,0,P|272:266|257:358,1,125.999996154785,6|8,1:2|0:2,0:0:0:0:
421,381,15602,2,0,L|406:314,1,62.9999980773926,8|0,0:2|1:2,0:0:0:0:
444,238,15888,1,8,0:2:0:0:
512,145,16031,6,0,L|481:10,1,125.999996154785,2|0,1:2|1:2,0:0:0:0:
391,2,16459,2,0,P|365:32|349:69,1,62.9999980773926,8|0,0:2|1:2,0:0:0:0:
400,136,16745,2,0,L|334:153,1,62.9999980773926,8|0,0:2|1:2,0:0:0:0:
291,234,17031,2,0,L|225:251,1,62.9999980773926,8|0,0:2|1:2,0:0:0:0:
126,185,17316,6,0,B|95:148|95:148|9:173,1,125.999996154785,10|8,0:2|0:2,0:0:0:0:
0,269,17745,1,0,1:2:0:0:
78,321,17888,2,0,L|70:389,2,62.9999980773926,10|0|8,0:2|0:0|0:2,0:0:0:0:
163,384,18316,6,0,L|181:232,1,125.999996154785,6|0,1:2|1:2,0:0:0:0:
141,170,18745,1,8,0:2:0:0:
231,137,18888,1,0,1:2:0:0:
231,137,19031,1,8,0:3:0:0:
112,9,19316,2,0,P|67:14|18:38,1,84,2|0,0:2|0:2,0:0:0:0:
12,68,19602,6,0,P|22:136|44:222,1,140,4|8,1:2|0:2,0:0:0:0:
108,274,20031,2,0,P|158:225|213:182,1,140,2|0,1:2|1:2,0:0:0:0:
244,91,20459,1,10,0:2:0:0:
244,91,20602,1,0,1:2:0:0:
333,131,20745,6,0,P|373:127|409:112,2,70,0|0|8,3:2|1:2|0:2,0:0:0:0:
352,227,21174,2,0,P|392:223|428:208,2,70,0|0|0,0:2|1:2|1:2,0:0:0:0:
257,202,21602,1,8,0:2:0:0:
312,356,21888,6,0,B|366:354|366:354|394:372|394:372|448:368,1,140,2|8,1:2|0:2,0:0:0:0:
507,291,22316,2,0,L|498:148,1,140,2|0,1:2|1:2,0:0:0:0:
492,56,22745,1,8,0:2:0:0:
492,56,22888,1,2,1:2:0:0:
399,24,23031,6,0,L|323:26,2,70,0|0|8,3:2|1:2|0:2,0:0:0:0:
402,122,23459,2,0,L|326:124,2,70,0|0|0,0:2|1:2|1:2,0:0:0:0:
480,181,23888,1,8,0:2:0:0:
313,284,24174,6,0,P|275:271|209:198,1,140,2|8,1:2|0:2,0:0:0:0:
226,102,24602,2,0,P|206:55|127:10,1,140,2|0,1:2|1:2,0:0:0:0:
37,21,25031,1,8,0:2:0:0:
37,21,25174,1,2,1:2:0:0:
6,113,25316,6,0,L|5:190,2,70,0|0|8,3:2|1:2|0:2,0:0:0:0:
104,115,25745,2,0,L|103:192,2,70,0|0|0,0:2|1:2|1:2,0:0:0:0:
148,20,26174,1,8,0:2:0:0:
229,197,26459,6,0,B|241:233|239:270|239:270|204:337,1,140,2|10,1:2|0:2,0:0:0:0:
35,234,27031,2,0,L|26:312,1,70,2|2,1:2|1:2,0:0:0:0:
84,382,27316,1,8,0:2:0:0:
128,269,27459,6,0,B|159:273|184:285|184:285|197:302|197:302|220:314|257:317,1,140,6|0,1:2|1:2,0:0:0:0:
336,371,27888,1,8,0:2:0:0:
470,266,28174,1,8,0:2:0:0:
489,355,28316,1,0,1:2:0:0:
489,355,28459,1,0,1:2:0:0:
505,174,28745,6,0,P|449:168|382:158,1,112,6|10,1:2|0:2,0:0:0:0:
267,39,29316,2,0,L|337:22,1,56,2|2,1:2|0:2,0:0:0:0:
407,23,29602,2,0,L|424:93,1,56,10|2,0:2|0:2,0:0:0:0:
393,159,29888,2,0,P|351:149|267:142,1,112,2|10,1:2|0:2,0:0:0:0:
198,155,30316,1,2,1:2:0:0:
58,52,30602,6,0,L|62:9,2,28,0|0|2,0:2|0:0|3:2,0:0:0:0:
13,233,31031,6,0,L|20:303,1,62.9999980773926,6|2,1:2|0:2,0:0:0:0:
108,263,31316,2,0,L|101:193,1,62.9999980773926,10|2,0:2|3:2,0:0:0:0:
126,108,31602,2,0,P|182:89|249:42,1,125.999996154785,2|10,1:2|0:2,0:0:0:0:
322,8,32031,1,2,3:2:0:0:
337,101,32174,6,0,L|323:170,2,62.9999980773926,2|2|10,1:2|3:2|0:2,0:0:0:0:
404,35,32602,2,0,P|448:49|497:132,1,125.999996154785,2|0,3:2|3:2,0:0:0:0:
495,206,33031,1,8,0:2:0:0:
382,358,33316,6,0,P|342:345|257:327,1,112,6|10,1:2|0:2,0:0:0:0:
129,370,33888,2,0,L|198:362,1,56,2|2,1:2|0:2,0:0:0:0:
195,277,34174,2,0,L|139:283,1,56,10|0,0:2|0:2,0:0:0:0:
110,202,34459,2,0,L|239:187,1,112,2|10,1:2|0:2,0:0:0:0:
285,132,34888,2,0,P|307:95|217:64,1,168,2|10,1:2|0:2,0:0:0:0:
297,240,35602,5,6,1:2:0:0:
297,240,35745,1,2,3:2:0:0:
385,273,35888,2,0,P|424:264|448:252,1,62.9999980773926,10|2,0:2|3:2,0:0:0:0:
491,171,36174,2,0,P|502:132|504:105,1,62.9999980773926,2|2,1:2|3:2,0:0:0:0:
478,19,36459,2,0,L|410:8,1,62.9999980773926,10|2,0:2|3:2,0:0:0:0:
325,21,36745,5,2,1:2:0:0:
325,21,36888,2,0,P|327:55|335:92,1,62.9999980773926,2|8,3:2|0:2,0:0:0:0:
397,153,37174,1,2,3:2:0:0:
315,308,37459,1,8,0:2:0:0:
315,308,37531,1,8,0:2:0:0:
315,308,37602,2,0,L|305:360,3,31.4999990386963,8|8|8|8,0:2|0:2|0:2|0:2,0:0:0:0:
304,370,37888,5,6,1:2:0:0:
290,368,39031,5,6,1:2:0:0:
276,366,40174,5,6,1:2:0:0:
262,364,40745,1,6,1:2:0:0:
248,362,41316,1,10,0:2:0:0:
234,360,41888,5,8,0:2:0:0:
272,283,42031,2,0,L|341:273,2,56,8|4|4,0:3|0:3|0:3,0:0:0:0:
158,282,42459,6,0,P|126:331|101:383,1,112,6|10,1:2|0:2,0:0:0:0:
3,239,43031,2,0,L|67:230,1,56,2|2,1:2|0:2,0:0:0:0:
128,177,43316,2,0,L|192:168,1,56,10|2,0:2|0:2,0:0:0:0:
263,204,43602,2,0,P|313:223|384:223,1,112,2|10,1:2|0:2,0:0:0:0:
434,164,44031,2,0,P|428:125|374:56,1,112,2|0,1:2|1:2,0:0:0:0:
316,17,44459,1,8,0:2:0:0:
180,117,44745,6,0,L|185:40,1,70,6|10,1:2|0:2,0:0:0:0:
90,10,45031,2,0,L|85:79,1,70,2|10,1:2|0:2,0:0:0:0:
56,174,45316,2,0,P|18:205|-3:236,1,70,2|8,1:2|0:2,0:0:0:0:
17,318,45602,1,2,1:2:0:0:
97,375,45745,1,10,0:2:0:0:
154,295,45888,6,0,P|151:250|141:215,2,70,2|8|2,1:2|0:2|1:2,0:0:0:0:
218,360,46316,2,0,B|276:370|276:370|369:350,1,140,10|8,0:2|0:2,0:0:0:0:
440,325,46745,2,0,P|482:333|519:332,1,70,0|8,1:2|0:2,0:0:0:0:
467,228,47031,6,0,P|410:209|339:229,1,112,6|10,1:2|0:2,0:0:0:0:
250,80,47602,2,0,P|307:61|378:81,1,112,2|10,1:2|0:2,0:0:0:0:
249,208,48174,2,0,P|192:189|121:209,1,112,2|10,1:2|0:2,0:0:0:0:
70,248,48602,2,0,P|39:211|34:128,1,112,2|0,1:2|0:2,0:0:0:0:
45,63,49031,1,10,0:2:0:0:
208,11,49316,6,0,L|288:15,1,70,6|8,1:2|0:2,0:0:0:0:
324,102,49602,2,0,L|396:88,1,70,2|10,1:2|0:2,0:0:0:0:
463,18,49888,2,0,B|495:58|495:58|485:101|479:158,1,140,2|2,1:2|1:2,0:0:0:0:
512,238,50316,1,10,0:2:0:0:
439,305,50459,6,0,L|454:380,2,70,2|8|2,1:2|0:2|1:2,0:0:0:0:
413,211,50888,2,0,P|384:191|335:176,1,70,10|0,0:2|1:2,0:0:0:0:
259,153,51174,1,8,0:2:0:0:
290,243,51316,1,0,1:2:0:0:
284,338,51459,1,8,0:2:0:0:
163,379,51602,6,0,P|100:371|31:332,1,125.999996154785,6|8,1:2|0:2,0:0:0:0:
40,259,52031,1,2,0:2:0:0:
40,259,52174,2,0,L|178:236,1,125.999996154785,2|8,1:2|0:2,0:0:0:0:
220,172,52602,1,2,0:2:0:0:
220,172,52745,6,0,P|217:135|206:101,1,62.9999980773926,2|0,1:2|0:0,0:0:0:0:
165,35,53031,2,0,L|86:12,1,62.9999980773926,10|0,0:2|0:0,0:0:0:0:
30,62,53316,1,2,1:2:0:0:
30,62,53459,1,0,1:2:0:0:
59,144,53602,2,0,L|119:161,1,62.9999980773926,10|0,0:2|0:2,0:0:0:0:
192,211,53888,6,0,P|230:198|265:194,1,62.9999980773926,2|0,1:2|0:0,0:0:0:0:
306,125,54174,2,0,P|328:158|341:191,1,62.9999980773926,10|0,0:2|0:0,0:0:0:0:
310,262,54459,2,0,P|326:301|350:329,1,62.9999980773926,2|0,1:2|1:2,0:0:0:0:
410,369,54745,2,0,P|440:337|468:321,1,62.9999980773926,10|0,0:2|0:2,0:0:0:0:
506,255,55031,1,6,1:2:0:0:
418,117,55316,5,8,0:2:0:0:
418,117,55459,1,8,0:2:0:0:
363,185,55602,1,8,0:2:0:0:
363,185,55745,1,8,0:2:0:0:
295,130,55888,1,8,0:2:0:0:
295,130,56031,1,8,0:2:0:0:
350,62,56174,5,6,1:2:0:0:
336,60,57316,5,6,1:2:0:0:
322,58,58459,5,6,1:2:0:0:
308,56,59030,1,4,1:2:0:0:
294,54,59601,1,10,0:2:0:0:
280,52,60459,5,8,0:3:0:0:
110,9,60745,6,0,L|33:41,2,70,6|2|10,1:2|0:2|0:2,0:0:0:0:
205,20,61174,2,0,B|194:93|194:93|204:120|204:120|197:162,1,140,2|2,1:2|1:2,0:0:0:0:
246,241,61602,1,8,0:2:0:0:
134,294,61745,6,0,B|83:306|38:285|38:285|8:243,1,140,2|0,1:2|1:2,0:0:0:0:
4,156,62174,2,0,P|35:130|72:113,1,70,10|0,0:2|0:2,0:0:0:0:
153,89,62459,2,0,P|188:121|222:134,1,70,2|0,1:2|1:2,0:0:0:0:
300,158,62745,1,10,0:2:0:0:
300,158,62888,1,2,0:2:0:0:
398,79,63031,6,0,B|451:72|500:96|500:96|520:149,1,140,2|10,1:2|0:2,0:0:0:0:
502,225,63459,1,0,1:2:0:0:
443,302,63602,2,0,P|472:331|515:350,2,70,2|2|8,0:2|1:2|0:2,0:0:0:0:
404,213,64031,6,0,P|368:241|273:286,1,140,2|0,1:2|1:2,0:0:0:0:
202,335,64459,2,0,L|184:246,1,70,10|0,0:2|0:2,0:0:0:0:
118,201,64745,2,0,L|49:261,1,70,2|0,1:2|1:2,0:0:0:0:
13,328,65031,2,0,L|99:356,1,70,10|0,0:2|0:2,0:0:0:0:
202,335,65316,6,0,L|184:246,2,70,2|2|10,1:2|0:2|0:2,0:0:0:0:
293,369,65745,2,0,P|337:360|429:324,1,140,2|2,1:2|1:2,0:0:0:0:
487,252,66174,1,8,0:2:0:0:
394,168,66316,6,0,B|361:157|325:154|325:154|291:170|245:168,1,140,2|0,1:2|1:2,0:0:0:0:
220,257,66745,2,0,L|138:243,1,70,10|0,0:2|0:2,0:0:0:0:
72,300,67031,2,0,L|23:232,1,70,2|0,1:2|1:2,0:0:0:0:
5,155,67316,1,10,0:2:0:0:
5,155,67459,1,2,0:2:0:0:
28,60,67602,6,0,P|60:24|152:20,1,140,2|10,1:2|0:2,0:0:0:0:
211,91,68031,1,0,0:2:0:0:
281,24,68174,2,0,P|316:11|364:13,2,70,2|2|8,1:2|1:2|0:2,0:0:0:0:
289,148,68602,6,0,B|311:240|311:240|354:264,1,140,6|0,1:2|1:2,0:0:0:0:
447,261,69031,2,0,P|477:235|495:189,1,70,8|2,0:2|3:2,0:0:0:0:
501,114,69316,1,2,1:2:0:0:
471,32,69459,1,8,0:2:0:0:
384,18,69602,1,8,0:2:0:0:
384,18,69674,1,8,0:3:0:0:
384,18,69745,1,4,0:3:0:0:
330,118,69888,6,0,L|357:191,2,70,6|2|10,1:2|3:2|1:2,0:0:0:0:
263,52,70316,2,0,P|201:47|151:105,1,140,2|2,3:2|3:2,0:0:0:0:
88,171,70745,2,0,L|5:157,1,70,8|2,0:2|3:2,0:0:0:0:
0,274,71031,6,0,L|69:285,1,70,2|2,1:2|3:2,0:0:0:0:
102,373,71316,1,10,0:2:0:0:
183,324,71459,2,0,L|346:351,1,140,2|2,3:2|3:2,0:0:0:0:
402,295,71888,2,0,P|398:256|376:220,1,70,8|2,0:2|3:2,0:0:0:0:
269,195,72174,6,0,P|246:232|218:255,2,70,2|2|10,1:2|3:2|0:2,0:0:0:0:
295,105,72602,2,0,B|337:130|337:130|393:136|438:120,1,140,2|2,3:2|3:2,0:0:0:0:
512,80,73031,2,0,P|501:43|483:14,1,70,8|2,0:2|3:2,0:0:0:0:
370,0,73316,6,0,L|356:81,1,70,2|2,1:2|3:2,0:0:0:0:
285,131,73602,1,10,0:2:0:0:
349,201,73745,2,0,P|414:211|492:241,1,140,2|2,3:2|3:2,0:0:0:0:
511,328,74174,2,0,P|473:339|429:340,1,70,8|2,0:2|3:2,0:0:0:0:
333,308,74459,6,0,P|331:346|319:387,2,70,2|2|10,1:2|3:2|0:2,0:0:0:0:
261,245,74888,2,0,B|194:238|194:238|123:258,1,140,2|2,3:2|3:2,0:0:0:0:
95,349,75316,1,8,0:2:0:0:
30,257,75459,6,0,B|9:235|1:212|1:212|14:172|22:118,1,140,2|0,3:2|3:2,0:0:0:0:
28,33,75888,2,0,P|74:28|105:18,1,70,10|0,0:2|3:2,0:0:0:0:
190,0,76174,2,0,P|243:8|263:17,1,70,2|0,1:2|3:2,0:0:0:0:
326,91,76459,1,10,0:2:0:0:
326,91,76602,1,2,0:2:0:0:
217,154,76745,6,0,P|223:211|238:306,1,140,2|10,1:2|0:2,0:0:0:0:
413,274,77316,2,0,P|412:313|404:356,1,70,2|2,1:2|3:2,0:0:0:0:
314,373,77602,1,8,0:2:0:0:
299,247,77745,6,0,P|306:206|397:136,1,140,6|0,1:2|1:2,0:0:0:0:
455,201,78174,1,8,0:2:0:0:
512,132,78316,1,0,1:2:0:0:
502,47,78459,1,8,0:2:0:0:
428,0,78602,1,0,1:2:0:0:
339,3,78745,2,0,L|329:49,3,35,8|8|8|8,0:2|0:2|0:2|0:2,0:0:0:0:
325,71,79031,6,0,P|353:128|358:204,2,140,6|14|2,1:2|3:2|1:2,0:0:0:0:
254,8,79745,1,0,1:2:0:0:
163,17,79888,2,0,L|93:24,1,70,10|0,3:2|0:2,0:0:0:0:
100,113,80174,6,0,L|259:95,2,140,2|10|2,1:2|3:2|1:2,0:0:0:0:
16,70,80888,1,0,1:2:0:0:
8,164,81031,2,0,P|10:205|22:249,1,70,10|0,3:2|0:2,0:0:0:0:
45,325,81316,5,2,1:2:0:0:
45,325,81459,1,0,1:2:0:0:
130,362,81602,2,0,L|211:354,1,70,10|0,3:2|0:2,0:0:0:0:
249,274,81888,1,2,1:2:0:0:
192,197,82031,2,0,L|122:203,1,70,2|8,1:2|0:2,0:0:0:0:
52,101,82316,6,0,B|71:52|71:52|108:27|157:30,1,140,2|0,0:2|1:2,0:0:0:0:
242,10,82745,2,0,P|262:51|282:78,1,70,8|0,0:2|0:2,0:0:0:0:
365,97,83031,2,0,P|352:148|352:183,1,70,0|0,1:2|1:2,0:0:0:0:
422,226,83316,2,0,P|435:277|435:312,1,70,8|0,0:2|0:2,0:0:0:0:
332,365,83602,6,0,B|277:360|277:360|256:342|256:342|198:335,2,140,2|10|0,1:2|0:2|1:2,0:0:0:0:
424,373,84316,1,0,1:2:0:0:
497,315,84459,2,0,L|493:234,1,70,10|0,0:2|0:2,0:0:0:0:
421,183,84745,2,0,P|431:143|453:113,1,70,2|0,1:2|1:2,0:0:0:0:
508,45,85031,2,0,P|479:26|434:16,1,70,10|0,0:2|0:2,0:0:0:0:
361,42,85316,6,0,L|295:36,2,46.6666666666667,10|8|8,0:2|0:2|0:2,0:0:0:0:
356,88,85602,2,0,L|290:82,2,46.6666666666667,10|8|8,0:3|0:3|0:3,0:0:0:0:
402,93,85888,5,6,1:2:0:0:
400,107,86459,1,6,1:2:0:0:
398,121,87031,2,0,B|386:249|386:249|330:269|297:344,1,251.999992309571,4|8,1:2|0:3,0:0:0:0:
128,371,88174,6,0,P|80:338|91:240,1,140,6|10,1:2|0:2,0:0:0:0:
12,185,88602,2,0,B|97:159|97:159|108:135|103:102,1,140,0|0,1:2|1:2,0:0:0:0:
66,22,89031,2,0,L|147:-3,1,70,10|0,0:2|1:2,0:0:0:0:
230,50,89316,6,0,P|278:69|320:73,1,70,10|0,0:2|1:2,0:0:0:0:
378,14,89602,2,0,P|385:65|403:103,1,70,10|0,0:2|1:2,0:0:0:0:
478,131,89888,2,0,P|437:163|413:197,1,70,10|0,0:2|1:2,0:0:0:0:
391,275,90174,1,8,0:2:0:0:
391,275,90316,1,0,1:2:0:0:
316,195,90459,6,0,B|277:161|277:161|233:168|180:158,1,140,8|8,0:2|0:2,0:0:0:0:
92,129,90888,2,0,P|96:178|82:276,1,140,0|0,1:2|1:2,0:0:0:0:
129,358,91316,2,0,P|174:379|202:383,1,70,8|0,0:2|1:2,0:0:0:0:
278,311,91602,6,0,L|360:328,1,70,8|0,0:2|1:2,0:0:0:0:
432,377,91888,2,0,L|449:295,1,70,8|0,0:2|1:2,0:0:0:0:
504,231,92174,1,8,0:2:0:0:
432,167,92316,1,0,1:2:0:0:
495,95,92459,1,8,0:2:0:0:
308,7,92745,6,0,B|268:39|263:98|263:98|305:136,1,140,6|10,1:2|0:2,0:0:0:0:
343,207,93174,2,0,B|256:226|256:226|235:209|203:202,1,140,0|0,1:2|1:2,0:0:0:0:
153,285,93602,2,0,P|167:320|172:361,1,70,10|0,0:2|1:2,0:0:0:0:
67,381,93888,6,0,L|-5:358,1,70,10|0,0:2|1:2,0:0:0:0:
0,261,94174,2,0,L|59:214,1,70,10|0,0:2|1:2,0:0:0:0:
8,132,94459,2,0,L|67:85,1,70,10|0,0:2|1:2,0:0:0:0:
126,16,94745,1,10,0:2:0:0:
126,16,94888,1,0,1:2:0:0:
167,119,95031,6,0,P|193:155|224:263,1,140,10|10,0:2|0:2,0:0:0:0:
343,356,95602,2,0,L|330:265,1,70,10|2,0:2|1:2,0:0:0:0:
307,192,95888,1,8,0:2:0:0:
222,245,96031,6,0,P|179:260|80:263,1,140,6|0,1:2|1:2,0:0:0:0:
67,359,96459,2,0,P|110:375|148:377,1,70,8|0,0:2|0:2,0:0:0:0:
226,340,96745,2,0,L|275:348,3,35,10|8|8|8,0:2|0:2|0:2|0:2,0:0:0:0:
286,369,97031,2,0,L|335:377,3,35,8|8|8|8,0:2|0:2|0:2|0:2,0:0:0:0:
354,380,97316,6,0,L|360:203,1,167.999994873047,6|2,1:2|0:2,0:0:0:0:
73,182,98459,2,0,L|79:5,1,167.999994873047,2|2,0:2|3:2,0:0:0:0:
166,248,99602,6,0,L|169:133,1,112,10|2,0:2|1:2,0:0:0:0:
260,204,100174,2,0,L|263:89,1,112,10|2,0:2|1:2,0:0:0:0:
354,160,100745,2,0,L|357:45,1,112,10|2,0:2|1:2,0:0:0:0:
490,11,101316,2,0,P|495:53|431:97,1,112,10|6,0:2|1:2,0:0:0:0:
