osu file format v14

[General]
AudioFilename: audio.mp3
AudioLeadIn: 0
PreviewTime: 60745
Countdown: 0
SampleSet: Soft
StackLeniency: 0.5
Mode: 0
LetterboxInBreaks: 0
WidescreenStoryboard: 1

[Editor]
DistanceSpacing: 0.8
BeatDivisor: 4
GridSize: 16
TimelineZoom: 1.7

[Metadata]
Title:Chicago
TitleUnicode:Chicago
Artist:Bentham
ArtistUnicode:Bentham
Creator:Nymphe
Version:Basen's Normal
Source:
Tags:Japanese J-rock Rock Male Vocal Reform Kujinn OnlyBiscuit Biskit Brotarks Entry Kiyoshi Guarden Pyrolized Basensorex my_angel_ram my angel ram cut short ver version
BeatmapID:2494148
BeatmapSetID:1187933

[Difficulty]
HPDrainRate:3.2
CircleSize:3.2
OverallDifficulty:4.2
ApproachRate:5.8
SliderMultiplier:1
SliderTickRate:1

[Events]
//Background and Video events
0,0,"bg.jpg",0,0
//Break Periods
//Storyboard Layer 0 (Background)
//Storyboard Layer 1 (Fail)
//Storyboard Layer 2 (Pass)
//Storyboard Layer 3 (Foreground)
//Storyboard Layer 4 (Overlay)
//Storyboard Sound Samples

[TimingPoints]
174,285.714285714286,4,2,22,72,1,0
10459,-111.111111111111,4,2,22,72,0,0
10959,-111.111111111111,4,2,22,5,0,0
11031,-111.111111111111,4,2,22,72,0,0
11388,-111.111111111111,4,2,22,5,0,0
11459,-111.111111111111,4,2,22,82,0,0
12174,-111.111111111111,4,2,22,72,0,0
13245,-111.111111111111,4,2,22,5,0,0
13316,-111.111111111111,4,2,22,72,0,0
13674,-111.111111111111,4,2,22,5,0,0
13745,-111.111111111111,4,2,22,72,0,0
14102,-111.111111111111,4,2,22,5,0,0
14174,-111.111111111111,4,2,22,72,0,0
15031,-100,4,2,22,82,0,0
18102,-100,4,2,22,5,0,0
18174,-100,4,2,22,82,0,0
18316,-100,4,2,22,72,0,0
19316,-100,4,2,22,52,0,0
19531,-100,4,2,22,5,0,0
19602,-100,4,2,22,82,0,0
26459,-100,4,2,22,72,0,0
27459,-100,4,2,22,82,0,0
27888,-100,4,2,22,72,0,0
28316,-100,4,2,22,62,0,0
28459,-100,4,2,22,52,0,0
28745,-111.111111111111,4,2,22,72,0,0
31031,-111.111111111111,4,2,22,82,0,0
33316,-111.111111111111,4,2,22,72,0,0
35602,-111.111111111111,4,2,22,82,0,0
37888,-125,4,2,22,52,0,0
39531,-125,4,2,22,5,0,0
39602,-125,4,2,22,52,0,0
40174,-125,4,2,22,62,0,0
41245,-125,4,2,22,5,0,0
41316,-125,4,2,22,62,0,0
41888,-111.111111111111,4,2,22,62,0,0
42459,-111.111111111111,4,2,22,72,0,0
44745,-111.111111111111,4,2,22,82,0,0
47031,-111.111111111111,4,2,22,72,0,0
49316,-111.111111111111,4,2,22,82,0,0
51602,-111.111111111111,4,2,22,72,0,0
55316,-111.111111111111,4,2,22,82,0,0
55602,-111.111111111111,4,2,22,87,0,0
55888,-111.111111111111,4,2,22,92,0,0
56174,-125,4,2,22,52,0,0
57816,-125,4,2,22,5,0,0
57888,-125,4,2,22,52,0,0
58459,-125,4,2,22,62,0,0
59531,-125,4,2,22,5,0,0
59602,-125,4,2,22,62,0,0
60745,-90.9090909090909,4,2,22,92,0,1
79031,-100,4,2,22,82,0,0
79245,-100,4,2,22,5,0,0
79316,-100,4,2,22,82,0,0
79816,-100,4,2,22,5,0,0
79887,-100,4,2,22,82,0,0
80388,-100,4,2,22,5,0,0
80459,-100,4,2,22,82,0,0
80959,-100,4,2,22,5,0,0
81030,-100,4,2,22,82,0,0
85888,-111.111111111111,4,2,22,52,0,0
88174,-90.9090909090908,4,2,22,92,0,0
95031,-90.9090909090908,4,2,22,82,0,0
96031,-90.9090909090908,4,2,22,92,0,0
97316,-125,4,2,22,52,0,0
99602,-111.111111111111,4,2,22,62,0,0
99816,-111.111111111111,4,2,22,5,0,0
99888,-111.111111111111,4,2,22,62,0,0
100102,-111.111111111111,4,2,22,5,0,0
100174,-111.111111111111,4,2,22,62,0,0
100388,-111.111111111111,4,2,22,5,0,0
100459,-111.111111111111,4,2,22,62,0,0
100673,-111.111111111111,4,2,22,5,0,0
100745,-111.111111111111,4,2,22,62,0,0
100959,-111.111111111111,4,2,22,5,0,0
101031,-111.111111111111,4,2,22,62,0,0
101245,-111.111111111111,4,2,22,5,0,0
101316,-111.111111111111,4,2,22,62,0,0
101530,-111.111111111111,4,2,22,5,0,0
101602,-111.111111111111,4,2,22,92,0,0

[Colours]
Combo1 : 0,0,221
Combo2 : 0,102,151
Combo3 : 167,162,63
Combo4 : 129,115,196

[HitObjects]
24,120,10459,6,0,B|72:79|128:97|128:97|148:135|192:138,1,179.999994506836,6|6,1:2|1:2,0:2:0:0:
255,24,11459,2,0,P|324:47|339:192,1,224.999993133545,6|8,1:2|0:2,0:2:0:0:
265,224,12459,1,8,0:2:0:0:
272,313,12745,6,0,B|345:319|345:319|368:346|368:346|441:352,1,179.999994506836,6|6,1:2|1:2,0:2:0:0:
509,237,13745,2,0,L|496:93,1,134.999995880127,6|8,1:2|0:2,0:2:0:0:
417,59,14459,2,8,P|351:90|287:61,1,134.999995880127,8|0,0:2|0:0,0:2:0:0:
253,42,15031,6,0,B|206:28|206:28|144:45,1,100,6|8,1:2|0:2,0:2:0:0:
67,86,15602,2,0,L|76:197,1,100,8|8,0:2|0:2,0:0:0:0:
123,215,16031,1,2,1:2:0:0:
123,215,16174,6,0,L|114:314,1,100,8|8,0:2|0:2,0:0:0:0:
201,364,16745,2,0,B|248:350|248:350|310:367,1,100,8|8,0:2|0:2,0:0:0:0:
375,300,17316,6,0,B|422:314|422:314|484:297,1,100,10|8,0:2|0:2,0:0:0:0:
511,208,17888,2,0,L|502:108,1,100,10|8,0:2|0:2,0:2:0:0:
491,59,18316,2,0,B|443:47|420:70|420:70|396:94|349:82,1,150,6|8,1:2|0:2,0:2:0:0:
271,18,19031,1,8,0:3:0:0:
271,18,19602,6,0,P|244:58|255:121,1,100,4|8,1:2|0:2,0:2:0:0:
273,151,20031,2,0,L|263:262,1,100,2|0,1:2|1:2,0:2:0:0:
257,303,20459,1,10,0:2:0:0:
257,303,20602,2,0,B|209:315|186:292|186:292|162:268|115:280,1,150,0|8,1:2|0:2,0:0:0:0:
31,226,21316,1,0,1:2:0:0:
31,125,21602,1,8,0:2:0:0:
115,70,21888,6,0,P|155:97|218:86,1,100,2|8,1:2|0:2,0:2:0:0:
254,102,22316,2,0,P|294:75|357:86,1,100,2|0,1:2|1:2,0:2:0:0:
391,108,22745,1,8,0:2:0:0:
391,108,22888,2,0,L|404:267,1,150,2|8,1:2|0:2,0:0:0:0:
337,331,23602,1,0,1:2:0:0:
251,278,23888,1,8,0:2:0:0:
168,334,24174,6,0,P|128:361|65:350,1,100,2|8,1:2|0:2,0:2:0:0:
32,337,24602,2,0,L|22:225,1,100,2|0,1:2|1:2,0:2:0:0:
20,191,25031,1,8,0:2:0:0:
20,191,25174,2,0,B|68:179|91:202|91:202|115:226|162:214,1,150,2|8,1:2|0:2,0:0:0:0:
249,166,25888,1,0,1:2:0:0:
214,71,26174,1,8,0:2:0:0:
300,20,26459,6,0,B|349:6|349:6|396:20,1,100,2|10,1:2|0:2,0:2:0:0:
481,73,27031,2,0,L|475:136,1,50,2|2,1:2|1:2,0:0:0:0:
445,162,27316,1,8,0:2:0:0:
445,162,27459,2,0,L|458:321,1,150,6|8,1:2|0:2,0:2:0:0:
371,362,28174,1,8,0:2:0:0:
286,308,28459,1,0,1:2:0:0:
202,361,28745,6,0,P|159:373|110:359,1,89.9999972534181,6|10,1:2|0:2,0:2:0:0:
36,319,29316,2,0,L|42:255,1,44.999998626709,2|2,1:2|0:2,0:2:0:0:
44,228,29602,1,10,0:2:0:0:
48,138,29888,2,0,P|91:126|140:140,1,89.9999972534181,2|10,1:2|0:2,0:2:0:0:
173,159,30316,1,2,1:2:0:0:
257,53,30745,1,2,3:2:0:0:
346,64,31031,6,0,L|441:72,1,89.9999972534181,6|10,1:2|0:2,0:0:0:0:
498,136,31602,1,2,1:2:0:0:
443,207,31888,2,0,L|448:270,1,44.999998626709,10|2,0:2|3:2,0:0:0:0:
416,285,32174,2,0,P|373:297|324:283,1,89.9999972534181,2|10,1:2|0:2,0:0:0:0:
287,271,32602,2,0,L|279:176,1,89.9999972534181,2|0,3:2|3:2,0:0:0:0:
275,136,33031,1,8,0:2:0:0:
231,57,33316,6,0,P|188:45|139:59,1,89.9999972534181,6|10,1:2|0:2,0:2:0:0:
65,97,33888,2,0,L|59:161,1,44.999998626709,2|2,1:2|0:2,0:2:0:0:
57,188,34173,1,10,0:2:0:0:
136,230,34459,2,0,L|144:325,1,89.9999972534181,2|10,1:2|0:2,0:2:0:0:
149,364,34887,1,2,1:2:0:0:
269,302,35316,1,10,0:2:0:0:
341,355,35602,6,0,L|436:347,1,89.9999972534181,6|10,1:2|0:2,0:0:0:0:
497,287,36173,1,2,1:2:0:0:
460,204,36459,2,0,L|465:141,1,44.999998626709,10|2,0:2|3:2,0:0:0:0:
463,113,36745,2,0,P|420:101|371:115,1,89.9999972534181,2|8,1:2|0:2,0:0:0:0:
337,90,37174,2,0,P|294:102|245:88,1,89.9999972534181,2|8,3:2|0:2,0:0:0:0:
211,69,37602,1,8,0:2:0:0:
137,17,37888,6,0,P|80:26|31:190,1,240,6|0,1:2|0:0,0:2:0:0:
77,249,39031,2,0,B|119:215|168:229|168:229|188:262|225:265,1,160,6|2,1:2|3:2,0:2:0:0:
284,206,39888,1,2,0:2:0:0:
343,271,40174,2,0,L|422:277,1,80,6|2,1:2|0:2,0:2:0:0:
493,224,40745,2,0,P|501:180|482:132,1,80,6|2,1:2|0:2,0:2:0:0:
448,69,41316,1,10,0:2:0:0:
448,69,41888,6,0,L|400:64,1,44.999998626709,8|8,0:2|0:3,0:0:0:0:
363,41,42174,2,0,L|315:45,1,44.999998626709,4|4,0:3|0:3,0:0:0:0:
273,52,42459,6,0,L|264:147,1,89.9999972534181,6|10,1:2|0:2,0:2:0:0:
317,215,43031,2,0,L|320:259,1,44.999998626709,2|2,1:2|0:2,0:2:0:0:
324,304,43316,1,10,0:2:0:0:
241,341,43602,2,0,P|198:329|149:343,1,89.9999972534181,2|10,1:2|0:2,0:2:0:0:
114,358,44030,1,2,1:2:0:0:
21,259,44459,1,8,0:2:0:0:
54,175,44745,6,0,L|45:79,1,89.9999972534181,6|2,1:2|1:2,0:0:0:0:
73,51,45174,1,10,0:2:0:0:
73,51,45316,2,0,B|118:39|118:39|168:51,1,89.9999972534181,2|2,1:2|1:2,0:0:0:0:
241,88,45888,2,0,B|286:100|286:100|336:88,1,89.9999972534181,2|2,1:2|1:2,0:0:0:0:
371,76,46316,2,0,L|379:171,1,89.9999972534181,10|8,0:2|0:2,0:0:0:0:
383,210,46745,1,0,1:2:0:0:
463,250,47031,6,0,L|455:345,1,89.9999972534181,6|10,1:2|0:2,0:2:0:0:
371,372,47602,2,0,P|336:359|312:357,1,44.999998626709,2|0,1:2|0:2,0:2:0:0:
283,351,47888,1,10,0:2:0:0:
193,356,48174,2,0,P|181:313|195:264,1,89.9999972534181,2|10,1:2|0:2,0:2:0:0:
213,231,48601,1,2,1:2:0:0:
163,105,49030,1,10,0:2:0:0:
227,42,49316,6,0,B|272:30|272:30|322:42,1,89.9999972534181,6|2,1:2|1:2,0:0:0:0:
360,61,49745,1,10,0:2:0:0:
360,61,49888,2,0,L|369:157,1,89.9999972534181,2|2,1:2|1:2,0:0:0:0:
435,210,50459,2,0,L|426:306,1,89.9999972534181,2|2,1:2|1:2,0:0:0:0:
394,331,50888,2,0,B|349:343|349:343|299:331,1,89.9999972534181,10|8,0:2|0:2,0:0:0:0:
263,321,51316,1,8,0:2:0:0:
176,346,51602,6,0,L|167:250,1,89.9999972534181,6|8,1:2|0:2,0:2:0:0:
236,197,52174,2,0,L|245:101,1,89.9999972534181,2|8,1:2|0:2,0:2:0:0:
224,73,52602,1,2,0:2:0:0:
224,73,52745,2,0,P|183:55|138:59,1,89.9999972534181,2|10,1:2|0:2,0:2:0:0:
62,107,53316,2,0,P|44:147|48:192,1,89.9999972534181,2|10,1:2|0:2,0:0:0:0:
106,261,53888,6,0,L|97:356,2,89.9999972534181,2|10|2,1:2|0:2|1:2,0:2:0:0:
182,212,54745,1,10,0:2:0:0:
253,266,55031,1,6,1:2:0:0:
327,215,55316,2,0,L|374:219,1,44.999998626709,8|8,0:2|0:2,0:0:0:0:
400,253,55602,2,0,L|447:248,1,44.999998626709,8|8,0:2|0:2,0:0:0:0:
489,244,55888,1,8,0:2:0:0:
502,156,56174,6,0,P|493:99|303:85,1,280,6|2,1:2|0:2,0:2:0:0:
270,95,57316,2,0,B|217:108|192:83|192:83|166:56|115:69,1,160,6|2,1:2|3:2,0:2:0:0:
40,107,58174,1,2,0:2:0:0:
83,184,58460,2,0,L|77:263,1,80,6|2,1:2|0:2,0:2:0:0:
132,332,59031,2,0,P|176:340|224:321,1,80,4|2,1:2|0:2,0:2:0:0:
287,290,59602,1,10,0:2:0:0:
287,290,60459,1,8,0:3:0:0:
363,353,60745,6,0,P|418:367|477:348,1,110.000003356934,6|10,1:2|0:2,0:0:0:0:
504,318,61174,2,0,L|494:206,1,110.000003356934,2|2,1:2|1:2,0:2:0:0:
452,193,61602,1,8,0:2:0:0:
452,193,61745,2,0,L|468:1,1,165.000005035401,2|10,1:2|0:2,0:2:0:0:
370,54,62459,1,2,1:2:0:0:
278,15,62745,2,0,L|198:21,1,55.0000016784668,10|2,0:2|0:2,0:0:0:0:
173,23,63031,6,0,P|154:76|168:137,1,110.000003356934,2|10,1:2|0:2,0:2:0:0:
238,193,63602,2,0,L|318:187,2,55.0000016784668,2|2|8,0:2|1:2|0:2,0:0:0:0:
212,235,64031,2,0,P|230:288|216:349,1,110.000003356934,2|0,1:2|1:2,0:2:0:0:
182,369,64459,1,10,0:2:0:0:
82,369,64745,1,2,1:2:0:0:
22,289,65031,1,10,0:2:0:0:
31,190,65316,6,0,L|41:78,1,110.000003356934,2|10,1:2|0:2,0:0:0:0:
82,53,65745,2,0,P|135:71|196:57,1,110.000003356934,2|2,1:2|1:2,0:2:0:0:
232,92,66173,1,8,0:2:0:0:
232,92,66316,2,0,P|308:65|397:86,1,165.000005035401,2|10,1:2|0:2,0:2:0:0:
470,138,67030,1,2,1:2:0:0:
462,236,67316,2,0,L|456:316,1,55.0000016784668,10|2,0:2|0:2,0:0:0:0:
451,340,67602,6,0,P|398:358|337:344,1,110.000003356934,2|10,1:2|0:2,0:2:0:0:
279,274,68174,2,0,L|285:194,2,55.0000016784668,2|2|8,1:2|1:2|0:2,0:0:0:0:
237,301,68602,2,0,P|184:283|123:297,1,110.000003356934,6|0,1:2|1:2,0:2:0:0:
83,302,69030,1,8,0:2:0:0:
26,220,69316,1,2,1:2:0:0:
76,135,69602,2,0,L|81:71,1,55.0000016784668,8|4,0:2|0:3,0:0:0:0:
84,30,69888,6,0,P|137:12|198:26,1,110.000003356934,6|10,1:2|1:2,0:0:0:0:
226,54,70316,2,0,L|216:165,1,110.000003356934,2|2,3:2|3:2,0:2:0:0:
210,266,70888,1,2,3:2:0:0:
210,266,71031,6,0,L|146:271,2,55.0000016784668,2|2|10,1:2|3:2|0:2,0:0:0:0:
251,293,71459,2,0,B|304:278|304:278|362:293,1,110.000003356934,2|2,3:2|3:2,0:2:0:0:
446,244,72031,1,2,3:2:0:0:
446,244,72174,6,0,L|436:132,1,110.000003356934,2|10,1:2|0:2,0:0:0:0:
427,85,72602,2,0,P|374:67|313:81,1,110.000003356934,2|2,3:2|3:2,0:2:0:0:
233,117,73174,1,2,3:2:0:0:
233,117,73316,6,0,L|238:180,2,55.0000016784668,2|2|10,1:2|3:2|0:2,0:0:0:0:
189,91,73745,2,0,B|135:76|135:76|77:91,1,110.000003356934,2|2,3:2|3:2,0:2:0:0:
18,165,74316,1,2,3:2:0:0:
18,165,74459,6,0,L|27:276,1,110.000003356934,2|10,1:2|0:2,0:0:0:0:
42,321,74888,2,0,P|95:303|156:317,1,110.000003356934,2|2,3:2|3:2,0:2:0:0:
199,326,75316,1,8,0:2:0:0:
199,326,75459,2,0,B|254:339|280:313|280:313|308:285|362:299,1,165.000005035401,2|10,3:2|0:2,0:0:0:0:
451,316,76174,1,2,1:2:0:0:
506,234,76459,2,0,L|500:170,1,55.0000016784668,10|2,0:2|0:2,0:0:0:0:
493,129,76745,6,0,P|440:111|379:125,1,110.000003356934,2|10,1:2|0:2,0:2:0:0:
309,180,77316,2,0,L|245:174,2,55.0000016784668,2|2|8,1:2|3:2|0:2,0:0:0:0:
333,223,77745,2,0,L|323:334,1,110.000003356934,6|0,1:2|1:2,0:2:0:0:
286,366,78174,1,8,0:2:0:0:
200,316,78459,1,8,0:2:0:0:
110,359,78745,2,0,P|80:364|48:358,1,55.0000016784668,8|8,0:2|0:2,0:0:0:0:
12,334,79031,6,0,L|2:222,1,100,6|14,1:2|3:2,0:2:0:0:
77,167,79602,2,0,L|85:67,1,100,2|10,1:2|3:2,0:2:0:0:
175,21,80174,1,2,1:2:0:0:
246,90,80459,1,10,3:2:0:0:
334,43,80745,2,0,P|382:29|437:45,1,100,2|10,1:2|3:2,0:2:0:0:
497,114,81316,6,0,L|488:213,1,100,2|10,1:2|3:2,0:0:0:0:
425,291,81888,2,0,L|430:354,2,50,2|2|8,1:2|1:2|0:2,0:0:0:0:
378,272,82316,2,0,B|340:236|291:255|291:255|269:283|233:287,1,150,2|8,0:2|0:2,0:2:0:0:
145,294,83031,2,0,P|117:290|93:278,1,50,0|0,1:2|1:2,0:0:0:0:
66,242,83316,1,8,0:2:0:0:
77,142,83602,5,2,1:2:0:0:
153,77,83888,2,0,B|238:84|238:84|265:115|265:115|350:122,1,200,10|10,0:2|0:2,0:2:0:0:
424,172,84745,2,0,L|414:283,1,100,2|10,1:2|0:2,0:2:0:0:
329,323,85316,1,10,0:2:0:0:
253,257,85602,1,10,0:3:0:0:
160,291,85888,6,0,B|145:233|173:206|173:206|201:177|187:121,2,179.999994506836,6|6|4,1:2|1:2|1:2,0:2:0:0:
160,291,87888,1,8,0:3:0:0:
230,360,88174,6,0,B|283:344|283:344|354:363,1,110.000003356934,6|10,1:2|0:2,0:0:0:0:
375,327,88602,1,0,1:2:0:0:
375,327,88745,2,0,B|428:342|428:342|499:323,1,110.000003356934,10|10,0:2|0:2,0:0:0:0:
511,234,89316,2,0,L|501:122,1,110.000003356934,10|10,0:2|0:2,0:0:0:0:
427,57,89888,1,10,0:2:0:0:
352,122,90174,1,8,0:2:0:0:
266,71,90459,6,0,B|212:55|212:55|141:74,1,110.000003356934,8|8,0:2|0:2,0:0:0:0:
82,131,91031,2,0,L|91:242,1,110.000003356934,8|8,0:2|0:2,0:0:0:0:
106,338,91602,1,8,0:2:0:0:
199,371,91888,1,8,0:2:0:0:
278,311,92174,2,0,L|389:301,1,110.000003356934,8|8,0:2|0:2,0:0:0:0:
470,355,92745,6,0,B|485:301|485:301|466:230,1,110.000003356934,6|10,1:2|0:2,0:0:0:0:
500,210,93173,1,0,1:2:0:0:
500,210,93316,2,0,B|484:156|484:156|503:85,1,110.000003356934,10|10,0:2|0:2,0:0:0:0:
422,39,93888,2,0,L|310:48,1,110.000003356934,10|10,0:2|0:2,0:0:0:0:
236,112,94459,1,10,0:2:0:0:
151,60,94745,1,10,0:2:0:0:
76,125,95031,6,0,L|85:236,1,110.000003356934,10|10,0:2|0:2,0:2:0:0:
122,326,95602,2,0,L|58:331,2,55.0000016784668,10|2|8,0:2|1:2|0:2,0:0:0:0:
167,345,96031,2,0,B|220:329|220:329|291:348,1,110.000003356934,6|0,1:2|1:2,0:2:0:0:
318,362,96459,1,8,0:2:0:0:
351,268,96745,2,8,L|345:204,1,55.0000016784668,10|8,0:2|0:2,0:2:0:0:
313,175,97031,2,8,L|318:111,1,55.0000016784668,8|8,0:2|0:2,0:2:0:0:
323,76,97316,6,0,P|357:28|457:27,1,160,6|2,1:2|0:2,0:2:0:0:
451,23,98459,2,0,L|435:198,1,160,2|2,0:2|3:2,0:0:0:0:
437,182,99602,6,0,P|371:168|333:181,1,89.9999972534181,10|2,0:2|1:2,0:2:0:0:
298,88,100174,2,0,P|252:138|245:177,1,89.9999972534181,10|2,0:2|1:2,0:2:0:0:
147,155,100745,2,0,P|167:219|198:245,1,89.9999972534181,10|2,0:2|1:2,0:2:0:0:
159,330,101316,1,10,0:2:0:0:
253,359,101602,1,6,1:2:0:0:
