osu file format v14

[General]
AudioFilename: audio.mp3
AudioLeadIn: 0
PreviewTime: 50965
Countdown: 0
SampleSet: Soft
StackLeniency: 0.5
Mode: 0
LetterboxInBreaks: 0
WidescreenStoryboard: 1

[Editor]
DistanceSpacing: 1
BeatDivisor: 2
GridSize: 32
TimelineZoom: 1

[Metadata]
Title:Chicago (Cut Ver.)
TitleUnicode:Chicago (Cut Ver.)
Artist:Bentham
ArtistUnicode:Bentham
Creator:Delette
Version:Normal
Source:
Tags:japanese rock j-rock 小関竜矢 ozeki tatsuya maruoko wenet wenect unranked mapper unranked_mapper djulus 228 aye1337
BeatmapID:2985000
BeatmapSetID:1407234

[Difficulty]
HPDrainRate:4
CircleSize:3
OverallDifficulty:4
ApproachRate:6
SliderMultiplier:1
SliderTickRate:1

[Events]
//Background and Video events
0,0,"bg.jpg",0,0
//Break Periods
2,87737,88772
//Storyboard Layer 0 (Background)
//Storyboard Layer 1 (Fail)
//Storyboard Layer 2 (Pass)
//Storyboard Layer 3 (Foreground)
//Storyboard Layer 4 (Overlay)
//Storyboard Sound Samples

[TimingPoints]
680,285.714285714286,4,2,1,70,1,0
8537,-100,4,2,1,70,0,0
8965,-100,4,2,1,70,0,0
9822,-100,4,2,1,75,0,0
18965,-100,4,2,1,65,0,0
21251,-100,4,2,1,75,0,1
23537,-100,4,2,1,65,0,0
25822,-100,4,2,1,75,0,1
28108,-100,4,2,1,70,0,0
32108,-100,4,2,1,70,0,0
32680,-100,4,2,1,65,0,0
34965,-100,4,2,1,75,0,1
37251,-100,4,2,1,65,0,0
39537,-100,4,2,1,75,0,1
41822,-100,4,2,1,70,0,0
50965,-100,4,2,1,80,0,1
52394,-100,4,2,1,80,0,0
60108,-100,4,2,1,80,0,1
61251,-100,4,2,1,80,0,0
62394,-100,4,2,1,80,0,1
63537,-100,4,2,1,80,0,0
64680,-100,4,2,1,80,0,1
66108,-100,4,2,1,80,0,0
69251,-100,4,2,1,80,0,0
76108,-100,4,2,1,80,0,0
78108,-100,4,2,1,80,0,0
78394,-100,4,2,1,75,0,0
87537,-100,4,2,1,70,0,0
89251,-100,4,2,1,70,0,0

[Colours]
Combo1 : 17,254,176
Combo2 : 173,255,95
Combo3 : 255,88,100
Combo4 : 255,94,55

[HitObjects]
104,219,680,6,0,P|59:170|148:73,1,200,4|4,3:1|3:1,0:0:0:0:
120,72,1680,1,4,3:2:0:0:
256,281,2394,2,0,L|315:274,1,50,8|8,0:1|0:1,0:0:0:0:
351,296,2680,2,0,L|412:289,1,50,8|8,0:2|0:2,0:0:0:0:
445,268,2965,6,0,P|442:197|302:190,1,200,4|4,3:1|3:2,0:0:0:0:
333,162,3965,1,4,3:2:0:0:
212,72,4394,1,8,0:1:0:0:
127,126,4680,2,0,P|144:185|157:253,1,100,8|8,0:2|0:2,0:0:0:0:
186,316,5251,6,0,B|234:284|234:284|284:296,2,100,6|0|2,3:1|1:0|1:1,0:0:0:0:
92,350,6108,1,0,1:0:0:0:
28,272,6394,2,0,L|34:158,1,100,2|2,1:1|1:3,0:0:0:0:
94,92,6965,2,0,L|218:99,1,100,2|2,1:3|1:3,0:0:0:0:
273,158,7537,2,0,P|296:108|278:39,2,100,2|0|2,1:1|1:0|1:1,0:0:0:0:
182,194,8394,1,0,1:0:0:0:
182,194,8537,2,0,L|194:324,1,100,4|0,3:2|3:0,0:0:0:0:
228,326,8965,2,0,P|270:329|300:338,1,50,8|4,0:1|3:3,0:0:0:0:
317,360,9251,1,8,3:3:0:0:
474,236,9822,6,0,P|411:246|347:249,1,100,4|8,3:1|0:2,0:0:0:0:
339,154,10394,2,0,P|289:176|281:237,1,100,0|8,0:0|0:2,0:0:0:0:
233,237,10822,1,2,3:1:0:0:
233,237,10965,2,0,P|173:225|113:223,1,100,0|8,0:0|0:2,0:0:0:0:
64,149,11537,2,0,L|59:80,1,50,0|2,3:0|3:1,0:0:0:0:
55,49,11822,1,8,0:2:0:0:
151,21,12108,6,0,L|160:158,1,100,0|8,3:0|0:2,0:0:0:0:
147,220,12680,2,0,P|206:224|265:236,1,100,0|8,0:0|0:2,0:0:0:0:
274,279,13108,1,2,3:1:0:0:
274,279,13251,2,0,P|325:300|374:256,1,100,0|8,0:0|0:2,0:0:0:0:
433,210,13822,2,0,L|438:141,1,50,0|2,3:0|3:1,0:0:0:0:
440,110,14107,1,8,0:2:0:0:
361,47,14394,6,0,B|316:83|316:83|252:63,1,100,0|8,3:0|0:2,0:0:0:0:
179,41,14965,2,0,L|195:155,1,100,0|8,0:0|0:2,0:0:0:0:
156,173,15394,1,2,3:1:0:0:
156,173,15537,2,0,P|120:224|134:281,1,100,0|8,0:0|0:2,0:0:0:0:
193,329,16108,2,0,L|251:341,1,50,2|2,3:3|3:3,0:0:0:0:
290,352,16394,1,8,0:2:0:0:
373,297,16680,6,0,B|422:270|422:270|485:300,2,100,2|8|2,3:1|0:2|3:1,0:0:0:0:
329,272,17394,2,0,P|328:246|323:212,1,50,0|8,3:0|0:2,0:0:0:0:
339,173,17680,2,0,P|341:114|349:55,1,100,4|0,3:2|3:0,0:0:0:0:
384,41,18108,2,0,B|427:44|427:44|444:67|444:67|492:72,2,100,8|8|4,0:1|0:1|3:3,0:0:0:0:
288,10,18965,6,0,P|240:21|172:22,1,100,4|8,3:1|0:2,0:0:0:0:
89,14,19537,2,0,P|62:55|15:104,1,100,0|8,3:0|0:2,0:0:0:0:
9,190,20108,1,2,3:2:0:0:
39,290,20394,1,8,0:2:0:0:
39,290,20537,2,0,B|111:295|111:295|139:320|139:320|205:325,1,150,2|4,3:2|0:2,0:0:0:0:
277,302,21251,6,0,L|392:318,1,100,4|2,3:1|1:1,0:0:0:0:
429,308,21680,1,2,0:3:0:0:
429,308,21822,2,0,L|413:199,1,100,2|0,3:1|1:0,0:0:0:0:
428,109,22394,2,0,P|440:70|445:38,2,50,2|2|0,3:2|0:3|1:0,0:0:0:0:
383,123,22822,1,2,0:1:0:0:
383,123,22965,1,0,3:0:0:0:
287,93,23251,1,0,1:0:0:0:
219,167,23537,6,0,P|169:159|107:157,1,100,4|8,3:1|0:2,0:0:0:0:
21,138,24108,2,0,P|22:83|31:28,1,100,0|8,3:0|0:2,0:0:0:0:
120,0,24680,1,2,3:2:0:0:
210,54,24965,1,8,0:2:0:0:
210,54,25108,2,0,B|294:78|294:78|364:14,1,150,2|4,3:2|0:2,0:0:0:0:
440,39,25822,6,0,P|443:111|452:169,1,100,4|2,3:1|1:1,0:0:0:0:
466,190,26251,1,2,0:3:0:0:
466,190,26394,2,0,P|436:219|367:201,1,100,2|2,3:1|1:1,0:0:0:0:
318,136,26965,2,0,L|207:126,1,100,2|0,3:2|1:0,0:0:0:0:
168,122,27394,1,4,0:2:0:0:
94,62,27680,1,8,0:2:0:0:
94,62,27822,2,0,P|60:88|48:107,1,50,8|8,0:2|0:2,0:0:0:0:
41,141,28108,6,0,P|54:219|70:376,1,200,4|2,3:1|0:3,0:0:0:0:
263,377,29251,2,0,P|252:267|235:158,1,200,4|2,3:1|0:3,0:0:0:0:
391,49,30394,2,0,B|440:33|440:33|489:69,1,100,4|0,3:2|0:0,0:0:0:0:
462,160,30965,2,0,B|412:175|412:175|364:139,1,100,4|0,3:2|0:0,0:0:0:0:
296,82,31537,1,8,0:2:0:0:
97,100,32108,2,0,P|73:79|45:68,2,50,8|8|4,0:1|3:3|3:3,0:0:0:0:
132,194,32680,6,0,L|250:185,1,100,4|8,3:1|0:2,0:0:0:0:
327,157,33251,2,0,P|369:193|364:251,1,100,0|8,3:0|0:2,0:0:0:0:
320,321,33822,1,2,3:2:0:0:
228,354,34108,1,8,0:2:0:0:
228,354,34251,2,0,B|182:364|141:328|174:314|132:274|80:289,1,150,2|8,3:2|0:2,0:0:0:0:
23,228,34965,6,0,P|28:193|27:160,1,50,4|0,3:1|1:0,0:0:0:0:
20,128,35251,1,2,3:1:0:0:
93,59,35537,2,0,P|148:67|222:84,1,100,2|0,3:1|3:0,0:0:0:0:
244,90,35965,1,0,1:0:0:0:
244,90,36108,1,2,3:2:0:0:
342,107,36394,1,0,3:0:0:0:
377,200,36680,2,0,P|322:208|248:225,1,100,0|0,3:0|3:0,0:0:0:0:
183,187,37251,6,0,B|151:226|151:226|159:287,1,100,4|8,3:1|0:2,0:0:0:0:
239,332,37822,2,0,L|361:343,1,100,0|8,3:0|0:2,0:0:0:0:
438,352,38394,1,2,3:2:0:0:
465,258,38680,1,8,0:2:0:0:
465,258,38822,2,0,P|459:211|499:85,1,150,2|8,3:2|0:2,0:0:0:0:
409,42,39537,6,0,P|365:51|338:51,1,50,4|0,3:1|1:0,0:0:0:0:
311,37,39822,1,2,3:1:0:0:
228,93,40108,2,0,P|155:78|110:78,1,100,2|0,3:1|3:0,0:0:0:0:
83,83,40537,1,0,1:0:0:0:
83,83,40680,1,2,3:2:0:0:
18,158,40965,1,0,3:0:0:0:
55,250,41251,2,0,P|127:235|172:235,1,100,0|0,3:0|1:0,0:0:0:0:
192,273,41680,1,0,1:0:0:0:
192,273,41822,6,0,B|248:258|248:258|300:290,1,100,4|8,3:1|0:2,0:0:0:0:
382,259,42394,2,0,P|382:218|393:130,1,100,2|8,3:1|0:2,0:0:0:0:
404,60,42965,2,0,P|452:69|486:123,2,100,2|10|2,3:2|0:2|3:2,0:0:0:0:
305,75,43822,1,8,0:2:0:0:
278,171,44108,6,0,L|295:282,2,100,2|8|2,3:1|0:2|3:2,0:0:0:0:
186,131,44965,1,8,0:2:0:0:
117,204,45251,2,0,P|64:192|35:146,1,100,4|8,3:2|0:2,0:0:0:0:
28,112,45680,1,8,0:2:0:0:
28,112,45822,2,0,L|38:50,1,50,0|0,1:0|1:0,0:0:0:0:
74,29,46108,2,0,L|136:39,1,50,8|8,0:1|0:1,0:0:0:0:
173,38,46394,6,0,P|257:25|396:22,1,200,4|2,3:1|0:3,0:0:0:0:
496,177,47537,2,0,P|412:164|273:161,1,200,4|2,3:1|0:3,0:0:0:0:
108,226,48680,2,0,B|91:280|91:280|131:324,1,100,4|0,3:2|0:0,0:0:0:0:
205,365,49251,2,0,B|240:325|240:325|223:271,1,100,4|0,3:2|0:0,0:0:0:0:
192,185,49822,1,8,0:2:0:0:
192,185,50680,1,8,3:3:0:0:
255,107,50965,6,0,P|333:113|353:151,1,100,6|8,3:1|0:2,0:0:0:0:
357,173,51394,1,2,3:1:0:0:
438,231,51680,1,0,3:0:0:0:
424,329,51965,2,0,P|365:339|300:356,1,100,2|0,3:1|3:0,0:0:0:0:
276,339,52394,2,0,B|227:363|227:363|171:326,1,100,10|2,0:2|3:2,0:0:0:0:
114,271,52965,1,8,0:2:0:0:
146,176,53251,6,0,L|134:57,1,100,2|8,3:1|0:2,0:0:0:0:
223,24,53822,1,2,0:1:0:0:
223,24,53965,1,0,3:0:0:0:
305,79,54251,2,0,P|369:72|430:75,1,100,2|0,3:1|3:0,0:0:0:0:
454,74,54680,1,8,0:2:0:0:
509,157,54965,1,0,3:0:0:0:
437,226,55251,1,8,0:2:0:0:
349,178,55537,6,0,P|294:171|239:172,1,100,2|8,3:1|0:2,0:0:0:0:
199,169,55965,1,2,3:1:0:0:
112,117,56251,1,0,3:0:0:0:
164,32,56537,2,0,P|218:38|273:37,1,100,2|0,3:1|3:0,0:0:0:0:
314,32,56965,2,0,P|374:23|416:58,2,100,10|2|8,0:2|3:2|0:2,0:0:0:0:
294,80,57680,1,0,0:0:0:0:
294,80,57822,6,0,L|288:189,1,100,2|8,3:2|0:2,0:0:0:0:
215,245,58394,1,2,3:2:0:0:
215,245,58537,2,0,L|128:240,1,50,0|8,3:0|0:2,0:0:0:0:
127,209,58822,2,0,P|59:189|9:252,1,150,4|8,3:2|0:1,0:0:0:0:
28,340,59537,1,0,3:0:0:0:
124,366,59822,2,0,L|210:361,1,50,8|4,3:3|3:3,0:0:0:0:
213,332,60108,5,6,3:1:0:0:
309,358,60394,1,8,0:2:0:0:
386,295,60680,1,0,3:0:0:0:
372,196,60965,1,8,0:2:0:0:
466,162,61251,2,0,P|490:98|495:42,1,100,2|8,3:2|0:2,0:0:0:0:
460,29,61680,2,0,B|409:17|409:17|367:55,1,100,2|2,3:2|3:2,0:0:0:0:
347,91,62108,1,8,0:2:0:0:
247,101,62394,5,2,3:1:0:0:
173,33,62680,1,8,0:2:0:0:
76,57,62965,1,0,3:0:0:0:
48,153,63251,1,8,0:2:0:0:
98,239,63537,2,0,P|158:220|222:207,1,100,2|8,3:2|0:2,0:0:0:0:
221,253,63965,2,0,B|265:287|265:287|315:266,1,100,2|2,3:2|3:2,0:0:0:0:
352,249,64394,1,8,0:2:0:0:
296,165,64680,6,0,P|298:111|304:48,1,100,2|8,3:1|0:2,0:0:0:0:
342,35,65108,1,2,0:1:0:0:
435,69,65394,1,2,0:1:0:0:
464,164,65680,6,0,P|468:213|469:263,1,100,2|0,0:1|0:0,0:0:0:0:
450,309,66108,2,0,P|394:320|359:289,1,100,10|2,0:2|3:2,0:0:0:0:
275,245,66680,2,0,P|270:269|266:294,1,50,8|0,0:2|0:0,0:0:0:0:
228,324,66965,6,0,P|180:331|154:372,1,100,2|8,3:1|0:2,0:0:0:0:
63,345,67537,1,2,3:1:0:0:
63,345,67680,1,0,3:0:0:0:
92,249,67965,2,0,B|142:193|142:193|118:112,1,150,4|12,3:1|0:2,0:0:0:0:
37,65,68680,1,12,0:2:0:0:
123,14,68965,2,0,L|184:22,1,50,8|8,0:2|0:2,0:0:0:0:
216,44,69251,6,0,P|235:66|260:147,1,100,6|8,3:1|0:2,0:0:0:0:
333,198,69822,2,0,P|346:150|376:110,1,100,2|8,3:1|0:2,0:0:0:0:
445,37,70394,2,0,B|487:71|487:71|482:124,2,100,2|10|2,3:2|0:2|3:2,0:0:0:0:
346,18,71251,1,8,0:2:0:0:
257,63,71537,6,0,P|202:53|152:48,1,100,2|8,3:1|0:2,0:0:0:0:
64,75,72108,1,0,3:0:0:0:
64,75,72251,1,2,3:1:0:0:
46,173,72537,2,0,P|51:231|60:289,1,100,2|0,0:1|3:0,0:0:0:0:
67,321,72965,1,8,0:2:0:0:
161,353,73251,2,0,B|207:329|207:329|261:345,1,100,0|8,3:0|0:2,0:0:0:0:
347,308,73822,6,0,P|415:330|458:362,2,100,2|10|0,3:1|0:2|3:0,0:0:0:0:
282,230,74680,2,0,P|277:172|275:115,1,100,10|2,0:2|3:1,0:0:0:0:
288,29,75251,1,8,0:2:0:0:
195,66,75537,2,0,L|95:86,1,100,8|8,0:2|3:3,0:0:0:0:
42,170,76108,2,0,P|78:226|13:331,2,200,4|4|4,3:1|3:1|3:2,0:0:0:0:
42,170,78108,1,8,3:3:0:0:
105,93,78394,6,0,L|202:113,1,100,4|2,3:1|1:3,0:0:0:0:
286,58,78965,2,0,L|392:76,1,100,2|2,1:3|1:3,0:0:0:0:
434,57,79394,1,0,3:0:0:0:
434,57,79537,2,0,P|486:103|476:148,1,100,2|2,1:3|1:3,0:0:0:0:
396,195,80108,1,2,1:3:0:0:
450,279,80394,1,0,1:0:0:0:
379,350,80680,6,0,B|326:359|326:359|287:330,1,100,2|2,1:3|1:3,0:0:0:0:
270,232,81251,2,0,B|217:223|217:223|178:252,1,100,2|2,1:3|1:3,0:0:0:0:
145,287,81680,1,0,3:0:0:0:
145,287,81822,2,0,L|44:297,1,100,2|2,1:3|1:3,0:0:0:0:
4,204,82394,1,2,1:3:0:0:
73,132,82680,1,2,1:3:0:0:
171,148,82965,6,0,P|196:94|207:49,1,100,4|2,1:1|1:3,0:0:0:0:
298,14,83537,2,0,P|311:62|333:107,1,100,2|2,1:3|1:3,0:0:0:0:
385,125,83965,1,0,3:0:0:0:
385,125,84108,2,0,P|426:147|442:200,1,100,2|2,1:3|1:3,0:0:0:0:
381,275,84680,1,2,1:3:0:0:
291,230,84965,1,0,1:0:0:0:
195,259,85251,6,0,P|205:312|210:372,2,100,2|0|2,1:1|1:0|1:1,0:0:0:0:
161,221,85965,2,0,L|88:211,1,50,0|0,3:0|1:0,0:0:0:0:
76,178,86251,2,0,P|45:120|103:56,1,150,4|8,3:2|0:1,0:0:0:0:
186,28,86965,2,0,L|251:36,1,50,8|8,0:2|0:2,0:0:0:0:
268,72,87251,2,0,L|333:64,1,50,8|8,0:2|0:2,0:0:0:0:
358,35,87537,1,4,3:1:0:0:
426,182,89822,6,0,P|477:214|490:258,1,100,8|0,0:1|3:0,0:0:0:0:
424,325,90394,2,0,L|315:315,1,100,8|0,0:1|3:0,0:0:0:0:
231,353,90965,2,0,L|122:363,1,100,8|0,0:1|3:0,0:0:0:0:
44,311,91537,1,0,3:0:0:0:
110,236,91822,1,2,3:3:0:0:
